osu file format v14

[General]
AudioFilename: audio.mp3
AudioLeadIn: 0
PreviewTime: 80771
Countdown: 0
SampleSet: Normal
StackLeniency: 0.7
Mode: 1
LetterboxInBreaks: 0
SkinPreference:taiko
WidescreenStoryboard: 1

[Editor]
Bookmarks: 2771,13571,23171,32771,42371,51971,71171,80771,90371,99971,119171,128771,143171
DistanceSpacing: 0.5
BeatDivisor: 4
GridSize: 32
TimelineZoom: 3.800002

[Metadata]
Title:New Game Plus
TitleUnicode:New Game Plus
Artist:Kobaryo
ArtistUnicode:Kobaryo
Creator:OnosakiHito
Version:Oni
Source:700 OVER!!
Tags:Psycho Filth Records electronic
BeatmapID:0
BeatmapSetID:823554

[Difficulty]
HPDrainRate:5
CircleSize:5
OverallDifficulty:6
ApproachRate:5
SliderMultiplier:1.4
SliderTickRate:1

[Events]
//Background and Video events
0,0,"BG.png",0,80
//Break Periods
//Storyboard Layer 0 (Background)
//Storyboard Layer 1 (Fail)
//Storyboard Layer 2 (Pass)
//Storyboard Layer 3 (Foreground)
//Storyboard Layer 4 (Overlay)
//Storyboard Sound Samples

[TimingPoints]
2771,300,4,1,0,80,1,0
13571,150,8,1,0,80,1,1
13571,-158.730158730159,4,1,0,80,0,1
32771,150,16,1,0,80,1,0
32771,-158.730158730159,7,1,0,80,0,0
34871,-50,4,1,0,80,0,0
35021,-158.730158730159,4,1,0,80,0,0
39671,-50,4,1,0,80,0,0
39821,-158.730158730159,4,1,0,80,0,0
42071,-100,7,1,0,80,0,0
42371,300,4,1,0,80,1,0
51671,-33.3333333333333,4,1,0,80,0,0
51971,600,4,1,0,80,1,1
60371,-50,4,1,0,100,0,1
71171,300,4,1,0,80,1,0
71171,-33.3333333333333,4,1,0,80,0,0
72371,-100,4,1,0,80,0,0
80771,-66.6666666666667,4,1,0,80,0,0
90521,-100,4,1,0,80,0,0
91571,-66.6666666666667,4,1,0,80,0,0
91721,-100,4,1,0,80,0,0
92771,-66.6666666666667,4,1,0,80,0,0
92921,-100,4,1,0,80,0,0
93971,-66.6666666666667,4,1,0,80,0,0
94121,-100,4,1,0,80,0,0
95171,-66.6666666666667,4,1,0,80,0,0
95321,-100,4,1,0,80,0,0
95396,-98.0392156862745,4,1,0,80,0,0
95471,-96.1538461538461,4,1,0,80,0,0
95546,-94.3396226415094,4,1,0,80,0,0
95621,-92.5925925925926,4,1,0,80,0,0
95696,-90.9090909090909,4,1,0,80,0,0
95771,-89.2857142857143,4,1,0,80,0,0
95846,-87.719298245614,4,1,0,80,0,0
95921,-86.2068965517241,4,1,0,80,0,0
95996,-84.7457627118644,4,1,0,80,0,0
96071,-83.3333333333333,4,1,0,80,0,0
96146,-81.9672131147541,4,1,0,80,0,0
96221,-80.6451612903226,4,1,0,80,0,0
96296,-79.3650793650794,4,1,0,80,0,0
96371,-78.125,4,1,0,80,0,0
96446,-76.9230769230769,4,1,0,80,0,0
96521,-75.7575757575758,4,1,0,80,0,0
96596,-74.6268656716418,4,1,0,80,0,0
96671,-73.5294117647059,4,1,0,80,0,0
96746,-72.463768115942,4,1,0,80,0,0
96821,-71.4285714285714,4,1,0,80,0,0
96896,-70.4225352112676,4,1,0,80,0,0
96971,-69.4444444444444,4,1,0,80,0,0
97046,-68.4931506849315,4,1,0,80,0,0
97121,-67.5675675675676,4,1,0,80,0,0
97196,-66.6666666666667,4,1,0,80,0,0
97271,-65.7894736842105,4,1,0,80,0,0
97346,-64.9350649350649,4,1,0,80,0,0
97421,-64.1025641025641,4,1,0,80,0,0
97496,-63.2911392405063,4,1,0,80,0,0
97571,-62.5,4,1,0,80,0,0
97646,-61.7283950617284,4,1,0,80,0,0
97721,-60.9756097560976,4,1,0,80,0,0
97796,-60.2409638554217,4,1,0,80,0,0
97871,-58.8235294117647,4,1,0,80,0,0
98171,-55.5555555555556,4,1,0,80,0,0
98471,-52.6315789473684,4,1,0,80,0,0
99671,-33.3333333333333,4,1,0,80,0,0
99971,150,8,1,0,80,1,1
99971,-158.730158730159,4,1,0,80,0,1
119171,150,16,1,0,80,1,0
119171,-158.730158730159,4,1,0,80,0,0
121271,-50,4,1,0,80,0,0
121421,-158.730158730159,4,1,0,80,0,0
126071,-50,4,1,0,80,0,0
126221,-158.730158730159,4,1,0,80,0,0
128471,-100,4,1,0,80,0,0
128771,300,4,1,0,80,1,0
147671,-25,4,1,0,80,0,0

[HitObjects]
256,192,2771,5,0,0:0:0:0:
256,192,3071,1,8,0:0:0:0:
256,192,3221,1,8,0:0:0:0:
256,192,3296,1,8,0:0:0:0:
256,192,3371,1,8,0:0:0:0:
256,192,3521,1,8,0:0:0:0:
256,192,3671,1,8,0:0:0:0:
256,192,3746,1,8,0:0:0:0:
256,192,3821,1,8,0:0:0:0:
256,192,3971,5,0,0:0:0:0:
256,192,4271,5,8,0:0:0:0:
256,192,4421,1,8,0:0:0:0:
256,192,4496,1,8,0:0:0:0:
256,192,4571,1,8,0:0:0:0:
256,192,4721,1,8,0:0:0:0:
256,192,4871,1,8,0:0:0:0:
256,192,5171,1,8,0:0:0:0:
256,192,5321,1,8,0:0:0:0:
256,192,5471,1,8,0:0:0:0:
256,192,5546,1,8,0:0:0:0:
256,192,5696,1,8,0:0:0:0:
256,192,5846,1,8,0:0:0:0:
256,192,5921,1,8,0:0:0:0:
256,192,6071,1,8,0:0:0:0:
256,192,6221,1,8,0:0:0:0:
256,192,6371,1,8,0:0:0:0:
256,192,6446,1,8,0:0:0:0:
256,192,6521,1,8,0:0:0:0:
256,192,6671,1,8,0:0:0:0:
256,192,6821,1,8,0:0:0:0:
256,192,6896,1,8,0:0:0:0:
256,192,7046,1,8,0:0:0:0:
256,192,7121,1,8,0:0:0:0:
256,192,7196,1,8,0:0:0:0:
256,192,7271,1,8,0:0:0:0:
256,192,7421,1,8,0:0:0:0:
256,192,7571,5,0,0:0:0:0:
256,192,7871,5,8,0:0:0:0:
256,192,8021,1,8,0:0:0:0:
256,192,8096,1,8,0:0:0:0:
256,192,8171,1,8,0:0:0:0:
256,192,8321,1,8,0:0:0:0:
256,192,8471,1,8,0:0:0:0:
256,192,8771,5,0,0:0:0:0:
256,192,9071,5,8,0:0:0:0:
256,192,9221,1,8,0:0:0:0:
256,192,9296,1,8,0:0:0:0:
256,192,9371,1,8,0:0:0:0:
256,192,9521,1,8,0:0:0:0:
256,192,9671,1,8,0:0:0:0:
256,192,9746,1,8,0:0:0:0:
256,192,9821,1,8,0:0:0:0:
256,192,9971,5,0,0:0:0:0:
256,192,10121,5,8,0:0:0:0:
256,192,10271,1,8,0:0:0:0:
256,192,10346,1,8,0:0:0:0:
256,192,10496,1,8,0:0:0:0:
256,192,10646,1,8,0:0:0:0:
256,192,10721,1,8,0:0:0:0:
256,192,10871,1,8,0:0:0:0:
256,192,11021,1,8,0:0:0:0:
256,192,11171,5,0,0:0:0:0:
256,192,11321,5,8,0:0:0:0:
256,192,11396,1,8,0:0:0:0:
256,192,11471,1,8,0:0:0:0:
256,192,11621,1,8,0:0:0:0:
256,192,11771,5,0,0:0:0:0:
256,192,11921,5,8,0:0:0:0:
256,192,11996,1,8,0:0:0:0:
256,192,12071,1,8,0:0:0:0:
256,192,12146,1,8,0:0:0:0:
256,192,12221,1,8,0:0:0:0:
256,192,12371,5,4,0:0:0:0:
256,192,13571,5,0,0:0:0:0:
256,192,13646,5,8,0:0:0:0:
256,192,13721,5,0,0:0:0:0:
256,192,13871,5,8,0:0:0:0:
256,192,14021,5,0,0:0:0:0:
256,192,14096,5,8,0:0:0:0:
256,192,14246,1,8,0:0:0:0:
256,192,14321,5,0,0:0:0:0:
256,192,14471,5,8,0:0:0:0:
256,192,14621,5,0,0:0:0:0:
256,192,14771,5,8,0:0:0:0:
256,192,14846,5,0,0:0:0:0:
256,192,14921,5,8,0:0:0:0:
256,192,15071,5,0,0:0:0:0:
256,192,15221,5,8,0:0:0:0:
256,192,15296,5,0,0:0:0:0:
256,192,15446,1,0,0:0:0:0:
256,192,15521,5,8,0:0:0:0:
256,192,15671,5,0,0:0:0:0:
256,192,15971,5,0,0:0:0:0:
256,192,16046,5,8,0:0:0:0:
256,192,16121,5,0,0:0:0:0:
256,192,16271,5,8,0:0:0:0:
256,192,16421,5,0,0:0:0:0:
256,192,16496,5,8,0:0:0:0:
256,192,16646,1,8,0:0:0:0:
256,192,16721,5,0,0:0:0:0:
256,192,16871,5,8,0:0:0:0:
256,192,17021,5,0,0:0:0:0:
256,192,17171,5,8,0:0:0:0:
256,192,17246,5,0,0:0:0:0:
256,192,17321,5,8,0:0:0:0:
256,192,17471,5,0,0:0:0:0:
256,192,17621,5,8,0:0:0:0:
256,192,17696,5,0,0:0:0:0:
256,192,17771,5,8,0:0:0:0:
256,192,17846,5,0,0:0:0:0:
256,192,17921,5,8,0:0:0:0:
256,192,18071,1,8,0:0:0:0:
256,192,18221,1,8,0:0:0:0:
256,192,18371,5,0,0:0:0:0:
256,192,18446,5,8,0:0:0:0:
256,192,18521,5,0,0:0:0:0:
256,192,18671,5,8,0:0:0:0:
256,192,18821,5,0,0:0:0:0:
256,192,18896,5,8,0:0:0:0:
256,192,19046,1,8,0:0:0:0:
256,192,19121,5,0,0:0:0:0:
256,192,19271,5,8,0:0:0:0:
256,192,19421,5,0,0:0:0:0:
256,192,19571,5,8,0:0:0:0:
256,192,19646,5,0,0:0:0:0:
256,192,19721,5,8,0:0:0:0:
256,192,19871,5,0,0:0:0:0:
256,192,20021,5,8,0:0:0:0:
256,192,20096,5,0,0:0:0:0:
256,192,20246,1,0,0:0:0:0:
256,192,20321,5,8,0:0:0:0:
256,192,20471,5,0,0:0:0:0:
256,192,20771,5,0,0:0:0:0:
256,192,20846,5,8,0:0:0:0:
256,192,20921,5,0,0:0:0:0:
256,192,21071,5,8,0:0:0:0:
256,192,21221,5,0,0:0:0:0:
256,192,21296,5,8,0:0:0:0:
256,192,21446,1,8,0:0:0:0:
256,192,21521,5,0,0:0:0:0:
256,192,21671,5,8,0:0:0:0:
256,192,21821,5,0,0:0:0:0:
256,192,21971,5,8,0:0:0:0:
256,192,22046,1,8,0:0:0:0:
256,192,22121,5,0,0:0:0:0:
256,192,22196,1,0,0:0:0:0:
256,192,22271,5,8,0:0:0:0:
256,192,22346,1,8,0:0:0:0:
256,192,22421,5,0,0:0:0:0:
256,192,22571,5,12,0:0:0:0:
256,192,22871,1,12,0:0:0:0:
256,192,23171,5,0,0:0:0:0:
256,192,23246,5,8,0:0:0:0:
256,192,23321,5,0,0:0:0:0:
256,192,23471,5,8,0:0:0:0:
256,192,23621,5,0,0:0:0:0:
256,192,23696,5,8,0:0:0:0:
256,192,23846,1,8,0:0:0:0:
256,192,23921,5,0,0:0:0:0:
256,192,24071,5,8,0:0:0:0:
256,192,24146,5,0,0:0:0:0:
256,192,24221,5,8,0:0:0:0:
256,192,24371,5,0,0:0:0:0:
256,192,24446,5,8,0:0:0:0:
256,192,24521,5,0,0:0:0:0:
256,192,24671,5,8,0:0:0:0:
256,192,24821,5,0,0:0:0:0:
256,192,24896,5,8,0:0:0:0:
256,192,25046,1,8,0:0:0:0:
256,192,25121,5,0,0:0:0:0:
256,192,25271,5,8,0:0:0:0:
256,192,25571,5,0,0:0:0:0:
256,192,25646,5,8,0:0:0:0:
256,192,25721,5,0,0:0:0:0:
256,192,25871,5,8,0:0:0:0:
256,192,26021,5,0,0:0:0:0:
256,192,26096,5,8,0:0:0:0:
256,192,26246,1,8,0:0:0:0:
256,192,26321,5,0,0:0:0:0:
256,192,26471,5,8,0:0:0:0:
256,192,26546,5,0,0:0:0:0:
256,192,26621,5,8,0:0:0:0:
256,192,26771,5,0,0:0:0:0:
256,192,26846,5,8,0:0:0:0:
256,192,26921,5,0,0:0:0:0:
256,192,26996,5,8,0:0:0:0:
256,192,27071,5,0,0:0:0:0:
256,192,27221,5,8,0:0:0:0:
256,192,27371,5,0,0:0:0:0:
256,192,27521,1,0,0:0:0:0:
256,192,27671,5,8,0:0:0:0:
256,192,27821,1,8,0:0:0:0:
256,192,27971,5,0,0:0:0:0:
256,192,28046,5,8,0:0:0:0:
256,192,28121,5,0,0:0:0:0:
256,192,28271,5,8,0:0:0:0:
256,192,28421,5,0,0:0:0:0:
256,192,28496,5,8,0:0:0:0:
256,192,28646,1,8,0:0:0:0:
256,192,28721,5,0,0:0:0:0:
256,192,28871,5,8,0:0:0:0:
256,192,28946,5,0,0:0:0:0:
256,192,29021,5,8,0:0:0:0:
256,192,29171,5,0,0:0:0:0:
256,192,29246,5,8,0:0:0:0:
256,192,29321,5,0,0:0:0:0:
256,192,29471,5,8,0:0:0:0:
256,192,29621,5,0,0:0:0:0:
256,192,29696,5,8,0:0:0:0:
256,192,29846,1,8,0:0:0:0:
256,192,29921,5,0,0:0:0:0:
256,192,30071,5,8,0:0:0:0:
256,192,30371,5,0,0:0:0:0:
256,192,30446,5,8,0:0:0:0:
256,192,30521,5,0,0:0:0:0:
256,192,30671,5,8,0:0:0:0:
256,192,30821,5,0,0:0:0:0:
256,192,30896,5,8,0:0:0:0:
256,192,31046,1,8,0:0:0:0:
256,192,31121,5,0,0:0:0:0:
256,192,31271,5,8,0:0:0:0:
256,192,31346,5,0,0:0:0:0:
256,192,31421,5,8,0:0:0:0:
256,192,31571,5,0,0:0:0:0:
256,192,31721,5,0,0:0:0:0:
256,192,31871,5,8,0:0:0:0:
256,192,32021,5,0,0:0:0:0:
256,192,32171,5,12,0:0:0:0:
256,192,32471,1,12,0:0:0:0:
256,192,32771,5,0,0:0:0:0:
256,192,32921,1,0,0:0:0:0:
256,192,32996,1,0,0:0:0:0:
256,192,33071,1,0,0:0:0:0:
256,192,33221,1,0,0:0:0:0:
256,192,33296,1,0,0:0:0:0:
256,192,33371,1,0,0:0:0:0:
256,192,33446,1,0,0:0:0:0:
256,192,33521,1,0,0:0:0:0:
256,192,33671,1,0,0:0:0:0:
256,192,33821,1,0,0:0:0:0:
256,192,33971,1,0,0:0:0:0:
256,192,34121,1,0,0:0:0:0:
256,192,34196,1,0,0:0:0:0:
256,192,34271,1,0,0:0:0:0:
256,192,34421,1,0,0:0:0:0:
256,192,34496,1,0,0:0:0:0:
256,192,34571,1,0,0:0:0:0:
256,192,34646,1,0,0:0:0:0:
256,192,34721,1,0,0:0:0:0:
256,192,34871,5,12,0:0:0:0:
256,192,35171,5,8,0:0:0:0:
256,192,35321,1,8,0:0:0:0:
256,192,35396,1,8,0:0:0:0:
256,192,35471,1,8,0:0:0:0:
256,192,35621,1,8,0:0:0:0:
256,192,35696,1,8,0:0:0:0:
256,192,35771,1,8,0:0:0:0:
256,192,35846,1,8,0:0:0:0:
256,192,35921,1,8,0:0:0:0:
256,192,36071,1,8,0:0:0:0:
256,192,36221,1,8,0:0:0:0:
256,192,36371,1,8,0:0:0:0:
256,192,36521,1,8,0:0:0:0:
256,192,36596,1,8,0:0:0:0:
256,192,36671,1,8,0:0:0:0:
256,192,36821,1,8,0:0:0:0:
256,192,36971,1,12,0:0:0:0:
256,192,37271,1,8,0:0:0:0:
256,192,37571,5,0,0:0:0:0:
256,192,37721,1,0,0:0:0:0:
256,192,37796,1,0,0:0:0:0:
256,192,37871,1,0,0:0:0:0:
256,192,38021,1,0,0:0:0:0:
256,192,38096,1,0,0:0:0:0:
256,192,38171,1,0,0:0:0:0:
256,192,38246,1,0,0:0:0:0:
256,192,38321,1,0,0:0:0:0:
256,192,38471,1,0,0:0:0:0:
256,192,38621,1,0,0:0:0:0:
256,192,38771,1,0,0:0:0:0:
256,192,38921,1,0,0:0:0:0:
256,192,38996,1,0,0:0:0:0:
256,192,39071,1,0,0:0:0:0:
256,192,39221,1,0,0:0:0:0:
256,192,39296,1,0,0:0:0:0:
256,192,39371,1,0,0:0:0:0:
256,192,39446,1,0,0:0:0:0:
256,192,39521,1,0,0:0:0:0:
256,192,39671,5,12,0:0:0:0:
256,192,39971,5,8,0:0:0:0:
256,192,40121,1,8,0:0:0:0:
256,192,40196,1,8,0:0:0:0:
256,192,40271,1,8,0:0:0:0:
256,192,40421,1,8,0:0:0:0:
256,192,40496,1,8,0:0:0:0:
256,192,40571,1,8,0:0:0:0:
256,192,40646,1,8,0:0:0:0:
256,192,40721,1,8,0:0:0:0:
256,192,40871,1,8,0:0:0:0:
256,192,41021,1,8,0:0:0:0:
256,192,41171,1,8,0:0:0:0:
256,192,41321,1,8,0:0:0:0:
256,192,41396,1,8,0:0:0:0:
256,192,41471,1,8,0:0:0:0:
256,192,41621,1,8,0:0:0:0:
256,192,41771,1,12,0:0:0:0:
256,192,42071,1,8,0:0:0:0:
256,192,42371,5,4,0:0:0:0:
256,192,42671,5,8,0:0:0:0:
256,192,42821,5,0,0:0:0:0:
256,192,42971,5,8,0:0:0:0:
256,192,43121,5,0,0:0:0:0:
256,192,43271,5,8,0:0:0:0:
256,192,43421,5,0,0:0:0:0:
256,192,43571,5,8,0:0:0:0:
256,192,43721,5,0,0:0:0:0:
256,192,43871,5,8,0:0:0:0:
256,192,44021,5,0,0:0:0:0:
256,192,44171,5,8,0:0:0:0:
256,192,44246,1,8,0:0:0:0:
256,192,44321,5,0,0:0:0:0:
256,192,44396,1,0,0:0:0:0:
256,192,44471,5,8,0:0:0:0:
256,192,44546,1,8,0:0:0:0:
256,192,44621,5,0,0:0:0:0:
256,192,44696,1,0,0:0:0:0:
256,192,44771,5,8,0:0:0:0:
256,192,45071,5,8,0:0:0:0:
256,192,45221,5,0,0:0:0:0:
256,192,45371,5,8,0:0:0:0:
256,192,45521,5,0,0:0:0:0:
256,192,45671,5,8,0:0:0:0:
256,192,45821,5,0,0:0:0:0:
256,192,45971,5,8,0:0:0:0:
256,192,46121,5,0,0:0:0:0:
256,192,46271,5,8,0:0:0:0:
256,192,46421,5,0,0:0:0:0:
256,192,46571,5,8,0:0:0:0:
256,192,46646,1,8,0:0:0:0:
256,192,46721,5,0,0:0:0:0:
256,192,46796,1,0,0:0:0:0:
256,192,46871,5,8,0:0:0:0:
256,192,46946,1,8,0:0:0:0:
256,192,47021,5,0,0:0:0:0:
256,192,47096,1,0,0:0:0:0:
256,192,47171,5,8,0:0:0:0:
256,192,47471,5,8,0:0:0:0:
256,192,47621,5,0,0:0:0:0:
256,192,47696,1,0,0:0:0:0:
256,192,47771,5,8,0:0:0:0:
256,192,47921,5,0,0:0:0:0:
256,192,48071,5,8,0:0:0:0:
256,192,48371,5,8,0:0:0:0:
256,192,48521,5,0,0:0:0:0:
256,192,48596,1,0,0:0:0:0:
256,192,48671,5,8,0:0:0:0:
256,192,48821,5,0,0:0:0:0:
256,192,48971,5,8,0:0:0:0:
256,192,49046,1,8,0:0:0:0:
256,192,49121,5,0,0:0:0:0:
256,192,49196,1,0,0:0:0:0:
256,192,49271,5,8,0:0:0:0:
256,192,49346,1,8,0:0:0:0:
256,192,49421,5,0,0:0:0:0:
256,192,49496,1,0,0:0:0:0:
256,192,49571,5,8,0:0:0:0:
256,192,49871,5,8,0:0:0:0:
256,192,50021,5,0,0:0:0:0:
256,192,50171,5,8,0:0:0:0:
256,192,50246,1,8,0:0:0:0:
256,192,50321,5,0,0:0:0:0:
256,192,50396,1,0,0:0:0:0:
256,192,50471,5,8,0:0:0:0:
256,192,51671,5,12,0:0:0:0:
256,192,51971,5,0,0:0:0:0:
256,192,52271,1,0,0:0:0:0:
256,192,52421,1,0,0:0:0:0:
256,192,52571,5,8,0:0:0:0:
256,192,52721,5,0,0:0:0:0:
256,192,53021,1,0,0:0:0:0:
256,192,53471,1,0,0:0:0:0:
256,192,53621,1,0,0:0:0:0:
256,192,53771,5,8,0:0:0:0:
256,192,54071,1,0,0:0:0:0:
256,192,54221,1,0,0:0:0:0:
256,192,54371,1,0,0:0:0:0:
256,192,54671,1,0,0:0:0:0:
256,192,54821,1,0,0:0:0:0:
256,192,54971,5,8,0:0:0:0:
256,192,55121,5,0,0:0:0:0:
256,192,55421,1,0,0:0:0:0:
256,192,55721,1,0,0:0:0:0:
256,192,55871,1,0,0:0:0:0:
256,192,56021,1,0,0:0:0:0:
256,192,56171,5,8,0:0:0:0:
256,192,56321,5,0,0:0:0:0:
256,192,56471,1,0,0:0:0:0:
256,192,56771,5,0,0:0:0:0:
256,192,57071,1,0,0:0:0:0:
256,192,57221,1,0,0:0:0:0:
256,192,57371,5,8,0:0:0:0:
256,192,57521,5,0,0:0:0:0:
256,192,57821,1,0,0:0:0:0:
256,192,58271,1,0,0:0:0:0:
256,192,58421,1,0,0:0:0:0:
256,192,58571,5,8,0:0:0:0:
256,192,58871,5,0,0:0:0:0:
256,192,59021,1,0,0:0:0:0:
256,192,59171,1,0,0:0:0:0:
256,192,59471,1,0,0:0:0:0:
256,192,59621,1,0,0:0:0:0:
256,192,59771,5,8,0:0:0:0:
256,192,59921,5,0,0:0:0:0:
256,192,60371,5,12,0:0:0:0:
256,192,61571,5,0,0:0:0:0:
256,192,61721,1,0,0:0:0:0:
256,192,61871,5,8,0:0:0:0:
256,192,62021,5,0,0:0:0:0:
256,192,62321,1,0,0:0:0:0:
256,192,62471,5,8,0:0:0:0:
256,192,62621,5,0,0:0:0:0:
256,192,62921,1,0,0:0:0:0:
256,192,63071,5,8,0:0:0:0:
256,192,63371,5,0,0:0:0:0:
256,192,63671,1,0,0:0:0:0:
256,192,63821,1,0,0:0:0:0:
256,192,63971,1,0,0:0:0:0:
256,192,64121,1,0,0:0:0:0:
256,192,64271,5,8,0:0:0:0:
256,192,64421,5,0,0:0:0:0:
256,192,64721,1,0,0:0:0:0:
256,192,64871,5,8,0:0:0:0:
256,192,65021,5,0,0:0:0:0:
256,192,65321,1,0,0:0:0:0:
256,192,65471,5,8,0:0:0:0:
256,192,65771,1,8,0:0:0:0:
256,192,65921,1,8,0:0:0:0:
256,192,66071,1,8,0:0:0:0:
256,192,66221,1,8,0:0:0:0:
256,192,66371,5,0,0:0:0:0:
256,192,66521,1,0,0:0:0:0:
256,192,66671,5,8,0:0:0:0:
256,192,66821,5,0,0:0:0:0:
256,192,67121,1,0,0:0:0:0:
256,192,67271,5,8,0:0:0:0:
256,192,67421,5,0,0:0:0:0:
256,192,67721,1,0,0:0:0:0:
256,192,67871,5,8,0:0:0:0:
256,192,68171,5,0,0:0:0:0:
256,192,68471,1,0,0:0:0:0:
256,192,68621,1,0,0:0:0:0:
256,192,68771,1,0,0:0:0:0:
256,192,68921,1,0,0:0:0:0:
256,192,69071,5,8,0:0:0:0:
256,192,69221,5,0,0:0:0:0:
256,192,69521,1,0,0:0:0:0:
256,192,69671,5,8,0:0:0:0:
256,192,69821,5,0,0:0:0:0:
256,192,69971,5,8,0:0:0:0:
256,192,70121,1,8,0:0:0:0:
256,192,70271,5,0,0:0:0:0:
256,192,70421,5,8,0:0:0:0:
256,192,70571,1,8,0:0:0:0:
256,192,70871,1,8,0:0:0:0:
256,192,71171,5,4,0:0:0:0:
256,192,75971,5,8,0:0:0:0:
256,192,76271,1,8,0:0:0:0:
256,192,76421,1,8,0:0:0:0:
256,192,76496,1,8,0:0:0:0:
256,192,76571,1,8,0:0:0:0:
256,192,76721,1,8,0:0:0:0:
256,192,76871,1,8,0:0:0:0:
256,192,76946,1,8,0:0:0:0:
256,192,77021,1,8,0:0:0:0:
256,192,77171,1,8,0:0:0:0:
256,192,77471,1,8,0:0:0:0:
256,192,77621,1,8,0:0:0:0:
256,192,77696,1,8,0:0:0:0:
256,192,77771,1,8,0:0:0:0:
256,192,77921,1,8,0:0:0:0:
256,192,78071,1,8,0:0:0:0:
256,192,78371,1,8,0:0:0:0:
256,192,78521,1,8,0:0:0:0:
256,192,78671,1,8,0:0:0:0:
256,192,78746,1,8,0:0:0:0:
256,192,78896,1,8,0:0:0:0:
256,192,79046,1,8,0:0:0:0:
256,192,79121,1,8,0:0:0:0:
256,192,79271,1,8,0:0:0:0:
256,192,79421,1,8,0:0:0:0:
256,192,79571,1,8,0:0:0:0:
256,192,79721,1,8,0:0:0:0:
256,192,79796,1,8,0:0:0:0:
256,192,79871,1,8,0:0:0:0:
256,192,79946,1,8,0:0:0:0:
256,192,80096,1,8,0:0:0:0:
256,192,80246,5,0,0:0:0:0:
256,192,80321,1,0,0:0:0:0:
256,192,80471,5,8,0:0:0:0:
256,192,80621,5,0,0:0:0:0:
256,192,80771,1,0,0:0:0:0:
256,192,81071,5,8,0:0:0:0:
256,192,81221,5,0,0:0:0:0:
256,192,81296,1,0,0:0:0:0:
256,192,81371,5,8,0:0:0:0:
256,192,81521,5,0,0:0:0:0:
256,192,81671,5,8,0:0:0:0:
256,192,81746,5,0,0:0:0:0:
256,192,81821,1,0,0:0:0:0:
256,192,81896,1,0,0:0:0:0:
256,192,81971,5,8,0:0:0:0:
256,192,82271,1,8,0:0:0:0:
256,192,82421,5,0,0:0:0:0:
256,192,82496,1,0,0:0:0:0:
256,192,82571,5,8,0:0:0:0:
256,192,82721,5,0,0:0:0:0:
256,192,82871,5,8,0:0:0:0:
256,192,83171,5,0,0:0:0:0:
256,192,83321,5,8,0:0:0:0:
256,192,83471,5,0,0:0:0:0:
256,192,83546,5,8,0:0:0:0:
256,192,83696,5,0,0:0:0:0:
256,192,83846,5,8,0:0:0:0:
256,192,83921,5,0,0:0:0:0:
256,192,84071,5,8,0:0:0:0:
256,192,84221,1,8,0:0:0:0:
256,192,84371,5,0,0:0:0:0:
256,192,84521,5,8,0:0:0:0:
256,192,84671,5,0,0:0:0:0:
256,192,84746,5,8,0:0:0:0:
256,192,84896,5,0,0:0:0:0:
256,192,85046,5,8,0:0:0:0:
256,192,85121,1,8,0:0:0:0:
256,192,85271,1,8,0:0:0:0:
256,192,85421,5,0,0:0:0:0:
256,192,85571,5,8,0:0:0:0:
256,192,85871,1,8,0:0:0:0:
256,192,86021,5,0,0:0:0:0:
256,192,86096,1,0,0:0:0:0:
256,192,86171,5,8,0:0:0:0:
256,192,86321,5,0,0:0:0:0:
256,192,86471,5,8,0:0:0:0:
256,192,86546,5,0,0:0:0:0:
256,192,86621,1,0,0:0:0:0:
256,192,86696,1,0,0:0:0:0:
256,192,86771,5,8,0:0:0:0:
256,192,87071,1,8,0:0:0:0:
256,192,87221,5,0,0:0:0:0:
256,192,87296,1,0,0:0:0:0:
256,192,87371,5,8,0:0:0:0:
256,192,87521,5,0,0:0:0:0:
256,192,87671,5,8,0:0:0:0:
256,192,87971,5,0,0:0:0:0:
