osu file format v14

[General]
AudioFilename: audio.mp3
AudioLeadIn: 0
PreviewTime: 80665
Countdown: 1
SampleSet: Normal
StackLeniency: 0.7
Mode: 1
LetterboxInBreaks: 0
WidescreenStoryboard: 1

[Editor]
Bookmarks: 2815,13603,23203,32803,42403,47215,52003,61603,71203,80803,90403,100003,109615,119215,128815,138415,143215,148015
DistanceSpacing: 0.4
BeatDivisor: 4
GridSize: 8
TimelineZoom: 1.200001

[Metadata]
Title:New Game Plus
TitleUnicode:New Game Plus
Artist:Kobaryo
ArtistUnicode:Kobaryo
Creator:Nepuri
Version:Oni
Source:
Tags:BPM 700 OVER OVER!! Psycho Filth Records PFEX010 Speedcore 8bit bit 8 splittercore ng+
BeatmapID:1679306
BeatmapSetID:797710

[Difficulty]
HPDrainRate:5.5
CircleSize:5
OverallDifficulty:6
ApproachRate:5
SliderMultiplier:1.4
SliderTickRate:1

[Events]
//Background and Video events
0,0,"NGEX.png",0,0
//Break Periods
//Storyboard Layer 0 (Background)
//Storyboard Layer 1 (Fail)
//Storyboard Layer 2 (Pass)
//Storyboard Layer 3 (Foreground)
//Storyboard Sound Samples

[TimingPoints]
2815,300,4,1,0,80,1,0
7615,-100,4,1,0,90,0,0
13315,-100,4,1,0,100,0,0
13465,-95.2380952380952,4,1,0,100,0,0
13615,150,4,1,0,100,1,1
13615,-181.818181818182,4,1,0,100,0,1
31615,-181.818181818182,4,1,0,100,0,0
32215,-200,4,1,0,100,0,0
42415,300,4,1,0,100,1,0
42715,-100,4,1,0,90,0,0
43015,-100,4,1,0,80,0,0
43315,-100,4,1,0,70,0,0
47515,-100,4,1,0,80,0,0
49465,-100,4,1,0,90,0,0
51865,-100,4,1,0,70,0,0
71365,-125,4,1,0,55,0,0
75865,-100,4,1,0,70,0,0
80065,-90.9090909090909,4,1,0,100,0,0
80815,-90.9090909090909,4,1,0,100,0,1
90415,-90.9090909090909,4,1,0,100,0,0
99715,-90.9090909090909,4,1,0,100,0,0
100015,150,4,1,0,100,1,1
100015,-181.818181818182,4,1,0,100,0,1
118015,-181.818181818182,4,1,0,100,0,0
118615,-200,4,1,0,100,0,0
128815,300,4,1,0,100,1,0
129115,-100,4,1,0,90,0,0
129415,-100,4,1,0,80,0,0
129715,-100,4,1,0,70,0,0
137665,-100,4,1,0,63,0,0
137965,-100,4,1,0,55,0,0
143515,-100,4,1,0,65,0,0
143965,-100,4,1,0,75,0,0
144415,-100,4,1,0,85,0,0

[HitObjects]
221,155,2815,5,4,0:0:0:0:
221,155,3115,1,8,0:0:0:0:
247,158,3265,1,8,0:0:0:0:
221,155,3415,1,0,0:0:0:0:
246,157,3565,1,0,0:0:0:0:
221,155,3715,1,8,0:0:0:0:
221,155,3865,1,0,0:0:0:0:
221,155,4015,1,8,0:0:0:0:
270,160,4315,1,0,0:0:0:0:
295,163,4465,1,8,0:0:0:0:
320,166,4615,1,0,0:0:0:0:
346,169,4765,1,0,0:0:0:0:
346,169,4915,1,8,0:0:0:0:
346,169,5215,1,0,0:0:0:0:
346,169,5515,1,0,0:0:0:0:
346,169,5740,1,8,0:0:0:0:
313,192,5965,1,8,0:0:0:0:
290,208,6115,1,0,0:0:0:0:
267,224,6265,1,8,0:0:0:0:
243,240,6415,1,0,0:0:0:0:
243,240,6715,1,0,0:0:0:0:
213,214,6940,1,8,0:0:0:0:
182,189,7165,1,0,0:0:0:0:
162,172,7315,1,8,0:0:0:0:
141,154,7465,1,0,0:0:0:0:
121,138,7615,1,4,0:0:0:0:
307,143,7915,1,0,0:0:0:0:
218,89,8215,1,8,0:0:0:0:
268,66,8515,1,0,0:0:0:0:
240,78,8665,1,8,0:0:0:0:
240,78,8815,1,4,0:0:0:0:
112,177,9115,1,0,0:0:0:0:
240,78,9415,1,8,0:0:0:0:
240,78,9565,1,0,0:0:0:0:
240,78,9715,1,8,0:0:0:0:
240,78,10015,1,4,0:0:0:0:
213,123,10315,1,0,0:0:0:0:
213,123,10540,1,8,0:0:0:0:
240,78,10765,1,0,0:0:0:0:
240,78,10915,1,8,0:0:0:0:
239,105,11065,1,0,0:0:0:0:
240,78,11215,1,4,0:0:0:0:
289,55,11515,1,8,0:0:0:0:
289,55,11815,1,4,0:0:0:0:
289,55,12115,1,8,0:0:0:0:
289,55,12415,1,4,0:0:0:0:
289,55,13315,1,0,0:0:0:0:
289,55,13465,1,0,0:0:0:0:
278,74,13615,1,12,0:0:0:0:
251,77,13765,1,0,0:0:0:0:
223,79,13915,1,8,0:0:0:0:
221,71,13990,1,8,0:0:0:0:
196,82,14065,1,8,0:0:0:0:
169,85,14215,1,0,0:0:0:0:
144,88,14365,1,8,0:0:0:0:
176,73,14515,1,0,0:0:0:0:
196,59,14665,1,8,0:0:0:0:
196,59,14740,1,8,0:0:0:0:
196,59,14815,1,0,0:0:0:0:
196,59,14965,1,0,0:0:0:0:
196,59,15115,1,8,0:0:0:0:
197,75,15190,1,8,0:0:0:0:
192,82,15265,1,8,0:0:0:0:
196,59,15415,1,8,0:0:0:0:
196,59,15565,1,0,0:0:0:0:
196,59,15715,1,0,0:0:0:0:
203,54,15790,1,0,0:0:0:0:
196,59,15865,1,8,0:0:0:0:
196,59,15940,1,8,0:0:0:0:
196,59,16015,1,0,0:0:0:0:
192,80,16165,1,0,0:0:0:0:
242,79,16315,1,8,0:0:0:0:
232,88,16390,1,8,0:0:0:0:
242,79,16465,1,8,0:0:0:0:
232,104,16615,1,0,0:0:0:0:
224,128,16765,1,0,0:0:0:0:
216,152,16915,1,8,0:0:0:0:
208,184,17065,1,8,0:0:0:0:
208,184,17140,1,8,0:0:0:0:
208,184,17215,1,0,0:0:0:0:
208,184,17365,1,0,0:0:0:0:
208,184,17515,1,8,0:0:0:0:
208,184,17590,1,8,0:0:0:0:
208,184,17665,1,8,0:0:0:0:
412,260,17815,1,8,0:0:0:0:
360,240,18115,1,0,0:0:0:0:
335,178,18415,1,12,0:0:0:0:
251,77,18565,1,0,0:0:0:0:
223,79,18715,1,8,0:0:0:0:
221,71,18790,1,8,0:0:0:0:
196,82,18865,1,8,0:0:0:0:
169,85,19015,1,0,0:0:0:0:
144,88,19165,1,8,0:0:0:0:
176,73,19315,1,0,0:0:0:0:
196,59,19465,1,8,0:0:0:0:
196,59,19540,1,8,0:0:0:0:
196,59,19615,1,0,0:0:0:0:
196,59,19765,1,0,0:0:0:0:
196,59,19915,1,8,0:0:0:0:
197,75,19990,1,8,0:0:0:0:
192,82,20065,1,8,0:0:0:0:
196,59,20215,1,8,0:0:0:0:
196,59,20365,1,0,0:0:0:0:
196,59,20515,1,0,0:0:0:0:
203,54,20590,1,0,0:0:0:0:
196,59,20665,1,8,0:0:0:0:
196,59,20740,1,8,0:0:0:0:
196,59,20815,1,0,0:0:0:0:
192,80,20965,1,0,0:0:0:0:
242,79,21115,1,8,0:0:0:0:
232,88,21190,1,8,0:0:0:0:
242,79,21265,1,8,0:0:0:0:
232,104,21415,1,0,0:0:0:0:
224,128,21565,1,0,0:0:0:0:
216,152,21715,1,8,0:0:0:0:
208,184,21865,1,8,0:0:0:0:
208,184,21940,1,8,0:0:0:0:
208,184,22015,1,0,0:0:0:0:
208,184,22165,1,0,0:0:0:0:
208,184,22315,1,8,0:0:0:0:
208,184,22465,1,8,0:0:0:0:
412,260,22615,1,4,0:0:0:0:
368,232,22915,1,4,0:0:0:0:
336,192,23215,1,12,0:0:0:0:
344,168,23365,1,8,0:0:0:0:
312,176,23515,1,0,0:0:0:0:
296,184,23590,1,0,0:0:0:0:
288,192,23665,1,0,0:0:0:0:
272,208,23815,1,8,0:0:0:0:
272,208,23965,1,0,0:0:0:0:
272,200,24040,1,0,0:0:0:0:
272,208,24115,1,8,0:0:0:0:
272,208,24265,1,8,0:0:0:0:
272,208,24415,1,8,0:0:0:0:
264,200,24490,1,0,0:0:0:0:
280,184,24565,1,8,0:0:0:0:
288,160,24715,1,8,0:0:0:0:
296,136,24865,1,0,0:0:0:0:
272,128,25015,1,8,0:0:0:0:
248,120,25165,1,0,0:0:0:0:
304,96,25315,1,8,0:0:0:0:
304,96,25465,1,8,0:0:0:0:
288,88,25540,1,0,0:0:0:0:
304,96,25615,1,8,0:0:0:0:
304,96,25765,1,8,0:0:0:0:
304,96,25915,1,8,0:0:0:0:
280,112,26065,1,0,0:0:0:0:
272,128,26140,1,0,0:0:0:0:
256,120,26215,1,8,0:0:0:0:
272,128,26290,1,8,0:0:0:0:
232,128,26365,1,0,0:0:0:0:
216,144,26515,1,8,0:0:0:0:
192,152,26665,1,8,0:0:0:0:
192,152,26740,1,8,0:0:0:0:
192,152,26815,1,0,0:0:0:0:
192,152,26965,1,0,0:0:0:0:
192,152,27115,1,8,0:0:0:0:
192,152,27265,1,0,0:0:0:0:
32,176,27415,1,8,0:0:0:0:
88,160,27715,1,0,0:0:0:0:
136,144,28015,1,12,0:0:0:0:
160,144,28165,1,0,0:0:0:0:
176,144,28315,1,8,0:0:0:0:
200,136,28390,1,8,0:0:0:0:
200,144,28465,1,8,0:0:0:0:
224,144,28615,1,0,0:0:0:0:
248,136,28765,1,0,0:0:0:0:
264,136,28915,1,8,0:0:0:0:
264,136,29065,1,8,0:0:0:0:
264,136,29140,1,8,0:0:0:0:
264,136,29215,1,0,0:0:0:0:
264,136,29365,1,0,0:0:0:0:
264,136,29515,1,8,0:0:0:0:
240,136,29590,1,8,0:0:0:0:
264,136,29665,1,8,0:0:0:0:
256,128,29815,1,0,0:0:0:0:
216,136,29965,1,0,0:0:0:0:
264,136,30115,1,8,0:0:0:0:
168,176,30190,1,8,0:0:0:0:
240,144,30265,1,8,0:0:0:0:
216,152,30415,1,0,0:0:0:0:
192,168,30565,1,0,0:0:0:0:
168,176,30715,1,8,0:0:0:0:
200,160,30790,1,8,0:0:0:0:
168,176,30865,1,0,0:0:0:0:
168,176,31015,1,0,0:0:0:0:
168,176,31165,1,0,0:0:0:0:
168,176,31240,1,0,0:0:0:0:
168,176,31315,1,0,0:0:0:0:
168,176,31465,1,8,0:0:0:0:
168,176,31615,1,4,0:0:0:0:
168,176,32215,1,12,0:0:0:0:
168,176,32515,1,4,0:0:0:0:
152,128,32815,1,12,0:0:0:0:
152,152,32965,1,0,0:0:0:0:
152,176,33115,1,0,0:0:0:0:
152,200,33265,1,0,0:0:0:0:
160,224,33415,1,0,0:0:0:0:
160,224,33565,1,0,0:0:0:0:
160,224,33715,1,0,0:0:0:0:
160,224,33865,1,0,0:0:0:0:
160,224,34015,1,0,0:0:0:0:
160,224,34165,1,0,0:0:0:0:
160,224,34315,1,0,0:0:0:0:
160,224,34465,1,0,0:0:0:0:
160,224,34615,1,0,0:0:0:0:
168,216,34690,1,0,0:0:0:0:
160,224,34765,1,0,0:0:0:0:
160,224,34915,1,12,0:0:0:0:
160,224,35215,1,4,0:0:0:0:
168,200,35365,1,8,0:0:0:0:
176,176,35515,1,8,0:0:0:0:
192,152,35665,1,8,0:0:0:0:
200,128,35815,1,8,0:0:0:0:
200,128,35965,1,8,0:0:0:0:
200,128,36115,1,8,0:0:0:0:
200,128,36265,1,8,0:0:0:0:
200,128,36415,1,8,0:0:0:0:
200,128,36565,1,8,0:0:0:0:
200,128,36715,1,8,0:0:0:0:
184,136,36790,1,8,0:0:0:0:
200,128,36865,1,8,0:0:0:0:
200,128,37015,1,4,0:0:0:0:
200,128,37315,1,12,0:0:0:0:
168,80,37615,1,12,0:0:0:0:
176,104,37765,1,0,0:0:0:0:
176,128,37915,1,8,0:0:0:0:
184,152,38065,1,0,0:0:0:0:
184,176,38215,1,8,0:0:0:0:
192,208,38365,1,0,0:0:0:0:
192,208,38515,1,8,0:0:0:0:
192,208,38665,1,0,0:0:0:0:
192,208,38815,1,8,0:0:0:0:
192,208,38965,1,8,0:0:0:0:
192,208,39115,1,8,0:0:0:0:
192,208,39265,1,8,0:0:0:0:
192,208,39415,1,8,0:0:0:0:
184,200,39490,1,8,0:0:0:0:
192,208,39565,1,0,0:0:0:0:
192,208,39715,1,12,0:0:0:0:
192,208,40015,1,12,0:0:0:0:
208,192,40165,1,0,0:0:0:0:
224,176,40315,1,8,0:0:0:0:
224,176,40465,1,0,0:0:0:0:
224,176,40615,1,8,0:0:0:0:
224,176,40765,1,0,0:0:0:0:
224,176,40915,1,8,0:0:0:0:
224,176,41065,1,0,0:0:0:0:
224,176,41215,1,8,0:0:0:0:
208,168,41290,1,8,0:0:0:0:
224,176,41365,1,0,0:0:0:0:
224,176,41515,1,8,0:0:0:0:
224,176,41590,1,8,0:0:0:0:
224,176,41665,1,0,0:0:0:0:
224,176,41815,1,12,0:0:0:0:
224,176,42115,1,4,0:0:0:0:
224,176,42415,1,4,0:0:0:0:
224,176,42715,1,8,0:0:0:0:
224,176,43015,1,0,0:0:0:0:
224,176,43315,1,8,0:0:0:0:
224,176,43615,1,0,0:0:0:0:
224,176,43915,1,8,0:0:0:0:
224,176,44215,1,0,0:0:0:0:
224,176,44515,1,8,0:0:0:0:
224,176,44665,1,8,0:0:0:0:
224,176,44815,1,0,0:0:0:0:
224,176,45115,1,8,0:0:0:0:
264,144,45415,1,0,0:0:0:0:
304,112,45715,1,8,0:0:0:0:
264,144,46015,1,0,0:0:0:0:
304,112,46315,1,8,0:0:0:0:
264,144,46615,1,0,0:0:0:0:
304,112,46915,1,8,0:0:0:0:
288,128,47065,1,0,0:0:0:0:
288,128,47215,1,8,0:0:0:0:
288,128,47515,1,0,0:0:0:0:
288,128,47665,1,8,0:0:0:0:
288,128,47815,1,8,0:0:0:0:
288,128,48115,1,8,0:0:0:0:
288,128,48415,1,0,0:0:0:0:
288,128,48565,1,8,0:0:0:0:
288,128,48715,1,8,0:0:0:0:
288,128,49015,1,8,0:0:0:0:
288,128,49165,1,0,0:0:0:0:
288,128,49315,1,8,0:0:0:0:
256,160,49615,1,8,0:0:0:0:
280,152,49765,1,0,0:0:0:0:
288,152,49840,1,0,0:0:0:0:
296,152,49915,1,8,0:0:0:0:
320,144,50065,1,8,0:0:0:0:
344,136,50215,1,0,0:0:0:0:
368,128,50365,1,8,0:0:0:0:
392,120,50515,1,8,0:0:0:0:
416,112,50665,1,0,0:0:0:0:
168,128,52015,1,4,0:0:0:0:
248,152,52465,1,0,0:0:0:0:
248,152,52615,1,8,0:0:0:0:
248,152,52765,1,0,0:0:0:0:
360,200,53515,1,0,0:0:0:0:
408,216,53815,1,8,0:0:0:0:
408,216,54415,1,0,0:0:0:0:
408,216,54865,1,0,0:0:0:0:
408,216,55015,1,8,0:0:0:0:
408,216,55165,1,0,0:0:0:0:
408,216,55915,1,0,0:0:0:0:
408,216,56215,1,8,0:0:0:0:
408,216,56815,1,0,0:0:0:0:
408,216,57265,1,0,0:0:0:0:
408,216,57415,1,8,0:0:0:0:
408,216,57565,1,0,0:0:0:0:
408,216,58315,1,0,0:0:0:0:
408,216,58615,1,8,0:0:0:0:
408,216,59215,1,0,0:0:0:0:
408,216,59665,1,0,0:0:0:0:
408,216,59815,1,8,0:0:0:0:
408,216,59965,1,0,0:0:0:0:
408,216,60415,1,12,0:0:0:0:
408,216,60715,1,0,0:0:0:0:
408,216,60865,1,0,0:0:0:0:
408,216,61015,1,8,0:0:0:0:
408,216,61165,1,8,0:0:0:0:
400,200,61240,1,8,0:0:0:0:
408,216,61315,1,0,0:0:0:0:
408,216,61465,1,0,0:0:0:0:
384,208,61615,1,4,0:0:0:0:
328,216,61915,5,0,0:0:0:0:
304,216,62065,1,0,0:0:0:0:
280,216,62215,1,8,0:0:0:0:
256,216,62365,1,0,0:0:0:0:
256,216,62665,1,8,0:0:0:0:
256,216,62965,1,8,0:0:0:0:
256,216,63115,1,0,0:0:0:0:
256,216,63415,1,8,0:0:0:0:
256,216,63715,1,0,0:0:0:0:
256,216,63865,1,8,0:0:0:0:
256,216,64015,1,4,0:0:0:0:
256,216,64315,1,0,0:0:0:0:
256,216,64465,1,0,0:0:0:0:
256,216,64615,1,8,0:0:0:0:
256,216,64765,1,0,0:0:0:0:
256,216,65065,1,8,0:0:0:0:
256,216,65365,1,8,0:0:0:0:
256,216,65515,1,0,0:0:0:0:
256,216,65815,1,8,0:0:0:0:
256,216,66115,1,0,0:0:0:0:
256,216,66265,1,8,0:0:0:0:
256,216,66415,1,4,0:0:0:0:
256,216,66715,1,0,0:0:0:0:
256,216,66865,1,0,0:0:0:0:
256,216,67015,1,8,0:0:0:0:
256,216,67165,1,0,0:0:0:0:
256,216,67465,1,8,0:0:0:0:
256,216,67765,1,8,0:0:0:0:
256,216,67915,1,0,0:0:0:0:
256,216,68215,1,8,0:0:0:0:
256,216,68515,1,0,0:0:0:0:
256,216,68665,1,8,0:0:0:0:
256,216,68815,1,4,0:0:0:0:
256,216,69115,1,0,0:0:0:0:
256,216,69265,1,0,0:0:0:0:
256,216,69415,1,8,0:0:0:0:
256,216,69565,1,0,0:0:0:0:
216,184,69865,1,0,0:0:0:0:
208,160,70015,1,8,0:0:0:0:
216,184,70165,1,0,0:0:0:0:
216,184,70240,1,0,0:0:0:0:
176,144,70315,1,8,0:0:0:0:
216,184,70465,1,8,0:0:0:0:
216,184,70615,1,8,0:0:0:0:
216,184,70765,1,0,0:0:0:0:
208,160,70915,1,8,0:0:0:0:
208,160,71065,1,8,0:0:0:0:
216,184,71215,1,0,0:0:0:0:
432,112,72415,1,0,0:0:0:0:
280,152,73315,1,8,0:0:0:0:
224,184,73615,1,0,0:0:0:0:
424,112,74815,1,0,0:0:0:0:
208,152,76015,1,8,0:0:0:0:
88,40,76915,1,8,0:0:0:0:
408,248,77215,1,0,0:0:0:0:
264,168,78115,1,8,0:0:0:0:
216,144,78415,1,8,0:0:0:0:
80,56,79315,1,8,0:0:0:0:
120,80,79615,1,0,0:0:0:0:
224,144,80290,1,0,0:0:0:0:
232,152,80365,1,0,0:0:0:0:
256,168,80515,1,0,0:0:0:0:
280,184,80665,1,0,0:0:0:0:
304,200,80815,1,12,0:0:0:0:
256,224,81115,1,0,0:0:0:0:
280,208,81265,1,8,0:0:0:0:
280,208,81415,1,0,0:0:0:0:
280,208,81565,1,0,0:0:0:0:
280,208,81715,1,8,0:0:0:0:
296,208,81790,1,8,0:0:0:0:
280,208,81865,1,0,0:0:0:0:
280,208,82015,1,8,0:0:0:0:
280,208,82315,1,8,0:0:0:0:
280,208,82465,1,0,0:0:0:0:
280,208,82615,1,0,0:0:0:0:
280,208,82765,1,0,0:0:0:0:
280,208,82915,1,8,0:0:0:0:
336,192,83215,1,0,0:0:0:0:
384,176,83365,1,8,0:0:0:0:
352,176,83515,1,0,0:0:0:0:
384,176,83590,1,8,0:0:0:0:
360,168,83740,1,8,0:0:0:0:
384,176,83965,1,8,0:0:0:0:
352,168,84115,1,0,0:0:0:0:
320,160,84265,1,8,0:0:0:0:
328,184,84415,1,0,0:0:0:0:
344,240,84715,1,8,0:0:0:0:
352,272,84940,1,0,0:0:0:0:
352,272,85165,1,8,0:0:0:0:
352,272,85315,1,0,0:0:0:0:
352,272,85465,1,8,0:0:0:0:
336,248,85615,1,8,0:0:0:0:
304,200,85915,1,8,0:0:0:0:
288,176,86065,1,0,0:0:0:0:
272,152,86215,1,0,0:0:0:0:
256,136,86365,1,0,0:0:0:0:
256,136,86515,1,8,0:0:0:0:
256,136,86590,1,8,0:0:0:0:
256,136,86665,1,0,0:0:0:0:
256,136,86815,1,8,0:0:0:0:
288,176,87115,1,0,0:0:0:0:
288,176,87265,1,8,0:0:0:0:
288,176,87415,1,0,0:0:0:0:
288,176,87565,1,0,0:0:0:0:
288,176,87715,1,8,0:0:0:0:
288,176,88015,1,0,0:0:0:0:
312,184,88165,1,8,0:0:0:0:
336,192,88315,1,0,0:0:0:0:
344,200,88390,1,8,0:0:0:0:
376,208,88540,1,8,0:0:0:0:
416,232,88765,1,8,0:0:0:0:
416,232,88915,1,0,0:0:0:0:
416,232,89065,1,8,0:0:0:0:
416,232,89215,1,0,0:0:0:0:
416,232,89515,1,8,0:0:0:0:
416,232,89740,1,0,0:0:0:0:
416,232,89965,1,8,0:0:0:0:
416,232,90115,1,0,0:0:0:0:
416,232,90265,1,8,0:0:0:0:
416,232,90415,1,4,0:0:0:0:
368,216,90715,1,8,0:0:0:0:
368,192,90865,1,0,0:0:0:0:
320,200,91015,1,8,0:0:0:0:
272,184,91315,1,8,0:0:0:0:
248,176,91465,1,8,0:0:0:0:
248,176,91615,1,4,0:0:0:0:
248,176,91915,1,8,0:0:0:0:
272,160,92065,1,0,0:0:0:0:
248,176,92215,1,8,0:0:0:0:
248,176,92515,1,8,0:0:0:0:
248,176,92665,1,8,0:0:0:0:
248,176,92815,1,4,0:0:0:0:
248,176,93115,1,8,0:0:0:0:
272,160,93265,1,0,0:0:0:0:
248,176,93415,1,8,0:0:0:0:
248,176,93715,1,8,0:0:0:0:
248,176,93865,1,8,0:0:0:0:
248,176,94015,1,4,0:0:0:0:
296,144,94315,1,8,0:0:0:0:
320,128,94465,1,0,0:0:0:0:
344,112,94615,1,8,0:0:0:0:
384,88,94915,1,8,0:0:0:0:
384,88,95065,1,8,0:0:0:0:
384,88,95215,1,4,0:0:0:0:
384,88,95515,1,8,0:0:0:0:
384,88,95665,1,8,0:0:0:0:
384,88,95815,1,4,0:0:0:0:
328,88,96115,1,8,0:0:0:0:
304,88,96265,1,8,0:0:0:0:
280,96,96415,1,4,0:0:0:0:
280,96,96715,1,8,0:0:0:0:
280,96,96865,1,8,0:0:0:0:
280,96,97015,1,4,0:0:0:0:
280,96,97315,1,8,0:0:0:0:
280,96,97465,1,8,0:0:0:0:
280,96,97615,1,4,0:0:0:0:
280,96,97915,1,0,0:0:0:0:
280,96,98215,1,8,0:0:0:0:
280,96,98515,1,8,0:0:0:0:
40,152,99715,1,0,0:0:0:0:
72,144,99865,1,0,0:0:0:0:
278,74,100015,1,12,0:0:0:0:
251,77,100165,1,0,0:0:0:0:
223,79,100315,1,8,0:0:0:0:
221,71,100390,1,8,0:0:0:0:
196,82,100465,1,8,0:0:0:0:
169,85,100615,1,0,0:0:0:0:
144,88,100765,1,8,0:0:0:0:
176,73,100915,1,0,0:0:0:0:
196,59,101065,1,8,0:0:0:0:
196,59,101140,1,8,0:0:0:0:
196,59,101215,1,0,0:0:0:0:
196,59,101365,1,0,0:0:0:0:
196,59,101515,1,8,0:0:0:0:
197,75,101590,1,8,0:0:0:0:
192,82,101665,1,8,0:0:0:0:
196,59,101815,1,8,0:0:0:0:
196,59,101965,1,0,0:0:0:0:
196,59,102115,1,0,0:0:0:0:
203,54,102190,1,0,0:0:0:0:
196,59,102265,1,8,0:0:0:0:
196,59,102340,1,8,0:0:0:0:
196,59,102415,1,0,0:0:0:0:
192,80,102565,1,0,0:0:0:0:
242,79,102715,1,8,0:0:0:0:
232,88,102790,1,8,0:0:0:0:
242,79,102865,1,8,0:0:0:0:
232,104,103015,1,0,0:0:0:0:
224,128,103165,1,0,0:0:0:0:
216,152,103315,1,8,0:0:0:0:
208,184,103465,1,8,0:0:0:0:
208,184,103540,1,8,0:0:0:0:
208,184,103615,1,0,0:0:0:0:
208,184,103765,1,0,0:0:0:0:
208,184,103915,1,8,0:0:0:0:
208,184,103990,1,8,0:0:0:0:
208,184,104065,1,8,0:0:0:0:
412,260,104215,1,8,0:0:0:0:
360,240,104515,1,0,0:0:0:0:
335,178,104815,1,12,0:0:0:0:
251,77,104965,1,0,0:0:0:0:
223,79,105115,1,8,0:0:0:0:
221,71,105190,1,8,0:0:0:0:
196,82,105265,1,8,0:0:0:0:
169,85,105415,1,0,0:0:0:0:
144,88,105565,1,8,0:0:0:0:
176,73,105715,1,0,0:0:0:0:
196,59,105865,1,8,0:0:0:0:
196,59,105940,1,8,0:0:0:0:
196,59,106015,1,0,0:0:0:0:
196,59,106165,1,0,0:0:0:0:
196,59,106315,1,8,0:0:0:0:
197,75,106390,1,8,0:0:0:0:
192,82,106465,1,8,0:0:0:0:
196,59,106615,1,8,0:0:0:0:
196,59,106765,1,0,0:0:0:0:
196,59,106915,1,0,0:0:0:0:
203,54,106990,1,0,0:0:0:0:
196,59,107065,1,8,0:0:0:0:
196,59,107140,1,8,0:0:0:0:
196,59,107215,1,0,0:0:0:0:
192,80,107365,1,0,0:0:0:0:
242,79,107515,1,8,0:0:0:0:
232,88,107590,1,8,0:0:0:0:
242,79,107665,1,8,0:0:0:0:
232,104,107815,1,0,0:0:0:0:
224,128,107965,1,0,0:0:0:0:
216,152,108115,1,8,0:0:0:0:
208,184,108265,1,8,0:0:0:0:
208,184,108340,1,8,0:0:0:0:
208,184,108415,1,0,0:0:0:0:
208,184,108565,1,0,0:0:0:0:
208,184,108715,1,8,0:0:0:0:
208,184,108865,1,8,0:0:0:0:
412,260,109015,1,4,0:0:0:0:
368,232,109315,1,4,0:0:0:0:
336,192,109615,1,12,0:0:0:0:
344,168,109765,1,8,0:0:0:0:
312,176,109915,1,0,0:0:0:0:
296,184,109990,1,0,0:0:0:0:
288,192,110065,1,0,0:0:0:0:
272,208,110215,1,8,0:0:0:0:
272,208,110365,1,0,0:0:0:0:
272,200,110440,1,0,0:0:0:0:
272,208,110515,1,8,0:0:0:0:
272,208,110665,1,8,0:0:0:0:
272,208,110815,1,8,0:0:0:0:
264,200,110890,1,0,0:0:0:0:
280,184,110965,1,8,0:0:0:0:
288,160,111115,1,8,0:0:0:0:
296,136,111265,1,0,0:0:0:0:
272,128,111415,1,8,0:0:0:0:
248,120,111565,1,0,0:0:0:0:
304,96,111715,1,8,0:0:0:0:
304,96,111865,1,8,0:0:0:0:
288,88,111940,1,0,0:0:0:0:
304,96,112015,1,8,0:0:0:0:
304,96,112165,1,8,0:0:0:0:
304,96,112315,1,8,0:0:0:0:
280,112,112465,1,0,0:0:0:0:
272,128,112540,1,0,0:0:0:0:
256,120,112615,1,8,0:0:0:0:
272,128,112690,1,8,0:0:0:0:
232,128,112765,1,0,0:0:0:0:
216,144,112915,1,8,0:0:0:0:
192,152,113065,1,8,0:0:0:0:
192,152,113140,1,8,0:0:0:0:
192,152,113215,1,0,0:0:0:0:
192,152,113365,1,0,0:0:0:0:
192,152,113515,1,8,0:0:0:0:
192,152,113665,1,0,0:0:0:0:
32,176,113815,1,8,0:0:0:0:
88,160,114115,1,0,0:0:0:0:
136,144,114415,1,12,0:0:0:0:
160,144,114565,1,0,0:0:0:0:
176,144,114715,1,8,0:0:0:0:
200,136,114790,1,8,0:0:0:0:
200,144,114865,1,8,0:0:0:0:
224,144,115015,1,0,0:0:0:0:
248,136,115165,1,0,0:0:0:0:
264,136,115315,1,8,0:0:0:0:
264,136,115465,1,8,0:0:0:0:
264,136,115540,1,8,0:0:0:0:
264,136,115615,1,0,0:0:0:0:
264,136,115765,1,0,0:0:0:0:
264,136,115915,1,8,0:0:0:0:
240,136,115990,1,8,0:0:0:0:
264,136,116065,1,8,0:0:0:0:
256,128,116215,1,0,0:0:0:0:
216,136,116365,1,0,0:0:0:0:
264,136,116515,1,8,0:0:0:0:
168,176,116590,1,8,0:0:0:0:
240,144,116665,1,8,0:0:0:0:
216,152,116815,1,0,0:0:0:0:
192,168,116965,1,0,0:0:0:0:
168,176,117115,1,8,0:0:0:0:
200,160,117190,1,8,0:0:0:0:
168,176,117265,1,0,0:0:0:0:
168,176,117415,1,0,0:0:0:0:
168,176,117565,1,0,0:0:0:0:
168,176,117640,1,0,0:0:0:0:
168,176,117715,1,0,0:0:0:0:
168,176,117865,1,8,0:0:0:0:
168,176,118015,1,4,0:0:0:0:
168,176,118615,1,12,0:0:0:0:
168,176,118915,1,4,0:0:0:0:
152,128,119215,1,12,0:0:0:0:
152,152,119365,1,0,0:0:0:0:
152,176,119515,1,0,0:0:0:0:
152,200,119665,1,0,0:0:0:0:
160,224,119815,1,0,0:0:0:0:
160,224,119965,1,0,0:0:0:0:
160,224,120115,1,0,0:0:0:0:
160,224,120265,1,0,0:0:0:0:
160,224,120415,1,0,0:0:0:0:
160,224,120565,1,0,0:0:0:0:
160,224,120715,1,0,0:0:0:0:
160,224,120865,1,0,0:0:0:0:
160,224,121015,1,0,0:0:0:0:
168,216,121090,1,0,0:0:0:0:
160,224,121165,1,0,0:0:0:0:
160,224,121315,1,12,0:0:0:0:
160,224,121615,1,4,0:0:0:0:
168,200,121765,1,8,0:0:0:0:
176,176,121915,1,8,0:0:0:0:
192,152,122065,1,8,0:0:0:0:
200,128,122215,1,8,0:0:0:0:
200,128,122365,1,8,0:0:0:0:
200,128,122515,1,8,0:0:0:0:
200,128,122665,1,8,0:0:0:0:
200,128,122815,1,8,0:0:0:0:
200,128,122965,1,8,0:0:0:0:
200,128,123115,1,8,0:0:0:0:
184,136,123190,1,8,0:0:0:0:
200,128,123265,1,8,0:0:0:0:
200,128,123415,1,4,0:0:0:0:
200,128,123715,1,12,0:0:0:0:
168,80,124015,1,12,0:0:0:0:
176,104,124165,1,0,0:0:0:0:
176,128,124315,1,8,0:0:0:0:
184,152,124465,1,0,0:0:0:0:
184,176,124615,1,8,0:0:0:0:
192,208,124765,1,0,0:0:0:0:
192,208,124915,1,8,0:0:0:0:
192,208,125065,1,0,0:0:0:0:
192,208,125215,1,8,0:0:0:0:
176,184,125365,1,0,0:0:0:0:
192,208,125515,1,8,0:0:0:0:
176,184,125665,1,0,0:0:0:0:
192,208,125815,1,8,0:0:0:0:
184,200,125890,1,8,0:0:0:0:
192,208,125965,1,0,0:0:0:0:
192,208,126115,1,12,0:0:0:0:
192,208,126415,1,12,0:0:0:0:
208,192,126565,1,0,0:0:0:0:
224,176,126715,1,8,0:0:0:0:
224,176,126865,1,0,0:0:0:0:
224,176,127015,1,8,0:0:0:0:
224,176,127165,1,0,0:0:0:0:
224,176,127315,1,8,0:0:0:0:
224,176,127465,1,0,0:0:0:0:
224,176,127615,1,8,0:0:0:0:
208,168,127690,1,8,0:0:0:0:
224,176,127765,1,0,0:0:0:0:
224,176,127915,1,8,0:0:0:0:
224,176,127990,1,8,0:0:0:0:
224,176,128065,1,0,0:0:0:0:
224,176,128215,1,12,0:0:0:0:
224,176,128515,1,4,0:0:0:0:
192,128,128815,1,4,0:0:0:0:
224,176,129115,1,8,0:0:0:0:
224,176,129415,1,0,0:0:0:0:
224,176,129715,1,8,0:0:0:0:
224,176,130015,1,0,0:0:0:0:
224,176,130315,1,8,0:0:0:0:
224,176,130615,1,0,0:0:0:0:
224,176,130915,1,8,0:0:0:0:
224,176,131065,1,8,0:0:0:0:
224,176,131215,1,0,0:0:0:0:
224,176,131515,1,8,0:0:0:0:
264,144,131815,1,0,0:0:0:0:
304,112,132115,1,8,0:0:0:0:
264,144,132415,1,0,0:0:0:0:
304,112,132715,1,8,0:0:0:0:
264,144,133015,1,0,0:0:0:0:
304,112,133315,1,8,0:0:0:0:
280,104,133465,1,8,0:0:0:0:
224,176,133615,1,0,0:0:0:0:
224,176,133915,1,8,0:0:0:0:
224,176,134215,1,0,0:0:0:0:
224,176,134515,1,8,0:0:0:0:
224,176,134815,1,0,0:0:0:0:
224,176,135115,1,8,0:0:0:0:
224,176,135415,1,0,0:0:0:0:
224,176,135715,1,8,0:0:0:0:
224,176,135865,1,8,0:0:0:0:
224,176,136015,1,0,0:0:0:0:
224,176,136315,1,8,0:0:0:0:
264,144,136615,1,0,0:0:0:0:
304,112,136915,1,8,0:0:0:0:
264,144,137215,1,0,0:0:0:0:
304,112,137515,1,8,0:0:0:0:
264,144,137815,1,0,0:0:0:0:
304,112,138115,1,8,0:0:0:0:
288,128,138265,1,0,0:0:0:0:
288,128,138415,1,8,0:0:0:0:
320,184,138715,1,8,0:0:0:0:
336,224,139015,1,0,0:0:0:0:
288,200,139315,1,8,0:0:0:0:
400,312,139615,1,0,0:0:0:0:
320,240,140215,1,0,0:0:0:0:
272,208,140515,1,8,0:0:0:0:
256,192,140665,1,8,0:0:0:0:
240,176,140815,1,0,0:0:0:0:
200,144,141115,1,8,0:0:0:0:
240,184,141415,1,0,0:0:0:0:
200,144,141715,1,8,0:0:0:0:
232,176,142015,1,0,0:0:0:0:
160,104,142615,1,0,0:0:0:0:
200,144,142915,1,8,0:0:0:0:
216,160,143065,1,0,0:0:0:0:
216,160,143215,1,8,0:0:0:0:
288,128,143515,1,0,0:0:0:0:
288,128,143665,1,8,0:0:0:0:
288,128,143815,1,8,0:0:0:0:
288,128,144115,1,8,0:0:0:0:
288,128,144415,1,0,0:0:0:0:
288,128,144565,1,8,0:0:0:0:
288,128,144715,1,8,0:0:0:0:
288,128,145015,1,8,0:0:0:0:
288,128,145165,1,0,0:0:0:0:
288,128,145315,1,8,0:0:0:0:
256,160,145615,1,8,0:0:0:0:
280,152,145765,1,0,0:0:0:0:
288,152,145840,1,0,0:0:0:0:
296,152,145915,1,8,0:0:0:0:
320,144,146065,1,8,0:0:0:0:
344,136,146215,1,0,0:0:0:0:
368,128,146365,1,8,0:0:0:0:
392,120,146515,1,8,0:0:0:0:
416,112,146665,1,0,0:0:0:0:
