osu file format v14

[General]
AudioFilename: audio.mp3
AudioLeadIn: 0
PreviewTime: 80665
Countdown: 1
SampleSet: Normal
StackLeniency: 0.7
Mode: 1
LetterboxInBreaks: 0
WidescreenStoryboard: 1

[Editor]
Bookmarks: 2815,13603,23203,32803,42403,47215,52003,61603,71203,80803,90403,100003,109615,119215,128815,138415,143215,148015
DistanceSpacing: 0.4
BeatDivisor: 4
GridSize: 8
TimelineZoom: 0.6000004

[Metadata]
Title:New Game Plus
TitleUnicode:New Game Plus
Artist:Kobaryo
ArtistUnicode:Kobaryo
Creator:Nepuri
Version:Kantan
Source:
Tags:BPM 700 OVER OVER!! Psycho Filth Records PFEX010 Speedcore 8bit bit 8 splittercore ng+
BeatmapID:1676331
BeatmapSetID:797710

[Difficulty]
HPDrainRate:7
CircleSize:5
OverallDifficulty:4
ApproachRate:5
SliderMultiplier:1.4
SliderTickRate:1

[Events]
//Background and Video events
0,0,"NGEX.png",0,0
//Break Periods
2,76215,77215
//Storyboard Layer 0 (Background)
//Storyboard Layer 1 (Fail)
//Storyboard Layer 2 (Pass)
//Storyboard Layer 3 (Foreground)
//Storyboard Sound Samples

[TimingPoints]
2815,300,4,1,0,80,1,0
7615,-100,4,1,0,90,0,0
13315,-100,4,1,0,100,0,0
13615,150,4,1,0,100,1,1
13615,-200,4,1,0,100,0,1
31615,-200,4,1,0,100,0,0
42415,300,4,1,0,100,1,0
42715,-100,4,1,0,90,0,0
43015,-100,4,1,0,80,0,0
43315,-100,4,1,0,70,0,0
47515,-100,4,1,0,80,0,0
49465,-100,4,1,0,90,0,0
51865,-100,4,1,0,70,0,0
71365,-100,4,1,0,55,0,0
75865,-100,4,1,0,70,0,0
80065,-100,4,1,0,100,0,0
80815,-100,4,1,0,100,0,1
90415,-100,4,1,0,100,0,0
100015,150,4,1,0,100,1,1
100015,-200,4,1,0,100,0,1
118015,-200,4,1,0,100,0,0
128815,300,4,1,0,100,1,0
129115,-100,4,1,0,90,0,0
129415,-100,4,1,0,80,0,0
129715,-100,4,1,0,70,0,0
137665,-100,4,1,0,63,0,0
137965,-100,4,1,0,55,0,0
143515,-100,4,1,0,65,0,0
143965,-100,4,1,0,75,0,0
144415,-100,4,1,0,85,0,0

[HitObjects]
187,170,2815,5,4,0:0:0:0:
502,103,4015,1,0,0:0:0:0:
169,94,5215,1,8,0:0:0:0:
502,104,6415,1,0,0:0:0:0:
336,99,7015,1,8,0:0:0:0:
271,147,7615,1,4,0:0:0:0:
271,147,8815,1,4,0:0:0:0:
271,147,10015,1,4,0:0:0:0:
271,147,11215,1,4,0:0:0:0:
392,1,11815,1,4,0:0:0:0:
267,152,12415,1,4,0:0:0:0:
66,107,13315,1,0,0:0:0:0:
282,119,13615,1,12,0:0:0:0:
282,119,14215,1,0,0:0:0:0:
282,119,14515,1,8,0:0:0:0:
282,119,14815,1,0,0:0:0:0:
282,119,15415,1,0,0:0:0:0:
181,169,15715,1,8,0:0:0:0:
282,119,16315,1,8,0:0:0:0:
282,119,16615,1,0,0:0:0:0:
282,119,17215,1,0,0:0:0:0:
266,60,18415,1,0,0:0:0:0:
297,170,18715,1,8,0:0:0:0:
326,276,19015,1,0,0:0:0:0:
264,52,19615,1,0,0:0:0:0:
325,274,20215,1,0,0:0:0:0:
294,160,20515,1,8,0:0:0:0:
105,14,21115,1,8,0:0:0:0:
265,55,21415,1,0,0:0:0:0:
247,47,22615,1,4,0:0:0:0:
161,114,22915,1,4,0:0:0:0:
247,47,23215,1,12,0:0:0:0:
247,47,23815,1,8,0:0:0:0:
247,47,24115,1,0,0:0:0:0:
247,47,24415,1,8,0:0:0:0:
250,303,25015,1,0,0:0:0:0:
248,178,25315,1,8,0:0:0:0:
248,178,25615,1,8,0:0:0:0:
248,178,25915,1,0,0:0:0:0:
248,178,26215,1,0,0:0:0:0:
248,178,26815,1,0,0:0:0:0:
223,101,28015,5,0,0:0:0:0:
223,101,28315,1,8,0:0:0:0:
223,101,28615,1,0,0:0:0:0:
223,101,28915,1,0,0:0:0:0:
223,101,29215,1,8,0:0:0:0:
223,101,29815,1,0,0:0:0:0:
223,101,30115,1,8,0:0:0:0:
223,101,30415,1,0,0:0:0:0:
96,137,30715,1,8,0:0:0:0:
223,101,31015,1,0,0:0:0:0:
223,101,31615,1,4,0:0:0:0:
223,101,32815,1,12,0:0:0:0:
223,101,34015,1,0,0:0:0:0:
223,101,34315,1,0,0:0:0:0:
223,101,34615,1,0,0:0:0:0:
223,101,34915,1,8,0:0:0:0:
223,101,35215,1,0,0:0:0:0:
223,101,36415,1,0,0:0:0:0:
223,101,36715,1,0,0:0:0:0:
223,101,37015,1,8,0:0:0:0:
223,101,37315,1,8,0:0:0:0:
223,101,37615,1,0,0:0:0:0:
223,101,38815,1,0,0:0:0:0:
223,101,39115,1,0,0:0:0:0:
223,101,39415,1,0,0:0:0:0:
223,101,39715,1,8,0:0:0:0:
223,101,40015,1,0,0:0:0:0:
353,139,40615,1,0,0:0:0:0:
480,177,41215,1,0,0:0:0:0:
480,177,41515,1,0,0:0:0:0:
480,177,41815,1,8,0:0:0:0:
416,148,42115,1,8,0:0:0:0:
480,177,42415,1,4,0:0:0:0:
238,48,43615,1,0,0:0:0:0:
238,48,44215,1,0,0:0:0:0:
238,48,44515,1,8,0:0:0:0:
238,48,44815,1,0,0:0:0:0:
238,48,46015,1,0,0:0:0:0:
238,48,46615,1,0,0:0:0:0:
238,48,46915,1,8,0:0:0:0:
238,48,47215,1,8,0:0:0:0:
268,250,48115,1,8,0:0:0:0:
238,47,49015,1,8,0:0:0:0:
257,179,49615,1,8,0:0:0:0:
247,113,49915,1,0,0:0:0:0:
247,113,50215,1,8,0:0:0:0:
247,113,50515,1,8,0:0:0:0:
108,103,52015,1,4,0:0:0:0:
233,79,52615,1,8,0:0:0:0:
161,114,53815,1,8,0:0:0:0:
161,114,55015,1,8,0:0:0:0:
285,351,56215,1,8,0:0:0:0:
225,237,56815,1,0,0:0:0:0:
225,237,57415,1,8,0:0:0:0:
201,148,58615,1,8,0:0:0:0:
201,148,59815,1,8,0:0:0:0:
201,148,60415,1,8,0:0:0:0:
91,168,61615,1,4,0:0:0:0:
218,161,62215,1,8,0:0:0:0:
485,152,63415,1,8,0:0:0:0:
360,156,64015,1,0,0:0:0:0:
235,160,64615,1,8,0:0:0:0:
235,160,65815,1,8,0:0:0:0:
235,160,66415,1,0,0:0:0:0:
235,160,67015,1,8,0:0:0:0:
235,160,68215,1,8,0:0:0:0:
235,160,68815,1,0,0:0:0:0:
235,160,69415,1,8,0:0:0:0:
235,160,70015,1,8,0:0:0:0:
159,148,70315,1,0,0:0:0:0:
235,160,70615,1,8,0:0:0:0:
235,160,70915,1,8,0:0:0:0:
235,160,71215,1,0,0:0:0:0:
230,162,73615,1,0,0:0:0:0:
231,162,74815,1,0,0:0:0:0:
231,162,76015,1,8,0:0:0:0:
197,157,78415,5,8,0:0:0:0:
199,157,79615,1,8,0:0:0:0:
161,265,80815,5,4,0:0:0:0:
165,143,81415,1,0,0:0:0:0:
165,143,81715,1,8,0:0:0:0:
165,143,82015,1,0,0:0:0:0:
165,143,82615,1,8,0:0:0:0:
163,78,82915,1,8,0:0:0:0:
165,143,83215,1,0,0:0:0:0:
422,89,84415,1,0,0:0:0:0:
301,117,85015,1,8,0:0:0:0:
245,130,85315,1,8,0:0:0:0:
187,145,85615,1,0,0:0:0:0:
187,145,86215,1,0,0:0:0:0:
187,145,86515,1,8,0:0:0:0:
187,145,86815,1,0,0:0:0:0:
187,145,87415,1,8,0:0:0:0:
230,227,87715,1,8,0:0:0:0:
264,204,88015,1,0,0:0:0:0:
57,39,89215,1,8,0:0:0:0:
161,122,89815,1,0,0:0:0:0:
212,161,90115,1,8,0:0:0:0:
166,125,90415,1,4,0:0:0:0:
223,45,91615,1,4,0:0:0:0:
223,45,92815,1,4,0:0:0:0:
223,45,94015,1,4,0:0:0:0:
223,45,95215,1,4,0:0:0:0:
223,45,95815,1,4,0:0:0:0:
223,45,96415,1,4,0:0:0:0:
223,45,97015,1,4,0:0:0:0:
223,45,97615,1,4,0:0:0:0:
215,105,97915,1,0,0:0:0:0:
208,169,98215,1,8,0:0:0:0:
208,169,98515,1,8,0:0:0:0:
458,26,99715,1,0,0:0:0:0:
282,119,100015,1,12,0:0:0:0:
282,119,100615,1,0,0:0:0:0:
282,119,100915,1,8,0:0:0:0:
282,119,101215,1,0,0:0:0:0:
282,119,101815,1,0,0:0:0:0:
181,169,102115,1,8,0:0:0:0:
282,119,102715,1,8,0:0:0:0:
282,119,103015,1,0,0:0:0:0:
282,119,103615,1,0,0:0:0:0:
266,60,104815,1,0,0:0:0:0:
297,170,105115,1,8,0:0:0:0:
326,276,105415,1,0,0:0:0:0:
264,52,106015,1,0,0:0:0:0:
325,274,106615,1,0,0:0:0:0:
294,160,106915,1,8,0:0:0:0:
105,14,107515,1,8,0:0:0:0:
265,55,107815,1,0,0:0:0:0:
247,47,109015,1,4,0:0:0:0:
161,114,109315,1,4,0:0:0:0:
247,47,109615,1,12,0:0:0:0:
247,47,110215,1,8,0:0:0:0:
247,47,110515,1,0,0:0:0:0:
247,47,110815,1,8,0:0:0:0:
250,303,111415,1,0,0:0:0:0:
248,178,111715,1,8,0:0:0:0:
248,178,112015,1,8,0:0:0:0:
248,178,112315,1,0,0:0:0:0:
248,178,112615,1,0,0:0:0:0:
248,178,113215,1,0,0:0:0:0:
223,101,114415,5,0,0:0:0:0:
223,101,114715,1,8,0:0:0:0:
223,101,115015,1,0,0:0:0:0:
223,101,115315,1,0,0:0:0:0:
223,101,115615,1,8,0:0:0:0:
223,101,116215,1,0,0:0:0:0:
223,101,116515,1,8,0:0:0:0:
223,101,116815,1,0,0:0:0:0:
96,137,117115,1,8,0:0:0:0:
223,101,117415,1,0,0:0:0:0:
223,101,118015,1,4,0:0:0:0:
223,101,119215,1,12,0:0:0:0:
472,218,120415,1,0,0:0:0:0:
415,191,120715,1,0,0:0:0:0:
355,162,121015,1,0,0:0:0:0:
355,162,121315,1,8,0:0:0:0:
355,162,121615,1,0,0:0:0:0:
355,162,122815,1,0,0:0:0:0:
355,162,123115,1,0,0:0:0:0:
355,162,123415,1,8,0:0:0:0:
355,162,123715,1,8,0:0:0:0:
355,162,124015,1,0,0:0:0:0:
355,162,124615,1,0,0:0:0:0:
355,162,125215,1,0,0:0:0:0:
355,162,125515,1,0,0:0:0:0:
355,162,125815,1,0,0:0:0:0:
355,162,126115,1,8,0:0:0:0:
355,162,126415,1,0,0:0:0:0:
355,162,127015,1,0,0:0:0:0:
322,110,127315,1,0,0:0:0:0:
322,110,127615,1,8,0:0:0:0:
322,110,127915,1,8,0:0:0:0:
322,110,128215,1,0,0:0:0:0:
322,110,128815,1,0,0:0:0:0:
238,48,130015,1,0,0:0:0:0:
238,48,130615,1,0,0:0:0:0:
238,48,130915,1,8,0:0:0:0:
238,48,131215,1,0,0:0:0:0:
238,48,132415,1,0,0:0:0:0:
238,48,133015,1,0,0:0:0:0:
238,48,133315,1,8,0:0:0:0:
238,48,133615,1,0,0:0:0:0:
311,309,134815,1,0,0:0:0:0:
276,182,135415,1,0,0:0:0:0:
292,242,135715,1,8,0:0:0:0:
277,184,136015,1,0,0:0:0:0:
287,223,137215,1,0,0:0:0:0:
287,223,137815,1,0,0:0:0:0:
287,223,138115,1,8,0:0:0:0:
287,223,138415,1,0,0:0:0:0:
156,165,140815,1,0,0:0:0:0:
157,144,143215,1,8,0:0:0:0:
157,144,144115,1,8,0:0:0:0:
157,144,145015,1,8,0:0:0:0:
157,144,145615,1,8,0:0:0:0:
157,144,145915,1,0,0:0:0:0:
157,144,146215,1,8,0:0:0:0:
157,144,146515,1,8,0:0:0:0:
