osu file format v14

[General]
AudioFilename: audio.mp3
AudioLeadIn: 0
PreviewTime: 80610
Countdown: 0
SampleSet: Normal
StackLeniency: 0.2
Mode: 1
LetterboxInBreaks: 0
WidescreenStoryboard: 0

[Editor]
DistanceSpacing: 0.1
BeatDivisor: 1
GridSize: 32
TimelineZoom: 1.604

[Metadata]
Title:New Game Plus
TitleUnicode:New Game Plus
Artist:Kobaryo
ArtistUnicode:Kobaryo
Creator:Genjuro
Version:Futsuu
Source:
Tags:electronic instrumental speedcore splittercore 8-bit 8bit 700 over!! psycho filth records featured artist fa mappers' guild mg osu! ng+
BeatmapID:2598135
BeatmapSetID:1249951

[Difficulty]
HPDrainRate:6
CircleSize:2
OverallDifficulty:4
ApproachRate:10
SliderMultiplier:1.3
SliderTickRate:1

[Events]
//Background and Video events
0,0,"bg.png",0,0
//Break Periods
2,71210,79410
//Storyboard Layer 0 (Background)
//Storyboard Layer 1 (Fail)
//Storyboard Layer 2 (Pass)
//Storyboard Layer 3 (Foreground)
//Storyboard Layer 4 (Overlay)
//Storyboard Sound Samples

[TimingPoints]
2610,300,4,1,0,100,1,0
13410,300,4,1,0,100,1,1
31410,-100,4,1,0,100,0,0
32610,-100,4,1,0,100,0,1
42210,-100,4,1,0,100,0,0
42285,-100,4,1,0,75,0,0
46935,-100,4,1,0,100,0,0
51735,-100,4,1,0,75,0,0
51810,-100,4,1,0,75,0,1
60210,-100,4,1,0,75,0,0
60735,-100,4,1,0,100,0,0
61335,-100,4,1,0,75,0,0
61410,-100,4,1,0,75,0,1
69785,-100,4,1,0,100,0,1
69810,-100,4,1,0,100,0,0
71085,-100,4,1,0,5,0,0
79410,-100,4,1,0,100,0,0
80610,-100,4,1,0,100,0,1
90210,-100,4,1,0,100,0,0
99810,-100,4,1,0,100,0,1
117810,-100,4,1,0,100,0,0
119010,-100,4,1,0,100,0,1
128610,-100,4,1,0,100,0,0
128685,-100,4,1,0,75,0,0
138135,-100,4,1,0,50,0,0
142935,-100,4,1,0,100,0,0

[HitObjects]
256,192,2610,1,4,0:0:0:0:
256,192,7410,1,8,0:0:0:0:
256,192,8010,1,8,0:0:0:0:
256,192,8610,1,0,0:0:0:0:
256,192,9210,1,0,0:0:0:0:
256,192,9810,1,8,0:0:0:0:
256,192,10410,1,8,0:0:0:0:
256,192,11010,1,0,0:0:0:0:
256,192,11310,1,0,0:0:0:0:
256,192,11610,1,8,0:0:0:0:
256,192,11910,1,8,0:0:0:0:
256,192,12210,1,0,0:0:0:0:
256,192,13410,1,12,0:0:0:0:
256,192,13710,1,0,0:0:0:0:
256,192,14010,1,8,0:0:0:0:
256,192,14160,1,8,0:0:0:0:
256,192,14310,1,0,0:0:0:0:
256,192,14610,1,8,0:0:0:0:
256,192,14910,1,0,0:0:0:0:
256,192,15060,1,8,0:0:0:0:
256,192,15210,1,0,0:0:0:0:
256,192,15510,1,8,0:0:0:0:
256,192,15810,1,0,0:0:0:0:
256,192,16110,1,8,0:0:0:0:
256,192,16410,1,0,0:0:0:0:
256,192,16560,1,0,0:0:0:0:
256,192,16710,1,8,0:0:0:0:
256,192,17010,1,0,0:0:0:0:
256,192,17310,1,8,0:0:0:0:
256,192,17460,1,0,0:0:0:0:
256,192,17610,1,8,0:0:0:0:
256,192,18210,1,0,0:0:0:0:
256,192,18510,1,8,0:0:0:0:
256,192,18810,1,0,0:0:0:0:
256,192,18960,1,0,0:0:0:0:
256,192,19110,1,8,0:0:0:0:
256,192,19410,1,0,0:0:0:0:
256,192,19710,1,8,0:0:0:0:
256,192,19860,1,0,0:0:0:0:
256,192,20010,1,8,0:0:0:0:
256,192,20310,1,0,0:0:0:0:
256,192,20610,1,8,0:0:0:0:
256,192,20910,1,0,0:0:0:0:
256,192,21210,1,8,0:0:0:0:
256,192,21360,1,8,0:0:0:0:
256,192,21510,1,0,0:0:0:0:
256,192,21810,1,8,0:0:0:0:
256,192,22410,1,0,0:0:0:0:
256,192,22710,1,0,0:0:0:0:
256,192,23010,1,8,0:0:0:0:
256,192,23160,1,8,0:0:0:0:
256,192,23310,1,8,0:0:0:0:
256,192,23610,1,0,0:0:0:0:
256,192,23910,1,8,0:0:0:0:
256,192,24060,1,8,0:0:0:0:
256,192,24210,1,0,0:0:0:0:
256,192,24510,1,8,0:0:0:0:
256,192,24810,1,0,0:0:0:0:
256,192,25110,1,8,0:0:0:0:
256,192,25260,1,8,0:0:0:0:
256,192,25410,1,8,0:0:0:0:
256,192,25560,1,8,0:0:0:0:
256,192,25710,1,8,0:0:0:0:
256,192,26010,1,0,0:0:0:0:
256,192,26310,1,8,0:0:0:0:
256,192,26460,1,8,0:0:0:0:
256,192,26610,1,0,0:0:0:0:
256,192,26910,1,8,0:0:0:0:
256,192,27210,1,0,0:0:0:0:
256,192,27810,1,8,0:0:0:0:
256,192,27960,1,8,0:0:0:0:
256,192,28110,1,8,0:0:0:0:
256,192,28410,1,0,0:0:0:0:
256,192,28860,1,8,0:0:0:0:
256,192,29160,1,0,0:0:0:0:
256,192,29310,1,8,0:0:0:0:
256,192,29610,1,0,0:0:0:0:
256,192,30060,1,8,0:0:0:0:
256,192,30360,1,0,0:0:0:0:
256,192,30510,1,8,0:0:0:0:
256,192,30810,1,0,0:0:0:0:
256,192,31410,1,12,0:0:0:0:
256,192,32610,1,0,0:0:0:0:
256,192,32760,1,0,0:0:0:0:
256,192,32910,1,8,0:0:0:0:
256,192,33060,1,8,0:0:0:0:
256,192,33210,1,0,0:0:0:0:
256,192,33510,1,8,0:0:0:0:
256,192,33810,1,0,0:0:0:0:
256,192,33960,1,0,0:0:0:0:
256,192,34110,1,8,0:0:0:0:
256,192,34410,1,8,0:0:0:0:
256,192,34710,1,0,0:0:0:0:
256,192,35010,1,8,0:0:0:0:
256,192,35160,1,8,0:0:0:0:
256,192,35310,1,0,0:0:0:0:
256,192,35460,1,0,0:0:0:0:
256,192,35610,1,8,0:0:0:0:
256,192,35910,1,0,0:0:0:0:
256,192,36210,1,8,0:0:0:0:
256,192,36360,1,8,0:0:0:0:
256,192,36510,1,0,0:0:0:0:
256,192,36810,1,8,0:0:0:0:
256,192,37410,1,0,0:0:0:0:
256,192,37560,1,8,0:0:0:0:
256,192,37710,1,8,0:0:0:0:
256,192,37860,1,8,0:0:0:0:
256,192,38010,1,0,0:0:0:0:
256,192,38310,1,8,0:0:0:0:
256,192,38610,1,8,0:0:0:0:
256,192,38760,1,0,0:0:0:0:
256,192,38910,1,0,0:0:0:0:
256,192,39060,1,0,0:0:0:0:
256,192,39210,1,8,0:0:0:0:
256,192,39510,1,0,0:0:0:0:
256,192,39810,1,8,0:0:0:0:
256,192,39960,1,0,0:0:0:0:
256,192,40110,1,8,0:0:0:0:
256,192,40410,1,0,0:0:0:0:
256,192,40560,1,8,0:0:0:0:
256,192,40710,1,0,0:0:0:0:
256,192,41010,1,8,0:0:0:0:
256,192,41160,1,8,0:0:0:0:
256,192,41310,1,8,0:0:0:0:
256,192,41460,1,8,0:0:0:0:
256,192,41610,1,0,0:0:0:0:
256,192,41910,1,8,0:0:0:0:
256,192,42210,1,4,0:0:0:0:
256,192,44610,1,8,0:0:0:0:
256,192,47010,1,8,0:0:0:0:
256,192,47610,1,8,0:0:0:0:
256,192,47910,1,8,0:0:0:0:
256,192,48510,1,8,0:0:0:0:
256,192,48810,1,8,0:0:0:0:
256,192,49110,1,8,0:0:0:0:
256,192,49410,1,8,0:0:0:0:
256,192,50010,1,8,0:0:0:0:
256,192,50310,1,8,0:0:0:0:
256,192,51810,1,4,0:0:0:0:
256,192,52410,1,8,0:0:0:0:
256,192,52560,1,0,0:0:0:0:
256,192,53310,1,0,0:0:0:0:
256,192,53610,1,8,0:0:0:0:
256,192,54210,1,0,0:0:0:0:
256,192,54660,1,0,0:0:0:0:
256,192,54810,1,8,0:0:0:0:
256,192,54960,1,0,0:0:0:0:
256,192,55710,1,0,0:0:0:0:
256,192,56010,1,8,0:0:0:0:
256,192,56610,1,0,0:0:0:0:
256,192,57210,1,8,0:0:0:0:
256,192,57360,1,0,0:0:0:0:
256,192,58110,1,0,0:0:0:0:
256,192,58410,1,8,0:0:0:0:
256,192,59010,1,0,0:0:0:0:
256,192,59460,1,0,0:0:0:0:
256,192,59610,1,8,0:0:0:0:
256,192,59760,1,0,0:0:0:0:
256,192,60210,1,8,0:0:0:0:
256,192,60810,1,8,0:0:0:0:
256,192,61110,1,8,0:0:0:0:
256,192,61410,1,4,0:0:0:0:
256,192,62010,1,8,0:0:0:0:
256,192,62160,1,0,0:0:0:0:
256,192,62460,1,8,0:0:0:0:
256,192,62760,1,8,0:0:0:0:
256,192,62910,1,0,0:0:0:0:
256,192,63210,1,8,0:0:0:0:
256,192,63810,1,0,0:0:0:0:
256,192,64260,1,0,0:0:0:0:
256,192,64410,1,8,0:0:0:0:
256,192,64560,1,0,0:0:0:0:
256,192,64860,1,8,0:0:0:0:
256,192,65160,1,8,0:0:0:0:
256,192,65310,1,0,0:0:0:0:
256,192,65910,1,8,0:0:0:0:
256,192,66210,1,0,0:0:0:0:
256,192,66810,1,8,0:0:0:0:
256,192,66960,1,0,0:0:0:0:
256,192,67260,1,8,0:0:0:0:
256,192,67560,1,8,0:0:0:0:
256,192,67710,1,0,0:0:0:0:
256,192,68010,1,8,0:0:0:0:
256,192,68610,1,0,0:0:0:0:
256,192,69060,1,0,0:0:0:0:
256,192,69210,1,8,0:0:0:0:
256,192,69360,1,0,0:0:0:0:
256,192,69660,1,8,0:0:0:0:
256,192,69810,1,0,0:0:0:0:
256,192,70110,1,0,0:0:0:0:
256,192,70410,1,8,0:0:0:0:
256,192,70710,1,8,0:0:0:0:
256,192,71010,1,4,0:0:0:0:
256,192,80610,5,12,0:0:0:0:
256,192,80910,1,0,0:0:0:0:
256,192,81210,1,8,0:0:0:0:
256,192,81360,1,0,0:0:0:0:
256,192,81510,1,8,0:0:0:0:
256,192,81810,1,0,0:0:0:0:
256,192,82110,1,8,0:0:0:0:
256,192,82260,1,8,0:0:0:0:
256,192,82410,1,0,0:0:0:0:
256,192,82560,1,0,0:0:0:0:
256,192,82710,1,8,0:0:0:0:
256,192,83010,1,0,0:0:0:0:
256,192,83310,1,8,0:0:0:0:
256,192,83460,1,0,0:0:0:0:
256,192,83760,1,0,0:0:0:0:
256,192,83910,1,8,0:0:0:0:
256,192,84210,1,0,0:0:0:0:
256,192,84510,1,8,0:0:0:0:
256,192,84660,1,8,0:0:0:0:
256,192,84810,1,0,0:0:0:0:
256,192,85410,1,8,0:0:0:0:
256,192,85710,1,0,0:0:0:0:
256,192,86010,1,8,0:0:0:0:
256,192,86160,1,0,0:0:0:0:
256,192,86310,1,8,0:0:0:0:
256,192,86610,1,0,0:0:0:0:
256,192,86910,1,8,0:0:0:0:
256,192,87060,1,8,0:0:0:0:
256,192,87210,1,0,0:0:0:0:
256,192,87360,1,0,0:0:0:0:
256,192,87510,1,8,0:0:0:0:
256,192,87810,1,0,0:0:0:0:
256,192,88110,1,8,0:0:0:0:
256,192,88260,1,0,0:0:0:0:
256,192,88560,1,0,0:0:0:0:
256,192,88710,1,8,0:0:0:0:
256,192,89010,1,0,0:0:0:0:
256,192,89310,1,8,0:0:0:0:
256,192,89460,1,8,0:0:0:0:
256,192,89610,1,0,0:0:0:0:
256,192,90210,1,4,0:0:0:0:
256,192,91410,1,4,0:0:0:0:
256,192,92610,1,4,0:0:0:0:
256,192,93810,1,4,0:0:0:0:
256,192,95010,1,8,0:0:0:0:
256,192,95610,1,8,0:0:0:0:
256,192,96210,1,0,0:0:0:0:
256,192,96810,1,0,0:0:0:0:
256,192,97410,1,8,0:0:0:0:
256,192,97710,1,0,0:0:0:0:
256,192,98010,1,0,0:0:0:0:
256,192,98310,1,8,0:0:0:0:
256,192,99810,1,12,0:0:0:0:
256,192,100110,1,0,0:0:0:0:
256,192,100410,1,8,0:0:0:0:
256,192,100560,1,8,0:0:0:0:
256,192,100710,1,0,0:0:0:0:
256,192,101010,1,8,0:0:0:0:
256,192,101310,1,0,0:0:0:0:
256,192,101460,1,8,0:0:0:0:
256,192,101610,1,0,0:0:0:0:
256,192,101910,1,8,0:0:0:0:
256,192,102210,1,0,0:0:0:0:
256,192,102510,1,8,0:0:0:0:
256,192,102810,1,0,0:0:0:0:
256,192,102960,1,0,0:0:0:0:
256,192,103110,1,8,0:0:0:0:
256,192,103410,1,0,0:0:0:0:
256,192,103710,1,8,0:0:0:0:
256,192,103860,1,0,0:0:0:0:
256,192,104010,1,8,0:0:0:0:
256,192,104610,1,0,0:0:0:0:
256,192,104910,1,8,0:0:0:0:
256,192,105210,1,0,0:0:0:0:
256,192,105360,1,0,0:0:0:0:
256,192,105510,1,8,0:0:0:0:
256,192,105810,1,0,0:0:0:0:
256,192,106110,1,8,0:0:0:0:
256,192,106260,1,0,0:0:0:0:
256,192,106410,1,8,0:0:0:0:
256,192,106710,1,0,0:0:0:0:
256,192,107010,1,8,0:0:0:0:
256,192,107310,1,0,0:0:0:0:
256,192,107610,1,8,0:0:0:0:
256,192,107760,1,8,0:0:0:0:
256,192,107910,1,0,0:0:0:0:
256,192,108210,1,8,0:0:0:0:
256,192,108810,1,0,0:0:0:0:
256,192,109110,1,0,0:0:0:0:
256,192,109410,1,8,0:0:0:0:
256,192,109560,1,8,0:0:0:0:
256,192,109710,1,8,0:0:0:0:
256,192,110010,1,0,0:0:0:0:
256,192,110310,1,8,0:0:0:0:
256,192,110460,1,8,0:0:0:0:
256,192,110610,1,0,0:0:0:0:
256,192,110910,1,8,0:0:0:0:
256,192,111210,1,0,0:0:0:0:
256,192,111510,1,8,0:0:0:0:
256,192,111660,1,8,0:0:0:0:
256,192,111810,1,8,0:0:0:0:
256,192,111960,1,8,0:0:0:0:
256,192,112110,1,8,0:0:0:0:
256,192,112410,1,0,0:0:0:0:
256,192,112710,1,8,0:0:0:0:
256,192,112860,1,8,0:0:0:0:
256,192,113010,1,0,0:0:0:0:
256,192,113310,1,8,0:0:0:0:
256,192,113610,1,0,0:0:0:0:
256,192,114210,1,8,0:0:0:0:
256,192,114360,1,8,0:0:0:0:
256,192,114510,1,8,0:0:0:0:
256,192,114810,1,0,0:0:0:0:
256,192,115260,1,8,0:0:0:0:
256,192,115560,1,0,0:0:0:0:
256,192,115710,1,8,0:0:0:0:
256,192,116010,1,0,0:0:0:0:
256,192,116460,1,8,0:0:0:0:
256,192,116760,1,0,0:0:0:0:
256,192,116910,1,8,0:0:0:0:
256,192,117210,1,0,0:0:0:0:
256,192,117810,1,12,0:0:0:0:
256,192,119010,1,0,0:0:0:0:
256,192,119160,1,0,0:0:0:0:
256,192,119310,1,8,0:0:0:0:
256,192,119460,1,8,0:0:0:0:
256,192,119610,1,0,0:0:0:0:
256,192,119910,1,8,0:0:0:0:
256,192,120210,1,0,0:0:0:0:
256,192,120360,1,0,0:0:0:0:
256,192,120510,1,8,0:0:0:0:
256,192,120810,1,8,0:0:0:0:
256,192,121110,1,0,0:0:0:0:
256,192,121410,1,8,0:0:0:0:
256,192,121560,1,8,0:0:0:0:
256,192,121710,1,0,0:0:0:0:
256,192,121860,1,0,0:0:0:0:
256,192,122010,1,8,0:0:0:0:
256,192,122310,1,0,0:0:0:0:
256,192,122610,1,8,0:0:0:0:
256,192,122760,1,8,0:0:0:0:
256,192,122910,1,0,0:0:0:0:
256,192,123210,1,8,0:0:0:0:
256,192,123810,1,0,0:0:0:0:
256,192,123960,1,8,0:0:0:0:
256,192,124110,1,8,0:0:0:0:
256,192,124260,1,8,0:0:0:0:
256,192,124410,1,0,0:0:0:0:
256,192,124710,1,8,0:0:0:0:
256,192,125010,1,8,0:0:0:0:
256,192,125160,1,0,0:0:0:0:
256,192,125310,1,0,0:0:0:0:
256,192,125460,1,0,0:0:0:0:
256,192,125610,1,8,0:0:0:0:
256,192,125910,1,0,0:0:0:0:
256,192,126210,1,8,0:0:0:0:
256,192,126360,1,0,0:0:0:0:
256,192,126510,1,8,0:0:0:0:
256,192,126810,1,8,0:0:0:0:
256,192,126960,1,0,0:0:0:0:
256,192,127110,1,8,0:0:0:0:
256,192,127410,1,8,0:0:0:0:
256,192,127560,1,8,0:0:0:0:
256,192,127710,1,8,0:0:0:0:
256,192,127860,1,8,0:0:0:0:
256,192,128010,1,0,0:0:0:0:
256,192,128310,1,8,0:0:0:0:
256,192,128610,1,4,0:0:0:0:
256,192,131010,1,8,0:0:0:0:
256,192,133410,1,0,0:0:0:0:
256,192,135810,1,8,0:0:0:0:
256,192,138210,1,0,0:0:0:0:
256,192,143010,1,8,0:0:0:0:
256,192,143610,1,8,0:0:0:0:
256,192,143910,1,8,0:0:0:0:
256,192,144510,1,8,0:0:0:0:
256,192,144810,1,8,0:0:0:0:
256,192,145110,1,8,0:0:0:0:
256,192,145410,1,8,0:0:0:0:
256,192,146010,1,8,0:0:0:0:
256,192,146310,1,8,0:0:0:0:
