osu file format v14

[General]
AudioFilename: audio.mp3
AudioLeadIn: 1500
PreviewTime: 25562
Countdown: 0
SampleSet: Normal
StackLeniency: 0.7
Mode: 1
LetterboxInBreaks: 0
WidescreenStoryboard: 0

[Editor]
DistanceSpacing: 0.4
BeatDivisor: 2
GridSize: 32
TimelineZoom: 3.599998

[Metadata]
Title:Necrophagiatoast
TitleUnicode:Necrophagiatoast
Artist:Kobaryo
ArtistUnicode:Kobaryo
Creator:_yu68
Version:Oni
Source:
Tags:psycho filth records 666 over!! speedcore splittercore
BeatmapID:1203251
BeatmapSetID:567504

[Difficulty]
HPDrainRate:5
CircleSize:2
OverallDifficulty:5
ApproachRate:10
SliderMultiplier:1.4
SliderTickRate:1

[Events]
//Background and Video events
0,0,"BG.jpg",0,-50
//Break Periods
2,93527,98524
2,99174,104171
2,149998,154995
//Storyboard Layer 0 (Background)
//Storyboard Layer 1 (Fail)
//Storyboard Layer 2 (Pass)
//Storyboard Layer 3 (Foreground)
//Storyboard Sound Samples

[TimingPoints]
151,176.470588235294,4,1,0,50,1,0
151,-200,4,1,0,50,0,0
22739,-200,4,1,0,90,0,0
93239,-200,4,1,0,50,0,0
104533,-200,4,1,0,70,0,0
115121,-200,4,1,0,50,0,0
115871,-200,4,1,0,90,0,0
149886,-200,4,1,0,50,0,0
161003,-200,4,1,0,70,0,0
166695,-200,4,1,0,80,0,0
172386,-200,4,1,0,50,0,0
174856,-200,4,1,0,90,0,0
175209,-200,4,1,0,90,0,1
185092,-200,4,1,0,90,0,0
186503,-200,4,1,0,90,0,1
197445,-200,4,1,0,90,0,0

[HitObjects]
256,192,11445,5,8,0:0:0:0:
256,192,11798,1,8,0:0:0:0:
256,192,12150,1,8,0:0:0:0:
256,192,12503,1,8,0:0:0:0:
256,192,12680,1,0,0:0:0:0:
256,192,12856,1,8,0:0:0:0:
256,192,13209,1,8,0:0:0:0:
256,192,13562,1,8,0:0:0:0:
256,192,13915,1,8,0:0:0:0:
256,192,14092,1,0,0:0:0:0:
256,192,14268,1,8,0:0:0:0:
256,192,14621,1,8,0:0:0:0:
256,192,14974,1,8,0:0:0:0:
256,192,15327,1,8,0:0:0:0:
256,192,15503,1,0,0:0:0:0:
256,192,15680,1,8,0:0:0:0:
256,192,16033,1,8,0:0:0:0:
256,192,16386,1,8,0:0:0:0:
256,192,16562,1,0,0:0:0:0:
256,192,16739,1,8,0:0:0:0:
256,192,16915,1,0,0:0:0:0:
256,192,17092,1,8,0:0:0:0:
256,192,17445,1,8,0:0:0:0:
256,192,17798,1,8,0:0:0:0:
256,192,18150,1,8,0:0:0:0:
256,192,18327,1,0,0:0:0:0:
256,192,18503,1,8,0:0:0:0:
256,192,18856,1,8,0:0:0:0:
256,192,19209,1,8,0:0:0:0:
256,192,19562,1,8,0:0:0:0:
256,192,19739,1,0,0:0:0:0:
256,192,19915,1,8,0:0:0:0:
256,192,20268,1,8,0:0:0:0:
256,192,20621,1,8,0:0:0:0:
256,192,20974,1,8,0:0:0:0:
256,192,21150,1,0,0:0:0:0:
256,192,21327,1,8,0:0:0:0:
256,192,21680,1,8,0:0:0:0:
256,192,22033,1,8,0:0:0:0:
256,192,22209,1,8,0:0:0:0:
256,192,22386,1,8,0:0:0:0:
256,192,22562,1,8,0:0:0:0:
256,192,25562,5,0,0:0:0:0:
256,192,25650,1,0,0:0:0:0:
256,192,25739,1,0,0:0:0:0:
256,192,25915,1,8,0:0:0:0:
256,192,26092,1,0,0:0:0:0:
256,192,26180,1,8,0:0:0:0:
256,192,26268,1,0,0:0:0:0:
256,192,26445,1,8,0:0:0:0:
256,192,26621,1,0,0:0:0:0:
256,192,26709,1,8,0:0:0:0:
256,192,26886,1,8,0:0:0:0:
256,192,26974,1,0,0:0:0:0:
256,192,27150,1,8,0:0:0:0:
256,192,27327,1,8,0:0:0:0:
256,192,27503,1,0,0:0:0:0:
256,192,27592,1,8,0:0:0:0:
256,192,27680,1,0,0:0:0:0:
256,192,27856,1,0,0:0:0:0:
256,192,28033,1,8,0:0:0:0:
256,192,28121,1,8,0:0:0:0:
256,192,28209,1,8,0:0:0:0:
256,192,28386,1,0,0:0:0:0:
256,192,28474,1,0,0:0:0:0:
256,192,28562,1,0,0:0:0:0:
256,192,28739,1,8,0:0:0:0:
256,192,28915,1,0,0:0:0:0:
256,192,29003,1,8,0:0:0:0:
256,192,29092,1,0,0:0:0:0:
256,192,29268,1,8,0:0:0:0:
256,192,29445,1,0,0:0:0:0:
256,192,29533,1,8,0:0:0:0:
256,192,29709,1,8,0:0:0:0:
256,192,29798,1,0,0:0:0:0:
256,192,29974,1,8,0:0:0:0:
256,192,30150,1,8,0:0:0:0:
256,192,30327,1,0,0:0:0:0:
256,192,30415,1,8,0:0:0:0:
256,192,30503,1,0,0:0:0:0:
256,192,30592,1,0,0:0:0:0:
256,192,30680,1,0,0:0:0:0:
256,192,30856,1,8,0:0:0:0:
256,192,31209,1,0,0:0:0:0:
256,192,31298,1,0,0:0:0:0:
256,192,31386,1,0,0:0:0:0:
256,192,31474,1,0,0:0:0:0:
256,192,31562,1,8,0:0:0:0:
256,192,31739,1,0,0:0:0:0:
256,192,31827,1,8,0:0:0:0:
256,192,31915,1,0,0:0:0:0:
256,192,32092,1,8,0:0:0:0:
256,192,32268,1,0,0:0:0:0:
256,192,32356,1,8,0:0:0:0:
256,192,32533,1,8,0:0:0:0:
256,192,32621,1,0,0:0:0:0:
256,192,32798,1,0,0:0:0:0:
256,192,32974,1,8,0:0:0:0:
256,192,33150,1,0,0:0:0:0:
256,192,33239,1,8,0:0:0:0:
256,192,33327,1,0,0:0:0:0:
256,192,33503,1,0,0:0:0:0:
256,192,33680,1,8,0:0:0:0:
256,192,33768,1,8,0:0:0:0:
256,192,33856,1,8,0:0:0:0:
256,192,34033,1,0,0:0:0:0:
256,192,34121,1,0,0:0:0:0:
256,192,34209,1,0,0:0:0:0:
256,192,34298,1,0,0:0:0:0:
256,192,34386,1,8,0:0:0:0:
256,192,34562,1,0,0:0:0:0:
256,192,34650,1,8,0:0:0:0:
256,192,34739,1,0,0:0:0:0:
256,192,34915,1,8,0:0:0:0:
256,192,35092,1,0,0:0:0:0:
256,192,35180,1,8,0:0:0:0:
256,192,35356,1,8,0:0:0:0:
256,192,35445,1,0,0:0:0:0:
256,192,35621,1,8,0:0:0:0:
256,192,35798,1,0,0:0:0:0:
256,192,35974,1,8,0:0:0:0:
256,192,36062,1,8,0:0:0:0:
256,192,36150,1,0,0:0:0:0:
256,192,36239,1,0,0:0:0:0:
256,192,36327,1,0,0:0:0:0:
256,192,36415,1,0,0:0:0:0:
256,192,36503,1,8,0:0:0:0:
256,192,36856,5,4,0:0:0:0:
256,192,37209,1,8,0:0:0:0:
256,192,37386,1,0,0:0:0:0:
256,192,37474,1,0,0:0:0:0:
256,192,37562,1,0,0:0:0:0:
256,192,37739,1,8,0:0:0:0:
256,192,37915,1,0,0:0:0:0:
256,192,38003,1,8,0:0:0:0:
256,192,38180,1,8,0:0:0:0:
256,192,38268,1,0,0:0:0:0:
256,192,38445,1,0,0:0:0:0:
256,192,38621,1,8,0:0:0:0:
256,192,38798,1,0,0:0:0:0:
256,192,38886,1,8,0:0:0:0:
256,192,38974,1,0,0:0:0:0:
256,192,39150,1,0,0:0:0:0:
256,192,39327,1,8,0:0:0:0:
256,192,39415,1,0,0:0:0:0:
256,192,39503,1,8,0:0:0:0:
256,192,39680,1,0,0:0:0:0:
256,192,40033,1,8,0:0:0:0:
256,192,40209,1,0,0:0:0:0:
256,192,40298,1,0,0:0:0:0:
256,192,40386,1,0,0:0:0:0:
256,192,40562,1,8,0:0:0:0:
256,192,40739,1,0,0:0:0:0:
256,192,40827,1,8,0:0:0:0:
256,192,41003,1,8,0:0:0:0:
256,192,41092,1,0,0:0:0:0:
256,192,41268,1,0,0:0:0:0:
256,192,41445,1,8,0:0:0:0:
256,192,41621,1,0,0:0:0:0:
256,192,41709,1,0,0:0:0:0:
256,192,41798,1,8,0:0:0:0:
256,192,41974,1,0,0:0:0:0:
256,192,42150,1,8,0:0:0:0:
256,192,42239,1,8,0:0:0:0:
256,192,42327,1,8,0:0:0:0:
256,192,42503,1,4,0:0:0:0:
256,192,42856,1,8,0:0:0:0:
256,192,43033,1,0,0:0:0:0:
256,192,43121,1,0,0:0:0:0:
256,192,43209,1,0,0:0:0:0:
256,192,43386,1,8,0:0:0:0:
256,192,43562,1,0,0:0:0:0:
256,192,43650,1,8,0:0:0:0:
256,192,43827,1,8,0:0:0:0:
256,192,43915,1,0,0:0:0:0:
256,192,44092,1,8,0:0:0:0:
256,192,44268,1,8,0:0:0:0:
256,192,44445,1,0,0:0:0:0:
256,192,44533,1,8,0:0:0:0:
256,192,44621,1,0,0:0:0:0:
256,192,44798,1,8,0:0:0:0:
256,192,44974,1,8,0:0:0:0:
256,192,45062,1,0,0:0:0:0:
256,192,45150,1,8,0:0:0:0:
256,192,45327,1,0,0:0:0:0:
256,192,45680,1,8,0:0:0:0:
256,192,45856,1,0,0:0:0:0:
256,192,45945,1,0,0:0:0:0:
256,192,46033,1,0,0:0:0:0:
256,192,46209,1,8,0:0:0:0:
256,192,46386,1,0,0:0:0:0:
256,192,46474,1,8,0:0:0:0:
256,192,46650,1,8,0:0:0:0:
256,192,46739,1,0,0:0:0:0:
256,192,46915,1,8,0:0:0:0:
256,192,47092,1,0,0:0:0:0:
256,192,47268,1,8,0:0:0:0:
256,192,47356,1,0,0:0:0:0:
256,192,47445,1,0,0:0:0:0:
256,192,47533,1,8,0:0:0:0:
256,192,47709,1,0,0:0:0:0:
256,192,47798,1,8,0:0:0:0:
256,192,48150,5,4,0:0:0:0:
256,192,48327,1,0,0:0:0:0:
256,192,48503,1,8,0:0:0:0:
256,192,48680,1,0,0:0:0:0:
256,192,48768,1,8,0:0:0:0:
256,192,48856,1,0,0:0:0:0:
256,192,49033,1,8,0:0:0:0:
256,192,49209,1,8,0:0:0:0:
256,192,49562,1,0,0:0:0:0:
256,192,49739,1,8,0:0:0:0:
256,192,49915,1,0,0:0:0:0:
256,192,50092,1,0,0:0:0:0:
256,192,50180,1,0,0:0:0:0:
256,192,50268,1,8,0:0:0:0:
256,192,50445,1,8,0:0:0:0:
256,192,50621,1,0,0:0:0:0:
256,192,50709,1,8,0:0:0:0:
256,192,50798,1,0,0:0:0:0:
256,192,50974,1,0,0:0:0:0:
256,192,51150,1,8,0:0:0:0:
256,192,51327,1,8,0:0:0:0:
256,192,51503,1,0,0:0:0:0:
256,192,51592,1,0,0:0:0:0:
256,192,51680,1,8,0:0:0:0:
256,192,51856,1,8,0:0:0:0:
256,192,52033,1,0,0:0:0:0:
256,192,52386,1,8,0:0:0:0:
256,192,52562,1,8,0:0:0:0:
256,192,52739,1,0,0:0:0:0:
256,192,52915,1,8,0:0:0:0:
256,192,53003,1,0,0:0:0:0:
256,192,53092,1,8,0:0:0:0:
256,192,53268,1,8,0:0:0:0:
256,192,53445,1,0,0:0:0:0:
256,192,53533,1,8,0:0:0:0:
256,192,53621,1,0,0:0:0:0:
256,192,53798,1,4,0:0:0:0:
256,192,53974,1,0,0:0:0:0:
256,192,54150,1,8,0:0:0:0:
256,192,54327,1,0,0:0:0:0:
256,192,54415,1,0,0:0:0:0:
256,192,54503,1,8,0:0:0:0:
256,192,54680,1,8,0:0:0:0:
256,192,54856,1,0,0:0:0:0:
256,192,55209,1,0,0:0:0:0:
256,192,55386,1,0,0:0:0:0:
256,192,55562,1,8,0:0:0:0:
256,192,55739,1,0,0:0:0:0:
256,192,55827,1,0,0:0:0:0:
256,192,55915,1,0,0:0:0:0:
256,192,56092,1,8,0:0:0:0:
256,192,56268,1,0,0:0:0:0:
256,192,56356,1,8,0:0:0:0:
256,192,56445,1,0,0:0:0:0:
256,192,56621,1,0,0:0:0:0:
256,192,56798,1,0,0:0:0:0:
256,192,56974,1,8,0:0:0:0:
256,192,57150,1,8,0:0:0:0:
256,192,57239,1,8,0:0:0:0:
256,192,57327,1,0,0:0:0:0:
256,192,57503,1,0,0:0:0:0:
256,192,57680,1,8,0:0:0:0:
256,192,58033,1,0,0:0:0:0:
256,192,58209,1,0,0:0:0:0:
256,192,58386,1,8,0:0:0:0:
256,192,58562,1,0,0:0:0:0:
256,192,58650,1,0,0:0:0:0:
256,192,58739,1,0,0:0:0:0:
256,192,58915,1,8,0:0:0:0:
256,192,59092,1,0,0:0:0:0:
256,192,59268,1,8,0:0:0:0:
256,192,59445,5,4,0:0:0:0:
256,192,59798,1,8,0:0:0:0:
256,192,60150,1,8,0:0:0:0:
256,192,60327,1,8,0:0:0:0:
256,192,60503,1,8,0:0:0:0:
256,192,60592,1,8,0:0:0:0:
256,192,60680,1,8,0:0:0:0:
256,192,60856,1,4,0:0:0:0:
256,192,61209,1,8,0:0:0:0:
256,192,61562,1,8,0:0:0:0:
256,192,61739,1,0,0:0:0:0:
256,192,61915,1,8,0:0:0:0:
256,192,62003,1,8,0:0:0:0:
256,192,62092,1,0,0:0:0:0:
256,192,62268,1,4,0:0:0:0:
256,192,62621,1,8,0:0:0:0:
256,192,62974,1,8,0:0:0:0:
256,192,63150,1,8,0:0:0:0:
256,192,63327,1,8,0:0:0:0:
256,192,63415,1,8,0:0:0:0:
256,192,63503,1,8,0:0:0:0:
256,192,63680,1,4,0:0:0:0:
256,192,64033,1,8,0:0:0:0:
256,192,64386,1,8,0:0:0:0:
256,192,64562,1,0,0:0:0:0:
256,192,64739,1,8,0:0:0:0:
256,192,64827,1,8,0:0:0:0:
256,192,64915,1,0,0:0:0:0:
256,192,65092,1,0,0:0:0:0:
256,192,65180,1,0,0:0:0:0:
256,192,65268,1,0,0:0:0:0:
256,192,65445,1,8,0:0:0:0:
256,192,65797,1,8,0:0:0:0:
256,192,65974,1,8,0:0:0:0:
256,192,66150,1,8,0:0:0:0:
256,192,66239,1,8,0:0:0:0:
256,192,66327,1,8,0:0:0:0:
256,192,66503,1,0,0:0:0:0:
256,192,66592,1,0,0:0:0:0:
256,192,66680,1,0,0:0:0:0:
256,192,66856,1,8,0:0:0:0:
256,192,67209,1,8,0:0:0:0:
256,192,67386,1,0,0:0:0:0:
256,192,67562,1,8,0:0:0:0:
256,192,67650,1,8,0:0:0:0:
256,192,67739,1,0,0:0:0:0:
256,192,67915,1,0,0:0:0:0:
256,192,68003,1,0,0:0:0:0:
256,192,68092,1,0,0:0:0:0:
256,192,68180,1,0,0:0:0:0:
256,192,68268,1,8,0:0:0:0:
256,192,68621,1,8,0:0:0:0:
256,192,68797,1,8,0:0:0:0:
256,192,68974,1,8,0:0:0:0:
256,192,69062,1,8,0:0:0:0:
256,192,69150,1,8,0:0:0:0:
256,192,69327,1,0,0:0:0:0:
256,192,69415,1,0,0:0:0:0:
256,192,69503,1,0,0:0:0:0:
256,192,69592,1,0,0:0:0:0:
256,192,69680,1,8,0:0:0:0:
256,192,69856,1,0,0:0:0:0:
256,192,70033,1,8,0:0:0:0:
256,192,70121,1,8,0:0:0:0:
256,192,70209,1,0,0:0:0:0:
256,192,70386,1,8,0:0:0:0:
256,192,70739,5,0,0:0:0:0:
256,192,71092,1,0,0:0:0:0:
256,192,71268,1,8,0:0:0:0:
256,192,71445,1,0,0:0:0:0:
256,192,71798,1,0,0:0:0:0:
256,192,71974,1,8,0:0:0:0:
256,192,72150,1,0,0:0:0:0:
256,192,72503,1,0,0:0:0:0:
256,192,72680,1,8,0:0:0:0:
256,192,72856,1,0,0:0:0:0:
256,192,73033,1,8,0:0:0:0:
256,192,73121,1,8,0:0:0:0:
256,192,73209,1,0,0:0:0:0:
256,192,73386,1,8,0:0:0:0:
256,192,73562,1,0,0:0:0:0:
256,192,73915,1,0,0:0:0:0:
256,192,74092,1,8,0:0:0:0:
256,192,74268,1,0,0:0:0:0:
256,192,74621,1,0,0:0:0:0:
256,192,74798,1,8,0:0:0:0:
256,192,74974,1,0,0:0:0:0:
256,192,75327,1,0,0:0:0:0:
256,192,75503,1,8,0:0:0:0:
256,192,75680,1,0,0:0:0:0:
256,192,75856,1,8,0:0:0:0:
256,192,75945,1,8,0:0:0:0:
256,192,76033,1,0,0:0:0:0:
256,192,76209,1,8,0:0:0:0:
256,192,76386,1,0,0:0:0:0:
256,192,76562,1,8,0:0:0:0:
256,192,76739,1,0,0:0:0:0:
256,192,77092,1,0,0:0:0:0:
256,192,77268,1,8,0:0:0:0:
256,192,77445,1,0,0:0:0:0:
256,192,77798,1,0,0:0:0:0:
256,192,77974,1,8,0:0:0:0:
256,192,78150,1,0,0:0:0:0:
256,192,78327,1,8,0:0:0:0:
256,192,78415,1,8,0:0:0:0:
256,192,78503,1,0,0:0:0:0:
256,192,78680,1,8,0:0:0:0:
256,192,78856,1,0,0:0:0:0:
256,192,79209,1,0,0:0:0:0:
256,192,79386,1,8,0:0:0:0:
256,192,79562,1,0,0:0:0:0:
256,192,79915,1,0,0:0:0:0:
256,192,80092,1,8,0:0:0:0:
256,192,80268,1,0,0:0:0:0:
256,192,80621,1,0,0:0:0:0:
256,192,80798,1,8,0:0:0:0:
256,192,80974,1,0,0:0:0:0:
256,192,81150,1,8,0:0:0:0:
256,192,81327,1,0,0:0:0:0:
256,192,81503,1,8,0:0:0:0:
256,192,81592,1,8,0:0:0:0:
256,192,81680,1,8,0:0:0:0:
256,192,82033,5,4,0:0:0:0:
256,192,82386,1,8,0:0:0:0:
256,192,82562,1,0,0:0:0:0:
256,192,82650,1,0,0:0:0:0:
256,192,82739,1,0,0:0:0:0:
256,192,82915,1,8,0:0:0:0:
256,192,83092,1,0,0:0:0:0:
256,192,83180,1,8,0:0:0:0:
256,192,83356,1,8,0:0:0:0:
256,192,83445,1,0,0:0:0:0:
256,192,83621,1,0,0:0:0:0:
256,192,83798,1,8,0:0:0:0:
256,192,83974,1,0,0:0:0:0:
256,192,84062,1,8,0:0:0:0:
256,192,84150,1,0,0:0:0:0:
256,192,84327,1,0,0:0:0:0:
256,192,84503,1,8,0:0:0:0:
256,192,84592,1,0,0:0:0:0:
256,192,84680,1,8,0:0:0:0:
256,192,84856,1,0,0:0:0:0:
256,192,85209,1,8,0:0:0:0:
256,192,85386,1,0,0:0:0:0:
256,192,85474,1,0,0:0:0:0:
256,192,85562,1,0,0:0:0:0:
256,192,85739,1,8,0:0:0:0:
256,192,85915,1,0,0:0:0:0:
256,192,86003,1,8,0:0:0:0:
256,192,86180,1,8,0:0:0:0:
256,192,86268,1,0,0:0:0:0:
256,192,86445,1,8,0:0:0:0:
256,192,86621,1,0,0:0:0:0:
256,192,86798,1,8,0:0:0:0:
256,192,86886,1,0,0:0:0:0:
256,192,86974,1,8,0:0:0:0:
256,192,87150,1,8,0:0:0:0:
256,192,87327,1,0,0:0:0:0:
256,192,87503,1,8,0:0:0:0:
256,192,87592,1,8,0:0:0:0:
256,192,87680,1,0,0:0:0:0:
256,192,88033,1,8,0:0:0:0:
256,192,88209,1,0,0:0:0:0:
256,192,88298,1,8,0:0:0:0:
256,192,88386,1,0,0:0:0:0:
256,192,88562,1,8,0:0:0:0:
256,192,88739,1,0,0:0:0:0:
256,192,88827,1,8,0:0:0:0:
256,192,89003,1,8,0:0:0:0:
256,192,89092,1,0,0:0:0:0:
256,192,89268,1,0,0:0:0:0:
256,192,89445,1,8,0:0:0:0:
256,192,89621,1,0,0:0:0:0:
256,192,89709,1,0,0:0:0:0:
256,192,89798,1,8,0:0:0:0:
256,192,89974,1,0,0:0:0:0:
256,192,90150,1,8,0:0:0:0:
256,192,90239,1,0,0:0:0:0:
256,192,90327,1,8,0:0:0:0:
256,192,90503,1,0,0:0:0:0:
256,192,90856,1,8,0:0:0:0:
256,192,91033,1,0,0:0:0:0:
256,192,91121,1,8,0:0:0:0:
256,192,91209,1,0,0:0:0:0:
256,192,91386,1,8,0:0:0:0:
256,192,91562,1,0,0:0:0:0:
256,192,91650,1,8,0:0:0:0:
256,192,91827,1,8,0:0:0:0:
256,192,91915,1,0,0:0:0:0:
256,192,92092,1,8,0:0:0:0:
256,192,92268,1,0,0:0:0:0:
256,192,92445,1,8,0:0:0:0:
256,192,92533,1,0,0:0:0:0:
256,192,92621,1,0,0:0:0:0:
256,192,92709,1,8,0:0:0:0:
256,192,92886,1,0,0:0:0:0:
256,192,92974,1,8,0:0:0:0:
256,192,93327,5,12,0:0:0:0:
256,192,98974,5,0,0:0:0:0:
256,192,104621,5,12,0:0:0:0:
256,192,104974,1,8,0:0:0:0:
256,192,105327,1,8,0:0:0:0:
256,192,105680,1,8,0:0:0:0:
256,192,106033,1,8,0:0:0:0:
256,192,106386,1,8,0:0:0:0:
256,192,106739,1,8,0:0:0:0:
256,192,107092,1,8,0:0:0:0:
256,192,107445,1,8,0:0:0:0:
256,192,107798,1,8,0:0:0:0:
256,192,108150,1,8,0:0:0:0:
256,192,108503,1,8,0:0:0:0:
256,192,108856,1,8,0:0:0:0:
256,192,109209,1,8,0:0:0:0:
256,192,109562,1,8,0:0:0:0:
256,192,109915,1,8,0:0:0:0:
256,192,110268,1,12,0:0:0:0:
256,192,110445,1,8,0:0:0:0:
256,192,110621,1,8,0:0:0:0:
256,192,110798,1,8,0:0:0:0:
256,192,110974,1,8,0:0:0:0:
256,192,111151,1,8,0:0:0:0:
256,192,111327,1,8,0:0:0:0:
256,192,111504,1,8,0:0:0:0:
256,192,111680,1,8,0:0:0:0:
256,192,111857,1,8,0:0:0:0:
256,192,112033,1,8,0:0:0:0:
256,192,112210,1,8,0:0:0:0:
256,192,112386,1,8,0:0:0:0:
256,192,112563,1,8,0:0:0:0:
256,192,112739,1,8,0:0:0:0:
256,192,112916,1,8,0:0:0:0:
256,192,113092,12,0,114856,0:0:0:0:
256,192,115209,5,8,0:0:0:0:
256,192,115386,1,8,0:0:0:0:
256,192,115562,1,8,0:0:0:0:
256,192,115650,1,8,0:0:0:0:
256,192,115739,1,8,0:0:0:0:
256,192,115827,1,8,0:0:0:0:
256,192,115915,5,0,0:0:0:0:
256,192,116268,1,0,0:0:0:0:
256,192,116445,1,0,0:0:0:0:
256,192,116621,1,8,0:0:0:0:
256,192,116709,1,8,0:0:0:0:
256,192,116798,1,0,0:0:0:0:
256,192,116886,1,0,0:0:0:0:
256,192,116974,1,8,0:0:0:0:
256,192,117150,1,8,0:0:0:0:
256,192,117327,1,0,0:0:0:0:
256,192,117503,1,8,0:0:0:0:
256,192,117680,1,8,0:0:0:0:
256,192,117856,1,0,0:0:0:0:
256,192,117945,1,8,0:0:0:0:
256,192,118033,1,0,0:0:0:0:
256,192,118209,1,0,0:0:0:0:
256,192,118386,1,8,0:0:0:0:
256,192,118474,1,0,0:0:0:0:
256,192,118562,1,8,0:0:0:0:
256,192,118739,1,0,0:0:0:0:
256,192,119092,1,0,0:0:0:0:
256,192,119268,1,8,0:0:0:0:
256,192,119445,1,0,0:0:0:0:
256,192,119533,1,8,0:0:0:0:
256,192,119621,1,0,0:0:0:0:
256,192,119709,1,0,0:0:0:0:
256,192,119798,1,8,0:0:0:0:
256,192,119974,1,8,0:0:0:0:
256,192,120150,1,0,0:0:0:0:
256,192,120327,1,8,0:0:0:0:
256,192,120503,1,0,0:0:0:0:
256,192,120680,1,8,0:0:0:0:
256,192,120768,1,8,0:0:0:0:
256,192,120856,1,0,0:0:0:0:
256,192,121033,1,0,0:0:0:0:
256,192,121209,1,8,0:0:0:0:
256,192,121298,1,0,0:0:0:0:
256,192,121386,1,8,0:0:0:0:
256,192,121562,1,0,0:0:0:0:
256,192,121915,1,8,0:0:0:0:
256,192,122092,1,0,0:0:0:0:
256,192,122180,1,8,0:0:0:0:
256,192,122268,1,0,0:0:0:0:
256,192,122445,1,8,0:0:0:0:
256,192,122621,1,8,0:0:0:0:
256,192,122798,1,0,0:0:0:0:
256,192,122886,1,8,0:0:0:0:
256,192,122974,1,0,0:0:0:0:
256,192,123150,1,0,0:0:0:0:
256,192,123239,1,0,0:0:0:0:
256,192,123327,1,8,0:0:0:0:
256,192,123503,1,0,0:0:0:0:
256,192,123680,1,8,0:0:0:0:
256,192,123768,1,8,0:0:0:0:
256,192,123856,1,0,0:0:0:0:
256,192,124033,1,8,0:0:0:0:
256,192,124121,1,0,0:0:0:0:
256,192,124209,1,8,0:0:0:0:
256,192,124386,1,0,0:0:0:0:
256,192,124739,1,8,0:0:0:0:
256,192,124915,1,0,0:0:0:0:
256,192,125003,1,8,0:0:0:0:
256,192,125092,1,0,0:0:0:0:
256,192,125268,1,8,0:0:0:0:
256,192,125445,1,8,0:0:0:0:
256,192,125621,1,0,0:0:0:0:
256,192,125709,1,8,0:0:0:0:
256,192,125798,1,0,0:0:0:0:
256,192,125974,1,8,0:0:0:0:
256,192,126150,1,8,0:0:0:0:
256,192,126327,1,8,0:0:0:0:
256,192,126503,1,0,0:0:0:0:
256,192,126592,1,0,0:0:0:0:
256,192,126680,1,0,0:0:0:0:
256,192,126856,1,8,0:0:0:0:
256,192,126945,1,8,0:0:0:0:
256,192,127033,1,8,0:0:0:0:
256,192,127121,1,8,0:0:0:0:
256,192,127209,5,0,0:0:0:0:
256,192,127386,1,0,0:0:0:0:
256,192,127562,1,8,0:0:0:0:
256,192,127739,1,0,0:0:0:0:
256,192,127827,1,8,0:0:0:0:
256,192,127915,1,0,0:0:0:0:
256,192,128092,1,8,0:0:0:0:
256,192,128268,1,8,0:0:0:0:
256,192,128621,1,0,0:0:0:0:
256,192,128798,1,8,0:0:0:0:
256,192,128974,1,0,0:0:0:0:
256,192,129151,1,0,0:0:0:0:
256,192,129239,1,0,0:0:0:0:
256,192,129327,1,8,0:0:0:0:
256,192,129504,1,8,0:0:0:0:
256,192,129680,1,0,0:0:0:0:
256,192,129768,1,8,0:0:0:0:
256,192,129857,1,0,0:0:0:0:
256,192,130033,1,0,0:0:0:0:
256,192,130209,1,8,0:0:0:0:
256,192,130386,1,8,0:0:0:0:
256,192,130562,1,0,0:0:0:0:
256,192,130651,1,0,0:0:0:0:
256,192,130739,1,8,0:0:0:0:
256,192,130915,1,8,0:0:0:0:
256,192,131092,1,0,0:0:0:0:
256,192,131445,1,8,0:0:0:0:
256,192,131621,1,8,0:0:0:0:
256,192,131798,1,0,0:0:0:0:
256,192,131974,1,8,0:0:0:0:
256,192,132062,1,0,0:0:0:0:
256,192,132151,1,8,0:0:0:0:
256,192,132327,1,8,0:0:0:0:
256,192,132504,1,0,0:0:0:0:
256,192,132592,1,8,0:0:0:0:
256,192,132680,1,0,0:0:0:0:
256,192,132857,1,4,0:0:0:0:
256,192,133033,1,0,0:0:0:0:
256,192,133209,1,8,0:0:0:0:
256,192,133386,1,0,0:0:0:0:
256,192,133474,1,0,0:0:0:0:
256,192,133562,1,8,0:0:0:0:
256,192,133739,1,8,0:0:0:0:
256,192,133915,1,0,0:0:0:0:
256,192,134268,1,0,0:0:0:0:
256,192,134445,1,0,0:0:0:0:
256,192,134621,1,8,0:0:0:0:
256,192,134798,1,0,0:0:0:0:
256,192,134886,1,0,0:0:0:0:
256,192,134974,1,0,0:0:0:0:
256,192,135151,1,8,0:0:0:0:
256,192,135327,1,0,0:0:0:0:
256,192,135415,1,8,0:0:0:0:
256,192,135504,1,0,0:0:0:0:
256,192,135680,1,0,0:0:0:0:
256,192,135857,1,0,0:0:0:0:
256,192,136033,1,8,0:0:0:0:
256,192,136209,1,8,0:0:0:0:
256,192,136298,1,8,0:0:0:0:
256,192,136386,1,0,0:0:0:0:
256,192,136562,1,0,0:0:0:0:
256,192,136739,1,8,0:0:0:0:
256,192,137092,1,0,0:0:0:0:
256,192,137268,1,0,0:0:0:0:
256,192,137445,1,8,0:0:0:0:
256,192,137621,1,0,0:0:0:0:
256,192,137709,1,0,0:0:0:0:
256,192,137798,1,0,0:0:0:0:
256,192,137974,1,8,0:0:0:0:
256,192,138151,1,0,0:0:0:0:
256,192,138327,1,8,0:0:0:0:
256,192,138504,5,4,0:0:0:0:
256,192,138856,1,8,0:0:0:0:
256,192,139033,1,8,0:0:0:0:
256,192,139209,1,4,0:0:0:0:
256,192,139561,1,8,0:0:0:0:
256,192,139739,1,8,0:0:0:0:
256,192,139915,1,4,0:0:0:0:
256,192,140267,1,8,0:0:0:0:
256,192,140445,1,8,0:0:0:0:
256,192,140621,1,4,0:0:0:0:
256,192,140798,1,8,0:0:0:0:
256,192,140974,1,4,0:0:0:0:
256,192,141150,1,8,0:0:0:0:
256,192,141327,1,4,0:0:0:0:
256,192,141679,1,8,0:0:0:0:
256,192,141856,1,8,0:0:0:0:
256,192,142032,1,4,0:0:0:0:
256,192,142386,1,8,0:0:0:0:
256,192,142562,1,8,0:0:0:0:
256,192,142738,1,4,0:0:0:0:
256,192,143092,1,8,0:0:0:0:
256,192,143268,1,8,0:0:0:0:
256,192,143444,1,4,0:0:0:0:
256,192,143621,1,8,0:0:0:0:
256,192,143797,1,4,0:0:0:0:
256,192,143973,1,8,0:0:0:0:
256,192,144150,1,0,0:0:0:0:
256,192,144239,1,0,0:0:0:0:
256,192,144327,1,0,0:0:0:0:
256,192,144503,1,8,0:0:0:0:
256,192,144680,1,8,0:0:0:0:
256,192,144856,1,0,0:0:0:0:
256,192,144945,1,0,0:0:0:0:
256,192,145033,1,0,0:0:0:0:
256,192,145209,1,8,0:0:0:0:
256,192,145386,1,8,0:0:0:0:
256,192,145562,1,0,0:0:0:0:
256,192,145650,1,0,0:0:0:0:
256,192,145739,1,0,0:0:0:0:
256,192,145915,1,8,0:0:0:0:
256,192,146092,1,8,0:0:0:0:
256,192,146268,1,0,0:0:0:0:
256,192,146445,1,8,0:0:0:0:
256,192,146621,1,0,0:0:0:0:
256,192,146798,1,8,0:0:0:0:
256,192,146974,1,0,0:0:0:0:
256,192,147062,1,0,0:0:0:0:
256,192,147150,1,0,0:0:0:0:
256,192,147239,1,0,0:0:0:0:
256,192,147327,1,8,0:0:0:0:
256,192,147503,1,8,0:0:0:0:
256,192,147680,1,0,0:0:0:0:
256,192,147768,1,0,0:0:0:0:
256,192,147856,1,0,0:0:0:0:
256,192,147945,1,0,0:0:0:0:
256,192,148033,1,8,0:0:0:0:
256,192,148209,1,8,0:0:0:0:
256,192,148386,1,0,0:0:0:0:
256,192,148474,1,0,0:0:0:0:
256,192,148562,1,0,0:0:0:0:
256,192,148650,1,0,0:0:0:0:
256,192,148739,1,8,0:0:0:0:
256,192,148915,1,8,0:0:0:0:
256,192,149092,1,0,0:0:0:0:
256,192,149180,1,8,0:0:0:0:
256,192,149268,1,0,0:0:0:0:
256,192,149356,1,8,0:0:0:0:
256,192,149445,1,8,0:0:0:0:
256,192,149798,5,4,0:0:0:0:
256,192,155445,5,0,0:0:0:0:
256,192,155621,1,8,0:0:0:0:
256,192,155798,1,0,0:0:0:0:
256,192,155974,1,8,0:0:0:0:
256,192,156150,1,0,0:0:0:0:
256,192,156326,1,8,0:0:0:0:
256,192,156503,1,0,0:0:0:0:
256,192,156679,1,8,0:0:0:0:
256,192,156856,1,0,0:0:0:0:
256,192,157032,1,8,0:0:0:0:
256,192,157209,1,0,0:0:0:0:
256,192,157385,1,8,0:0:0:0:
256,192,157561,1,0,0:0:0:0:
256,192,157739,1,8,0:0:0:0:
256,192,157914,1,0,0:0:0:0:
256,192,158092,1,8,0:0:0:0:
256,192,158268,1,0,0:0:0:0:
256,192,158444,1,8,0:0:0:0:
256,192,158621,1,0,0:0:0:0:
256,192,158797,1,8,0:0:0:0:
256,192,158973,1,0,0:0:0:0:
256,192,159149,1,8,0:0:0:0:
256,192,159326,1,0,0:0:0:0:
256,192,159502,1,8,0:0:0:0:
256,192,159679,1,0,0:0:0:0:
256,192,159855,1,8,0:0:0:0:
256,192,160033,1,0,0:0:0:0:
256,192,160208,1,8,0:0:0:0:
256,192,160386,1,0,0:0:0:0:
256,192,160562,1,8,0:0:0:0:
256,192,160739,1,0,0:0:0:0:
256,192,160915,1,8,0:0:0:0:
256,192,161092,1,4,0:0:0:0:
256,192,161445,1,8,0:0:0:0:
256,192,161621,1,0,0:0:0:0:
256,192,161798,1,0,0:0:0:0:
256,192,161886,1,0,0:0:0:0:
256,192,161974,1,0,0:0:0:0:
256,192,162150,1,8,0:0:0:0:
256,192,162503,1,0,0:0:0:0:
256,192,162856,1,8,0:0:0:0:
256,192,163033,1,0,0:0:0:0:
256,192,163209,1,8,0:0:0:0:
256,192,163298,1,8,0:0:0:0:
256,192,163386,1,8,0:0:0:0:
256,192,163562,1,8,0:0:0:0:
256,192,163915,1,0,0:0:0:0:
256,192,164268,1,8,0:0:0:0:
256,192,164445,1,0,0:0:0:0:
256,192,164621,1,0,0:0:0:0:
256,192,164709,1,0,0:0:0:0:
256,192,164798,1,0,0:0:0:0:
256,192,164974,1,8,0:0:0:0:
256,192,165327,1,0,0:0:0:0:
256,192,165680,1,8,0:0:0:0:
256,192,165856,1,0,0:0:0:0:
256,192,166033,1,8,0:0:0:0:
256,192,166121,1,8,0:0:0:0:
256,192,166209,1,8,0:0:0:0:
256,192,166386,1,8,0:0:0:0:
256,192,166739,1,0,0:0:0:0:
256,192,167092,1,8,0:0:0:0:
256,192,167268,1,0,0:0:0:0:
256,192,167445,1,0,0:0:0:0:
256,192,167533,1,0,0:0:0:0:
256,192,167621,1,0,0:0:0:0:
256,192,167798,1,8,0:0:0:0:
256,192,167974,1,8,0:0:0:0:
256,192,168150,1,0,0:0:0:0:
256,192,168503,1,8,0:0:0:0:
256,192,168680,1,0,0:0:0:0:
256,192,168856,1,8,0:0:0:0:
256,192,168945,1,8,0:0:0:0:
256,192,169033,1,8,0:0:0:0:
256,192,169209,1,8,0:0:0:0:
256,192,169386,1,0,0:0:0:0:
256,192,169562,1,0,0:0:0:0:
256,192,169915,1,8,0:0:0:0:
256,192,170092,1,0,0:0:0:0:
256,192,170268,1,0,0:0:0:0:
256,192,170356,1,0,0:0:0:0:
256,192,170445,1,0,0:0:0:0:
256,192,170621,1,8,0:0:0:0:
256,192,170798,1,8,0:0:0:0:
256,192,170974,1,0,0:0:0:0:
256,192,171150,1,0,0:0:0:0:
256,192,171327,1,8,0:0:0:0:
256,192,171503,1,0,0:0:0:0:
256,192,171680,1,8,0:0:0:0:
256,192,171768,1,8,0:0:0:0:
256,192,171856,1,8,0:0:0:0:
256,192,172033,1,8,0:0:0:0:
256,192,172209,1,8,0:0:0:0:
256,192,175209,5,0,0:0:0:0:
256,192,175386,1,0,0:0:0:0:
256,192,175474,1,0,0:0:0:0:
256,192,175562,1,8,0:0:0:0:
256,192,175739,1,0,0:0:0:0:
256,192,175827,1,8,0:0:0:0:
256,192,175915,1,0,0:0:0:0:
256,192,176092,1,8,0:0:0:0:
256,192,176268,1,0,0:0:0:0:
256,192,176356,1,8,0:0:0:0:
256,192,176533,1,8,0:0:0:0:
256,192,176621,1,0,0:0:0:0:
256,192,176798,1,0,0:0:0:0:
256,192,176886,1,0,0:0:0:0:
256,192,176974,1,8,0:0:0:0:
256,192,177150,1,8,0:0:0:0:
256,192,177327,1,0,0:0:0:0:
256,192,177415,1,8,0:0:0:0:
256,192,177503,1,0,0:0:0:0:
256,192,177680,1,8,0:0:0:0:
256,192,177856,1,8,0:0:0:0:
256,192,178033,1,0,0:0:0:0:
256,192,178209,1,0,0:0:0:0:
256,192,178298,1,0,0:0:0:0:
256,192,178386,1,8,0:0:0:0:
256,192,178562,1,0,0:0:0:0:
256,192,178650,1,8,0:0:0:0:
256,192,178739,1,0,0:0:0:0:
256,192,178915,1,8,0:0:0:0:
256,192,179092,1,0,0:0:0:0:
256,192,179180,1,8,0:0:0:0:
256,192,179356,1,8,0:0:0:0:
256,192,179445,1,0,0:0:0:0:
256,192,179621,1,0,0:0:0:0:
256,192,179709,1,0,0:0:0:0:
256,192,179798,1,8,0:0:0:0:
256,192,179974,1,8,0:0:0:0:
256,192,180062,1,8,0:0:0:0:
256,192,180150,1,0,0:0:0:0:
256,192,180239,1,8,0:0:0:0:
256,192,180327,1,0,0:0:0:0:
256,192,180503,1,8,0:0:0:0:
256,192,180856,1,0,0:0:0:0:
256,192,180945,1,0,0:0:0:0:
256,192,181033,1,0,0:0:0:0:
256,192,181121,1,0,0:0:0:0:
256,192,181209,1,8,0:0:0:0:
256,192,181386,1,0,0:0:0:0:
256,192,181474,1,8,0:0:0:0:
256,192,181562,1,0,0:0:0:0:
256,192,181739,1,8,0:0:0:0:
256,192,181915,1,0,0:0:0:0:
256,192,182003,1,8,0:0:0:0:
256,192,182180,1,8,0:0:0:0:
256,192,182268,1,0,0:0:0:0:
256,192,182445,1,0,0:0:0:0:
256,192,182533,1,0,0:0:0:0:
256,192,182621,1,8,0:0:0:0:
256,192,182798,1,8,0:0:0:0:
256,192,182974,1,0,0:0:0:0:
256,192,183062,1,8,0:0:0:0:
256,192,183150,1,0,0:0:0:0:
256,192,183327,1,8,0:0:0:0:
256,192,183503,1,8,0:0:0:0:
256,192,183680,1,0,0:0:0:0:
256,192,183768,1,0,0:0:0:0:
256,192,183856,1,0,0:0:0:0:
256,192,183945,1,0,0:0:0:0:
256,192,184033,1,8,0:0:0:0:
256,192,184209,1,0,0:0:0:0:
256,192,184298,1,8,0:0:0:0:
256,192,184386,1,0,0:0:0:0:
256,192,184562,1,8,0:0:0:0:
256,192,184739,1,0,0:0:0:0:
256,192,184827,1,8,0:0:0:0:
256,192,185003,1,8,0:0:0:0:
256,192,185092,1,0,0:0:0:0:
256,192,185268,1,8,0:0:0:0:
256,192,185445,1,8,0:0:0:0:
256,192,185621,1,0,0:0:0:0:
256,192,185709,1,8,0:0:0:0:
256,192,185798,1,0,0:0:0:0:
256,192,185886,1,0,0:0:0:0:
256,192,185974,1,0,0:0:0:0:
256,192,186062,1,0,0:0:0:0:
256,192,186150,1,8,0:0:0:0:
256,192,186503,5,4,0:0:0:0:
256,192,186856,1,8,0:0:0:0:
256,192,187033,1,0,0:0:0:0:
256,192,187121,1,0,0:0:0:0:
256,192,187209,1,0,0:0:0:0:
256,192,187386,1,8,0:0:0:0:
256,192,187562,1,0,0:0:0:0:
256,192,187739,1,8,0:0:0:0:
256,192,187827,1,8,0:0:0:0:
256,192,187915,1,0,0:0:0:0:
256,192,188268,1,8,0:0:0:0:
256,192,188445,1,0,0:0:0:0:
256,192,188533,1,8,0:0:0:0:
256,192,188621,1,0,0:0:0:0:
256,192,188798,1,0,0:0:0:0:
256,192,188974,1,8,0:0:0:0:
256,192,189062,1,0,0:0:0:0:
256,192,189150,1,8,0:0:0:0:
256,192,189327,1,0,0:0:0:0:
256,192,189680,1,8,0:0:0:0:
256,192,189856,1,0,0:0:0:0:
256,192,189945,1,0,0:0:0:0:
256,192,190033,1,0,0:0:0:0:
256,192,190209,1,8,0:0:0:0:
256,192,190386,1,0,0:0:0:0:
256,192,190562,1,8,0:0:0:0:
256,192,190650,1,8,0:0:0:0:
256,192,190739,1,0,0:0:0:0:
256,192,191092,1,8,0:0:0:0:
256,192,191268,1,0,0:0:0:0:
256,192,191356,1,8,0:0:0:0:
256,192,191445,1,0,0:0:0:0:
256,192,191621,1,8,0:0:0:0:
256,192,191798,1,8,0:0:0:0:
256,192,191886,1,8,0:0:0:0:
256,192,191974,1,8,0:0:0:0:
256,192,192150,1,4,0:0:0:0:
256,192,192503,1,8,0:0:0:0:
256,192,192680,1,0,0:0:0:0:
256,192,192768,1,0,0:0:0:0:
256,192,192856,1,0,0:0:0:0:
256,192,193033,1,8,0:0:0:0:
256,192,193209,1,0,0:0:0:0:
256,192,193386,1,8,0:0:0:0:
256,192,193474,1,8,0:0:0:0:
256,192,193562,1,0,0:0:0:0:
256,192,193915,1,8,0:0:0:0:
256,192,194092,1,0,0:0:0:0:
256,192,194180,1,8,0:0:0:0:
256,192,194268,1,0,0:0:0:0:
256,192,194445,1,0,0:0:0:0:
256,192,194621,1,8,0:0:0:0:
256,192,194709,1,0,0:0:0:0:
256,192,194798,1,8,0:0:0:0:
256,192,194974,1,0,0:0:0:0:
256,192,195327,1,8,0:0:0:0:
256,192,195503,1,8,0:0:0:0:
256,192,195680,1,0,0:0:0:0:
256,192,195856,1,0,0:0:0:0:
256,192,196033,1,8,0:0:0:0:
256,192,196209,1,8,0:0:0:0:
256,192,196386,1,0,0:0:0:0:
256,192,196474,1,0,0:0:0:0:
256,192,196562,1,0,0:0:0:0:
256,192,196650,1,0,0:0:0:0:
256,192,196739,1,8,0:0:0:0:
256,192,196915,1,0,0:0:0:0:
256,192,197092,1,8,0:0:0:0:
256,192,197180,1,8,0:0:0:0:
256,192,197268,1,8,0:0:0:0:
256,192,197356,1,8,0:0:0:0:
256,192,197445,1,0,0:0:0:0:
