osu file format v14

[General]
AudioFilename: audio.mp3
AudioLeadIn: 1500
PreviewTime: 25562
Countdown: 0
SampleSet: Normal
StackLeniency: 0.7
Mode: 1
LetterboxInBreaks: 0
WidescreenStoryboard: 0

[Editor]
DistanceSpacing: 0.4
BeatDivisor: 4
GridSize: 32
TimelineZoom: 4.899997

[Metadata]
Title:Necrophagiatoast
TitleUnicode:Necrophagiatoast
Artist:Kobaryo
ArtistUnicode:Kobaryo
Creator:_yu68
Version:Hell Oni
Source:
Tags:psycho filth records 666 over!! speedcore splittercore
BeatmapID:1219764
BeatmapSetID:567504

[Difficulty]
HPDrainRate:4
CircleSize:2
OverallDifficulty:7.5
ApproachRate:10
SliderMultiplier:1.4
SliderTickRate:1

[Events]
//Background and Video events
0,0,"BG.jpg",0,-50
//Break Periods
2,93527,98524
2,99174,104171
2,149998,154995
//Storyboard Layer 0 (Background)
//Storyboard Layer 1 (Fail)
//Storyboard Layer 2 (Pass)
//Storyboard Layer 3 (Foreground)
//Storyboard Sound Samples

[TimingPoints]
151,176.470588235294,4,1,0,50,1,0
151,-200,4,1,0,50,0,0
22739,-100,4,1,0,90,0,0
70739,-133.333333333333,4,1,0,90,0,0
82033,-100,4,1,0,90,0,0
93239,-100,4,1,0,50,0,0
93415,-200,4,1,0,50,0,0
104533,-200,4,1,0,70,0,0
115121,-100,4,1,0,50,0,0
115871,-100,4,1,0,90,0,0
149886,-200,4,1,0,50,0,0
161003,-133.333333333333,4,1,0,70,0,0
166695,-133.333333333333,4,1,0,80,0,0
172386,-133.333333333333,4,1,0,50,0,0
174856,-100,4,1,0,90,0,0
175209,-100,4,1,0,90,0,1
185092,-100,4,1,0,90,0,0
186503,-100,4,1,0,90,0,1
197445,-100,4,1,0,90,0,0

[HitObjects]
256,192,11445,5,8,0:0:0:0:
256,192,11798,1,8,0:0:0:0:
256,192,12150,1,8,0:0:0:0:
256,192,12503,1,8,0:0:0:0:
256,192,12680,1,0,0:0:0:0:
256,192,12856,1,8,0:0:0:0:
256,192,13209,1,8,0:0:0:0:
256,192,13562,1,8,0:0:0:0:
256,192,13739,1,0,0:0:0:0:
256,192,13915,1,8,0:0:0:0:
256,192,14092,1,0,0:0:0:0:
256,192,14268,1,8,0:0:0:0:
256,192,14621,1,8,0:0:0:0:
256,192,14974,1,8,0:0:0:0:
256,192,15327,1,8,0:0:0:0:
256,192,15503,1,0,0:0:0:0:
256,192,15680,1,8,0:0:0:0:
256,192,16033,1,8,0:0:0:0:
256,192,16209,1,0,0:0:0:0:
256,192,16386,1,8,0:0:0:0:
256,192,16562,1,8,0:0:0:0:
256,192,16739,1,8,0:0:0:0:
256,192,16915,1,0,0:0:0:0:
256,192,17092,1,8,0:0:0:0:
256,192,17445,1,8,0:0:0:0:
256,192,17798,1,8,0:0:0:0:
256,192,18150,1,8,0:0:0:0:
256,192,18327,1,0,0:0:0:0:
256,192,18503,1,8,0:0:0:0:
256,192,18856,1,8,0:0:0:0:
256,192,19209,1,8,0:0:0:0:
256,192,19386,1,0,0:0:0:0:
256,192,19562,1,8,0:0:0:0:
256,192,19739,1,0,0:0:0:0:
256,192,19915,1,8,0:0:0:0:
256,192,20268,1,8,0:0:0:0:
256,192,20621,1,8,0:0:0:0:
256,192,20974,1,8,0:0:0:0:
256,192,21150,1,0,0:0:0:0:
256,192,21327,1,8,0:0:0:0:
256,192,21680,1,8,0:0:0:0:
256,192,21856,1,0,0:0:0:0:
256,192,22033,1,8,0:0:0:0:
256,192,22209,1,8,0:0:0:0:
256,192,22386,1,8,0:0:0:0:
256,192,22562,1,8,0:0:0:0:
256,192,25562,5,0,0:0:0:0:
256,192,25606,1,0,0:0:0:0:
256,192,25650,1,0,0:0:0:0:
256,192,25739,1,8,0:0:0:0:
256,192,25827,1,8,0:0:0:0:
256,192,25915,1,0,0:0:0:0:
256,192,25959,1,0,0:0:0:0:
256,192,26003,1,8,0:0:0:0:
256,192,26092,1,0,0:0:0:0:
256,192,26180,1,8,0:0:0:0:
256,192,26224,1,8,0:0:0:0:
256,192,26268,1,0,0:0:0:0:
256,192,26356,1,8,0:0:0:0:
256,192,26445,1,0,0:0:0:0:
256,192,26533,1,8,0:0:0:0:
256,192,26621,1,0,0:0:0:0:
256,192,26709,1,8,0:0:0:0:
256,192,26753,1,8,0:0:0:0:
256,192,26798,1,0,0:0:0:0:
256,192,26886,1,8,0:0:0:0:
256,192,26974,1,0,0:0:0:0:
256,192,27018,1,0,0:0:0:0:
256,192,27062,1,0,0:0:0:0:
256,192,27150,1,8,0:0:0:0:
256,192,27239,1,8,0:0:0:0:
256,192,27327,1,0,0:0:0:0:
256,192,27415,1,8,0:0:0:0:
256,192,27503,1,0,0:0:0:0:
256,192,27592,1,8,0:0:0:0:
256,192,27636,1,8,0:0:0:0:
256,192,27680,1,0,0:0:0:0:
256,192,27768,1,0,0:0:0:0:
256,192,27856,1,8,0:0:0:0:
256,192,27945,1,8,0:0:0:0:
256,192,28033,1,0,0:0:0:0:
256,192,28121,1,8,0:0:0:0:
256,192,28165,1,8,0:0:0:0:
256,192,28209,1,8,0:0:0:0:
256,192,28386,1,0,0:0:0:0:
256,192,28430,1,0,0:0:0:0:
256,192,28474,1,0,0:0:0:0:
256,192,28562,1,8,0:0:0:0:
256,192,28650,1,8,0:0:0:0:
256,192,28739,1,0,0:0:0:0:
256,192,28783,1,0,0:0:0:0:
256,192,28827,1,8,0:0:0:0:
256,192,28915,1,0,0:0:0:0:
256,192,29003,1,8,0:0:0:0:
256,192,29048,1,8,0:0:0:0:
256,192,29092,1,0,0:0:0:0:
256,192,29180,1,0,0:0:0:0:
256,192,29268,1,8,0:0:0:0:
256,192,29356,1,0,0:0:0:0:
256,192,29445,1,0,0:0:0:0:
256,192,29533,1,8,0:0:0:0:
256,192,29577,1,8,0:0:0:0:
256,192,29621,1,0,0:0:0:0:
256,192,29709,1,8,0:0:0:0:
256,192,29798,1,0,0:0:0:0:
256,192,29842,1,0,0:0:0:0:
256,192,29886,1,0,0:0:0:0:
256,192,29974,1,8,0:0:0:0:
256,192,30062,1,8,0:0:0:0:
256,192,30150,1,0,0:0:0:0:
256,192,30239,1,8,0:0:0:0:
256,192,30327,1,0,0:0:0:0:
256,192,30415,1,8,0:0:0:0:
256,192,30459,1,8,0:0:0:0:
256,192,30503,1,0,0:0:0:0:
256,192,30592,1,0,0:0:0:0:
256,192,30680,1,8,0:0:0:0:
256,192,30768,1,0,0:0:0:0:
256,192,30856,1,0,0:0:0:0:
256,192,30945,1,8,0:0:0:0:
256,192,30989,1,8,0:0:0:0:
256,192,31033,1,8,0:0:0:0:
256,192,31209,1,0,0:0:0:0:
256,192,31253,1,0,0:0:0:0:
256,192,31298,1,0,0:0:0:0:
256,192,31342,1,0,0:0:0:0:
256,192,31386,1,8,0:0:0:0:
256,192,31474,1,8,0:0:0:0:
256,192,31562,1,0,0:0:0:0:
256,192,31606,1,0,0:0:0:0:
256,192,31650,1,8,0:0:0:0:
256,192,31739,1,0,0:0:0:0:
256,192,31827,1,8,0:0:0:0:
256,192,31871,1,8,0:0:0:0:
256,192,31915,1,0,0:0:0:0:
256,192,32003,1,8,0:0:0:0:
256,192,32092,1,0,0:0:0:0:
256,192,32180,1,8,0:0:0:0:
256,192,32268,1,0,0:0:0:0:
256,192,32356,1,8,0:0:0:0:
256,192,32400,1,8,0:0:0:0:
256,192,32445,1,0,0:0:0:0:
256,192,32533,1,8,0:0:0:0:
256,192,32621,1,0,0:0:0:0:
256,192,32665,1,0,0:0:0:0:
256,192,32709,1,0,0:0:0:0:
256,192,32753,1,0,0:0:0:0:
256,192,32798,1,8,0:0:0:0:
256,192,32886,1,8,0:0:0:0:
256,192,32974,1,0,0:0:0:0:
256,192,33062,1,8,0:0:0:0:
256,192,33150,1,0,0:0:0:0:
256,192,33239,1,8,0:0:0:0:
256,192,33283,1,8,0:0:0:0:
256,192,33327,1,0,0:0:0:0:
256,192,33415,1,0,0:0:0:0:
256,192,33503,1,8,0:0:0:0:
256,192,33592,1,8,0:0:0:0:
256,192,33680,1,0,0:0:0:0:
256,192,33768,1,8,0:0:0:0:
256,192,33812,1,8,0:0:0:0:
256,192,33856,1,8,0:0:0:0:
256,192,34033,1,0,0:0:0:0:
256,192,34077,1,0,0:0:0:0:
256,192,34121,1,0,0:0:0:0:
256,192,34165,1,0,0:0:0:0:
256,192,34209,1,8,0:0:0:0:
256,192,34298,1,8,0:0:0:0:
256,192,34386,1,0,0:0:0:0:
256,192,34430,1,0,0:0:0:0:
256,192,34474,1,8,0:0:0:0:
256,192,34562,1,0,0:0:0:0:
256,192,34650,1,8,0:0:0:0:
256,192,34695,1,8,0:0:0:0:
256,192,34739,1,0,0:0:0:0:
256,192,34827,1,0,0:0:0:0:
256,192,34915,1,8,0:0:0:0:
256,192,35003,1,0,0:0:0:0:
256,192,35092,1,0,0:0:0:0:
256,192,35180,1,8,0:0:0:0:
256,192,35224,1,8,0:0:0:0:
256,192,35268,1,0,0:0:0:0:
256,192,35356,1,8,0:0:0:0:
256,192,35445,1,0,0:0:0:0:
256,192,35489,1,0,0:0:0:0:
256,192,35533,1,0,0:0:0:0:
256,192,35577,1,0,0:0:0:0:
256,192,35621,1,8,0:0:0:0:
256,192,35709,1,8,0:0:0:0:
256,192,35798,1,0,0:0:0:0:
256,192,35886,1,8,0:0:0:0:
256,192,35974,1,0,0:0:0:0:
256,192,36062,1,8,0:0:0:0:
256,192,36106,1,8,0:0:0:0:
256,192,36150,1,0,0:0:0:0:
256,192,36239,1,0,0:0:0:0:
256,192,36327,1,0,0:0:0:0:
256,192,36415,1,0,0:0:0:0:
256,192,36503,1,8,0:0:0:0:
256,192,36856,5,0,0:0:0:0:
256,192,36945,1,0,0:0:0:0:
256,192,37033,1,8,0:0:0:0:
256,192,37121,1,8,0:0:0:0:
256,192,37209,1,0,0:0:0:0:
256,192,37386,1,0,0:0:0:0:
256,192,37474,1,8,0:0:0:0:
256,192,37518,1,8,0:0:0:0:
256,192,37562,1,0,0:0:0:0:
256,192,37739,1,8,0:0:0:0:
256,192,37827,1,0,0:0:0:0:
256,192,37915,1,0,0:0:0:0:
256,192,38003,1,8,0:0:0:0:
256,192,38048,1,8,0:0:0:0:
256,192,38092,1,0,0:0:0:0:
256,192,38180,1,8,0:0:0:0:
256,192,38268,1,0,0:0:0:0:
256,192,38356,1,0,0:0:0:0:
256,192,38445,1,8,0:0:0:0:
256,192,38533,1,0,0:0:0:0:
256,192,38621,1,8,0:0:0:0:
256,192,38798,1,8,0:0:0:0:
256,192,38886,1,0,0:0:0:0:
256,192,38930,1,0,0:0:0:0:
256,192,38974,1,0,0:0:0:0:
256,192,39062,1,8,0:0:0:0:
256,192,39150,1,0,0:0:0:0:
256,192,39327,1,8,0:0:0:0:
256,192,39415,1,0,0:0:0:0:
256,192,39503,1,8,0:0:0:0:
256,192,39548,1,8,0:0:0:0:
256,192,39592,1,8,0:0:0:0:
256,192,39636,1,8,0:0:0:0:
256,192,39680,1,0,0:0:0:0:
256,192,39768,1,0,0:0:0:0:
256,192,39856,1,8,0:0:0:0:
256,192,39945,1,8,0:0:0:0:
256,192,40033,1,0,0:0:0:0:
256,192,40209,1,0,0:0:0:0:
256,192,40298,1,8,0:0:0:0:
256,192,40342,1,8,0:0:0:0:
256,192,40386,1,0,0:0:0:0:
256,192,40562,1,8,0:0:0:0:
256,192,40650,1,0,0:0:0:0:
256,192,40739,1,0,0:0:0:0:
256,192,40827,1,8,0:0:0:0:
256,192,40871,1,8,0:0:0:0:
256,192,40915,1,0,0:0:0:0:
256,192,41003,1,8,0:0:0:0:
256,192,41092,1,0,0:0:0:0:
256,192,41180,1,0,0:0:0:0:
256,192,41268,1,8,0:0:0:0:
256,192,41356,1,0,0:0:0:0:
256,192,41445,1,8,0:0:0:0:
256,192,41621,1,8,0:0:0:0:
256,192,41709,1,0,0:0:0:0:
256,192,41753,1,0,0:0:0:0:
256,192,41798,1,8,0:0:0:0:
256,192,41886,1,8,0:0:0:0:
256,192,41974,1,0,0:0:0:0:
256,192,42150,1,8,0:0:0:0:
256,192,42239,1,0,0:0:0:0:
256,192,42327,1,8,0:0:0:0:
256,192,42371,1,8,0:0:0:0:
256,192,42415,1,8,0:0:0:0:
256,192,42503,1,0,0:0:0:0:
256,192,42592,1,0,0:0:0:0:
256,192,42680,1,8,0:0:0:0:
256,192,42768,1,8,0:0:0:0:
256,192,42856,1,0,0:0:0:0:
256,192,43033,1,0,0:0:0:0:
256,192,43121,1,8,0:0:0:0:
256,192,43165,1,8,0:0:0:0:
256,192,43209,1,0,0:0:0:0:
256,192,43298,1,0,0:0:0:0:
256,192,43386,1,8,0:0:0:0:
256,192,43474,1,0,0:0:0:0:
256,192,43562,1,0,0:0:0:0:
256,192,43650,1,8,0:0:0:0:
256,192,43695,1,8,0:0:0:0:
256,192,43739,1,0,0:0:0:0:
256,192,43827,1,8,0:0:0:0:
256,192,43915,1,0,0:0:0:0:
256,192,44003,1,0,0:0:0:0:
256,192,44092,1,8,0:0:0:0:
256,192,44180,1,0,0:0:0:0:
256,192,44268,1,8,0:0:0:0:
256,192,44445,1,8,0:0:0:0:
256,192,44533,1,0,0:0:0:0:
256,192,44577,1,0,0:0:0:0:
256,192,44621,1,0,0:0:0:0:
256,192,44709,1,8,0:0:0:0:
256,192,44798,1,0,0:0:0:0:
256,192,44886,1,0,0:0:0:0:
256,192,44974,1,8,0:0:0:0:
256,192,45062,1,0,0:0:0:0:
256,192,45150,1,8,0:0:0:0:
256,192,45195,1,8,0:0:0:0:
256,192,45239,1,8,0:0:0:0:
256,192,45283,1,8,0:0:0:0:
256,192,45327,1,0,0:0:0:0:
256,192,45415,1,0,0:0:0:0:
256,192,45503,1,8,0:0:0:0:
256,192,45592,1,8,0:0:0:0:
256,192,45680,1,0,0:0:0:0:
256,192,45856,1,0,0:0:0:0:
256,192,45945,1,8,0:0:0:0:
256,192,45989,1,8,0:0:0:0:
256,192,46033,1,0,0:0:0:0:
256,192,46121,1,0,0:0:0:0:
256,192,46209,1,8,0:0:0:0:
256,192,46298,1,0,0:0:0:0:
256,192,46386,1,0,0:0:0:0:
256,192,46474,1,8,0:0:0:0:
256,192,46518,1,8,0:0:0:0:
256,192,46562,1,0,0:0:0:0:
256,192,46650,1,8,0:0:0:0:
256,192,46739,1,0,0:0:0:0:
256,192,46827,1,0,0:0:0:0:
256,192,46915,1,8,0:0:0:0:
256,192,47003,1,0,0:0:0:0:
256,192,47092,1,8,0:0:0:0:
256,192,47268,1,8,0:0:0:0:
256,192,47356,1,0,0:0:0:0:
256,192,47400,1,0,0:0:0:0:
256,192,47445,1,8,0:0:0:0:
256,192,47533,1,0,0:0:0:0:
256,192,47621,1,8,0:0:0:0:
256,192,47709,1,0,0:0:0:0:
256,192,47798,1,8,0:0:0:0:
256,192,48150,5,4,0:0:0:0:
256,192,48327,1,0,0:0:0:0:
256,192,48503,1,8,0:0:0:0:
256,192,48680,1,0,0:0:0:0:
256,192,48768,1,8,0:0:0:0:
256,192,48856,1,0,0:0:0:0:
256,192,49033,1,8,0:0:0:0:
256,192,49209,1,0,0:0:0:0:
256,192,49298,1,0,0:0:0:0:
256,192,49386,1,8,0:0:0:0:
256,192,49430,1,8,0:0:0:0:
256,192,49474,1,8,0:0:0:0:
256,192,49562,1,0,0:0:0:0:
256,192,49739,1,8,0:0:0:0:
256,192,49915,1,0,0:0:0:0:
256,192,50092,1,0,0:0:0:0:
256,192,50180,1,0,0:0:0:0:
256,192,50268,1,8,0:0:0:0:
256,192,50356,1,0,0:0:0:0:
256,192,50445,1,8,0:0:0:0:
256,192,50621,1,0,0:0:0:0:
256,192,50709,1,8,0:0:0:0:
256,192,50798,1,0,0:0:0:0:
256,192,50886,1,8,0:0:0:0:
256,192,50974,1,0,0:0:0:0:
256,192,51150,1,0,0:0:0:0:
256,192,51327,1,8,0:0:0:0:
256,192,51503,1,0,0:0:0:0:
256,192,51592,1,0,0:0:0:0:
256,192,51680,1,8,0:0:0:0:
256,192,51856,1,8,0:0:0:0:
256,192,52033,1,0,0:0:0:0:
256,192,52121,1,0,0:0:0:0:
256,192,52209,1,8,0:0:0:0:
256,192,52253,1,8,0:0:0:0:
256,192,52298,1,8,0:0:0:0:
256,192,52386,1,0,0:0:0:0:
256,192,52562,1,8,0:0:0:0:
256,192,52739,1,0,0:0:0:0:
256,192,52915,1,8,0:0:0:0:
256,192,53003,1,0,0:0:0:0:
256,192,53092,1,8,0:0:0:0:
256,192,53268,1,0,0:0:0:0:
256,192,53356,1,8,0:0:0:0:
256,192,53445,1,0,0:0:0:0:
256,192,53533,1,0,0:0:0:0:
256,192,53621,1,8,0:0:0:0:
256,192,53709,1,8,0:0:0:0:
256,192,53798,1,0,0:0:0:0:
256,192,53974,1,0,0:0:0:0:
256,192,54150,1,8,0:0:0:0:
256,192,54239,1,0,0:0:0:0:
256,192,54327,1,0,0:0:0:0:
256,192,54415,1,8,0:0:0:0:
256,192,54503,1,0,0:0:0:0:
256,192,54680,1,8,0:0:0:0:
256,192,54856,1,0,0:0:0:0:
256,192,54945,1,0,0:0:0:0:
256,192,55033,1,8,0:0:0:0:
256,192,55077,1,8,0:0:0:0:
256,192,55121,1,8,0:0:0:0:
256,192,55209,1,0,0:0:0:0:
256,192,55386,1,8,0:0:0:0:
256,192,55562,1,0,0:0:0:0:
256,192,55739,1,0,0:0:0:0:
256,192,55827,1,0,0:0:0:0:
256,192,55915,1,8,0:0:0:0:
256,192,56003,1,0,0:0:0:0:
256,192,56092,1,8,0:0:0:0:
256,192,56136,1,8,0:0:0:0:
256,192,56180,1,8,0:0:0:0:
256,192,56268,1,0,0:0:0:0:
256,192,56356,1,8,0:0:0:0:
256,192,56445,1,0,0:0:0:0:
256,192,56533,1,8,0:0:0:0:
256,192,56621,1,0,0:0:0:0:
256,192,56798,1,0,0:0:0:0:
256,192,56974,1,8,0:0:0:0:
256,192,57062,1,0,0:0:0:0:
256,192,57150,1,8,0:0:0:0:
256,192,57239,1,8,0:0:0:0:
256,192,57327,1,0,0:0:0:0:
256,192,57503,1,8,0:0:0:0:
256,192,57680,1,0,0:0:0:0:
256,192,57768,1,0,0:0:0:0:
256,192,57856,1,8,0:0:0:0:
256,192,57900,1,8,0:0:0:0:
256,192,57945,1,8,0:0:0:0:
256,192,58033,1,0,0:0:0:0:
256,192,58209,1,0,0:0:0:0:
256,192,58386,1,8,0:0:0:0:
256,192,58562,1,0,0:0:0:0:
256,192,58650,1,8,0:0:0:0:
256,192,58739,1,0,0:0:0:0:
256,192,58915,1,8,0:0:0:0:
256,192,59092,1,0,0:0:0:0:
256,192,59180,1,0,0:0:0:0:
256,192,59224,1,0,0:0:0:0:
256,192,59268,1,8,0:0:0:0:
256,192,59445,5,4,0:0:0:0:
256,192,59798,1,8,0:0:0:0:
256,192,59886,1,8,0:0:0:0:
256,192,59930,1,8,0:0:0:0:
256,192,59974,1,8,0:0:0:0:
256,192,60062,1,8,0:0:0:0:
256,192,60150,1,8,0:0:0:0:
256,192,60239,1,8,0:0:0:0:
256,192,60327,1,8,0:0:0:0:
256,192,60415,1,8,0:0:0:0:
256,192,60503,1,8,0:0:0:0:
256,192,60680,1,8,0:0:0:0:
256,192,60856,1,4,0:0:0:0:
256,192,61209,1,8,0:0:0:0:
256,192,61298,1,8,0:0:0:0:
256,192,61342,1,8,0:0:0:0:
256,192,61386,1,8,0:0:0:0:
256,192,61474,1,8,0:0:0:0:
256,192,61562,1,8,0:0:0:0:
256,192,61650,1,8,0:0:0:0:
256,192,61739,1,0,0:0:0:0:
256,192,61827,1,8,0:0:0:0:
256,192,61915,1,8,0:0:0:0:
256,192,62003,1,8,0:0:0:0:
256,192,62092,1,0,0:0:0:0:
256,192,62268,1,4,0:0:0:0:
256,192,62621,1,8,0:0:0:0:
256,192,62709,1,8,0:0:0:0:
256,192,62753,1,8,0:0:0:0:
256,192,62798,1,8,0:0:0:0:
256,192,62886,1,8,0:0:0:0:
256,192,62974,1,8,0:0:0:0:
256,192,63062,1,8,0:0:0:0:
256,192,63150,1,8,0:0:0:0:
256,192,63239,1,8,0:0:0:0:
256,192,63327,1,8,0:0:0:0:
256,192,63503,1,8,0:0:0:0:
256,192,63680,1,4,0:0:0:0:
256,192,64033,1,8,0:0:0:0:
256,192,64121,1,8,0:0:0:0:
256,192,64165,1,8,0:0:0:0:
256,192,64209,1,8,0:0:0:0:
256,192,64298,1,8,0:0:0:0:
256,192,64386,1,8,0:0:0:0:
256,192,64474,1,8,0:0:0:0:
256,192,64562,1,0,0:0:0:0:
256,192,64650,1,8,0:0:0:0:
256,192,64739,1,8,0:0:0:0:
256,192,64827,1,8,0:0:0:0:
256,192,64915,1,0,0:0:0:0:
256,192,65092,1,0,0:0:0:0:
256,192,65180,1,0,0:0:0:0:
256,192,65268,1,0,0:0:0:0:
256,192,65356,1,0,0:0:0:0:
256,192,65445,1,8,0:0:0:0:
256,192,65533,1,8,0:0:0:0:
256,192,65577,1,8,0:0:0:0:
256,192,65621,1,8,0:0:0:0:
256,192,65709,1,8,0:0:0:0:
256,192,65798,1,8,0:0:0:0:
256,192,65886,1,8,0:0:0:0:
256,192,65974,1,8,0:0:0:0:
256,192,66062,1,8,0:0:0:0:
256,192,66150,1,8,0:0:0:0:
256,192,66327,1,8,0:0:0:0:
256,192,66503,1,0,0:0:0:0:
256,192,66592,1,0,0:0:0:0:
256,192,66680,1,0,0:0:0:0:
256,192,66768,1,0,0:0:0:0:
256,192,66856,1,8,0:0:0:0:
256,192,66945,1,8,0:0:0:0:
256,192,66989,1,8,0:0:0:0:
256,192,67033,1,8,0:0:0:0:
256,192,67121,1,8,0:0:0:0:
256,192,67209,1,8,0:0:0:0:
256,192,67298,1,8,0:0:0:0:
256,192,67386,1,0,0:0:0:0:
256,192,67474,1,8,0:0:0:0:
256,192,67562,1,8,0:0:0:0:
256,192,67650,1,8,0:0:0:0:
256,192,67739,1,0,0:0:0:0:
256,192,67915,1,0,0:0:0:0:
256,192,67959,1,0,0:0:0:0:
256,192,68003,1,0,0:0:0:0:
256,192,68092,1,0,0:0:0:0:
256,192,68180,1,0,0:0:0:0:
256,192,68268,1,8,0:0:0:0:
256,192,68356,1,8,0:0:0:0:
256,192,68400,1,8,0:0:0:0:
256,192,68445,1,8,0:0:0:0:
256,192,68533,1,8,0:0:0:0:
256,192,68621,1,8,0:0:0:0:
256,192,68709,1,8,0:0:0:0:
256,192,68797,1,8,0:0:0:0:
256,192,68886,1,8,0:0:0:0:
256,192,68974,1,8,0:0:0:0:
256,192,69150,1,8,0:0:0:0:
256,192,69327,1,0,0:0:0:0:
256,192,69371,1,0,0:0:0:0:
256,192,69415,1,0,0:0:0:0:
256,192,69503,1,0,0:0:0:0:
256,192,69592,1,0,0:0:0:0:
256,192,69680,1,8,0:0:0:0:
256,192,69768,1,8,0:0:0:0:
256,192,69812,1,8,0:0:0:0:
256,192,69856,1,0,0:0:0:0:
256,192,69945,1,0,0:0:0:0:
256,192,70033,1,8,0:0:0:0:
256,192,70121,1,0,0:0:0:0:
256,192,70209,1,0,0:0:0:0:
256,192,70298,1,0,0:0:0:0:
256,192,70386,1,8,0:0:0:0:
256,192,70739,5,0,0:0:0:0:
256,192,71003,1,8,0:0:0:0:
256,192,71092,1,0,0:0:0:0:
256,192,71268,1,8,0:0:0:0:
256,192,71356,1,8,0:0:0:0:
256,192,71445,1,0,0:0:0:0:
256,192,71621,1,8,0:0:0:0:
256,192,71709,1,8,0:0:0:0:
256,192,71798,1,0,0:0:0:0:
256,192,71886,1,8,0:0:0:0:
256,192,72062,1,8,0:0:0:0:
256,192,72150,1,0,0:0:0:0:
256,192,72415,1,8,0:0:0:0:
256,192,72503,1,0,0:0:0:0:
256,192,72680,1,8,0:0:0:0:
256,192,72768,1,0,0:0:0:0:
256,192,72856,1,0,0:0:0:0:
256,192,73033,1,8,0:0:0:0:
256,192,73209,1,0,0:0:0:0:
256,192,73298,1,8,0:0:0:0:
256,192,73386,1,8,0:0:0:0:
256,192,73474,1,8,0:0:0:0:
256,192,73562,1,0,0:0:0:0:
256,192,73827,1,8,0:0:0:0:
256,192,73915,1,0,0:0:0:0:
256,192,74092,1,8,0:0:0:0:
256,192,74180,1,8,0:0:0:0:
256,192,74268,1,0,0:0:0:0:
256,192,74445,1,8,0:0:0:0:
256,192,74533,1,8,0:0:0:0:
256,192,74621,1,0,0:0:0:0:
256,192,74709,1,8,0:0:0:0:
256,192,74886,1,8,0:0:0:0:
256,192,74974,1,0,0:0:0:0:
256,192,75239,1,8,0:0:0:0:
256,192,75327,1,0,0:0:0:0:
256,192,75503,1,0,0:0:0:0:
256,192,75592,1,8,0:0:0:0:
256,192,75680,1,0,0:0:0:0:
256,192,75856,1,8,0:0:0:0:
256,192,76033,1,0,0:0:0:0:
256,192,76121,1,8,0:0:0:0:
256,192,76209,1,8,0:0:0:0:
256,192,76298,1,8,0:0:0:0:
256,192,76386,1,0,0:0:0:0:
256,192,76562,1,8,0:0:0:0:
256,192,76739,1,0,0:0:0:0:
256,192,76827,1,8,0:0:0:0:
256,192,77003,1,8,0:0:0:0:
256,192,77092,1,0,0:0:0:0:
256,192,77268,1,8,0:0:0:0:
256,192,77445,1,0,0:0:0:0:
256,192,77533,1,8,0:0:0:0:
256,192,77709,1,8,0:0:0:0:
256,192,77798,1,0,0:0:0:0:
256,192,77974,1,8,0:0:0:0:
256,192,78150,1,0,0:0:0:0:
256,192,78239,1,8,0:0:0:0:
256,192,78415,1,8,0:0:0:0:
256,192,78503,1,0,0:0:0:0:
256,192,78592,1,8,0:0:0:0:
256,192,78768,1,8,0:0:0:0:
256,192,78856,1,0,0:0:0:0:
256,192,78945,1,0,0:0:0:0:
256,192,79033,1,8,0:0:0:0:
256,192,79209,1,0,0:0:0:0:
256,192,79386,1,8,0:0:0:0:
256,192,79562,1,0,0:0:0:0:
256,192,79650,1,8,0:0:0:0:
256,192,79827,1,8,0:0:0:0:
256,192,79915,1,0,0:0:0:0:
256,192,80092,1,8,0:0:0:0:
256,192,80268,1,0,0:0:0:0:
256,192,80356,1,8,0:0:0:0:
256,192,80533,1,8,0:0:0:0:
256,192,80621,1,0,0:0:0:0:
256,192,80798,1,8,0:0:0:0:
256,192,80974,1,0,0:0:0:0:
256,192,81062,1,8,0:0:0:0:
256,192,81239,1,8,0:0:0:0:
256,192,81327,1,0,0:0:0:0:
256,192,81503,1,8,0:0:0:0:
256,192,81592,1,8,0:0:0:0:
256,192,81680,1,8,0:0:0:0:
256,192,82033,5,0,0:0:0:0:
256,192,82209,1,0,0:0:0:0:
256,192,82298,1,8,0:0:0:0:
256,192,82386,1,0,0:0:0:0:
256,192,82474,1,0,0:0:0:0:
256,192,82562,1,8,0:0:0:0:
256,192,82650,1,0,0:0:0:0:
256,192,82695,1,0,0:0:0:0:
256,192,82739,1,0,0:0:0:0:
256,192,82915,1,8,0:0:0:0:
256,192,83003,1,8,0:0:0:0:
256,192,83092,1,0,0:0:0:0:
256,192,83180,1,8,0:0:0:0:
256,192,83268,1,0,0:0:0:0:
256,192,83356,1,8,0:0:0:0:
256,192,83445,1,0,0:0:0:0:
256,192,83621,1,8,0:0:0:0:
256,192,83709,1,0,0:0:0:0:
256,192,83798,1,8,0:0:0:0:
256,192,83886,1,8,0:0:0:0:
256,192,83974,1,0,0:0:0:0:
256,192,84062,1,8,0:0:0:0:
256,192,84106,1,8,0:0:0:0:
256,192,84150,1,0,0:0:0:0:
256,192,84327,1,8,0:0:0:0:
256,192,84415,1,0,0:0:0:0:
256,192,84503,1,8,0:0:0:0:
256,192,84592,1,0,0:0:0:0:
256,192,84636,1,0,0:0:0:0:
256,192,84680,1,8,0:0:0:0:
256,192,84856,1,0,0:0:0:0:
256,192,85033,1,0,0:0:0:0:
256,192,85121,1,8,0:0:0:0:
256,192,85209,1,0,0:0:0:0:
256,192,85298,1,0,0:0:0:0:
256,192,85386,1,8,0:0:0:0:
256,192,85474,1,0,0:0:0:0:
256,192,85518,1,0,0:0:0:0:
256,192,85562,1,0,0:0:0:0:
256,192,85739,1,8,0:0:0:0:
256,192,85827,1,8,0:0:0:0:
256,192,85915,1,0,0:0:0:0:
256,192,86003,1,8,0:0:0:0:
256,192,86092,1,0,0:0:0:0:
256,192,86180,1,8,0:0:0:0:
256,192,86268,1,0,0:0:0:0:
256,192,86445,1,8,0:0:0:0:
256,192,86533,1,8,0:0:0:0:
256,192,86621,1,0,0:0:0:0:
256,192,86709,1,0,0:0:0:0:
256,192,86798,1,8,0:0:0:0:
256,192,86886,1,0,0:0:0:0:
256,192,86930,1,0,0:0:0:0:
256,192,86974,1,8,0:0:0:0:
256,192,87150,1,8,0:0:0:0:
256,192,87327,1,0,0:0:0:0:
256,192,87503,1,8,0:0:0:0:
256,192,87548,1,8,0:0:0:0:
256,192,87592,1,8,0:0:0:0:
256,192,87680,1,0,0:0:0:0:
256,192,87856,1,0,0:0:0:0:
256,192,87945,1,8,0:0:0:0:
256,192,88033,1,0,0:0:0:0:
256,192,88121,1,0,0:0:0:0:
256,192,88209,1,8,0:0:0:0:
256,192,88298,1,0,0:0:0:0:
256,192,88342,1,0,0:0:0:0:
256,192,88386,1,0,0:0:0:0:
256,192,88562,1,8,0:0:0:0:
256,192,88650,1,0,0:0:0:0:
256,192,88739,1,0,0:0:0:0:
256,192,88827,1,8,0:0:0:0:
256,192,88871,1,8,0:0:0:0:
256,192,88915,1,0,0:0:0:0:
256,192,89003,1,8,0:0:0:0:
256,192,89092,1,0,0:0:0:0:
256,192,89268,1,0,0:0:0:0:
256,192,89356,1,8,0:0:0:0:
256,192,89445,1,0,0:0:0:0:
256,192,89533,1,0,0:0:0:0:
256,192,89621,1,8,0:0:0:0:
256,192,89709,1,0,0:0:0:0:
256,192,89753,1,0,0:0:0:0:
256,192,89798,1,0,0:0:0:0:
256,192,89974,1,8,0:0:0:0:
256,192,90062,1,0,0:0:0:0:
256,192,90150,1,8,0:0:0:0:
256,192,90239,1,0,0:0:0:0:
256,192,90283,1,0,0:0:0:0:
256,192,90327,1,8,0:0:0:0:
256,192,90503,1,0,0:0:0:0:
256,192,90680,1,0,0:0:0:0:
256,192,90768,1,8,0:0:0:0:
256,192,90856,1,0,0:0:0:0:
256,192,90945,1,0,0:0:0:0:
256,192,91033,1,8,0:0:0:0:
256,192,91121,1,0,0:0:0:0:
256,192,91165,1,0,0:0:0:0:
256,192,91209,1,0,0:0:0:0:
256,192,91386,1,8,0:0:0:0:
256,192,91474,1,0,0:0:0:0:
256,192,91562,1,0,0:0:0:0:
256,192,91650,1,8,0:0:0:0:
256,192,91695,1,8,0:0:0:0:
256,192,91739,1,0,0:0:0:0:
256,192,91827,1,8,0:0:0:0:
256,192,91871,1,8,0:0:0:0:
256,192,91915,1,0,0:0:0:0:
256,192,92092,1,0,0:0:0:0:
256,192,92180,1,8,0:0:0:0:
256,192,92268,1,0,0:0:0:0:
256,192,92356,1,0,0:0:0:0:
256,192,92445,1,8,0:0:0:0:
256,192,92533,1,0,0:0:0:0:
256,192,92577,1,0,0:0:0:0:
256,192,92621,1,0,0:0:0:0:
256,192,92709,1,8,0:0:0:0:
256,192,92886,1,0,0:0:0:0:
256,192,92974,1,8,0:0:0:0:
256,192,93327,5,12,0:0:0:0:
256,192,98974,5,0,0:0:0:0:
256,192,104621,5,12,0:0:0:0:
256,192,104974,1,8,0:0:0:0:
256,192,105327,1,8,0:0:0:0:
256,192,105680,1,8,0:0:0:0:
256,192,106033,1,8,0:0:0:0:
256,192,106386,1,8,0:0:0:0:
256,192,106739,1,8,0:0:0:0:
256,192,107092,1,8,0:0:0:0:
256,192,107445,1,8,0:0:0:0:
256,192,107798,1,8,0:0:0:0:
256,192,108150,1,8,0:0:0:0:
256,192,108503,1,8,0:0:0:0:
256,192,108856,1,8,0:0:0:0:
256,192,109209,1,8,0:0:0:0:
256,192,109562,1,8,0:0:0:0:
256,192,109915,1,8,0:0:0:0:
256,192,110268,1,8,0:0:0:0:
256,192,110356,1,8,0:0:0:0:
256,192,110445,1,8,0:0:0:0:
256,192,110533,1,8,0:0:0:0:
256,192,110621,1,8,0:0:0:0:
256,192,110709,1,8,0:0:0:0:
256,192,110798,1,8,0:0:0:0:
256,192,110886,1,8,0:0:0:0:
256,192,110974,1,8,0:0:0:0:
256,192,111062,1,8,0:0:0:0:
256,192,111151,1,8,0:0:0:0:
256,192,111239,1,8,0:0:0:0:
256,192,111327,1,8,0:0:0:0:
256,192,111415,1,8,0:0:0:0:
256,192,111504,1,8,0:0:0:0:
256,192,111592,1,8,0:0:0:0:
256,192,111680,1,8,0:0:0:0:
256,192,111768,1,8,0:0:0:0:
256,192,111857,1,8,0:0:0:0:
256,192,111945,1,8,0:0:0:0:
256,192,112033,1,8,0:0:0:0:
256,192,112121,1,8,0:0:0:0:
256,192,112210,1,8,0:0:0:0:
256,192,112298,1,8,0:0:0:0:
256,192,112386,1,8,0:0:0:0:
256,192,112475,1,8,0:0:0:0:
256,192,112563,1,8,0:0:0:0:
256,192,112650,1,8,0:0:0:0:
256,192,112739,1,8,0:0:0:0:
256,192,112827,1,8,0:0:0:0:
256,192,112916,1,8,0:0:0:0:
256,192,113004,1,8,0:0:0:0:
256,192,113092,12,0,114856,0:0:0:0:
256,192,115209,5,8,0:0:0:0:
256,192,115386,1,8,0:0:0:0:
256,192,115562,1,8,0:0:0:0:
256,192,115650,1,8,0:0:0:0:
256,192,115739,1,8,0:0:0:0:
256,192,115827,1,8,0:0:0:0:
256,192,115915,5,0,0:0:0:0:
256,192,116092,1,8,0:0:0:0:
256,192,116180,1,0,0:0:0:0:
256,192,116268,1,8,0:0:0:0:
256,192,116356,1,8,0:0:0:0:
256,192,116445,1,0,0:0:0:0:
256,192,116533,1,0,0:0:0:0:
256,192,116621,1,8,0:0:0:0:
256,192,116709,1,0,0:0:0:0:
256,192,116798,1,8,0:0:0:0:
256,192,116886,1,8,0:0:0:0:
256,192,116974,1,0,0:0:0:0:
256,192,117150,1,0,0:0:0:0:
256,192,117239,1,8,0:0:0:0:
256,192,117327,1,0,0:0:0:0:
256,192,117415,1,0,0:0:0:0:
256,192,117503,1,8,0:0:0:0:
256,192,117592,1,0,0:0:0:0:
256,192,117680,1,8,0:0:0:0:
256,192,117768,1,8,0:0:0:0:
256,192,117856,1,0,0:0:0:0:
256,192,117945,1,8,0:0:0:0:
256,192,118033,1,0,0:0:0:0:
256,192,118121,1,0,0:0:0:0:
256,192,118209,1,8,0:0:0:0:
256,192,118298,1,0,0:0:0:0:
256,192,118386,1,8,0:0:0:0:
256,192,118474,1,0,0:0:0:0:
256,192,118518,1,0,0:0:0:0:
256,192,118562,1,8,0:0:0:0:
256,192,118739,1,0,0:0:0:0:
256,192,118915,1,8,0:0:0:0:
256,192,119003,1,8,0:0:0:0:
256,192,119092,1,0,0:0:0:0:
256,192,119180,1,8,0:0:0:0:
256,192,119268,1,0,0:0:0:0:
256,192,119356,1,0,0:0:0:0:
256,192,119445,1,8,0:0:0:0:
256,192,119533,1,8,0:0:0:0:
256,192,119621,1,0,0:0:0:0:
256,192,119709,1,8,0:0:0:0:
256,192,119798,1,0,0:0:0:0:
256,192,119974,1,8,0:0:0:0:
256,192,120062,1,0,0:0:0:0:
256,192,120150,1,8,0:0:0:0:
256,192,120239,1,8,0:0:0:0:
256,192,120327,1,0,0:0:0:0:
256,192,120415,1,8,0:0:0:0:
256,192,120503,1,0,0:0:0:0:
256,192,120592,1,0,0:0:0:0:
256,192,120680,1,8,0:0:0:0:
256,192,120768,1,8,0:0:0:0:
256,192,120856,1,0,0:0:0:0:
256,192,120945,1,0,0:0:0:0:
256,192,121033,1,8,0:0:0:0:
256,192,121121,1,0,0:0:0:0:
256,192,121209,1,8,0:0:0:0:
256,192,121298,1,0,0:0:0:0:
256,192,121342,1,0,0:0:0:0:
256,192,121386,1,8,0:0:0:0:
256,192,121562,1,0,0:0:0:0:
256,192,121739,1,8,0:0:0:0:
256,192,121827,1,0,0:0:0:0:
256,192,121915,1,8,0:0:0:0:
256,192,121959,1,8,0:0:0:0:
256,192,122003,1,8,0:0:0:0:
256,192,122092,1,0,0:0:0:0:
256,192,122180,1,8,0:0:0:0:
256,192,122268,1,0,0:0:0:0:
256,192,122445,1,8,0:0:0:0:
256,192,122533,1,0,0:0:0:0:
256,192,122621,1,8,0:0:0:0:
256,192,122665,1,8,0:0:0:0:
256,192,122709,1,8,0:0:0:0:
256,192,122798,1,0,0:0:0:0:
256,192,122886,1,8,0:0:0:0:
256,192,122974,1,0,0:0:0:0:
256,192,123062,1,0,0:0:0:0:
256,192,123150,1,8,0:0:0:0:
256,192,123239,1,0,0:0:0:0:
256,192,123327,1,8,0:0:0:0:
256,192,123503,1,0,0:0:0:0:
256,192,123592,1,8,0:0:0:0:
256,192,123680,1,0,0:0:0:0:
256,192,123724,1,0,0:0:0:0:
256,192,123768,1,0,0:0:0:0:
256,192,123856,1,8,0:0:0:0:
256,192,123945,1,0,0:0:0:0:
256,192,124033,1,8,0:0:0:0:
256,192,124121,1,0,0:0:0:0:
256,192,124165,1,0,0:0:0:0:
256,192,124209,1,8,0:0:0:0:
256,192,124386,1,0,0:0:0:0:
256,192,124562,1,8,0:0:0:0:
256,192,124650,1,0,0:0:0:0:
256,192,124739,1,8,0:0:0:0:
256,192,124783,1,8,0:0:0:0:
256,192,124827,1,8,0:0:0:0:
256,192,124915,1,0,0:0:0:0:
256,192,125003,1,8,0:0:0:0:
256,192,125092,1,0,0:0:0:0:
256,192,125268,1,8,0:0:0:0:
256,192,125356,1,0,0:0:0:0:
256,192,125445,1,8,0:0:0:0:
256,192,125489,1,8,0:0:0:0:
256,192,125533,1,8,0:0:0:0:
256,192,125621,1,0,0:0:0:0:
256,192,125709,1,8,0:0:0:0:
256,192,125798,1,0,0:0:0:0:
256,192,125974,1,8,0:0:0:0:
256,192,126062,1,8,0:0:0:0:
256,192,126150,1,8,0:0:0:0:
256,192,126239,1,0,0:0:0:0:
256,192,126327,1,8,0:0:0:0:
256,192,126415,1,8,0:0:0:0:
256,192,126503,1,0,0:0:0:0:
256,192,126592,1,0,0:0:0:0:
256,192,126680,1,0,0:0:0:0:
256,192,126768,1,0,0:0:0:0:
256,192,126856,1,8,0:0:0:0:
256,192,126945,1,8,0:0:0:0:
256,192,127033,1,8,0:0:0:0:
256,192,127077,1,8,0:0:0:0:
256,192,127121,1,8,0:0:0:0:
256,192,127209,5,0,0:0:0:0:
256,192,127386,1,0,0:0:0:0:
256,192,127562,1,8,0:0:0:0:
256,192,127739,1,0,0:0:0:0:
256,192,127827,1,8,0:0:0:0:
256,192,127915,1,0,0:0:0:0:
256,192,128092,1,8,0:0:0:0:
256,192,128268,1,0,0:0:0:0:
256,192,128357,1,0,0:0:0:0:
256,192,128445,1,8,0:0:0:0:
256,192,128489,1,8,0:0:0:0:
256,192,128533,1,8,0:0:0:0:
256,192,128621,1,0,0:0:0:0:
256,192,128798,1,8,0:0:0:0:
256,192,128974,1,0,0:0:0:0:
256,192,129151,1,0,0:0:0:0:
256,192,129239,1,0,0:0:0:0:
256,192,129327,1,8,0:0:0:0:
256,192,129415,1,0,0:0:0:0:
256,192,129504,1,8,0:0:0:0:
256,192,129680,1,0,0:0:0:0:
256,192,129768,1,8,0:0:0:0:
256,192,129857,1,0,0:0:0:0:
256,192,129945,1,8,0:0:0:0:
256,192,130033,1,0,0:0:0:0:
256,192,130209,1,0,0:0:0:0:
256,192,130386,1,8,0:0:0:0:
256,192,130562,1,0,0:0:0:0:
256,192,130651,1,0,0:0:0:0:
256,192,130739,1,8,0:0:0:0:
256,192,130915,1,8,0:0:0:0:
256,192,131092,1,0,0:0:0:0:
256,192,131180,1,0,0:0:0:0:
256,192,131268,1,8,0:0:0:0:
256,192,131312,1,8,0:0:0:0:
256,192,131357,1,8,0:0:0:0:
256,192,131445,1,0,0:0:0:0:
256,192,131621,1,8,0:0:0:0:
256,192,131798,1,0,0:0:0:0:
256,192,131974,1,8,0:0:0:0:
256,192,132062,1,0,0:0:0:0:
256,192,132151,1,8,0:0:0:0:
256,192,132327,1,0,0:0:0:0:
256,192,132415,1,8,0:0:0:0:
256,192,132504,1,0,0:0:0:0:
256,192,132592,1,0,0:0:0:0:
256,192,132680,1,8,0:0:0:0:
256,192,132768,1,8,0:0:0:0:
256,192,132856,1,0,0:0:0:0:
256,192,133032,1,0,0:0:0:0:
256,192,133121,1,0,0:0:0:0:
256,192,133208,1,8,0:0:0:0:
256,192,133297,1,0,0:0:0:0:
256,192,133385,1,0,0:0:0:0:
256,192,133473,1,8,0:0:0:0:
256,192,133561,1,0,0:0:0:0:
256,192,133738,1,8,0:0:0:0:
256,192,133914,1,0,0:0:0:0:
256,192,134003,1,0,0:0:0:0:
256,192,134091,1,8,0:0:0:0:
256,192,134135,1,8,0:0:0:0:
256,192,134179,1,8,0:0:0:0:
256,192,134267,1,0,0:0:0:0:
256,192,134444,1,8,0:0:0:0:
256,192,134533,1,0,0:0:0:0:
256,192,134620,1,0,0:0:0:0:
256,192,134797,1,0,0:0:0:0:
256,192,134885,1,8,0:0:0:0:
256,192,134973,1,8,0:0:0:0:
256,192,135061,1,0,0:0:0:0:
256,192,135150,1,8,0:0:0:0:
256,192,135194,1,8,0:0:0:0:
256,192,135238,1,8,0:0:0:0:
256,192,135326,1,0,0:0:0:0:
256,192,135414,1,8,0:0:0:0:
256,192,135503,1,0,0:0:0:0:
256,192,135591,1,8,0:0:0:0:
256,192,135679,1,0,0:0:0:0:
256,192,135856,1,0,0:0:0:0:
256,192,135945,1,0,0:0:0:0:
256,192,136032,1,8,0:0:0:0:
256,192,136120,1,0,0:0:0:0:
256,192,136208,1,8,0:0:0:0:
256,192,136297,1,8,0:0:0:0:
256,192,136385,1,0,0:0:0:0:
256,192,136561,1,8,0:0:0:0:
256,192,136738,1,0,0:0:0:0:
256,192,136826,1,0,0:0:0:0:
256,192,136914,1,8,0:0:0:0:
256,192,136958,1,8,0:0:0:0:
256,192,137003,1,8,0:0:0:0:
256,192,137091,1,0,0:0:0:0:
256,192,137267,1,0,0:0:0:0:
256,192,137444,1,8,0:0:0:0:
256,192,137620,1,0,0:0:0:0:
256,192,137708,1,8,0:0:0:0:
256,192,137797,1,0,0:0:0:0:
256,192,137973,1,8,0:0:0:0:
256,192,138150,1,0,0:0:0:0:
256,192,138238,1,0,0:0:0:0:
256,192,138282,1,0,0:0:0:0:
256,192,138326,1,8,0:0:0:0:
256,192,138503,5,4,0:0:0:0:
256,192,138856,1,8,0:0:0:0:
256,192,138900,1,8,0:0:0:0:
256,192,138945,1,8,0:0:0:0:
256,192,139033,1,8,0:0:0:0:
256,192,139121,1,8,0:0:0:0:
256,192,139209,1,0,0:0:0:0:
256,192,139562,1,8,0:0:0:0:
256,192,139606,1,8,0:0:0:0:
256,192,139650,1,0,0:0:0:0:
256,192,139739,1,8,0:0:0:0:
256,192,139827,1,8,0:0:0:0:
256,192,139915,1,0,0:0:0:0:
256,192,140268,1,8,0:0:0:0:
256,192,140312,1,8,0:0:0:0:
256,192,140356,1,8,0:0:0:0:
256,192,140445,1,8,0:0:0:0:
256,192,140533,1,8,0:0:0:0:
256,192,140621,1,0,0:0:0:0:
256,192,140798,1,8,0:0:0:0:
256,192,140842,1,8,0:0:0:0:
256,192,140886,1,0,0:0:0:0:
256,192,140974,1,0,0:0:0:0:
256,192,141150,1,8,0:0:0:0:
256,192,141327,1,4,0:0:0:0:
256,192,141680,1,8,0:0:0:0:
256,192,141724,1,8,0:0:0:0:
256,192,141768,1,8,0:0:0:0:
256,192,141856,1,8,0:0:0:0:
256,192,141945,1,8,0:0:0:0:
256,192,142033,1,0,0:0:0:0:
256,192,142386,1,8,0:0:0:0:
256,192,142430,1,8,0:0:0:0:
256,192,142474,1,0,0:0:0:0:
256,192,142562,1,8,0:0:0:0:
256,192,142650,1,8,0:0:0:0:
256,192,142739,1,0,0:0:0:0:
256,192,143092,1,8,0:0:0:0:
256,192,143136,1,8,0:0:0:0:
256,192,143180,1,8,0:0:0:0:
256,192,143268,1,8,0:0:0:0:
256,192,143356,1,8,0:0:0:0:
256,192,143445,1,0,0:0:0:0:
256,192,143621,1,8,0:0:0:0:
256,192,143665,1,8,0:0:0:0:
256,192,143709,1,0,0:0:0:0:
256,192,143798,1,8,0:0:0:0:
256,192,143974,1,8,0:0:0:0:
256,192,144150,1,0,0:0:0:0:
256,192,144239,1,0,0:0:0:0:
256,192,144327,1,0,0:0:0:0:
256,192,144415,1,0,0:0:0:0:
256,192,144503,1,8,0:0:0:0:
256,192,144548,1,8,0:0:0:0:
256,192,144592,1,8,0:0:0:0:
256,192,144680,1,8,0:0:0:0:
256,192,144768,1,8,0:0:0:0:
256,192,144856,1,0,0:0:0:0:
256,192,144945,1,0,0:0:0:0:
256,192,145033,1,0,0:0:0:0:
256,192,145121,1,0,0:0:0:0:
256,192,145209,1,8,0:0:0:0:
256,192,145253,1,8,0:0:0:0:
256,192,145298,1,0,0:0:0:0:
256,192,145386,1,8,0:0:0:0:
256,192,145474,1,8,0:0:0:0:
256,192,145562,1,0,0:0:0:0:
256,192,145650,1,0,0:0:0:0:
256,192,145739,1,0,0:0:0:0:
256,192,145827,1,0,0:0:0:0:
256,192,145915,1,8,0:0:0:0:
256,192,145959,1,8,0:0:0:0:
256,192,146003,1,8,0:0:0:0:
256,192,146092,1,8,0:0:0:0:
256,192,146180,1,8,0:0:0:0:
256,192,146268,1,0,0:0:0:0:
256,192,146356,1,0,0:0:0:0:
256,192,146445,1,8,0:0:0:0:
256,192,146489,1,8,0:0:0:0:
256,192,146533,1,8,0:0:0:0:
256,192,146621,1,0,0:0:0:0:
256,192,146709,1,0,0:0:0:0:
256,192,146798,1,8,0:0:0:0:
256,192,146974,1,0,0:0:0:0:
256,192,147018,1,0,0:0:0:0:
256,192,147062,1,0,0:0:0:0:
256,192,147150,1,0,0:0:0:0:
256,192,147239,1,0,0:0:0:0:
256,192,147327,1,8,0:0:0:0:
256,192,147371,1,8,0:0:0:0:
256,192,147415,1,8,0:0:0:0:
256,192,147503,1,8,0:0:0:0:
256,192,147592,1,8,0:0:0:0:
256,192,147680,1,0,0:0:0:0:
256,192,147724,1,0,0:0:0:0:
256,192,147768,1,0,0:0:0:0:
256,192,147856,1,0,0:0:0:0:
256,192,147945,1,0,0:0:0:0:
256,192,148033,1,8,0:0:0:0:
256,192,148077,1,8,0:0:0:0:
256,192,148121,1,0,0:0:0:0:
256,192,148209,1,8,0:0:0:0:
256,192,148298,1,8,0:0:0:0:
256,192,148386,1,0,0:0:0:0:
256,192,148430,1,0,0:0:0:0:
256,192,148474,1,0,0:0:0:0:
256,192,148562,1,0,0:0:0:0:
256,192,148650,1,0,0:0:0:0:
256,192,148739,1,8,0:0:0:0:
256,192,148783,1,8,0:0:0:0:
256,192,148827,1,0,0:0:0:0:
256,192,148915,1,8,0:0:0:0:
256,192,149003,1,8,0:0:0:0:
256,192,149092,1,0,0:0:0:0:
256,192,149180,1,8,0:0:0:0:
256,192,149224,1,8,0:0:0:0:
256,192,149268,1,0,0:0:0:0:
256,192,149356,1,8,0:0:0:0:
256,192,149445,1,8,0:0:0:0:
256,192,149798,5,4,0:0:0:0:
256,192,155445,5,0,0:0:0:0:
256,192,155533,1,0,0:0:0:0:
256,192,155621,1,8,0:0:0:0:
256,192,155798,1,0,0:0:0:0:
256,192,155886,1,0,0:0:0:0:
256,192,155974,1,8,0:0:0:0:
256,192,156150,1,0,0:0:0:0:
256,192,156238,1,0,0:0:0:0:
256,192,156326,1,8,0:0:0:0:
256,192,156503,1,0,0:0:0:0:
256,192,156591,1,0,0:0:0:0:
256,192,156679,1,8,0:0:0:0:
256,192,156856,1,0,0:0:0:0:
256,192,156944,1,0,0:0:0:0:
256,192,157032,1,8,0:0:0:0:
256,192,157209,1,0,0:0:0:0:
256,192,157297,1,0,0:0:0:0:
256,192,157385,1,8,0:0:0:0:
256,192,157561,1,0,0:0:0:0:
256,192,157649,1,0,0:0:0:0:
256,192,157739,1,8,0:0:0:0:
256,192,157914,1,0,0:0:0:0:
256,192,158002,1,0,0:0:0:0:
256,192,158092,1,8,0:0:0:0:
256,192,158268,1,0,0:0:0:0:
256,192,158356,1,0,0:0:0:0:
256,192,158444,1,8,0:0:0:0:
256,192,158621,1,0,0:0:0:0:
256,192,158709,1,0,0:0:0:0:
256,192,158797,1,8,0:0:0:0:
256,192,158973,1,0,0:0:0:0:
256,192,159061,1,0,0:0:0:0:
256,192,159149,1,8,0:0:0:0:
256,192,159326,1,0,0:0:0:0:
256,192,159414,1,0,0:0:0:0:
256,192,159502,1,8,0:0:0:0:
256,192,159679,1,0,0:0:0:0:
256,192,159767,1,0,0:0:0:0:
256,192,159855,1,8,0:0:0:0:
256,192,160032,1,0,0:0:0:0:
256,192,160120,1,0,0:0:0:0:
256,192,160208,1,8,0:0:0:0:
256,192,160386,1,0,0:0:0:0:
256,192,160474,1,0,0:0:0:0:
256,192,160562,1,8,0:0:0:0:
256,192,160739,1,0,0:0:0:0:
256,192,160827,1,0,0:0:0:0:
256,192,160915,1,8,0:0:0:0:
256,192,161092,1,4,0:0:0:0:
256,192,161268,1,0,0:0:0:0:
256,192,161356,1,0,0:0:0:0:
256,192,161445,1,8,0:0:0:0:
256,192,161621,1,0,0:0:0:0:
256,192,161798,1,0,0:0:0:0:
256,192,161886,1,8,0:0:0:0:
256,192,161974,1,0,0:0:0:0:
256,192,162150,1,8,0:0:0:0:
256,192,162327,1,8,0:0:0:0:
256,192,162415,1,8,0:0:0:0:
256,192,162503,1,0,0:0:0:0:
256,192,162680,1,0,0:0:0:0:
256,192,162768,1,0,0:0:0:0:
256,192,162856,1,8,0:0:0:0:
256,192,163033,1,0,0:0:0:0:
256,192,163209,1,8,0:0:0:0:
256,192,163298,1,0,0:0:0:0:
256,192,163386,1,8,0:0:0:0:
256,192,163562,1,8,0:0:0:0:
256,192,163739,1,0,0:0:0:0:
256,192,163827,1,8,0:0:0:0:
256,192,163915,1,0,0:0:0:0:
256,192,164092,1,0,0:0:0:0:
256,192,164180,1,0,0:0:0:0:
256,192,164268,1,8,0:0:0:0:
256,192,164445,1,0,0:0:0:0:
256,192,164621,1,0,0:0:0:0:
256,192,164709,1,8,0:0:0:0:
256,192,164798,1,0,0:0:0:0:
256,192,164974,1,8,0:0:0:0:
256,192,165150,1,8,0:0:0:0:
256,192,165239,1,8,0:0:0:0:
256,192,165327,1,0,0:0:0:0:
256,192,165503,1,0,0:0:0:0:
256,192,165592,1,0,0:0:0:0:
256,192,165680,1,8,0:0:0:0:
256,192,165856,1,0,0:0:0:0:
256,192,166033,1,8,0:0:0:0:
256,192,166121,1,8,0:0:0:0:
256,192,166209,1,0,0:0:0:0:
256,192,166298,1,0,0:0:0:0:
256,192,166386,1,8,0:0:0:0:
256,192,166562,1,0,0:0:0:0:
256,192,166650,1,8,0:0:0:0:
256,192,166739,1,0,0:0:0:0:
256,192,166915,1,0,0:0:0:0:
256,192,167003,1,0,0:0:0:0:
256,192,167092,1,8,0:0:0:0:
256,192,167268,1,0,0:0:0:0:
256,192,167356,1,8,0:0:0:0:
256,192,167445,1,0,0:0:0:0:
256,192,167533,1,0,0:0:0:0:
256,192,167621,1,8,0:0:0:0:
256,192,167798,1,8,0:0:0:0:
256,192,167974,1,0,0:0:0:0:
256,192,168062,1,8,0:0:0:0:
256,192,168150,1,0,0:0:0:0:
256,192,168327,1,0,0:0:0:0:
256,192,168415,1,0,0:0:0:0:
256,192,168503,1,8,0:0:0:0:
256,192,168680,1,8,0:0:0:0:
256,192,168768,1,0,0:0:0:0:
256,192,168856,1,8,0:0:0:0:
256,192,168945,1,8,0:0:0:0:
256,192,169033,1,0,0:0:0:0:
256,192,169209,1,8,0:0:0:0:
256,192,169386,1,0,0:0:0:0:
256,192,169474,1,8,0:0:0:0:
256,192,169562,1,0,0:0:0:0:
256,192,169739,1,0,0:0:0:0:
256,192,169827,1,0,0:0:0:0:
256,192,169915,1,8,0:0:0:0:
256,192,170092,1,0,0:0:0:0:
256,192,170180,1,8,0:0:0:0:
256,192,170268,1,0,0:0:0:0:
256,192,170356,1,0,0:0:0:0:
256,192,170445,1,8,0:0:0:0:
256,192,170533,1,0,0:0:0:0:
256,192,170621,1,8,0:0:0:0:
256,192,170798,1,0,0:0:0:0:
256,192,170886,1,8,0:0:0:0:
256,192,170974,1,0,0:0:0:0:
256,192,171150,1,0,0:0:0:0:
256,192,171239,1,0,0:0:0:0:
256,192,171327,1,8,0:0:0:0:
256,192,171503,1,8,0:0:0:0:
256,192,171592,1,0,0:0:0:0:
256,192,171680,1,8,0:0:0:0:
256,192,171768,1,8,0:0:0:0:
256,192,171856,1,0,0:0:0:0:
256,192,171945,1,0,0:0:0:0:
256,192,172033,1,8,0:0:0:0:
256,192,172121,1,8,0:0:0:0:
256,192,172209,1,8,0:0:0:0:
256,192,172298,1,8,0:0:0:0:
256,192,175209,5,0,0:0:0:0:
256,192,175253,1,0,0:0:0:0:
256,192,175298,1,8,0:0:0:0:
256,192,175386,1,0,0:0:0:0:
256,192,175474,1,0,0:0:0:0:
256,192,175562,1,8,0:0:0:0:
256,192,175606,1,8,0:0:0:0:
256,192,175650,1,0,0:0:0:0:
256,192,175739,1,8,0:0:0:0:
256,192,175827,1,0,0:0:0:0:
256,192,175871,1,0,0:0:0:0:
256,192,175915,1,0,0:0:0:0:
256,192,176003,1,8,0:0:0:0:
256,192,176092,1,0,0:0:0:0:
256,192,176180,1,0,0:0:0:0:
256,192,176268,1,8,0:0:0:0:
256,192,176356,1,0,0:0:0:0:
256,192,176400,1,8,0:0:0:0:
256,192,176445,1,0,0:0:0:0:
256,192,176533,1,8,0:0:0:0:
256,192,176621,1,0,0:0:0:0:
256,192,176665,1,0,0:0:0:0:
256,192,176709,1,8,0:0:0:0:
256,192,176798,1,0,0:0:0:0:
256,192,176886,1,0,0:0:0:0:
256,192,176974,1,8,0:0:0:0:
256,192,177018,1,8,0:0:0:0:
256,192,177062,1,0,0:0:0:0:
256,192,177150,1,8,0:0:0:0:
256,192,177239,1,0,0:0:0:0:
256,192,177283,1,0,0:0:0:0:
256,192,177327,1,0,0:0:0:0:
256,192,177415,1,0,0:0:0:0:
256,192,177503,1,8,0:0:0:0:
256,192,177592,1,8,0:0:0:0:
256,192,177680,1,0,0:0:0:0:
256,192,177768,1,8,0:0:0:0:
256,192,177812,1,8,0:0:0:0:
256,192,177856,1,8,0:0:0:0:
256,192,178033,1,0,0:0:0:0:
256,192,178077,1,0,0:0:0:0:
256,192,178121,1,8,0:0:0:0:
256,192,178209,1,0,0:0:0:0:
256,192,178298,1,0,0:0:0:0:
256,192,178386,1,8,0:0:0:0:
256,192,178430,1,8,0:0:0:0:
256,192,178474,1,0,0:0:0:0:
256,192,178562,1,8,0:0:0:0:
256,192,178650,1,0,0:0:0:0:
256,192,178695,1,0,0:0:0:0:
256,192,178739,1,0,0:0:0:0:
256,192,178827,1,8,0:0:0:0:
256,192,178915,1,0,0:0:0:0:
256,192,179003,1,0,0:0:0:0:
256,192,179092,1,8,0:0:0:0:
256,192,179180,1,0,0:0:0:0:
256,192,179224,1,8,0:0:0:0:
256,192,179268,1,0,0:0:0:0:
256,192,179356,1,8,0:0:0:0:
256,192,179445,1,0,0:0:0:0:
256,192,179489,1,0,0:0:0:0:
256,192,179533,1,8,0:0:0:0:
256,192,179621,1,0,0:0:0:0:
256,192,179709,1,0,0:0:0:0:
256,192,179798,1,8,0:0:0:0:
256,192,179842,1,8,0:0:0:0:
256,192,179886,1,0,0:0:0:0:
256,192,179974,1,8,0:0:0:0:
256,192,180062,1,0,0:0:0:0:
256,192,180106,1,0,0:0:0:0:
256,192,180150,1,0,0:0:0:0:
256,192,180239,1,0,0:0:0:0:
256,192,180327,1,8,0:0:0:0:
256,192,180415,1,0,0:0:0:0:
256,192,180503,1,0,0:0:0:0:
256,192,180592,1,8,0:0:0:0:
256,192,180636,1,8,0:0:0:0:
256,192,180680,1,8,0:0:0:0:
256,192,180856,1,0,0:0:0:0:
256,192,180900,1,0,0:0:0:0:
256,192,180945,1,8,0:0:0:0:
256,192,180989,1,8,0:0:0:0:
256,192,181033,1,0,0:0:0:0:
256,192,181121,1,8,0:0:0:0:
256,192,181209,1,0,0:0:0:0:
256,192,181253,1,0,0:0:0:0:
256,192,181298,1,8,0:0:0:0:
256,192,181386,1,8,0:0:0:0:
256,192,181474,1,0,0:0:0:0:
256,192,181518,1,0,0:0:0:0:
256,192,181562,1,0,0:0:0:0:
256,192,181650,1,8,0:0:0:0:
256,192,181739,1,0,0:0:0:0:
256,192,181827,1,0,0:0:0:0:
256,192,181915,1,8,0:0:0:0:
256,192,182003,1,0,0:0:0:0:
256,192,182048,1,8,0:0:0:0:
256,192,182092,1,0,0:0:0:0:
256,192,182180,1,8,0:0:0:0:
256,192,182268,1,0,0:0:0:0:
256,192,182312,1,0,0:0:0:0:
256,192,182356,1,8,0:0:0:0:
256,192,182400,1,8,0:0:0:0:
256,192,182445,1,0,0:0:0:0:
256,192,182533,1,8,0:0:0:0:
256,192,182621,1,0,0:0:0:0:
256,192,182665,1,0,0:0:0:0:
256,192,182709,1,8,0:0:0:0:
256,192,182798,1,8,0:0:0:0:
256,192,182886,1,0,0:0:0:0:
256,192,182930,1,0,0:0:0:0:
256,192,182974,1,0,0:0:0:0:
256,192,183062,1,0,0:0:0:0:
256,192,183150,1,8,0:0:0:0:
256,192,183239,1,8,0:0:0:0:
256,192,183327,1,0,0:0:0:0:
256,192,183415,1,8,0:0:0:0:
256,192,183459,1,8,0:0:0:0:
256,192,183503,1,8,0:0:0:0:
256,192,183592,1,8,0:0:0:0:
256,192,183680,1,0,0:0:0:0:
256,192,183724,1,0,0:0:0:0:
256,192,183768,1,8,0:0:0:0:
256,192,183812,1,8,0:0:0:0:
256,192,183856,1,0,0:0:0:0:
256,192,183945,1,8,0:0:0:0:
256,192,184033,1,0,0:0:0:0:
256,192,184077,1,0,0:0:0:0:
256,192,184121,1,8,0:0:0:0:
256,192,184209,1,8,0:0:0:0:
256,192,184298,1,0,0:0:0:0:
256,192,184342,1,0,0:0:0:0:
256,192,184386,1,0,0:0:0:0:
256,192,184474,1,8,0:0:0:0:
256,192,184562,1,0,0:0:0:0:
256,192,184650,1,0,0:0:0:0:
256,192,184739,1,8,0:0:0:0:
256,192,184827,1,0,0:0:0:0:
256,192,184871,1,8,0:0:0:0:
256,192,184915,1,0,0:0:0:0:
256,192,185003,1,8,0:0:0:0:
256,192,185092,1,0,0:0:0:0:
256,192,185136,1,0,0:0:0:0:
256,192,185180,1,0,0:0:0:0:
256,192,185268,1,8,0:0:0:0:
256,192,185356,1,0,0:0:0:0:
256,192,185445,1,8,0:0:0:0:
256,192,185533,1,8,0:0:0:0:
256,192,185621,1,0,0:0:0:0:
256,192,185709,1,8,0:0:0:0:
256,192,185798,1,0,0:0:0:0:
256,192,185886,1,0,0:0:0:0:
256,192,185974,1,0,0:0:0:0:
256,192,186062,1,0,0:0:0:0:
256,192,186150,1,8,0:0:0:0:
256,192,186503,5,0,0:0:0:0:
256,192,186548,1,0,0:0:0:0:
256,192,186592,1,0,0:0:0:0:
256,192,186680,1,0,0:0:0:0:
256,192,186768,1,8,0:0:0:0:
256,192,186856,1,0,0:0:0:0:
256,192,186945,1,0,0:0:0:0:
256,192,187033,1,8,0:0:0:0:
256,192,187121,1,8,0:0:0:0:
256,192,187209,1,0,0:0:0:0:
256,192,187386,1,8,0:0:0:0:
256,192,187474,1,0,0:0:0:0:
256,192,187562,1,8,0:0:0:0:
256,192,187650,1,8,0:0:0:0:
256,192,187739,1,0,0:0:0:0:
256,192,187827,1,8,0:0:0:0:
256,192,187915,1,0,0:0:0:0:
256,192,187959,1,0,0:0:0:0:
256,192,188003,1,0,0:0:0:0:
256,192,188092,1,0,0:0:0:0:
256,192,188180,1,8,0:0:0:0:
256,192,188268,1,0,0:0:0:0:
256,192,188356,1,0,0:0:0:0:
256,192,188445,1,8,0:0:0:0:
256,192,188533,1,8,0:0:0:0:
256,192,188621,1,0,0:0:0:0:
256,192,188709,1,0,0:0:0:0:
256,192,188798,1,8,0:0:0:0:
256,192,188886,1,0,0:0:0:0:
256,192,188974,1,8,0:0:0:0:
256,192,189062,1,0,0:0:0:0:
256,192,189150,1,8,0:0:0:0:
256,192,189327,1,0,0:0:0:0:
256,192,189371,1,0,0:0:0:0:
256,192,189415,1,0,0:0:0:0:
256,192,189503,1,0,0:0:0:0:
256,192,189592,1,8,0:0:0:0:
256,192,189680,1,0,0:0:0:0:
256,192,189768,1,0,0:0:0:0:
256,192,189856,1,8,0:0:0:0:
256,192,189945,1,8,0:0:0:0:
256,192,190033,1,0,0:0:0:0:
256,192,190209,1,8,0:0:0:0:
256,192,190298,1,0,0:0:0:0:
256,192,190386,1,8,0:0:0:0:
256,192,190474,1,0,0:0:0:0:
256,192,190562,1,8,0:0:0:0:
256,192,190650,1,8,0:0:0:0:
256,192,190739,1,0,0:0:0:0:
256,192,190783,1,0,0:0:0:0:
256,192,190827,1,0,0:0:0:0:
256,192,190915,1,0,0:0:0:0:
256,192,191003,1,8,0:0:0:0:
256,192,191092,1,0,0:0:0:0:
256,192,191180,1,0,0:0:0:0:
256,192,191268,1,8,0:0:0:0:
256,192,191356,1,8,0:0:0:0:
256,192,191445,1,0,0:0:0:0:
256,192,191533,1,0,0:0:0:0:
256,192,191621,1,8,0:0:0:0:
256,192,191709,1,0,0:0:0:0:
256,192,191798,1,8,0:0:0:0:
256,192,191842,1,8,0:0:0:0:
256,192,191886,1,8,0:0:0:0:
256,192,191974,1,8,0:0:0:0:
256,192,192150,1,0,0:0:0:0:
256,192,192195,1,0,0:0:0:0:
256,192,192239,1,0,0:0:0:0:
256,192,192327,1,0,0:0:0:0:
256,192,192415,1,8,0:0:0:0:
256,192,192503,1,0,0:0:0:0:
256,192,192592,1,0,0:0:0:0:
256,192,192680,1,8,0:0:0:0:
256,192,192768,1,8,0:0:0:0:
256,192,192856,1,0,0:0:0:0:
256,192,192945,1,0,0:0:0:0:
256,192,193033,1,8,0:0:0:0:
256,192,193121,1,0,0:0:0:0:
256,192,193209,1,8,0:0:0:0:
256,192,193298,1,8,0:0:0:0:
256,192,193386,1,0,0:0:0:0:
256,192,193474,1,8,0:0:0:0:
256,192,193562,1,0,0:0:0:0:
256,192,193606,1,0,0:0:0:0:
256,192,193650,1,0,0:0:0:0:
256,192,193739,1,0,0:0:0:0:
256,192,193827,1,8,0:0:0:0:
256,192,193915,1,0,0:0:0:0:
256,192,194003,1,0,0:0:0:0:
256,192,194092,1,8,0:0:0:0:
256,192,194180,1,8,0:0:0:0:
256,192,194268,1,0,0:0:0:0:
256,192,194356,1,0,0:0:0:0:
256,192,194445,1,8,0:0:0:0:
256,192,194533,1,0,0:0:0:0:
256,192,194621,1,8,0:0:0:0:
256,192,194709,1,0,0:0:0:0:
256,192,194798,1,8,0:0:0:0:
256,192,194842,1,8,0:0:0:0:
256,192,194886,1,8,0:0:0:0:
256,192,194974,1,0,0:0:0:0:
256,192,195062,1,0,0:0:0:0:
256,192,195150,1,8,0:0:0:0:
256,192,195239,1,8,0:0:0:0:
256,192,195327,1,8,0:0:0:0:
256,192,195415,1,0,0:0:0:0:
256,192,195503,1,8,0:0:0:0:
256,192,195592,1,8,0:0:0:0:
256,192,195680,1,0,0:0:0:0:
256,192,195856,1,8,0:0:0:0:
256,192,195945,1,0,0:0:0:0:
256,192,196033,1,0,0:0:0:0:
256,192,196121,1,0,0:0:0:0:
256,192,196209,1,8,0:0:0:0:
256,192,196298,1,8,0:0:0:0:
256,192,196386,1,0,0:0:0:0:
256,192,196474,1,0,0:0:0:0:
256,192,196562,1,0,0:0:0:0:
256,192,196650,1,0,0:0:0:0:
256,192,196739,1,8,0:0:0:0:
256,192,196783,1,8,0:0:0:0:
256,192,196827,1,0,0:0:0:0:
256,192,196871,1,0,0:0:0:0:
256,192,196915,1,8,0:0:0:0:
256,192,197003,1,0,0:0:0:0:
256,192,197092,1,8,0:0:0:0:
256,192,197136,1,8,0:0:0:0:
256,192,197180,1,8,0:0:0:0:
256,192,197268,1,0,0:0:0:0:
256,192,197356,1,8,0:0:0:0:
256,192,197445,1,0,0:0:0:0:
