osu file format v14

[General]
AudioFilename: audio.mp3
AudioLeadIn: 0
PreviewTime: -1
Countdown: 1
SampleSet: None
StackLeniency: 0.4
Mode: 0
LetterboxInBreaks: 0
WidescreenStoryboard: 0

[Editor]
Bookmarks: 6857,27750,27857,27964,28607,28821,35071,35285,35500,35714,36053,36482,36910,37339,37553,37767,38196,38625,38839,39267,39482,40982
DistanceSpacing: 1.9
BeatDivisor: 4
GridSize: 16
TimelineZoom: 1.8

[Metadata]
Title:My Music Playlist
TitleUnicode:My Music Playlist
Artist:Kobaryo
ArtistUnicode:Kobaryo
Creator:- Slajdik -
Version:lol chelo
Source:
Tags:
BeatmapID:1768155
BeatmapSetID:845313

[Difficulty]
HPDrainRate:6
CircleSize:4
OverallDifficulty:7
ApproachRate:9.5
SliderMultiplier:1.4
SliderTickRate:1

[Events]
//Background and Video events
0,0,"Dark-Souls-images-HD-Wallpapers.png",0,0
//Break Periods
//Storyboard Layer 0 (Background)
//Storyboard Layer 1 (Fail)
//Storyboard Layer 2 (Pass)
//Storyboard Layer 3 (Foreground)
//Storyboard Sound Samples

[TimingPoints]
0,214.285714285714,4,3,0,100,1,0
6857,-133.333333333333,4,3,0,100,0,0
15214,-50,4,3,0,100,0,0
15428,-100,4,3,0,100,0,0
20142,-66.6666666666667,4,3,0,100,0,0
24000,-25,4,3,0,100,0,0
24964,-25,4,3,0,100,0,0
25714,-200,4,3,0,100,0,0
25814,-66.6666666666667,4,3,0,100,0,0
39482,-100,4,3,0,100,0,0

[Colours]
Combo1 : 0,0,0
Combo2 : 244,0,6
Combo3 : 0,0,0
Combo4 : 240,240,240

[HitObjects]
256,336,6857,5,0,0:0:0:0:
181,298,7285,1,0,0:0:0:0:
134,227,7714,1,0,0:0:0:0:
217,237,8142,1,0,0:0:0:0:
285,285,8571,1,0,0:0:0:0:
247,209,9000,1,0,0:0:0:0:
168,178,9428,1,0,0:0:0:0:
249,156,9857,1,0,0:0:0:0:
301,221,10285,1,0,0:0:0:0:
220,195,10714,1,0,0:0:0:0:
141,223,11142,1,0,0:0:0:0:
208,273,11571,1,0,0:0:0:0:
292,272,12000,1,0,0:0:0:0:
217,233,12428,1,0,0:0:0:0:
134,215,12857,1,0,0:0:0:0:
215,196,13285,1,0,0:0:0:0:
336,112,13714,2,0,B|384:160|384:160|336:160|336:160|320:176|336:192,1,157.500006008148
352,224,14571,1,0,0:0:0:0:
349,244,14678,1,0,0:0:0:0:
335,272,14785,1,0,0:0:0:0:
308,304,14892,1,0,0:0:0:0:
259,325,15000,1,0,0:0:0:0:
196,315,15107,1,0,0:0:0:0:
136,267,15214,2,0,B|91:272|91:272|105:256|106:256|106:256|47:244,1,70
104,157,15428,1,0,0:0:0:0:
366,252,15642,1,0,0:0:0:0:
158,62,15857,1,0,0:0:0:0:
172,341,16071,1,0,0:0:0:0:
117,235,16285,1,0,0:0:0:0:
144,213,16392,1,0,0:0:0:0:
131,236,16500,1,0,0:0:0:0:
183,226,16607,1,0,0:0:0:0:
216,193,16714,1,0,0:0:0:0:
261,178,16821,1,0,0:0:0:0:
310,196,16928,1,0,0:0:0:0:
329,247,17035,1,0,0:0:0:0:
333,305,17142,2,0,P|375:271|359:219,1,105
322,194,17571,1,0,0:0:0:0:
259,171,17678,1,0,0:0:0:0:
193,179,17785,1,0,0:0:0:0:
137,214,17892,2,0,B|88:221|60:188|60:188|81:165,1,105
134,145,18321,2,0,B|183:152|211:119|211:119|190:96,1,105
325,66,18857,2,0,L|357:85,1,35
294,111,19071,2,0,L|316:154,1,35
244,153,19285,2,0,L|225:195,1,35
164,199,19500,2,0,B|146:207|146:207|160:221,1,35
288,233,19821,2,0,B|306:241|306:241|292:255,1,35
409,302,20142,2,0,B|421:289|421:289|401:284|401:284|422:275|422:275|401:266|401:266|412:261,1,52.5000020027161
368,267,20357,2,0,B|380:254|380:254|360:249|360:249|381:240|381:240|360:231|360:231|371:226,1,52.5000020027161
428,160,20571,1,0,0:0:0:0:
240,92,20785,1,0,0:0:0:0:
145,124,20892,1,0,0:0:0:0:
99,213,21000,1,0,0:0:0:0:
295,178,21214,1,0,0:0:0:0:
286,277,21321,1,0,0:0:0:0:
197,323,21428,1,0,0:0:0:0:
380,244,21642,1,0,0:0:0:0:
386,143,21750,1,0,0:0:0:0:
320,67,21857,1,0,0:0:0:0:
123,99,22071,1,0,0:0:0:0:
110,197,22178,1,0,0:0:0:0:
165,279,22285,1,0,0:0:0:0:
394,93,22500,1,0,0:0:0:0:
103,133,22714,1,0,0:0:0:0:
313,161,22928,1,0,0:0:0:0:
67,321,23142,1,0,0:0:0:0:
149,338,23250,1,0,0:0:0:0:
232,326,23357,1,0,0:0:0:0:
309,294,23464,1,0,0:0:0:0:
375,243,23571,1,0,0:0:0:0:
291,253,23678,1,0,0:0:0:0:
209,273,23785,1,0,0:0:0:0:
139,319,23892,1,0,0:0:0:0:
77,269,24000,2,0,P|57:244|71:221,16,52.5
122,137,24750,1,0,0:0:0:0:
231,77,24964,2,0,P|299:84|309:151,1,140
254,159,25178,2,0,B|213:201|152:322|250:202|250:202|433:112|222:274,1,420
155,296,25714,1,0,0:0:0:0:
124,271,25821,2,0,L|131:267,1,8.75
104,221,25928,1,0,0:0:0:0:
107,159,26035,1,0,0:0:0:0:
144,100,26142,1,0,0:0:0:0:
208,71,26250,1,0,0:0:0:0:
284,68,26357,1,0,0:0:0:0:
405,264,26678,1,0,0:0:0:0:
330,283,26785,1,0,0:0:0:0:
257,263,26892,2,0,L|250:259,1,8.75
200,214,27000,1,0,0:0:0:0:
169,148,27107,2,0,L|176:152,1,8.75
168,77,27214,1,0,0:0:0:0:
247,40,27428,2,0,B|287:38|306:52|306:52|281:72|281:72|287:85|309:86,1,122.5
354,133,28392,2,0,B|384:147|388:159|388:159|365:164|352:179|352:179|382:185,1,105
381,288,29142,1,0,0:0:0:0:
364,256,29214,1,0,0:0:0:0:
348,224,29285,1,0,0:0:0:0:
322,86,29571,1,0,0:0:0:0:
308,120,29642,1,0,0:0:0:0:
293,154,29714,1,0,0:0:0:0:
263,300,30000,1,0,0:0:0:0:
249,262,30071,1,0,0:0:0:0:
236,224,30142,1,0,0:0:0:0:
172,78,30428,1,0,0:0:0:0:
155,116,30500,1,0,0:0:0:0:
138,154,30571,1,0,0:0:0:0:
82,312,30857,1,0,0:0:0:0:
107,273,30928,1,0,0:0:0:0:
133,234,31000,1,0,0:0:0:0:
237,79,31285,1,0,0:0:0:0:
259,123,31357,1,0,0:0:0:0:
280,166,31428,1,0,0:0:0:0:
373,338,31714,1,0,0:0:0:0:
326,317,31785,1,0,0:0:0:0:
278,296,31857,1,0,0:0:0:0:
86,224,32142,1,0,0:0:0:0:
128,194,32214,1,0,0:0:0:0:
170,165,32285,1,0,0:0:0:0:
360,46,32571,1,0,0:0:0:0:
387,94,32642,1,0,0:0:0:0:
414,143,32714,1,0,0:0:0:0:
324,325,33000,1,0,0:0:0:0:
274,294,33071,1,0,0:0:0:0:
224,264,33142,1,0,0:0:0:0:
116,150,33428,1,0,0:0:0:0:
179,118,33500,1,0,0:0:0:0:
241,88,33571,1,0,0:0:0:0:
400,75,33857,1,0,0:0:0:0:
364,134,33928,1,0,0:0:0:0:
328,195,34000,1,0,0:0:0:0:
256,317,34285,2,0,P|165:321|134:261,1,140.000005340576
160,261,34642,2,0,P|186:296|247:290,1,105.000004005432
178,154,35071,2,0,P|169:111|202:111,1,70.0000026702882
341,281,35285,2,0,P|350:238|317:238,1,70.0000026702882
262,200,35500,2,0,P|253:157|286:157,1,70.0000026702882
355,133,35714,2,0,P|364:90|331:90,1,70.0000026702882
357,311,36053,1,0,0:0:0:0:
370,288,36107,1,0,0:0:0:0:
380,265,36160,1,0,0:0:0:0:
389,241,36214,1,0,0:0:0:0:
395,216,36267,1,0,0:0:0:0:
400,190,36321,1,0,0:0:0:0:
401,164,36375,1,0,0:0:0:0:
269,77,36482,1,0,0:0:0:0:
282,100,36536,1,0,0:0:0:0:
292,123,36589,1,0,0:0:0:0:
301,147,36643,1,0,0:0:0:0:
307,172,36696,1,0,0:0:0:0:
312,198,36750,1,0,0:0:0:0:
313,224,36804,1,0,0:0:0:0:
168,301,36910,1,0,0:0:0:0:
181,278,36964,1,0,0:0:0:0:
191,255,37017,1,0,0:0:0:0:
200,231,37071,1,0,0:0:0:0:
206,206,37124,1,0,0:0:0:0:
211,180,37178,1,0,0:0:0:0:
212,154,37232,1,0,0:0:0:0:
106,66,37339,1,0,0:0:0:0:
118,88,37392,1,0,0:0:0:0:
134,135,37446,1,0,0:0:0:0:
230,341,37553,1,0,0:0:0:0:
242,319,37606,1,0,0:0:0:0:
258,272,37660,1,0,0:0:0:0:
385,158,37767,1,0,0:0:0:0:
345,126,37821,1,0,0:0:0:0:
298,107,37875,1,0,0:0:0:0:
249,99,37928,1,0,0:0:0:0:
198,102,37982,1,0,0:0:0:0:
150,113,38035,1,0,0:0:0:0:
106,138,38089,1,0,0:0:0:0:
127,226,38196,1,0,0:0:0:0:
167,258,38250,1,0,0:0:0:0:
214,277,38304,1,0,0:0:0:0:
263,285,38357,1,0,0:0:0:0:
314,282,38411,1,0,0:0:0:0:
362,271,38464,1,0,0:0:0:0:
406,246,38518,1,0,0:0:0:0:
394,88,38678,1,0,0:0:0:0:
378,135,38732,1,0,0:0:0:0:
282,341,38839,1,0,0:0:0:0:
270,319,38892,1,0,0:0:0:0:
254,272,38946,1,0,0:0:0:0:
106,66,39053,1,0,0:0:0:0:
118,88,39106,1,0,0:0:0:0:
134,135,39160,1,0,0:0:0:0:
106,318,39267,1,0,0:0:0:0:
118,296,39320,1,0,0:0:0:0:
134,249,39374,1,0,0:0:0:0:
376,148,39481,1,0,0:0:0:0:
394,88,39535,1,0,0:0:0:0:
420,63,39589,2,0,L|434:55,10,14
379,241,39910,1,0,0:0:0:0:
396,295,39964,1,0,0:0:0:0:
419,320,40018,2,0,L|431:326,10,14
297,194,40339,1,0,0:0:0:0:
260,152,40393,1,0,0:0:0:0:
222,140,40447,2,0,L|209:133,10,14
129,90,40767,1,0,0:0:0:0:
144,146,40821,1,0,0:0:0:0:
139,176,40874,1,0,0:0:0:0:
59,262,40982,1,0,0:0:0:0:
75,304,41036,1,0,0:0:0:0:
111,325,41142,2,0,L|150:321,1,35
179,284,41357,6,0,L|219:278,1,35
225,231,41571,2,0,L|262:212,1,35
250,160,41785,2,0,L|280:129,1,35
249,90,41999,2,0,L|243:47,1,35
201,71,42214,2,0,L|178:37,1,35
156,78,42428,2,0,L|117:50,1,35
122,97,42642,2,0,L|77:77,1,35
