osu file format v14

[General]
AudioFilename: audio.mp3
AudioLeadIn: 0
PreviewTime: -1
Countdown: 1
SampleSet: Soft
StackLeniency: 0.7
Mode: 0
LetterboxInBreaks: 0
WidescreenStoryboard: 0

[Editor]
Bookmarks: 3438,10108,15111,16778,20166,23501,30223,36894,43616,50286,51641,57009,63679,77020,83743,90413,97135,103806,110476,117251
DistanceSpacing: 0.8
BeatDivisor: 4
GridSize: 4
TimelineZoom: 1.7

[Metadata]
Title:Milky Factory
TitleUnicode:Milky Factory
Artist:Kobaryo
ArtistUnicode:Kobaryo
Creator:Viktor
Version:Yooooooooooooooooooooooooo
Source:dsa
Tags:dsa
BeatmapID:1641356
BeatmapSetID:781517

[Difficulty]
HPDrainRate:6
CircleSize:4
OverallDifficulty:8
ApproachRate:10
SliderMultiplier:1.4
SliderTickRate:1

[Events]
//Background and Video events
0,0,"anime-scenery-wallpapers-phone-42617672.jpg",0,0
//Break Periods
2,77012,83189
//Storyboard Layer 0 (Background)
//Storyboard Layer 1 (Fail)
//Storyboard Layer 2 (Pass)
//Storyboard Layer 3 (Foreground)
//Storyboard Sound Samples

[TimingPoints]
3438.027772393,208.449138410228,4,2,0,100,1,0
16778,-50,4,2,0,100,0,0
30223,-133.333333333333,4,2,0,100,0,0
36894,-200,4,2,0,100,0,0
38457,-100,4,2,0,100,0,0
38770,-50,4,2,0,100,0,0
39239,-90.9090909090909,4,2,0,100,0,0
41896,-71.4285714285714,4,2,0,100,0,0
43616,-66.6666666666667,4,2,0,100,0,0
55185,-83.3333333333333,4,2,0,100,0,0
56019,-200,4,2,0,100,0,0
63679,-133.333333333333,4,2,0,100,0,0
90413,-100,4,2,0,100,0,0
91612,-200,4,2,0,100,0,0
92732,-100,4,2,0,100,0,0
96276,-50,4,2,0,100,0,0
97135,-66.6666666666667,4,2,0,100,0,0
98360,-133.333333333333,4,2,0,100,0,0
99611,-66.6666666666667,4,2,0,100,0,0
100028,-133.333333333333,4,2,0,100,0,0
100471,-100,4,2,0,100,0,0
101721,-200,4,2,0,100,0,0
102138,-50,4,2,0,100,0,0
110476,-100,4,2,0,100,0,0
113238,-200,4,2,0,100,0,0
113916,-100,4,2,0,100,0,0

[HitObjects]
182,308,3438,6,0,P|120:298|61:243,1,140
152,218,3854,2,0,P|125:144|61:84,1,140
153,40,4271,2,0,B|196:45|248:33|321:38,1,140
395,57,4688,2,0,P|431:114|405:176,1,140
346,247,5105,2,0,P|310:190|336:128,1,140
435,286,5522,2,0,P|391:337|324:332,1,140
222,310,5939,1,0,0:0:0:0:
110,342,6147,1,0,0:0:0:0:
157,222,6356,1,0,0:0:0:0:
78,130,6564,1,0,0:0:0:0:
143,39,6773,6,0,B|174:37|242:47|311:40,1,140
235,136,7190,2,0,B|276:151|341:120|383:134,1,140
458,182,7607,2,0,P|416:231|345:273,1,140
255,329,8023,2,0,B|213:286|222:257|176:211,1,140
291,201,8440,2,0,P|301:128|291:41,1,140
197,128,8857,2,0,P|135:114|36:140,1,140
81,232,9274,2,0,L|84:296,1,35
170,268,9483,2,0,L|171:304,1,35
261,284,9691,2,0,L|265:326,1,35
358,305,9899,2,0,L|364:354,1,35
438,176,10108,5,0,0:0:0:0:
297,80,10525,1,0,0:0:0:0:
356,242,10942,1,0,0:0:0:0:
182,155,11359,1,0,0:0:0:0:
416,106,11775,1,0,0:0:0:0:
204,40,12192,5,0,0:0:0:0:
96,156,12609,1,0,0:0:0:0:
308,128,13026,1,0,0:0:0:0:
224,252,13443,1,0,0:0:0:0:
224,252,14277,1,0,0:0:0:0:
256,192,15111,12,0,16570,0:0:0:0:
62,37,16830,6,0,B|72:104|49:159|49:159|72:222|69:323,1,280
145,172,17143,2,0,B|212:168|265:90|265:90|309:123|398:84,1,280
446,27,17456,2,0,B|480:77|433:162|433:162|498:178|483:276,1,280
403,284,17768,1,0,0:0:0:0:
367,310,17873,1,0,0:0:0:0:
321,319,17977,1,0,0:0:0:0:
287,307,18081,2,0,B|222:272|175:279|175:279|146:197|84:146,1,280
0,57,18394,6,0,B|68:22|124:43|124:43|174:9|273:38,1,280
316,32,18706,1,0,0:0:0:0:
356,27,18811,1,0,0:0:0:0:
394,38,18915,2,0,B|426:118|362:162|362:162|418:218|398:350,1,280
297,336,19228,1,0,0:0:0:0:
160,274,19332,2,0,B|128:257|95:267|95:267|90:224|32:182,1,140
160,171,19540,2,0,B|187:204|225:187|225:187|259:174|301:217,1,140
226,104,19749,2,0,B|182:71|182:71|149:99|81:49,1,140
282,26,19957,2,0,B|331:23|331:23|369:41|343:72|408:107,1,140
463,220,20166,6,0,B|376:254|376:254|359:292|359:292|379:302|280:267|184:282,1,280
79,256,20478,2,0,B|117:160|184:144|184:144|245:102|239:25,1,280
369,50,20791,2,0,B|324:212|458:151|375:335,1,280
352,336,21104,1,0,0:0:0:0:
304,354,21208,1,0,0:0:0:0:
259,333,21312,2,0,B|263:278|273:259|273:259|256:228|257:177,1,140
164,281,21520,2,0,B|164:227|153:207|153:207|162:185|165:120,1,140
49,49,21729,6,0,B|116:58|155:31|155:31|205:62|205:62|266:45|340:49,1,280
391,33,22042,2,0,B|463:95|418:171|418:171|374:240|407:313,1,280
377,324,22354,1,0,0:0:0:0:
331,326,22459,1,0,0:0:0:0:
303,297,22563,1,0,0:0:0:0:
170,52,22667,2,0,B|128:61|99:86|99:86|69:99|50:140,1,140
101,200,22875,2,0,B|131:235|131:235|166:232|166:232|198:242|223:278,1,140
51,340,23084,2,0,P|120:327|195:353,1,140
281,345,23292,2,0,B|318:355|347:298|347:298|400:332,1,140
466,265,23501,6,0,B|453:149|401:123|401:123|375:51|324:31,1,280
216,50,23813,2,0,B|151:150|151:150|99:108|99:108|52:123|25:181,1,280
113,224,24126,2,0,B|171:261|171:261|285:235|205:307|305:279|305:279|397:302,1,280
406,283,24439,1,0,0:0:0:0:
438,261,24543,1,0,0:0:0:0:
455,225,24647,2,0,B|440:157|463:142|463:142|392:109,1,140
387,90,24856,1,0,0:0:0:0:
260,0,24960,6,0,B|200:58|140:90|140:90|87:124|67:220,1,280
176,164,25273,2,0,B|222:208|271:208|271:208|246:261|305:374,1,280
351,275,25585,2,0,B|350:224|331:125|331:125|250:144|216:64,1,280
191,51,25898,1,0,0:0:0:0:
61,59,26028,2,0,P|55:136|67:216,1,140
155,137,26236,2,0,P|175:211|207:296,1,140
295,333,26445,2,0,B|298:285|340:271|340:271|345:240|385:222,1,140
281,162,26653,2,0,B|293:106|286:64|257:24,1,140
141,52,26888,6,0,B|118:73|53:129|53:129|115:214|94:298,1,280
173,160,27201,2,0,B|210:226|201:295|201:295|263:288|338:331,1,280
276,230,27513,2,0,B|336:165|403:164|403:164|477:10,1,280
438,24,27826,1,0,0:0:0:0:
386,40,27930,1,0,0:0:0:0:
328,42,28035,1,0,0:0:0:0:
252,81,28139,2,0,B|181:144|184:222|184:222|58:294,1,280
138,348,28451,6,0,B|188:299|273:308|273:308|408:177,1,280
229,180,28816,2,0,P|266:118|337:81,1,140
438,103,29025,1,0,0:0:0:0:
454,121,29129,2,0,P|483:168|458:304,1,140
380,338,29389,2,0,B|339:320|308:337|308:337|289:305|196:303,1,140
275,221,29598,2,0,B|206:203|211:171|91:142,1,140
87,73,29806,2,0,B|156:57|156:57|259:67,1,140
331,81,30015,2,0,B|373:108|407:103|407:103|410:130|479:183,1,140
411,264,30223,5,0,0:0:0:0:
324,325,30432,1,0,0:0:0:0:
217,271,30640,2,0,P|188:224|181:161,1,105.000004005432
76,93,31057,5,0,0:0:0:0:
190,20,31265,1,0,0:0:0:0:
278,99,31474,2,0,P|328:135|362:193,1,105.000004005432
215,203,31891,5,0,0:0:0:0:
302,276,32099,1,0,0:0:0:0:
189,315,32308,2,0,P|133:287|94:234,1,105.000004005432
59,95,32725,6,0,B|91:119|133:72|166:94,1,105.000004005432
263,135,33142,2,0,B|292:151|333:131|373:136,1,105.000004005432
427,247,33558,5,0,0:0:0:0:
326,331,33767,1,0,0:0:0:0:
241,241,33975,2,0,P|194:197|149:164,1,105.000004005432
278,147,34392,5,0,0:0:0:0:
388,91,34601,1,0,0:0:0:0:
396,211,34809,2,0,P|398:276|375:331,1,105.000004005432
261,332,35226,5,0,0:0:0:0:
136,286,35434,1,0,0:0:0:0:
228,236,35643,2,0,B|186:217|172:187|139:174,1,105.000004005432
85,79,36060,1,0,0:0:0:0:
136,85,36164,1,0,0:0:0:0:
189,82,36268,1,0,0:0:0:0:
241,81,36372,1,0,0:0:0:0:
294,81,36476,1,0,0:0:0:0:
346,79,36581,1,0,0:0:0:0:
398,80,36685,1,0,0:0:0:0:
427,212,36894,6,0,B|369:255|315:241|315:241|293:277|293:277|202:313,1,245
192,306,37727,1,0,0:0:0:0:
75,188,37936,5,0,0:0:0:0:
218,234,38040,1,0,0:0:0:0:
83,82,38248,5,0,0:0:0:0:
241,62,38353,1,0,0:0:0:0:
389,107,38561,2,0,B|388:137|361:157|357:189,1,70
415,233,38796,2,0,B|348:284|309:258|254:203|254:203|173:246|75:203,1,350
107,135,39395,2,0,B|129:103|128:76|128:76|150:63|150:63|174:36,1,115.50000352478
205,119,39708,1,0,0:0:0:0:
277,51,39838,2,0,B|299:83|298:110|298:110|320:123|320:123|404:95|500:164,1,269.500008224488
434,226,40281,6,0,B|336:230|274:275|274:275|214:243|105:287,1,308.000009399414
74,216,41115,1,0,0:0:0:0:
268,39,41271,5,0,0:0:0:0:
200,146,41375,1,0,0:0:0:0:
409,75,41584,5,0,0:0:0:0:
331,168,41688,1,0,0:0:0:0:
354,275,41922,2,0,B|310:273|261:291|202:288,1,115.50000352478
163,337,42131,2,0,B|99:291|131:253|75:176,1,146.999995513916
204,207,42444,2,0,B|223:162|184:90|118:101,1,146.999995513916
256,192,42730,12,0,43460,0:0:0:0:
75,57,43590,6,0,B|71:110|71:110|91:157,1,97.9999970092774
174,106,43799,2,0,B|181:160|181:160|166:215,1,105.000004005432
139,291,44007,1,0,0:0:0:0:
226,317,44111,1,0,0:0:0:0:
315,306,44215,1,0,0:0:0:0:
378,242,44320,2,0,P|385:181|357:129,1,105.000004005432
283,80,44528,2,0,P|265:139|286:199,1,105.000004005432
378,242,44737,2,0,P|385:181|357:129,1,105.000004005432
283,80,44945,2,0,P|265:139|286:199,1,105.000004005432
378,242,45153,2,0,P|385:181|357:129,1,105.000004005432
283,80,45361,2,0,P|265:139|286:199,1,105.000004005432
442,191,45570,5,0,0:0:0:0:
432,100,45675,1,0,0:0:0:0:
354,36,45779,1,0,0:0:0:0:
265,5,45883,1,0,0:0:0:0:
176,30,45987,1,0,0:0:0:0:
104,84,46117,2,0,P|87:134|100:202,1,105.000004005432
168,145,46326,2,0,P|180:203|150:273,1,105.000004005432
55,289,46534,2,0,P|149:341|277:321,1,210.000008010865
350,311,46951,5,0,0:0:0:0:
438,245,47056,1,0,0:0:0:0:
346,173,47160,1,0,0:0:0:0:
437,103,47264,1,0,0:0:0:0:
366,39,47368,2,0,P|304:35|251:47,1,105.000004005432
172,90,47577,1,0,0:0:0:0:
86,164,47681,2,0,P|54:218|75:289,1,105.000004005432
152,257,47889,2,0,P|184:203|163:132,1,105.000004005432
86,164,48098,2,0,P|54:218|75:289,1,105.000004005432
152,257,48306,2,0,P|184:203|163:132,1,105.000004005432
86,164,48515,2,0,P|54:218|75:289,1,105.000004005432
152,257,48723,2,0,P|184:203|163:132,1,105.000004005432
70,311,48932,5,0,0:0:0:0:
166,348,49036,1,0,0:0:0:0:
256,316,49140,1,0,0:0:0:0:
338,262,49244,1,0,0:0:0:0:
423,340,49348,2,0,B|425:229|470:185|470:185|399:162|372:144|360:117|347:46|347:46|303:59|232:28|232:28|151:49,1,551.250021028519
79,103,50286,6,0,B|82:148|63:174|68:214,1,105.000004005432
165,179,50495,2,0,P|171:247|213:288,1,105.000004005432
249,342,50703,2,0,P|305:323|353:269,1,105.000004005432
359,271,50912,1,0,0:0:0:0:
403,160,51016,5,0,0:0:0:0:
94,80,51120,1,0,0:0:0:0:
406,77,51224,5,0,0:0:0:0:
90,165,51328,1,0,0:0:0:0:
162,256,51433,5,0,0:0:0:0:
322,25,51537,1,0,0:0:0:0:
322,253,51641,5,0,0:0:0:0:
193,26,51745,1,0,0:0:0:0:
176,333,51850,6,0,P|118:298|89:242,1,105.000004005432
221,232,52058,2,0,L|327:158,1,105.000004005432
290,48,52267,2,0,P|377:68|415:113,1,105.000004005432
421,177,52475,1,0,0:0:0:0:
426,273,52579,2,0,P|393:325|322:365,1,105.000004005432
198,339,52788,5,0,0:0:0:0:
119,282,52892,1,0,0:0:0:0:
190,221,52996,1,0,0:0:0:0:
118,156,53101,1,0,0:0:0:0:
177,80,53205,2,0,B|230:40|230:40|263:74|298:42|298:42|359:80,1,210.000008010865
436,152,53622,6,0,B|456:212|436:288|436:288|432:288,1,105.000004005432
394,310,53830,1,0,0:0:0:0:
321,348,53934,1,0,0:0:0:0:
250,316,54039,1,0,0:0:0:0:
184,351,54143,1,0,0:0:0:0:
120,315,54247,1,0,0:0:0:0:
80,190,54351,5,0,0:0:0:0:
409,109,54455,1,0,0:0:0:0:
85,80,54560,5,0,0:0:0:0:
409,227,54664,1,0,0:0:0:0:
142,264,54768,5,0,0:0:0:0:
347,20,54872,1,0,0:0:0:0:
311,290,54977,5,0,0:0:0:0:
176,17,55081,1,0,0:0:0:0:
410,334,55185,6,0,P|425:292|424:242,1,83.9999974365235
47,198,55393,5,0,0:0:0:0:
304,72,55498,1,0,0:0:0:0:
43,86,55602,5,0,0:0:0:0:
321,197,55706,1,0,0:0:0:0:
82,16,55810,5,0,0:0:0:0:
254,254,55915,1,0,0:0:0:0:
412,271,56019,6,0,B|360:283|331:312|331:312|313:341|242:350,1,192.5
256,192,57009,12,0,59093,0:0:0:0:
256,192,60136,12,0,63262,0:0:0:0:
104,74,63679,6,0,P|109:140|140:187,1,105.000004005432
197,110,64096,2,0,P|216:153|196:221,1,105.000004005432
93,263,64513,2,0,P|137:307|191:318,1,105.000004005432
281,313,64930,1,0,0:0:0:0:
281,313,65034,1,0,0:0:0:0:
281,313,65138,1,0,0:0:0:0:
363,263,65347,2,0,B|379:232|392:212|392:212|377:187|376:164,1,105.000004005432
330,88,65764,1,0,0:0:0:0:
330,88,65868,1,0,0:0:0:0:
330,88,65972,1,0,0:0:0:0:
182,62,66181,5,0,0:0:0:0:
147,94,66285,1,0,0:0:0:0:
119,131,66389,1,0,0:0:0:0:
102,169,66493,1,0,0:0:0:0:
94,209,66597,1,0,0:0:0:0:
143,309,66806,1,0,0:0:0:0:
376,47,67015,6,0,B|343:63|309:36|263:83,1,105.000004005432
324,150,67432,2,0,B|294:173|261:132|213:149,1,105.000004005432
185,29,67849,2,0,B|179:75|136:78|130:127,1,105.000004005432
135,217,68266,1,0,0:0:0:0:
135,217,68370,1,0,0:0:0:0:
135,217,68474,1,0,0:0:0:0:
185,299,68683,2,0,B|216:315|236:328|236:328|261:313|284:312,1,105.000004005432
360,266,69100,1,0,0:0:0:0:
360,266,69204,1,0,0:0:0:0:
360,266,69308,1,0,0:0:0:0:
386,118,69517,5,0,0:0:0:0:
359,86,69621,1,0,0:0:0:0:
323,111,69725,1,0,0:0:0:0:
297,74,69829,1,0,0:0:0:0:
263,100,69933,1,0,0:0:0:0:
139,79,70141,1,0,0:0:0:0:
139,339,70350,6,0,B|167:324|188:337|188:337|206:345|252:303,1,105.000004005432
168,233,70767,2,0,B|245:214|211:257|279:234,1,105.000004005432
327,355,71184,2,0,B|370:315|370:315|382:257,1,105.000004005432
377,167,71601,1,0,0:0:0:0:
377,167,71705,1,0,0:0:0:0:
377,167,71809,1,0,0:0:0:0:
327,85,72018,2,0,B|296:69|276:56|276:56|251:71|228:72,1,105.000004005432
152,118,72435,1,0,0:0:0:0:
152,118,72539,1,0,0:0:0:0:
152,118,72643,1,0,0:0:0:0:
132,284,72852,5,0,0:0:0:0:
168,312,72956,1,0,0:0:0:0:
204,334,73060,1,0,0:0:0:0:
241,346,73164,1,0,0:0:0:0:
280,356,73268,1,0,0:0:0:0:
373,305,73476,1,0,0:0:0:0:
467,255,73685,6,0,B|476:208|476:208|457:199|431:142,1,105.000004005432
374,219,74102,2,0,B|355:176|356:156|356:156|376:121,1,105.000004005432
478,66,74519,2,0,B|442:46|442:46|434:22|434:22|380:11,1,105.000004005432
269,35,74936,1,0,0:0:0:0:
269,35,75040,1,0,0:0:0:0:
269,35,75144,1,0,0:0:0:0:
156,82,75353,2,0,B|140:113|127:133|127:133|142:158|143:181,1,105.000004005432
241,241,75770,1,0,0:0:0:0:
241,241,75874,1,0,0:0:0:0:
241,241,75978,1,0,0:0:0:0:
356,332,76187,5,0,0:0:0:0:
370,290,76291,1,0,0:0:0:0:
361,249,76395,1,0,0:0:0:0:
386,212,76499,1,0,0:0:0:0:
379,167,76603,1,0,0:0:0:0:
410,91,76812,1,0,0:0:0:0:
70,74,83743,6,0,P|122:112|161:113,1,105.000004005432
243,123,84159,1,0,0:0:0:0:
330,110,84368,2,0,L|373:81,4,52.5000020027161
272,212,84993,1,0,0:0:0:0:
94,238,85202,6,0,P|80:292|100:339,1,105.000004005432
184,285,85619,1,0,0:0:0:0:
274,235,85827,1,0,0:0:0:0:
368,284,86035,2,0,P|391:301|428:324,4,52.5000020027161
409,203,86661,1,0,0:0:0:0:
386,119,86869,1,0,0:0:0:0:
76,47,87078,6,0,B|108:75|109:104|109:104|140:121,1,105.000004005432
252,134,87494,1,0,0:0:0:0:
380,86,87703,2,0,L|394:30,4,52.5000020027161
426,190,88328,1,0,0:0:0:0:
80,173,88537,6,0,B|43:215|43:215|41:266,1,105.000004005432
140,255,88954,1,0,0:0:0:0:
243,250,89162,1,0,0:0:0:0:
338,297,89370,2,0,P|351:322|374:359,4,52.5000020027161
406,215,89996,2,0,B|436:167|436:167|406:115,1,105.000004005432
86,95,90439,5,0,0:0:0:0:
124,109,90543,1,0,0:0:0:0:
166,110,90647,1,0,0:0:0:0:
211,104,90752,1,0,0:0:0:0:
290,38,90856,2,0,P|309:68|319:117,1,70
410,127,91064,5,0,0:0:0:0:
409,172,91169,1,0,0:0:0:0:
402,213,91273,1,0,0:0:0:0:
385,255,91377,1,0,0:0:0:0:
361,289,91481,1,0,0:0:0:0:
335,321,91585,1,0,0:0:0:0:
224,331,91690,2,0,B|202:315|192:315|192:315|181:317|160:297,1,70
89,249,92107,5,0,0:0:0:0:
86,206,92211,1,0,0:0:0:0:
87,169,92315,1,0,0:0:0:0:
95,130,92419,1,0,0:0:0:0:
112,93,92524,1,0,0:0:0:0:
130,62,92628,1,0,0:0:0:0:
223,28,92732,2,0,P|269:28|306:39,1,70
403,61,92940,1,0,0:0:0:0:
419,104,93045,1,0,0:0:0:0:
426,147,93149,1,0,0:0:0:0:
423,196,93253,1,0,0:0:0:0:
309,174,93357,2,0,L|267:237,2,70
148,142,93774,5,0,0:0:0:0:
116,96,93878,1,0,0:0:0:0:
137,48,93983,1,0,0:0:0:0:
186,37,94087,1,0,0:0:0:0:
230,70,94191,1,0,0:0:0:0:
236,122,94295,1,0,0:0:0:0:
216,167,94400,2,0,P|200:208|194:246,1,70
192,276,94608,1,0,0:0:0:0:
205,324,94712,1,0,0:0:0:0:
248,347,94816,1,0,0:0:0:0:
296,337,94921,1,0,0:0:0:0:
336,296,95025,2,0,B|369:263|371:221|371:221|405:189|426:135,1,175
453,36,95442,5,0,0:0:0:0:
386,74,95546,1,0,0:0:0:0:
313,104,95650,1,0,0:0:0:0:
238,88,95754,1,0,0:0:0:0:
166,56,95859,1,0,0:0:0:0:
91,74,95963,1,0,0:0:0:0:
54,154,96067,2,0,B|72:188|72:188|102:220,1,70
186,153,96276,2,0,B|234:153|269:181|269:181|371:155,1,175
443,99,96484,2,0,B|429:153|450:174|450:174|427:197|432:263,1,140
322,240,96692,2,0,B|248:218|248:218|214:237|172:215,1,140
287,323,96901,2,0,B|336:347|364:328|364:328|418:286|477:280,1,175
85,58,97109,5,0,0:0:0:0:
437,195,97214,1,0,0:0:0:0:
73,193,97318,5,0,0:0:0:0:
413,78,97423,1,0,0:0:0:0:
93,296,97526,5,0,0:0:0:0:
314,22,97631,1,0,0:0:0:0:
396,309,97735,5,0,0:0:0:0:
193,21,97840,1,0,0:0:0:0:
176,357,97943,5,0,0:0:0:0:
254,14,98048,1,0,0:0:0:0:
327,356,98152,5,0,0:0:0:0:
76,47,98256,1,0,0:0:0:0:
267,167,98360,6,0,B|305:179|331:172|331:172|360:167|407:172,1,131.25000500679
91,253,98777,5,0,0:0:0:0:
419,80,98881,1,0,0:0:0:0:
96,118,98985,5,0,0:0:0:0:
450,228,99089,1,0,0:0:0:0:
159,44,99194,5,0,0:0:0:0:
401,325,99298,1,0,0:0:0:0:
344,26,99402,5,0,0:0:0:0:
163,349,99506,1,0,0:0:0:0:
315,346,99611,6,0,B|357:326|372:325|372:325|378:305|421:269,1,105.000004005432
475,197,99819,5,0,0:0:0:0:
66,82,99923,1,0,0:0:0:0:
200,192,100028,6,0,B|245:196|259:211|259:211|280:199|305:187,1,105.000004005432
65,115,100471,5,0,0:0:0:0:
449,284,100575,1,0,0:0:0:0:
85,264,100679,5,0,0:0:0:0:
436,127,100783,1,0,0:0:0:0:
123,34,100887,5,0,0:0:0:0:
383,363,100991,1,0,0:0:0:0:
339,33,101096,5,0,0:0:0:0:
156,351,101200,1,0,0:0:0:0:
467,46,101304,5,0,0:0:0:0:
67,351,101408,1,0,0:0:0:0:
47,39,101513,5,0,0:0:0:0:
261,349,101617,1,0,0:0:0:0:
448,295,101721,6,0,B|454:266|454:266|468:239|455:194,1,96.25
368,54,102138,6,0,B|291:52|221:90|221:90|167:116|167:116|72:100,1,280
303,137,102503,2,0,B|248:194|239:250|239:250|172:260|101:339,1,280
292,334,102790,2,0,B|343:264|361:254|361:254|414:166,1,175
393,42,102998,6,0,B|358:57|302:49|267:71,1,105
88,100,103180,6,0,B|126:100|174:130|215:124,1,105
396,194,103389,6,0,B|361:209|305:201|270:223,1,105
90,281,103597,6,0,B|124:296|180:288|215:310,1,105
256,192,103806,12,0,106828,0:0:0:0:
256,192,107245,12,0,110163,0:0:0:0:
72,41,110476,5,0,0:0:0:0:
124,104,110685,2,0,P|131:139|132:189,2,70
49,153,111023,2,0,P|42:188|41:238,2,70
114,253,111310,2,0,P|163:274|195:269,2,70
214,194,111649,2,0,P|254:183|281:189,2,70
338,139,111961,2,0,P|365:110|399:98,2,70
453,182,112274,2,0,P|465:220|453:263,2,70
371,256,112587,2,0,P|358:297|330:321,2,70
245,331,112873,2,0,P|195:337|163:328,2,70
187,254,113238,2,0,P|146:237|130:209,2,70
292,313,113811,5,0,0:0:0:0:
328,286,113916,2,0,P|363:268|380:237,1,70
400,177,114228,2,0,P|412:128|396:95,1,70
111,78,117199,6,0,P|91:115|73:164,6,70
202,168,117876,2,0,P|205:128|197:89,5,70
310,93,118449,2,0,P|328:140|327:186,4,70
