osu file format v14

[General]
AudioFilename: audio.mp3
AudioLeadIn: 0
PreviewTime: 95701
Countdown: 1
SampleSet: Normal
StackLeniency: 0.7
Mode: 1
LetterboxInBreaks: 0
WidescreenStoryboard: 1

[Editor]
DistanceSpacing: 1
BeatDivisor: 4
GridSize: 32
TimelineZoom: 3.499999

[Metadata]
Title:Marble Dove
TitleUnicode:Marble Dove
Artist:Kobaryo
ArtistUnicode:Kobaryo
Creator:heitonto
Version:Ura Oni
Source:
Tags:The Psycho Blast Vol. 4 kobaryo 430 bpm hard fast rankeable maybe?
BeatmapID:4572941
BeatmapSetID:2160025

[Difficulty]
HPDrainRate:4.2
CircleSize:5
OverallDifficulty:7.1
ApproachRate:8.4
SliderMultiplier:1.57999996513128
SliderTickRate:1

[Events]
//Background and Video events
0,0,"hqdefault-transformed.jpeg",0,0
//Break Periods
//Storyboard Layer 0 (Background)
//Storyboard Layer 1 (Fail)
//Storyboard Layer 2 (Pass)
//Storyboard Layer 3 (Foreground)
//Storyboard Layer 4 (Overlay)
//Storyboard Sound Samples

[TimingPoints]
1934,279.06976744186,4,1,0,100,1,0
8631,-90.9090909090909,4,1,0,100,0,0
9747,-100,4,1,0,100,0,0
10864,-95.2380952380952,4,1,0,100,0,0
21468,-76.9230769230769,4,1,0,100,0,0
22027,139.53488372093,4,1,0,100,1,1
22027,-166.666666666667,4,1,0,100,0,1
38631,-166.666666666667,4,1,0,100,0,0
39887,279.06976744186,4,1,0,100,1,0
44352,-90.9090909090909,4,1,0,100,0,1
47701,-100,4,1,0,100,0,0
53282,-90.9090909090909,4,1,0,100,0,1
56492,-100,4,1,0,100,0,0
57748,-125,4,1,0,100,0,0
75608,-105.263157894737,4,1,0,100,0,0
92352,-133.333333333333,4,1,0,100,0,0
93468,-95.2380952380952,4,1,0,100,0,0
95142,-50,4,1,0,100,0,0
95701,139.53488372093,4,1,0,100,1,1
95701,-181.818181818182,4,1,0,100,0,1
112445,-222.222222222222,4,1,0,100,0,0
113282,-133.333333333333,4,1,0,100,0,0
113561,279.06976744186,4,1,0,100,1,0
121236,-125,4,1,0,100,0,0
122492,-111.111111111111,4,1,0,100,0,0

[Colours]
Combo1 : 255,192,0
Combo2 : 0,202,0
Combo3 : 18,124,255
Combo4 : 242,24,57

[HitObjects]
256,192,1934,5,0,0:0:0:0:
256,192,2213,1,0,0:0:0:0:
256,192,2353,1,0,0:0:0:0:
256,192,2492,1,0,0:0:0:0:
256,192,2631,1,8,0:0:0:0:
256,192,2771,1,0,0:0:0:0:
256,192,2910,1,8,0:0:0:0:
256,192,3189,1,0,0:0:0:0:
256,192,3329,1,8,0:0:0:0:
256,192,3468,1,8,0:0:0:0:
256,192,3608,1,8,0:0:0:0:
256,192,3747,1,8,0:0:0:0:
256,192,3887,1,0,0:0:0:0:
256,192,4027,1,8,0:0:0:0:
256,192,4166,1,0,0:0:0:0:
256,192,4445,1,8,0:0:0:0:
256,192,4585,1,8,0:0:0:0:
256,192,4724,1,8,0:0:0:0:
256,192,4864,1,2,0:0:0:0:
256,192,5003,1,8,0:0:0:0:
256,192,5143,1,0,0:0:0:0:
256,192,5422,1,8,0:0:0:0:
256,192,5561,1,0,0:0:0:0:
256,192,5840,1,8,0:0:0:0:
256,192,5980,1,8,0:0:0:0:
256,192,6120,1,0,0:0:0:0:
256,192,6259,1,0,0:0:0:0:
256,192,6399,1,8,0:0:0:0:
256,192,6678,1,8,0:0:0:0:
256,192,6817,1,8,0:0:0:0:
256,192,6957,1,8,0:0:0:0:
256,192,7096,1,0,0:0:0:0:
256,192,7236,1,0,0:0:0:0:
256,192,7375,1,8,0:0:0:0:
256,192,7654,1,8,0:0:0:0:
256,192,7794,1,0,0:0:0:0:
256,192,7933,1,0,0:0:0:0:
256,192,8073,1,8,0:0:0:0:
256,192,8213,1,0,0:0:0:0:
256,192,8352,1,0,0:0:0:0:
256,192,8492,1,0,0:0:0:0:
256,192,8631,1,8,0:0:0:0:
256,192,8771,1,8,0:0:0:0:
256,192,8910,1,0,0:0:0:0:
256,192,9050,1,8,0:0:0:0:
256,192,9189,1,8,0:0:0:0:
256,192,9329,1,0,0:0:0:0:
256,192,9468,1,0,0:0:0:0:
256,192,9608,1,8,0:0:0:0:
256,192,9887,1,0,0:0:0:0:
256,192,10027,1,8,0:0:0:0:
256,192,10166,1,8,0:0:0:0:
256,192,10306,1,8,0:0:0:0:
256,192,10445,1,0,0:0:0:0:
256,192,10585,1,0,0:0:0:0:
256,192,10864,1,8,0:0:0:0:
256,192,11143,1,0,0:0:0:0:
256,192,11213,1,0,0:0:0:0:
256,192,11282,1,8,0:0:0:0:
256,192,11422,1,8,0:0:0:0:
256,192,11561,1,0,0:0:0:0:
256,192,11631,1,0,0:0:0:0:
256,192,11701,1,8,0:0:0:0:
256,192,11840,1,0,0:0:0:0:
256,192,11980,1,0,0:0:0:0:
256,192,12120,1,0,0:0:0:0:
256,192,12189,1,0,0:0:0:0:
256,192,12259,1,8,0:0:0:0:
256,192,12329,1,0,0:0:0:0:
256,192,12399,1,8,0:0:0:0:
256,192,12538,1,0,0:0:0:0:
256,192,12678,1,8,0:0:0:0:
256,192,12747,1,0,0:0:0:0:
256,192,12817,1,8,0:0:0:0:
256,192,12887,1,8,0:0:0:0:
256,192,12957,1,0,0:0:0:0:
256,192,13096,1,8,0:0:0:0:
256,192,13375,1,0,0:0:0:0:
256,192,13445,1,0,0:0:0:0:
256,192,13515,1,8,0:0:0:0:
256,192,13585,1,8,0:0:0:0:
256,192,13654,1,8,0:0:0:0:
256,192,13794,1,0,0:0:0:0:
256,192,13864,1,0,0:0:0:0:
256,192,13933,1,8,0:0:0:0:
256,192,14073,1,0,0:0:0:0:
256,192,14213,1,0,0:0:0:0:
256,192,14282,1,0,0:0:0:0:
256,192,14352,1,8,0:0:0:0:
256,192,14492,1,8,0:0:0:0:
256,192,14561,1,8,0:0:0:0:
256,192,14631,1,0,0:0:0:0:
256,192,14771,1,0,0:0:0:0:
256,192,14910,1,0,0:0:0:0:
256,192,14980,1,0,0:0:0:0:
256,192,15050,1,8,0:0:0:0:
256,192,15120,1,0,0:0:0:0:
256,192,15189,1,0,0:0:0:0:
256,192,15259,1,0,0:0:0:0:
256,192,15329,1,8,0:0:0:0:
256,192,15468,1,8,0:0:0:0:
256,192,15608,1,8,0:0:0:0:
256,192,15678,1,8,0:0:0:0:
256,192,15747,1,0,0:0:0:0:
256,192,15817,1,0,0:0:0:0:
256,192,15887,1,8,0:0:0:0:
256,192,16027,1,8,0:0:0:0:
256,192,16096,1,8,0:0:0:0:
256,192,16166,1,0,0:0:0:0:
256,192,16306,1,0,0:0:0:0:
256,192,16445,1,0,0:0:0:0:
256,192,16515,1,0,0:0:0:0:
256,192,16585,1,8,0:0:0:0:
256,192,16654,1,8,0:0:0:0:
256,192,16724,1,0,0:0:0:0:
256,192,16794,1,0,0:0:0:0:
256,192,16864,1,8,0:0:0:0:
256,192,17003,1,8,0:0:0:0:
256,192,17143,1,8,0:0:0:0:
256,192,17213,1,8,0:0:0:0:
256,192,17282,1,0,0:0:0:0:
256,192,17352,1,0,0:0:0:0:
256,192,17422,1,8,0:0:0:0:
256,192,17561,1,8,0:0:0:0:
256,192,17701,1,8,0:0:0:0:
256,192,17840,1,0,0:0:0:0:
256,192,17910,1,0,0:0:0:0:
256,192,17980,1,8,0:0:0:0:
256,192,18050,1,0,0:0:0:0:
256,192,18120,1,8,0:0:0:0:
256,192,18189,1,0,0:0:0:0:
256,192,18259,1,0,0:0:0:0:
256,192,18329,1,0,0:0:0:0:
256,192,18399,1,8,0:0:0:0:
256,192,18468,1,8,0:0:0:0:
256,192,18538,1,0,0:0:0:0:
256,192,18817,1,0,0:0:0:0:
256,192,18957,1,8,0:0:0:0:
256,192,19096,1,8,0:0:0:0:
256,192,19236,1,0,0:0:0:0:
256,192,19375,1,8,0:0:0:0:
256,192,19515,1,8,0:0:0:0:
256,192,19794,1,8,0:0:0:0:
256,192,19933,1,0,0:0:0:0:
256,192,20073,1,8,0:0:0:0:
256,192,20143,1,8,0:0:0:0:
256,192,20213,1,0,0:0:0:0:
256,192,20282,1,8,0:0:0:0:
256,192,20352,1,0,0:0:0:0:
256,192,20492,1,0,0:0:0:0:
256,192,20631,1,8,0:0:0:0:
256,192,20701,1,0,0:0:0:0:
256,192,20771,1,8,0:0:0:0:
256,192,20840,1,8,0:0:0:0:
256,192,20910,1,0,0:0:0:0:
256,192,21050,1,0,0:0:0:0:
256,192,21189,1,8,0:0:0:0:
256,192,21259,1,0,0:0:0:0:
256,192,21329,1,0,0:0:0:0:
256,192,21399,1,0,0:0:0:0:
256,192,21468,2,4,L|544:384,1,308.099979096902
256,192,22027,1,8,0:0:0:0:
256,192,22166,1,0,0:0:0:0:
256,192,22236,1,0,0:0:0:0:
256,192,22306,1,8,0:0:0:0:
256,192,22375,1,8,0:0:0:0:
256,192,22445,1,0,0:0:0:0:
256,192,22515,1,0,0:0:0:0:
256,192,22585,1,8,0:0:0:0:
256,192,22724,1,8,0:0:0:0:
256,192,22864,1,8,0:0:0:0:
256,192,22933,1,8,0:0:0:0:
256,192,23003,1,0,0:0:0:0:
256,192,23073,1,8,0:0:0:0:
256,192,23143,1,0,0:0:0:0:
256,192,23282,1,0,0:0:0:0:
256,192,23352,1,0,0:0:0:0:
256,192,23422,1,8,0:0:0:0:
256,192,23492,1,8,0:0:0:0:
256,192,23561,1,0,0:0:0:0:
256,192,23631,1,8,0:0:0:0:
256,192,23701,1,0,0:0:0:0:
256,192,23840,1,0,0:0:0:0:
256,192,23910,1,0,0:0:0:0:
256,192,23980,1,8,0:0:0:0:
256,192,24050,1,0,0:0:0:0:
256,192,24120,1,0,0:0:0:0:
256,192,24189,1,0,0:0:0:0:
256,192,24259,1,8,0:0:0:0:
256,192,24399,1,0,0:0:0:0:
256,192,24538,1,8,0:0:0:0:
256,192,24608,1,0,0:0:0:0:
256,192,24678,1,8,0:0:0:0:
256,192,24747,1,8,0:0:0:0:
256,192,24817,1,0,0:0:0:0:
256,192,24957,1,0,0:0:0:0:
256,192,25026,1,8,0:0:0:0:
256,192,25096,1,8,0:0:0:0:
256,192,25166,1,8,0:0:0:0:
256,192,25236,1,0,0:0:0:0:
256,192,25306,1,0,0:0:0:0:
256,192,25375,1,8,0:0:0:0:
256,192,25515,1,8,0:0:0:0:
256,192,25585,1,8,0:0:0:0:
256,192,25654,1,0,0:0:0:0:
256,192,25794,1,8,0:0:0:0:
256,192,25864,1,0,0:0:0:0:
256,192,25933,1,8,0:0:0:0:
256,192,26003,1,8,0:0:0:0:
256,192,26073,1,0,0:0:0:0:
256,192,26143,1,8,0:0:0:0:
256,192,26213,1,0,0:0:0:0:
256,192,26282,1,0,0:0:0:0:
256,192,26352,1,8,0:0:0:0:
256,192,26399,1,8,0:0:0:0:
256,192,26445,1,8,0:0:0:0:
256,192,26492,1,0,0:0:0:0:
256,192,26631,1,0,0:0:0:0:
256,192,26771,1,8,0:0:0:0:
256,192,26840,1,8,0:0:0:0:
256,192,26910,1,0,0:0:0:0:
256,192,26980,1,0,0:0:0:0:
256,192,27050,1,8,0:0:0:0:
256,192,27189,1,8,0:0:0:0:
256,192,27259,1,0,0:0:0:0:
256,192,27329,1,8,0:0:0:0:
256,192,27399,1,8,0:0:0:0:
256,192,27468,1,0,0:0:0:0:
256,192,27538,1,0,0:0:0:0:
256,192,27608,1,8,0:0:0:0:
256,192,27747,1,0,0:0:0:0:
256,192,27817,1,0,0:0:0:0:
256,192,27887,1,8,0:0:0:0:
256,192,27957,1,8,0:0:0:0:
256,192,28026,1,0,0:0:0:0:
256,192,28096,1,0,0:0:0:0:
256,192,28166,1,0,0:0:0:0:
256,192,28306,1,0,0:0:0:0:
256,192,28445,1,8,0:0:0:0:
256,192,28515,1,8,0:0:0:0:
256,192,28585,1,0,0:0:0:0:
256,192,28654,1,8,0:0:0:0:
256,192,28724,1,0,0:0:0:0:
256,192,28864,1,0,0:0:0:0:
256,192,28933,1,0,0:0:0:0:
256,192,29003,1,8,0:0:0:0:
256,192,29073,1,0,0:0:0:0:
256,192,29143,1,8,0:0:0:0:
256,192,29213,1,8,0:0:0:0:
256,192,29282,1,0,0:0:0:0:
256,192,29422,1,0,0:0:0:0:
256,192,29492,1,8,0:0:0:0:
256,192,29561,1,0,0:0:0:0:
256,192,29631,1,0,0:0:0:0:
256,192,29701,1,8,0:0:0:0:
256,192,29771,1,8,0:0:0:0:
256,192,29840,1,0,0:0:0:0:
256,192,29980,1,0,0:0:0:0:
256,192,30050,1,0,0:0:0:0:
256,192,30120,1,0,0:0:0:0:
256,192,30259,1,0,0:0:0:0:
256,192,30329,1,0,0:0:0:0:
256,192,30399,1,8,0:0:0:0:
256,192,30445,1,0,0:0:0:0:
256,192,30492,1,0,0:0:0:0:
256,192,30538,1,8,0:0:0:0:
256,192,30608,1,8,0:0:0:0:
256,192,30678,1,0,0:0:0:0:
256,192,30747,1,0,0:0:0:0:
256,192,30817,1,8,0:0:0:0:
256,192,30864,1,8,0:0:0:0:
256,192,30910,1,8,0:0:0:0:
256,192,30957,1,0,0:0:0:0:
256,192,31096,1,0,0:0:0:0:
256,192,31166,1,0,0:0:0:0:
256,192,31236,1,8,0:0:0:0:
256,192,31306,1,8,0:0:0:0:
256,192,31375,1,0,0:0:0:0:
256,192,31445,1,0,0:0:0:0:
256,192,31515,1,8,0:0:0:0:
256,192,31654,1,8,0:0:0:0:
256,192,31724,1,0,0:0:0:0:
256,192,31794,1,8,0:0:0:0:
256,192,31864,1,0,0:0:0:0:
256,192,31933,1,0,0:0:0:0:
256,192,32003,1,0,0:0:0:0:
256,192,32073,1,8,0:0:0:0:
256,192,32213,1,0,0:0:0:0:
256,192,32352,1,8,0:0:0:0:
256,192,32422,1,0,0:0:0:0:
256,192,32492,1,0,0:0:0:0:
256,192,32561,1,0,0:0:0:0:
256,192,32631,1,8,0:0:0:0:
256,192,32771,1,8,0:0:0:0:
256,192,32840,1,8,0:0:0:0:
256,192,32910,1,8,0:0:0:0:
256,192,32980,1,0,0:0:0:0:
256,192,33050,1,0,0:0:0:0:
256,192,33120,1,0,0:0:0:0:
256,192,33189,1,8,0:0:0:0:
256,192,33329,1,0,0:0:0:0:
256,192,33399,1,0,0:0:0:0:
256,192,33468,1,8,0:0:0:0:
256,192,33538,1,8,0:0:0:0:
256,192,33608,1,0,0:0:0:0:
256,192,33678,1,0,0:0:0:0:
256,192,33747,1,0,0:0:0:0:
256,192,33887,1,0,0:0:0:0:
256,192,34026,1,8,0:0:0:0:
256,192,34096,1,8,0:0:0:0:
256,192,34166,1,8,0:0:0:0:
256,192,34236,1,8,0:0:0:0:
256,192,34306,1,0,0:0:0:0:
256,192,34445,1,0,0:0:0:0:
256,192,34515,1,0,0:0:0:0:
256,192,34585,1,0,0:0:0:0:
256,192,34724,1,8,0:0:0:0:
256,192,34794,1,0,0:0:0:0:
256,192,34864,1,8,0:0:0:0:
256,192,34933,1,8,0:0:0:0:
256,192,35003,1,0,0:0:0:0:
256,192,35073,1,8,0:0:0:0:
256,192,35143,1,0,0:0:0:0:
256,192,35213,1,0,0:0:0:0:
256,192,35282,1,8,0:0:0:0:
256,192,35329,1,8,0:0:0:0:
256,192,35375,1,10,0:0:0:0:
256,192,35422,1,0,0:0:0:0:
256,192,35561,1,0,0:0:0:0:
256,192,35701,1,8,0:0:0:0:
256,192,35771,1,0,0:0:0:0:
256,192,35840,1,8,0:0:0:0:
256,192,35910,1,8,0:0:0:0:
256,192,35980,1,0,0:0:0:0:
256,192,36120,1,0,0:0:0:0:
256,192,36189,1,8,0:0:0:0:
256,192,36259,1,8,0:0:0:0:
256,192,36329,1,8,0:0:0:0:
256,192,36399,1,0,0:0:0:0:
256,192,36468,1,8,0:0:0:0:
256,192,36538,1,0,0:0:0:0:
256,192,36678,1,8,0:0:0:0:
256,192,36747,1,0,0:0:0:0:
256,192,36817,1,8,0:0:0:0:
256,192,36887,1,8,0:0:0:0:
256,192,36957,1,0,0:0:0:0:
256,192,37026,1,8,0:0:0:0:
256,192,37096,1,0,0:0:0:0:
256,192,37236,1,0,0:0:0:0:
256,192,37306,1,0,0:0:0:0:
256,192,37375,1,8,0:0:0:0:
256,192,37445,1,8,0:0:0:0:
256,192,37515,1,0,0:0:0:0:
256,192,37654,1,0,0:0:0:0:
256,192,37724,1,0,0:0:0:0:
256,192,37794,1,8,0:0:0:0:
256,192,37864,1,0,0:0:0:0:
256,192,37933,1,8,0:0:0:0:
256,192,38003,1,8,0:0:0:0:
256,192,38073,1,0,0:0:0:0:
256,192,38143,1,0,0:0:0:0:
256,192,38213,1,8,0:0:0:0:
256,192,38259,1,8,0:0:0:0:
256,192,38306,1,8,0:0:0:0:
256,192,38352,1,0,0:0:0:0:
256,192,38422,1,0,0:0:0:0:
256,192,38492,1,8,0:0:0:0:
256,192,38538,1,8,0:0:0:0:
256,192,38585,1,8,0:0:0:0:
256,192,38631,1,0,0:0:0:0:
256,192,39887,1,8,0:0:0:0:
256,192,40166,1,0,0:0:0:0:
256,192,40305,1,0,0:0:0:0:
256,192,40445,1,8,0:0:0:0:
256,192,40724,1,0,0:0:0:0:
256,192,40863,1,8,0:0:0:0:
256,192,41142,1,0,0:0:0:0:
256,192,41212,1,0,0:0:0:0:
256,192,41282,1,8,0:0:0:0:
256,192,41421,1,0,0:0:0:0:
256,192,41491,1,0,0:0:0:0:
256,192,41561,1,0,0:0:0:0:
256,192,41700,1,8,0:0:0:0:
256,192,41770,1,8,0:0:0:0:
256,192,41840,1,0,0:0:0:0:
256,192,41980,1,8,0:0:0:0:
256,192,42049,1,8,0:0:0:0:
256,192,42119,1,0,0:0:0:0:
256,192,42189,1,0,0:0:0:0:
256,192,42259,1,8,0:0:0:0:
256,192,42398,1,0,0:0:0:0:
256,192,42538,1,8,0:0:0:0:
256,192,42677,1,8,0:0:0:0:
256,192,42817,1,0,0:0:0:0:
256,192,42886,1,0,0:0:0:0:
256,192,42956,1,8,0:0:0:0:
256,192,43096,1,8,0:0:0:0:
256,192,43235,1,0,0:0:0:0:
256,192,43375,1,8,0:0:0:0:
256,192,43445,1,8,0:0:0:0:
256,192,43514,1,0,0:0:0:0:
256,192,43654,1,8,0:0:0:0:
256,192,43793,1,0,0:0:0:0:
256,192,43863,1,0,0:0:0:0:
256,192,43933,1,8,0:0:0:0:
256,192,44003,1,0,0:0:0:0:
256,192,44073,1,8,0:0:0:0:
256,192,44142,1,8,0:0:0:0:
256,192,44212,1,0,0:0:0:0:
256,192,44352,1,8,0:0:0:0:
256,192,44491,1,0,0:0:0:0:
256,192,44631,1,0,0:0:0:0:
256,192,44700,1,0,0:0:0:0:
256,192,44770,1,8,0:0:0:0:
256,192,44840,1,0,0:0:0:0:
256,192,44910,1,8,0:0:0:0:
256,192,45049,1,0,0:0:0:0:
256,192,45119,1,0,0:0:0:0:
256,192,45189,1,8,0:0:0:0:
256,192,45328,1,8,0:0:0:0:
256,192,45468,1,0,0:0:0:0:
256,192,45538,1,0,0:0:0:0:
256,192,45607,1,8,0:0:0:0:
256,192,45677,1,0,0:0:0:0:
256,192,45747,1,8,0:0:0:0:
256,192,45817,1,8,0:0:0:0:
256,192,45886,1,0,0:0:0:0:
256,192,46026,1,0,0:0:0:0:
256,192,46096,1,0,0:0:0:0:
256,192,46166,1,8,0:0:0:0:
256,192,46235,1,0,0:0:0:0:
256,192,46305,1,8,0:0:0:0:
256,192,46375,1,0,0:0:0:0:
256,192,46445,1,0,0:0:0:0:
256,192,46514,1,0,0:0:0:0:
256,192,46584,1,8,0:0:0:0:
256,192,46724,1,0,0:0:0:0:
256,192,46863,1,0,0:0:0:0:
256,192,46933,1,0,0:0:0:0:
256,192,47003,1,8,0:0:0:0:
256,192,47073,1,8,0:0:0:0:
256,192,47142,1,8,0:0:0:0:
256,192,47282,1,0,0:0:0:0:
256,192,47352,1,0,0:0:0:0:
256,192,47421,1,8,0:0:0:0:
256,192,47491,1,8,0:0:0:0:
256,192,47561,1,0,0:0:0:0:
256,192,47840,1,0,0:0:0:0:
256,192,47980,1,8,0:0:0:0:
256,192,48119,1,8,0:0:0:0:
256,192,48259,1,0,0:0:0:0:
256,192,48398,1,8,0:0:0:0:
256,192,48538,1,0,0:0:0:0:
256,192,48817,1,8,0:0:0:0:
256,192,48956,1,0,0:0:0:0:
256,192,49026,1,0,0:0:0:0:
256,192,49096,1,8,0:0:0:0:
256,192,49235,1,0,0:0:0:0:
256,192,49305,1,0,0:0:0:0:
256,192,49375,1,8,0:0:0:0:
256,192,49514,1,0,0:0:0:0:
256,192,49654,1,8,0:0:0:0:
256,192,49724,1,8,0:0:0:0:
256,192,49793,1,8,0:0:0:0:
256,192,49933,1,0,0:0:0:0:
256,192,50073,1,8,0:0:0:0:
256,192,50142,1,8,0:0:0:0:
256,192,50212,1,0,0:0:0:0:
256,192,50352,1,8,0:0:0:0:
256,192,50421,1,8,0:0:0:0:
256,192,50491,1,8,0:0:0:0:
256,192,50631,1,0,0:0:0:0:
256,192,50770,1,8,0:0:0:0:
256,192,50840,1,8,0:0:0:0:
256,192,50910,1,0,0:0:0:0:
256,192,50980,1,0,0:0:0:0:
256,192,51049,1,8,0:0:0:0:
256,192,51189,1,8,0:0:0:0:
256,192,51259,1,8,0:0:0:0:
256,192,51328,1,0,0:0:0:0:
256,192,51468,1,8,0:0:0:0:
256,192,51538,1,8,0:0:0:0:
256,192,51607,1,8,0:0:0:0:
256,192,51747,1,0,0:0:0:0:
256,192,51886,1,8,0:0:0:0:
256,192,51956,1,8,0:0:0:0:
256,192,52026,1,0,0:0:0:0:
256,192,52166,1,0,0:0:0:0:
256,192,52305,1,8,0:0:0:0:
256,192,52375,1,8,0:0:0:0:
256,192,52445,1,0,0:0:0:0:
256,192,52584,1,8,0:0:0:0:
256,192,52654,1,8,0:0:0:0:
256,192,52724,1,8,0:0:0:0:
256,192,52863,1,0,0:0:0:0:
256,192,52933,1,0,0:0:0:0:
256,192,53003,1,8,0:0:0:0:
256,192,53073,1,0,0:0:0:0:
256,192,53142,1,0,0:0:0:0:
256,192,53212,1,0,0:0:0:0:
256,192,53282,1,8,0:0:0:0:
256,192,53561,1,0,0:0:0:0:
256,192,53631,1,0,0:0:0:0:
256,192,53700,1,8,0:0:0:0:
256,192,53770,1,0,0:0:0:0:
256,192,53840,1,8,0:0:0:0:
256,192,53980,1,8,0:0:0:0:
256,192,54049,1,0,0:0:0:0:
256,192,54119,1,8,0:0:0:0:
256,192,54189,1,8,0:0:0:0:
256,192,54259,1,0,0:0:0:0:
256,192,54398,1,0,0:0:0:0:
256,192,54468,1,0,0:0:0:0:
256,192,54538,1,8,0:0:0:0:
256,192,54607,1,8,0:0:0:0:
256,192,54677,1,0,0:0:0:0:
256,192,54747,1,0,0:0:0:0:
256,192,54817,1,8,0:0:0:0:
256,192,54956,1,0,0:0:0:0:
256,192,55096,1,8,0:0:0:0:
256,192,55166,1,0,0:0:0:0:
256,192,55235,1,8,0:0:0:0:
256,192,55375,1,0,0:0:0:0:
256,192,55421,1,0,0:0:0:0:
256,192,55468,1,0,0:0:0:0:
256,192,55514,1,8,0:0:0:0:
256,192,55584,1,0,0:0:0:0:
256,192,55654,1,8,0:0:0:0:
256,192,55724,1,8,0:0:0:0:
256,192,55793,1,8,0:0:0:0:
256,192,55863,1,0,0:0:0:0:
256,192,55933,1,8,0:0:0:0:
256,192,56003,1,0,0:0:0:0:
256,192,56073,1,8,0:0:0:0:
256,192,56119,1,8,0:0:0:0:
256,192,56166,1,8,0:0:0:0:
256,192,56212,1,0,0:0:0:0:
256,192,56282,1,0,0:0:0:0:
256,192,56352,1,8,0:0:0:0:
256,192,56421,1,8,0:0:0:0:
256,192,56491,1,0,0:0:0:0:
256,192,56770,1,0,0:0:0:0:
256,192,56910,1,8,0:0:0:0:
256,192,57049,1,8,0:0:0:0:
256,192,57189,1,0,0:0:0:0:
256,192,57328,1,8,0:0:0:0:
256,192,57468,1,8,0:0:0:0:
256,192,57747,1,0,0:0:0:0:
256,192,58026,1,0,0:0:0:0:
256,192,58166,1,0,0:0:0:0:
256,192,58305,1,8,0:0:0:0:
256,192,58445,1,0,0:0:0:0:
256,192,58584,1,0,0:0:0:0:
256,192,58724,1,8,0:0:0:0:
256,192,59003,1,0,0:0:0:0:
256,192,59142,1,8,0:0:0:0:
256,192,59421,1,8,0:0:0:0:
256,192,59561,1,0,0:0:0:0:
256,192,59700,1,8,0:0:0:0:
256,192,59840,1,8,0:0:0:0:
256,192,59980,1,0,0:0:0:0:
256,192,60259,1,0,0:0:0:0:
256,192,60398,1,8,0:0:0:0:
256,192,60538,1,0,0:0:0:0:
256,192,60677,1,0,0:0:0:0:
256,192,60817,1,8,0:0:0:0:
256,192,60956,1,8,0:0:0:0:
256,192,61235,1,0,0:0:0:0:
256,192,61375,1,8,0:0:0:0:
256,192,61514,1,0,0:0:0:0:
256,192,61654,1,8,0:0:0:0:
256,192,61933,1,8,0:0:0:0:
256,192,62073,1,0,0:0:0:0:
256,192,62212,1,0,0:0:0:0:
256,192,62491,1,0,0:0:0:0:
256,192,62631,1,0,0:0:0:0:
256,192,62770,1,8,0:0:0:0:
256,192,62910,1,0,0:0:0:0:
256,192,63049,1,8,0:0:0:0:
256,192,63189,1,8,0:0:0:0:
256,192,63468,1,0,0:0:0:0:
256,192,63607,1,8,0:0:0:0:
256,192,63747,1,8,0:0:0:0:
256,192,63886,1,8,0:0:0:0:
256,192,64166,1,8,0:0:0:0:
256,192,64305,1,8,0:0:0:0:
256,192,64445,1,0,0:0:0:0:
256,192,64724,1,8,0:0:0:0:
256,192,64863,1,8,0:0:0:0:
256,192,65003,1,0,0:0:0:0:
256,192,65142,1,8,0:0:0:0:
256,192,65282,1,0,0:0:0:0:
256,192,65421,1,8,0:0:0:0:
256,192,65700,1,8,0:0:0:0:
256,192,65840,1,0,0:0:0:0:
256,192,66119,1,8,0:0:0:0:
256,192,66259,1,0,0:0:0:0:
256,192,66398,1,8,0:0:0:0:
256,192,66538,1,8,0:0:0:0:
256,192,66677,1,0,0:0:0:0:
256,192,66817,1,0,0:0:0:0:
256,192,66956,1,0,0:0:0:0:
256,192,67096,1,8,0:0:0:0:
256,192,67235,1,0,0:0:0:0:
256,192,67375,1,0,0:0:0:0:
256,192,67514,1,8,0:0:0:0:
256,192,67654,1,8,0:0:0:0:
256,192,67933,1,8,0:0:0:0:
256,192,68073,1,0,0:0:0:0:
256,192,68352,1,8,0:0:0:0:
256,192,68491,1,8,0:0:0:0:
256,192,68631,1,0,0:0:0:0:
256,192,68770,1,0,0:0:0:0:
256,192,68910,1,0,0:0:0:0:
256,192,69049,1,0,0:0:0:0:
256,192,69189,1,8,0:0:0:0:
256,192,69328,1,8,0:0:0:0:
256,192,69468,1,0,0:0:0:0:
256,192,69607,1,8,0:0:0:0:
256,192,69747,1,0,0:0:0:0:
256,192,69886,1,8,0:0:0:0:
256,192,70166,1,0,0:0:0:0:
256,192,70305,1,8,0:0:0:0:
256,192,70584,1,8,0:0:0:0:
256,192,70863,1,8,0:0:0:0:
256,192,71003,1,8,0:0:0:0:
256,192,71142,1,0,0:0:0:0:
256,192,71282,1,0,0:0:0:0:
256,192,71421,1,8,0:0:0:0:
256,192,71561,1,8,0:0:0:0:
256,192,71700,1,8,0:0:0:0:
256,192,71840,1,0,0:0:0:0:
256,192,71980,1,0,0:0:0:0:
256,192,72119,1,8,0:0:0:0:
256,192,72398,1,8,0:0:0:0:
256,192,72538,1,0,0:0:0:0:
256,192,72677,1,0,0:0:0:0:
256,192,72817,1,8,0:0:0:0:
256,192,73096,1,8,0:0:0:0:
256,192,73235,1,8,0:0:0:0:
256,192,73375,1,0,0:0:0:0:
256,192,73514,1,8,0:0:0:0:
256,192,73654,1,8,0:0:0:0:
256,192,73793,1,8,0:0:0:0:
256,192,73933,1,8,0:0:0:0:
256,192,74073,1,8,0:0:0:0:
256,192,74212,1,0,0:0:0:0:
256,192,74352,1,8,0:0:0:0:
256,192,74491,1,8,0:0:0:0:
256,192,74631,1,0,0:0:0:0:
256,192,74770,1,8,0:0:0:0:
256,192,74910,1,0,0:0:0:0:
256,192,75049,1,8,0:0:0:0:
256,192,75328,1,8,0:0:0:0:
256,192,75468,1,0,0:0:0:0:
256,192,75607,1,8,0:0:0:0:
256,192,75747,1,0,0:0:0:0:
256,192,75817,1,0,0:0:0:0:
256,192,75886,1,0,0:0:0:0:
256,192,76026,1,8,0:0:0:0:
256,192,76096,1,0,0:0:0:0:
256,192,76166,1,8,0:0:0:0:
256,192,76235,1,0,0:0:0:0:
256,192,76305,1,0,0:0:0:0:
256,192,76375,1,0,0:0:0:0:
256,192,76445,1,8,0:0:0:0:
256,192,76584,1,8,0:0:0:0:
256,192,76724,1,0,0:0:0:0:
256,192,76793,1,0,0:0:0:0:
256,192,76863,1,8,0:0:0:0:
256,192,76933,1,0,0:0:0:0:
256,192,77003,1,8,0:0:0:0:
259,188,77142,1,0,0:0:0:0:
259,188,77212,1,0,0:0:0:0:
259,188,77282,1,0,0:0:0:0:
259,188,77421,1,8,0:0:0:0:
259,188,77491,1,8,0:0:0:0:
259,188,77561,1,0,0:0:0:0:
259,188,77700,1,8,0:0:0:0:
259,188,77770,1,8,0:0:0:0:
259,188,77840,1,0,0:0:0:0:
259,188,77910,1,8,0:0:0:0:
259,188,77980,1,0,0:0:0:0:
259,188,78049,1,0,0:0:0:0:
259,188,78119,1,8,0:0:0:0:
259,188,78259,1,8,0:0:0:0:
259,188,78328,1,8,0:0:0:0:
259,188,78398,1,0,0:0:0:0:
259,188,78468,1,0,0:0:0:0:
259,188,78538,1,8,0:0:0:0:
259,188,78677,1,0,0:0:0:0:
259,188,78747,1,0,0:0:0:0:
259,188,78817,1,8,0:0:0:0:
259,188,78956,1,0,0:0:0:0:
259,188,79026,1,8,0:0:0:0:
259,188,79096,1,0,0:0:0:0:
259,188,79166,1,0,0:0:0:0:
259,188,79235,1,8,0:0:0:0:
259,188,79375,1,0,0:0:0:0:
259,188,79514,1,8,0:0:0:0:
259,188,79584,1,0,0:0:0:0:
259,188,79654,1,0,0:0:0:0:
259,188,79724,1,0,0:0:0:0:
260,189,79793,1,8,0:0:0:0:
260,189,79863,1,8,0:0:0:0:
259,188,79933,1,0,0:0:0:0:
260,189,80003,1,0,0:0:0:0:
260,189,80073,1,8,0:0:0:0:
260,189,80212,1,0,0:0:0:0:
260,189,80282,1,0,0:0:0:0:
260,189,80352,1,0,0:0:0:0:
260,189,80421,1,0,0:0:0:0:
260,189,80491,1,8,0:0:0:0:
260,189,80631,1,0,0:0:0:0:
260,189,80700,1,0,0:0:0:0:
260,189,80770,1,8,0:0:0:0:
260,189,80840,1,0,0:0:0:0:
260,189,80910,1,8,0:0:0:0:
259,193,81049,1,8,0:0:0:0:
259,193,81119,1,8,0:0:0:0:
259,193,81189,1,0,0:0:0:0:
259,193,81328,1,0,0:0:0:0:
259,193,81398,1,0,0:0:0:0:
259,193,81468,1,8,0:0:0:0:
259,193,81538,1,0,0:0:0:0:
259,193,81607,1,0,0:0:0:0:
259,193,81677,1,0,0:0:0:0:
259,193,81747,1,8,0:0:0:0:
259,193,81886,1,8,0:0:0:0:
259,193,81956,1,8,0:0:0:0:
259,193,82026,1,0,0:0:0:0:
259,193,82096,1,0,0:0:0:0:
259,193,82166,1,8,0:0:0:0:
259,193,82235,1,8,0:0:0:0:
259,193,82305,1,0,0:0:0:0:
256,192,82445,1,0,0:0:0:0:
256,192,82514,1,0,0:0:0:0:
256,192,82584,1,8,0:0:0:0:
256,192,82724,1,8,0:0:0:0:
256,192,82793,1,8,0:0:0:0:
256,192,82863,1,0,0:0:0:0:
256,192,82933,1,0,0:0:0:0:
256,192,83003,1,8,0:0:0:0:
256,192,83073,1,0,0:0:0:0:
256,192,83142,1,8,0:0:0:0:
256,192,83282,1,8,0:0:0:0:
256,192,83421,1,0,0:0:0:0:
256,192,83491,1,0,0:0:0:0:
256,192,83561,1,8,0:0:0:0:
256,192,83631,1,0,0:0:0:0:
256,192,83700,1,8,0:0:0:0:
256,192,83770,1,8,0:0:0:0:
256,192,83840,1,0,0:0:0:0:
256,192,83980,1,8,0:0:0:0:
256,192,84049,1,0,0:0:0:0:
256,192,84119,1,0,0:0:0:0:
256,192,84189,1,0,0:0:0:0:
256,192,84259,1,8,0:0:0:0:
256,192,84328,1,0,0:0:0:0:
256,192,84398,1,0,0:0:0:0:
256,192,84468,1,0,0:0:0:0:
256,192,84538,1,8,0:0:0:0:
256,192,84678,1,0,0:0:0:0:
256,192,84748,1,0,0:0:0:0:
256,192,84817,1,8,0:0:0:0:
256,192,84957,1,8,0:0:0:0:
256,192,85027,1,0,0:0:0:0:
256,192,85097,1,8,0:0:0:0:
256,192,85166,1,8,0:0:0:0:
256,192,85236,1,0,0:0:0:0:
256,192,85306,1,0,0:0:0:0:
256,192,85376,1,8,0:0:0:0:
256,192,85515,1,8,0:0:0:0:
256,192,85655,1,0,0:0:0:0:
256,192,85724,1,8,0:0:0:0:
256,192,85794,1,0,0:0:0:0:
256,192,85864,1,0,0:0:0:0:
256,192,85934,1,8,0:0:0:0:
259,188,86073,1,0,0:0:0:0:
259,188,86143,1,0,0:0:0:0:
259,188,86213,1,0,0:0:0:0:
259,188,86352,1,8,0:0:0:0:
259,188,86422,1,8,0:0:0:0:
259,188,86491,1,8,0:0:0:0:
259,188,86631,1,0,0:0:0:0:
259,188,86701,1,8,0:0:0:0:
259,188,86771,1,0,0:0:0:0:
259,188,86841,1,8,0:0:0:0:
259,188,86911,1,0,0:0:0:0:
259,188,86980,1,0,0:0:0:0:
259,188,87050,1,8,0:0:0:0:
259,188,87190,1,8,0:0:0:0:
259,188,87259,1,8,0:0:0:0:
259,188,87329,1,0,0:0:0:0:
259,188,87399,1,0,0:0:0:0:
259,188,87469,1,8,0:0:0:0:
259,188,87608,1,8,0:0:0:0:
259,188,87678,1,0,0:0:0:0:
259,188,87748,1,8,0:0:0:0:
259,188,87887,1,8,0:0:0:0:
259,188,87957,1,0,0:0:0:0:
259,188,88027,1,0,0:0:0:0:
259,188,88097,1,0,0:0:0:0:
259,188,88166,1,8,0:0:0:0:
259,188,88306,1,0,0:0:0:0:
259,188,88445,1,8,0:0:0:0:
259,188,88515,1,8,0:0:0:0:
259,188,88585,1,0,0:0:0:0:
259,188,88655,1,0,0:0:0:0:
260,189,88724,1,8,0:0:0:0:
260,189,88793,1,0,0:0:0:0:
259,188,88864,1,0,0:0:0:0:
260,189,88934,1,0,0:0:0:0:
260,189,89004,1,8,0:0:0:0:
260,189,89143,1,0,0:0:0:0:
260,189,89213,1,0,0:0:0:0:
260,189,89283,1,0,0:0:0:0:
260,189,89352,1,0,0:0:0:0:
260,189,89422,1,8,0:0:0:0:
260,189,89562,1,0,0:0:0:0:
260,189,89631,1,0,0:0:0:0:
260,189,89701,1,0,0:0:0:0:
260,189,89771,1,0,0:0:0:0:
260,189,89841,1,8,0:0:0:0:
256,192,89910,1,0,0:0:0:0:
259,193,89980,1,8,0:0:0:0:
259,193,90120,1,0,0:0:0:0:
259,193,90259,1,0,0:0:0:0:
259,193,90329,1,0,0:0:0:0:
259,193,90399,1,8,0:0:0:0:
259,193,90538,1,0,0:0:0:0:
259,193,90608,1,0,0:0:0:0:
259,193,90678,1,0,0:0:0:0:
259,193,90817,1,8,0:0:0:0:
259,193,90887,1,8,0:0:0:0:
259,193,90957,1,0,0:0:0:0:
259,193,91027,1,0,0:0:0:0:
259,193,91097,1,8,0:0:0:0:
259,193,91166,1,8,0:0:0:0:
259,193,91236,1,0,0:0:0:0:
256,192,91376,1,8,0:0:0:0:
256,192,91445,1,8,0:0:0:0:
256,192,91515,1,0,0:0:0:0:
256,192,91655,1,8,0:0:0:0:
256,192,91724,1,8,0:0:0:0:
256,192,91794,1,0,0:0:0:0:
256,192,91864,1,0,0:0:0:0:
256,192,91934,1,8,0:0:0:0:
256,192,92003,1,8,0:0:0:0:
256,192,92073,1,8,0:0:0:0:
256,192,92213,1,8,0:0:0:0:
256,192,92352,1,0,0:0:0:0:
256,192,92491,1,0,0:0:0:0:
256,192,92631,1,8,0:0:0:0:
256,192,92770,1,0,0:0:0:0:
256,192,92910,1,8,0:0:0:0:
256,192,93189,1,8,0:0:0:0:
256,192,93468,1,8,0:0:0:0:
256,192,93607,1,0,0:0:0:0:
256,192,93677,1,0,0:0:0:0:
256,192,93747,1,8,0:0:0:0:
256,192,93817,1,8,0:0:0:0:
256,192,93887,1,0,0:0:0:0:
256,192,93956,1,0,0:0:0:0:
256,192,94026,1,8,0:0:0:0:
256,192,94166,1,0,0:0:0:0:
256,192,94305,1,8,0:0:0:0:
256,192,94375,1,0,0:0:0:0:
256,192,94445,1,8,0:0:0:0:
256,192,94514,1,8,0:0:0:0:
256,192,94584,1,0,0:0:0:0:
256,192,94654,1,0,0:0:0:0:
256,192,94724,1,8,0:0:0:0:
256,192,94863,1,8,0:0:0:0:
256,192,94933,1,0,0:0:0:0:
256,192,95003,1,0,0:0:0:0:
256,192,95073,1,0,0:0:0:0:
64,32,95142,2,4,L|448:320,1,473.999989539384
256,192,95701,1,8,0:0:0:0:
256,192,95840,1,0,0:0:0:0:
256,192,95910,1,0,0:0:0:0:
256,192,95980,1,8,0:0:0:0:
256,192,96049,1,8,0:0:0:0:
256,192,96119,1,0,0:0:0:0:
256,192,96189,1,0,0:0:0:0:
256,192,96259,1,8,0:0:0:0:
256,192,96398,1,8,0:0:0:0:
256,192,96538,1,8,0:0:0:0:
256,192,96607,1,8,0:0:0:0:
256,192,96677,1,0,0:0:0:0:
256,192,96747,1,8,0:0:0:0:
256,192,96817,1,0,0:0:0:0:
256,192,96956,1,0,0:0:0:0:
256,192,97026,1,0,0:0:0:0:
256,192,97096,1,8,0:0:0:0:
256,192,97166,1,8,0:0:0:0:
256,192,97235,1,0,0:0:0:0:
256,192,97305,1,8,0:0:0:0:
256,192,97375,1,0,0:0:0:0:
256,192,97514,1,8,0:0:0:0:
256,192,97584,1,0,0:0:0:0:
256,192,97654,1,8,0:0:0:0:
256,192,97724,1,0,0:0:0:0:
256,192,97794,1,0,0:0:0:0:
256,192,97863,1,0,0:0:0:0:
256,192,97933,1,8,0:0:0:0:
256,192,98073,1,0,0:0:0:0:
256,192,98212,1,8,0:0:0:0:
256,192,98282,1,8,0:0:0:0:
256,192,98352,1,0,0:0:0:0:
256,192,98421,1,8,0:0:0:0:
256,192,98491,1,0,0:0:0:0:
256,192,98631,1,0,0:0:0:0:
256,192,98700,1,8,0:0:0:0:
256,192,98770,1,8,0:0:0:0:
256,192,98840,1,8,0:0:0:0:
256,192,98910,1,0,0:0:0:0:
256,192,98980,1,0,0:0:0:0:
256,192,99049,1,8,0:0:0:0:
256,192,99189,1,8,0:0:0:0:
256,192,99259,1,8,0:0:0:0:
256,192,99328,1,0,0:0:0:0:
256,192,99468,1,8,0:0:0:0:
256,192,99538,1,0,0:0:0:0:
256,192,99607,1,8,0:0:0:0:
256,192,99677,1,8,0:0:0:0:
256,192,99747,1,0,0:0:0:0:
256,192,99817,1,8,0:0:0:0:
256,192,99887,1,0,0:0:0:0:
256,192,99956,1,0,0:0:0:0:
256,192,100026,1,8,0:0:0:0:
256,192,100073,1,8,0:0:0:0:
256,192,100119,1,8,0:0:0:0:
256,192,100166,1,0,0:0:0:0:
256,192,100305,1,0,0:0:0:0:
256,192,100445,1,8,0:0:0:0:
256,192,100514,1,8,0:0:0:0:
256,192,100584,1,0,0:0:0:0:
256,192,100654,1,0,0:0:0:0:
256,192,100724,1,8,0:0:0:0:
256,192,100863,1,8,0:0:0:0:
256,192,100933,1,0,0:0:0:0:
256,192,101003,1,8,0:0:0:0:
256,192,101073,1,8,0:0:0:0:
256,192,101142,1,0,0:0:0:0:
256,192,101212,1,0,0:0:0:0:
256,192,101282,1,8,0:0:0:0:
256,192,101421,1,0,0:0:0:0:
256,192,101491,1,0,0:0:0:0:
256,192,101561,1,8,0:0:0:0:
256,192,101631,1,8,0:0:0:0:
256,192,101700,1,0,0:0:0:0:
256,192,101770,1,0,0:0:0:0:
256,192,101840,1,0,0:0:0:0:
256,192,101980,1,0,0:0:0:0:
256,192,102119,1,8,0:0:0:0:
256,192,102189,1,8,0:0:0:0:
256,192,102259,1,0,0:0:0:0:
256,192,102328,1,8,0:0:0:0:
256,192,102398,1,0,0:0:0:0:
256,192,102538,1,0,0:0:0:0:
256,192,102607,1,0,0:0:0:0:
256,192,102677,1,8,0:0:0:0:
256,192,102747,1,0,0:0:0:0:
256,192,102817,1,8,0:0:0:0:
256,192,102887,1,8,0:0:0:0:
256,192,102956,1,0,0:0:0:0:
256,192,103096,1,0,0:0:0:0:
256,192,103166,1,8,0:0:0:0:
256,192,103235,1,0,0:0:0:0:
256,192,103305,1,0,0:0:0:0:
256,192,103375,1,8,0:0:0:0:
256,192,103445,1,8,0:0:0:0:
256,192,103514,1,0,0:0:0:0:
256,192,103654,1,0,0:0:0:0:
256,192,103724,1,0,0:0:0:0:
256,192,103794,1,0,0:0:0:0:
256,192,103933,1,0,0:0:0:0:
256,192,104003,1,0,0:0:0:0:
256,192,104073,1,8,0:0:0:0:
256,192,104119,1,0,0:0:0:0:
256,192,104166,1,0,0:0:0:0:
256,192,104212,1,8,0:0:0:0:
256,192,104282,1,8,0:0:0:0:
256,192,104352,1,0,0:0:0:0:
256,192,104421,1,0,0:0:0:0:
256,192,104491,1,8,0:0:0:0:
256,192,104538,1,8,0:0:0:0:
256,192,104584,1,8,0:0:0:0:
256,192,104631,1,0,0:0:0:0:
256,192,104770,1,0,0:0:0:0:
256,192,104840,1,0,0:0:0:0:
256,192,104910,1,8,0:0:0:0:
256,192,104980,1,8,0:0:0:0:
256,192,105049,1,0,0:0:0:0:
256,192,105119,1,0,0:0:0:0:
256,192,105189,1,8,0:0:0:0:
256,192,105328,1,8,0:0:0:0:
256,192,105398,1,0,0:0:0:0:
256,192,105468,1,8,0:0:0:0:
256,192,105538,1,0,0:0:0:0:
256,192,105607,1,0,0:0:0:0:
256,192,105654,1,0,0:0:0:0:
256,192,105700,1,0,0:0:0:0:
256,192,105747,1,8,0:0:0:0:
256,192,105887,1,0,0:0:0:0:
256,192,106026,1,8,0:0:0:0:
256,192,106096,1,0,0:0:0:0:
256,192,106166,1,0,0:0:0:0:
256,192,106235,1,0,0:0:0:0:
256,192,106305,1,8,0:0:0:0:
256,192,106445,1,8,0:0:0:0:
256,192,106514,1,8,0:0:0:0:
256,192,106584,1,8,0:0:0:0:
256,192,106654,1,0,0:0:0:0:
256,192,106724,1,8,0:0:0:0:
256,192,106770,1,8,0:0:0:0:
256,192,106817,1,8,0:0:0:0:
256,192,106863,1,0,0:0:0:0:
256,192,107003,1,0,0:0:0:0:
256,192,107073,1,0,0:0:0:0:
256,192,107142,1,8,0:0:0:0:
256,192,107212,1,8,0:0:0:0:
256,192,107282,1,0,0:0:0:0:
256,192,107352,1,0,0:0:0:0:
256,192,107421,1,0,0:0:0:0:
256,192,107561,1,0,0:0:0:0:
256,192,107700,1,8,0:0:0:0:
256,192,107770,1,8,0:0:0:0:
256,192,107840,1,8,0:0:0:0:
256,192,107887,1,8,0:0:0:0:
256,192,107933,1,0,0:0:0:0:
256,192,107980,1,0,0:0:0:0:
256,192,108119,1,0,0:0:0:0:
256,192,108189,1,0,0:0:0:0:
256,192,108259,1,0,0:0:0:0:
256,192,108398,1,8,0:0:0:0:
256,192,108468,1,0,0:0:0:0:
256,192,108538,1,0,0:0:0:0:
256,192,108584,1,0,0:0:0:0:
256,192,108631,1,0,0:0:0:0:
256,192,108677,1,8,0:0:0:0:
256,192,108747,1,8,0:0:0:0:
256,192,108817,1,0,0:0:0:0:
256,192,108887,1,0,0:0:0:0:
256,192,108956,1,8,0:0:0:0:
256,192,109003,1,8,0:0:0:0:
256,192,109049,1,8,0:0:0:0:
256,192,109096,1,0,0:0:0:0:
256,192,109235,1,0,0:0:0:0:
256,192,109375,1,8,0:0:0:0:
256,192,109445,1,0,0:0:0:0:
256,192,109514,1,8,0:0:0:0:
256,192,109584,1,8,0:0:0:0:
256,192,109654,1,0,0:0:0:0:
256,192,109794,1,0,0:0:0:0:
256,192,109863,1,8,0:0:0:0:
256,192,109933,1,8,0:0:0:0:
256,192,110003,1,8,0:0:0:0:
256,192,110073,1,0,0:0:0:0:
256,192,110119,1,0,0:0:0:0:
256,192,110166,1,8,0:0:0:0:
256,192,110212,1,0,0:0:0:0:
256,192,110352,1,8,0:0:0:0:
256,192,110421,1,0,0:0:0:0:
256,192,110491,1,8,0:0:0:0:
256,192,110561,1,8,0:0:0:0:
256,192,110631,1,0,0:0:0:0:
256,192,110700,1,8,0:0:0:0:
256,192,110770,1,0,0:0:0:0:
256,192,110910,1,0,0:0:0:0:
256,192,110980,1,0,0:0:0:0:
256,192,111049,1,8,0:0:0:0:
256,192,111119,1,8,0:0:0:0:
256,192,111189,1,0,0:0:0:0:
256,192,111235,1,0,0:0:0:0:
256,192,111282,1,0,0:0:0:0:
256,192,111328,1,8,0:0:0:0:
256,192,111398,1,0,0:0:0:0:
256,192,111468,1,8,0:0:0:0:
256,192,111538,1,0,0:0:0:0:
256,192,111607,1,8,0:0:0:0:
256,192,111677,1,8,0:0:0:0:
256,192,111747,1,0,0:0:0:0:
256,192,111817,1,0,0:0:0:0:
256,192,111887,1,8,0:0:0:0:
256,192,111933,1,8,0:0:0:0:
256,192,111980,1,8,0:0:0:0:
256,192,112026,1,0,0:0:0:0:
256,192,112096,1,0,0:0:0:0:
256,192,112166,1,8,0:0:0:0:
256,192,112212,1,8,0:0:0:0:
256,192,112259,1,8,0:0:0:0:
256,192,112305,1,0,0:0:0:0:
256,192,112584,1,8,0:0:0:0:
256,192,112654,1,0,0:0:0:0:
256,192,112724,1,8,0:0:0:0:
256,192,112794,1,8,0:0:0:0:
256,192,112863,1,0,0:0:0:0:
256,192,113003,1,0,0:0:0:0:
256,192,113073,1,0,0:0:0:0:
256,192,113142,1,0,0:0:0:0:
256,192,113212,1,0,0:0:0:0:
256,192,113282,2,4,L|352:288,1,118.500001905262
256,192,113561,1,12,0:0:0:0:
256,192,113840,1,0,0:0:0:0:
256,192,113909,1,0,0:0:0:0:
256,192,113979,1,8,0:0:0:0:
256,192,114049,1,0,0:0:0:0:
256,192,114119,1,8,0:0:0:0:
256,192,114258,1,8,0:0:0:0:
256,192,114328,1,0,0:0:0:0:
256,192,114398,1,8,0:0:0:0:
256,192,114467,1,8,0:0:0:0:
256,192,114537,1,0,0:0:0:0:
256,192,114677,1,0,0:0:0:0:
256,192,114816,1,8,0:0:0:0:
256,192,114886,1,8,0:0:0:0:
256,192,114956,1,0,0:0:0:0:
256,192,115026,1,0,0:0:0:0:
256,192,115095,1,8,0:0:0:0:
256,192,115142,1,8,0:0:0:0:
256,192,115188,1,8,0:0:0:0:
256,192,115235,1,0,0:0:0:0:
256,192,115305,1,0,0:0:0:0:
256,192,115374,1,8,0:0:0:0:
256,192,115514,1,8,0:0:0:0:
256,192,115561,1,0,0:0:0:0:
256,192,115607,1,0,0:0:0:0:
256,192,115654,1,8,0:0:0:0:
256,192,115723,1,0,0:0:0:0:
256,192,115793,1,8,0:0:0:0:
256,192,115933,1,0,0:0:0:0:
256,192,116002,1,8,0:0:0:0:
256,192,116072,1,0,0:0:0:0:
256,192,116212,1,8,0:0:0:0:
256,192,116281,1,0,0:0:0:0:
256,192,116351,1,8,0:0:0:0:
256,192,116421,1,8,0:0:0:0:
256,192,116491,1,0,0:0:0:0:
256,192,116561,1,0,0:0:0:0:
256,192,116630,1,8,0:0:0:0:
256,192,116770,1,0,0:0:0:0:
256,192,116909,1,0,0:0:0:0:
256,192,117049,1,0,0:0:0:0:
256,192,117119,1,0,0:0:0:0:
256,192,117188,1,8,0:0:0:0:
256,192,117328,1,8,0:0:0:0:
256,192,117374,1,8,0:0:0:0:
256,192,117421,1,8,0:0:0:0:
256,192,117467,1,0,0:0:0:0:
256,192,117537,1,0,0:0:0:0:
256,192,117607,1,8,0:0:0:0:
256,192,117677,1,0,0:0:0:0:
256,192,117747,1,8,0:0:0:0:
256,192,117793,1,8,0:0:0:0:
256,192,117840,1,0,0:0:0:0:
256,192,117886,1,0,0:0:0:0:
256,192,118026,1,8,0:0:0:0:
256,192,118165,1,0,0:0:0:0:
256,192,118235,1,0,0:0:0:0:
256,192,118305,1,8,0:0:0:0:
256,192,118444,1,8,0:0:0:0:
256,192,118514,1,0,0:0:0:0:
256,192,118584,1,8,0:0:0:0:
256,192,118654,1,0,0:0:0:0:
256,192,118723,1,8,0:0:0:0:
256,192,118793,1,8,0:0:0:0:
256,192,118863,1,0,0:0:0:0:
256,192,119002,1,8,0:0:0:0:
256,192,119142,1,0,0:0:0:0:
256,192,119281,1,0,0:0:0:0:
256,192,119351,1,8,0:0:0:0:
256,192,119421,1,0,0:0:0:0:
256,192,119467,1,0,0:0:0:0:
256,192,119514,1,0,0:0:0:0:
256,192,119560,1,8,0:0:0:0:
256,192,119630,1,8,0:0:0:0:
256,192,119700,1,0,0:0:0:0:
256,192,119840,1,8,0:0:0:0:
256,192,119909,1,0,0:0:0:0:
256,192,119979,1,8,0:0:0:0:
256,192,120026,1,8,0:0:0:0:
256,192,120072,1,8,0:0:0:0:
256,192,120119,1,0,0:0:0:0:
256,192,120258,1,8,0:0:0:0:
256,192,120328,1,8,0:0:0:0:
256,192,120398,1,0,0:0:0:0:
256,192,120467,1,0,0:0:0:0:
256,192,120537,1,8,0:0:0:0:
256,192,120607,1,0,0:0:0:0:
256,192,120677,1,8,0:0:0:0:
256,192,120816,1,8,0:0:0:0:
256,192,120886,1,8,0:0:0:0:
256,192,120956,1,0,0:0:0:0:
256,192,121026,1,0,0:0:0:0:
256,192,121095,1,8,0:0:0:0:
256,192,121235,1,0,0:0:0:0:
256,192,121514,1,0,0:0:0:0:
256,192,121654,1,8,0:0:0:0:
256,192,121793,1,8,0:0:0:0:
256,192,121933,1,0,0:0:0:0:
256,192,122072,1,8,0:0:0:0:
256,192,122212,1,0,0:0:0:0:
256,192,122491,1,8,0:0:0:0:
256,192,122770,1,0,0:0:0:0:
256,192,122910,1,0,0:0:0:0:
256,192,123049,1,0,0:0:0:0:
256,192,123188,1,8,0:0:0:0:
256,192,123328,1,0,0:0:0:0:
256,192,123467,1,8,0:0:0:0:
256,192,123746,1,0,0:0:0:0:
256,192,123886,1,8,0:0:0:0:
256,192,124025,1,8,0:0:0:0:
256,192,124165,1,8,0:0:0:0:
256,192,124304,1,8,0:0:0:0:
256,192,124444,1,0,0:0:0:0:
256,192,124584,1,8,0:0:0:0:
256,192,124723,1,0,0:0:0:0:
256,192,125002,1,8,0:0:0:0:
256,192,125142,1,8,0:0:0:0:
256,192,125281,1,8,0:0:0:0:
256,192,125421,1,2,0:0:0:0:
256,192,125560,1,8,0:0:0:0:
256,192,125700,1,0,0:0:0:0:
256,192,125979,1,8,0:0:0:0:
256,192,126118,1,0,0:0:0:0:
256,192,126397,1,8,0:0:0:0:
256,192,126537,1,8,0:0:0:0:
256,192,126677,1,0,0:0:0:0:
256,192,126816,1,0,0:0:0:0:
256,192,126956,1,8,0:0:0:0:
256,192,127235,1,8,0:0:0:0:
256,192,127374,1,8,0:0:0:0:
256,192,127514,1,8,0:0:0:0:
256,192,127653,1,0,0:0:0:0:
256,192,127793,1,0,0:0:0:0:
256,192,127932,1,8,0:0:0:0:
256,192,128211,1,8,0:0:0:0:
256,192,128351,1,0,0:0:0:0:
256,192,128490,1,0,0:0:0:0:
256,192,128630,1,8,0:0:0:0:
256,192,128770,1,0,0:0:0:0:
256,192,128909,1,0,0:0:0:0:
256,192,129049,1,0,0:0:0:0:
256,192,129188,1,8,0:0:0:0:
256,192,129328,1,8,0:0:0:0:
256,192,129467,1,0,0:0:0:0:
256,192,129607,1,8,0:0:0:0:
256,192,129746,1,8,0:0:0:0:
256,192,129886,1,0,0:0:0:0:
256,192,130025,1,0,0:0:0:0:
256,192,130165,1,8,0:0:0:0:
256,192,130444,1,0,0:0:0:0:
256,192,130584,1,8,0:0:0:0:
256,192,130723,1,8,0:0:0:0:
256,192,130863,1,8,0:0:0:0:
256,192,131002,1,0,0:0:0:0:
256,192,131142,1,8,0:0:0:0:
256,192,131421,1,4,0:0:0:0:
