osu file format v14

[General]
AudioFilename: audio.mp3
AudioLeadIn: 0
PreviewTime: 95701
Countdown: 1
SampleSet: Normal
StackLeniency: 0.7
Mode: 1
LetterboxInBreaks: 0
WidescreenStoryboard: 1

[Editor]
DistanceSpacing: 1
BeatDivisor: 4
GridSize: 32
TimelineZoom: 1.8

[Metadata]
Title:Marble Dove
TitleUnicode:Marble Dove
Artist:Kobaryo
ArtistUnicode:Kobaryo
Creator:heitonto
Version:Muzukashii
Source:
Tags:The Psycho Blast Vol. 4 kobaryo 430 bpm hard fast rankeable maybe?
BeatmapID:4555932
BeatmapSetID:2160025

[Difficulty]
HPDrainRate:6
CircleSize:5
OverallDifficulty:5
ApproachRate:6
SliderMultiplier:1.57999996513128
SliderTickRate:1

[Events]
//Background and Video events
0,0,"hqdefault-transformed.jpeg",0,0
//Break Periods
//Storyboard Layer 0 (Background)
//Storyboard Layer 1 (Fail)
//Storyboard Layer 2 (Pass)
//Storyboard Layer 3 (Foreground)
//Storyboard Layer 4 (Overlay)
//Storyboard Sound Samples

[TimingPoints]
1934,279.06976744186,4,1,0,100,1,0
10864,-95.2380952380952,4,1,0,100,0,0
21468,-66.6666666666667,4,1,0,100,0,0
22027,139.53488372093,4,1,0,100,1,1
22027,-181.818181818182,4,1,0,100,0,1
38631,-181.818181818182,4,1,0,100,0,0
39887,279.06976744186,4,1,0,100,1,0
44352,-90.9090909090909,4,1,0,100,0,1
47701,-100,4,1,0,100,0,0
53282,-90.9090909090909,4,1,0,100,0,1
56492,-100,4,1,0,100,0,0
57748,-125,4,1,0,100,0,0
75608,-105.263157894737,4,1,0,100,0,0
92352,-133.333333333333,4,1,0,100,0,0
93468,-95.2380952380952,4,1,0,100,0,0
95701,139.53488372093,4,1,0,100,1,1
95701,-181.818181818182,4,1,0,100,0,1
112445,-222.222222222222,4,1,0,100,0,0
113282,-133.333333333333,4,1,0,100,0,0
113561,279.06976744186,4,1,0,100,1,0
121236,-125,4,1,0,100,0,0
122492,-111.111111111111,4,1,0,100,0,0

[Colours]
Combo1 : 255,192,0
Combo2 : 0,202,0
Combo3 : 18,124,255
Combo4 : 242,24,57

[HitObjects]
256,192,1934,5,0,0:0:0:0:
256,192,2492,1,0,0:0:0:0:
256,192,2910,1,8,0:0:0:0:
256,192,3329,1,8,0:0:0:0:
256,192,3608,1,8,0:0:0:0:
256,192,4166,1,8,0:0:0:0:
256,192,4724,1,0,0:0:0:0:
256,192,5143,1,0,0:0:0:0:
256,192,5561,1,8,0:0:0:0:
256,192,5840,1,0,0:0:0:0:
256,192,6399,1,8,0:0:0:0:
256,192,6957,1,0,0:0:0:0:
256,192,7375,1,8,0:0:0:0:
256,192,7794,1,0,0:0:0:0:
256,192,8073,1,0,0:0:0:0:
256,192,8631,1,8,0:0:0:0:
256,192,9189,1,8,0:0:0:0:
256,192,9608,1,0,0:0:0:0:
256,192,10026,1,8,0:0:0:0:
256,192,10305,1,8,0:0:0:0:
256,192,10585,1,0,0:0:0:0:
256,192,10724,1,0,0:0:0:0:
256,192,10864,1,8,0:0:0:0:
256,192,11143,1,0,0:0:0:0:
256,192,11282,1,0,0:0:0:0:
256,192,11422,1,8,0:0:0:0:
256,192,11701,1,8,0:0:0:0:
256,192,11840,1,0,0:0:0:0:
256,192,12120,1,0,0:0:0:0:
256,192,12259,1,0,0:0:0:0:
256,192,12538,1,8,0:0:0:0:
256,192,12817,1,8,0:0:0:0:
256,192,13096,1,0,0:0:0:0:
256,192,13236,1,0,0:0:0:0:
256,192,13375,1,0,0:0:0:0:
256,192,13654,1,8,0:0:0:0:
256,192,13933,1,0,0:0:0:0:
256,192,14073,1,0,0:0:0:0:
256,192,14352,1,0,0:0:0:0:
256,192,14492,1,4,0:0:0:0:
256,192,14631,1,8,0:0:0:0:
256,192,14910,1,8,0:0:0:0:
256,192,15050,1,8,0:0:0:0:
256,192,15329,1,0,0:0:0:0:
256,192,15608,1,0,0:0:0:0:
256,192,15747,1,0,0:0:0:0:
256,192,15887,1,8,0:0:0:0:
256,192,16166,1,8,0:0:0:0:
256,192,16306,1,0,0:0:0:0:
256,192,16724,1,0,0:0:0:0:
256,192,16864,1,0,0:0:0:0:
256,192,17003,1,8,0:0:0:0:
256,192,17282,1,8,0:0:0:0:
256,192,17561,1,0,0:0:0:0:
256,192,17840,1,0,0:0:0:0:
256,192,17980,1,0,0:0:0:0:
256,192,18120,1,8,0:0:0:0:
256,192,18399,1,8,0:0:0:0:
256,192,18538,1,0,0:0:0:0:
256,192,18817,1,8,0:0:0:0:
256,192,18957,1,8,0:0:0:0:
256,192,19236,1,8,0:0:0:0:
256,192,19375,1,8,0:0:0:0:
256,192,19515,1,0,0:0:0:0:
256,192,19794,1,12,0:0:0:0:
256,192,20352,1,0,0:0:0:0:
256,192,20910,1,0,0:0:0:0:
240,148,21468,2,4,B|496:372|496:372|544:372,1,355.500005715787
256,192,22027,1,0,0:0:0:0:
256,192,22306,1,8,0:0:0:0:
256,192,22445,1,0,0:0:0:0:
256,192,22515,1,0,0:0:0:0:
256,192,22585,1,0,0:0:0:0:
256,192,22724,1,0,0:0:0:0:
256,192,22864,1,8,0:0:0:0:
256,192,23143,1,0,0:0:0:0:
256,192,23282,1,0,0:0:0:0:
256,192,23422,1,8,0:0:0:0:
256,192,23561,1,8,0:0:0:0:
256,192,23701,1,0,0:0:0:0:
256,192,23980,1,8,0:0:0:0:
256,192,24120,1,0,0:0:0:0:
256,192,24259,1,0,0:0:0:0:
256,192,24538,1,8,0:0:0:0:
256,192,24678,1,8,0:0:0:0:
256,192,24747,1,8,0:0:0:0:
256,192,24817,1,8,0:0:0:0:
256,192,24957,1,0,0:0:0:0:
256,192,25096,1,8,0:0:0:0:
256,192,25375,1,8,0:0:0:0:
256,192,25515,1,8,0:0:0:0:
256,192,25584,1,8,0:0:0:0:
256,192,25654,1,8,0:0:0:0:
256,192,25794,1,0,0:0:0:0:
256,192,25933,1,8,0:0:0:0:
256,192,26213,1,8,0:0:0:0:
256,192,26352,1,8,0:0:0:0:
256,192,26492,1,0,0:0:0:0:
256,192,26771,1,8,0:0:0:0:
256,192,26910,1,0,0:0:0:0:
256,192,26980,1,0,0:0:0:0:
256,192,27050,1,0,0:0:0:0:
256,192,27189,1,8,0:0:0:0:
256,192,27329,1,0,0:0:0:0:
256,192,27608,1,0,0:0:0:0:
256,192,27678,1,0,0:0:0:0:
256,192,27747,1,0,0:0:0:0:
256,192,27887,1,8,0:0:0:0:
256,192,28026,1,0,0:0:0:0:
256,192,28166,1,8,0:0:0:0:
256,192,28445,1,8,0:0:0:0:
256,192,28585,1,0,0:0:0:0:
256,192,28724,1,0,0:0:0:0:
256,192,29003,1,0,0:0:0:0:
256,192,29143,1,8,0:0:0:0:
256,192,29213,1,8,0:0:0:0:
256,192,29282,1,8,0:0:0:0:
256,192,29422,1,0,0:0:0:0:
256,192,29561,1,8,0:0:0:0:
256,192,29840,1,8,0:0:0:0:
256,192,29980,1,8,0:0:0:0:
256,192,30120,1,0,0:0:0:0:
256,192,30399,1,8,0:0:0:0:
256,192,30468,1,8,0:0:0:0:
256,192,30538,1,8,0:0:0:0:
256,192,30678,1,0,0:0:0:0:
256,192,30817,1,0,0:0:0:0:
256,192,30887,1,0,0:0:0:0:
256,192,30957,1,0,0:0:0:0:
256,192,31236,1,8,0:0:0:0:
256,192,31375,1,0,0:0:0:0:
256,192,31445,1,0,0:0:0:0:
256,192,31515,1,0,0:0:0:0:
256,192,31654,1,0,0:0:0:0:
256,192,31794,1,8,0:0:0:0:
256,192,32073,1,0,0:0:0:0:
256,192,32143,1,0,0:0:0:0:
256,192,32212,1,0,0:0:0:0:
256,192,32352,1,8,0:0:0:0:
256,192,32491,1,8,0:0:0:0:
256,192,32631,1,0,0:0:0:0:
256,192,32910,1,8,0:0:0:0:
256,192,33050,1,0,0:0:0:0:
256,192,33119,1,0,0:0:0:0:
256,192,33189,1,0,0:0:0:0:
256,192,33468,1,8,0:0:0:0:
256,192,33608,1,8,0:0:0:0:
256,192,33677,1,8,0:0:0:0:
256,192,33747,1,8,0:0:0:0:
256,192,33887,1,0,0:0:0:0:
256,192,34026,1,8,0:0:0:0:
256,192,34305,1,0,0:0:0:0:
256,192,34445,1,8,0:0:0:0:
256,192,34584,1,8,0:0:0:0:
256,192,34724,1,0,0:0:0:0:
256,192,34863,1,0,0:0:0:0:
256,192,35143,1,8,0:0:0:0:
256,192,35282,1,8,0:0:0:0:
256,192,35422,1,0,0:0:0:0:
256,192,35701,1,8,0:0:0:0:
256,192,35840,1,0,0:0:0:0:
256,192,35910,1,0,0:0:0:0:
256,192,35980,1,0,0:0:0:0:
256,192,36119,1,8,0:0:0:0:
256,192,36259,1,0,0:0:0:0:
256,192,36538,1,0,0:0:0:0:
256,192,36608,1,0,0:0:0:0:
256,192,36677,1,0,0:0:0:0:
256,192,36817,1,8,0:0:0:0:
256,192,36956,1,0,0:0:0:0:
256,192,37096,1,8,0:0:0:0:
256,192,37375,1,8,0:0:0:0:
256,192,37515,1,0,0:0:0:0:
256,192,37584,1,0,0:0:0:0:
256,192,37654,1,0,0:0:0:0:
256,192,37933,1,0,0:0:0:0:
256,192,38073,1,8,0:0:0:0:
256,192,38143,1,8,0:0:0:0:
256,192,38212,1,8,0:0:0:0:
256,192,38352,1,0,0:0:0:0:
256,192,38491,1,8,0:0:0:0:
256,192,38631,1,8,0:0:0:0:
256,192,39887,1,8,0:0:0:0:
256,192,40166,1,0,0:0:0:0:
256,192,40305,1,0,0:0:0:0:
256,192,40445,1,8,0:0:0:0:
256,192,40724,1,8,0:0:0:0:
256,192,40863,1,8,0:0:0:0:
256,192,41142,1,0,0:0:0:0:
256,192,41282,1,0,0:0:0:0:
256,192,41561,1,8,0:0:0:0:
256,192,41840,1,8,0:0:0:0:
256,192,42119,1,8,0:0:0:0:
256,192,42259,1,8,0:0:0:0:
256,192,42398,1,0,0:0:0:0:
256,192,42677,1,8,0:0:0:0:
256,192,42817,1,8,0:0:0:0:
256,192,42956,1,0,0:0:0:0:
256,192,43096,1,8,0:0:0:0:
256,192,43375,1,8,0:0:0:0:
256,192,43445,1,8,0:0:0:0:
256,192,43514,1,8,0:0:0:0:
256,192,43654,1,8,0:0:0:0:
256,192,43793,1,0,0:0:0:0:
256,192,44073,1,8,0:0:0:0:
256,192,44352,1,8,0:0:0:0:
256,192,44631,1,0,0:0:0:0:
256,192,44700,1,0,0:0:0:0:
256,192,44770,1,0,0:0:0:0:
256,192,44910,1,8,0:0:0:0:
256,192,45189,1,8,0:0:0:0:
256,192,45328,1,0,0:0:0:0:
256,192,45607,1,0,0:0:0:0:
256,192,45677,1,0,0:0:0:0:
256,192,45747,1,0,0:0:0:0:
256,192,45886,1,8,0:0:0:0:
256,192,46166,1,8,0:0:0:0:
256,192,46305,1,8,0:0:0:0:
256,192,46445,1,0,0:0:0:0:
256,192,46584,1,8,0:0:0:0:
256,192,46863,1,8,0:0:0:0:
256,192,46933,1,8,0:0:0:0:
256,192,47003,1,8,0:0:0:0:
256,192,47142,1,8,0:0:0:0:
256,192,47282,1,0,0:0:0:0:
256,192,47421,1,8,0:0:0:0:
256,192,47561,1,0,0:0:0:0:
256,192,47840,1,0,0:0:0:0:
256,192,47980,1,8,0:0:0:0:
256,192,48259,1,8,0:0:0:0:
256,192,48398,1,8,0:0:0:0:
256,192,48538,1,0,0:0:0:0:
256,192,48677,1,8,0:0:0:0:
256,192,48817,1,8,0:0:0:0:
256,192,49096,1,0,0:0:0:0:
256,192,49235,1,0,0:0:0:0:
256,192,49375,1,8,0:0:0:0:
256,192,49654,1,8,0:0:0:0:
256,192,49793,1,8,0:0:0:0:
256,192,50072,1,0,0:0:0:0:
256,192,50142,1,0,0:0:0:0:
256,192,50212,1,0,0:0:0:0:
256,192,50352,1,0,0:0:0:0:
256,192,50491,1,8,0:0:0:0:
256,192,50770,1,8,0:0:0:0:
256,192,51049,1,8,0:0:0:0:
256,192,51189,1,8,0:0:0:0:
256,192,51328,1,0,0:0:0:0:
256,192,51607,1,8,0:0:0:0:
256,192,51677,1,8,0:0:0:0:
256,192,51747,1,8,0:0:0:0:
256,192,51886,1,0,0:0:0:0:
256,192,52026,1,8,0:0:0:0:
256,192,52305,1,8,0:0:0:0:
256,192,52375,1,8,0:0:0:0:
256,192,52444,1,8,0:0:0:0:
256,192,52584,1,8,0:0:0:0:
256,192,52723,1,0,0:0:0:0:
256,192,53003,1,8,0:0:0:0:
256,192,53282,1,8,0:0:0:0:
256,192,53561,1,0,0:0:0:0:
256,192,53631,1,0,0:0:0:0:
256,192,53700,1,0,0:0:0:0:
256,192,53840,1,8,0:0:0:0:
256,192,53980,1,0,0:0:0:0:
256,192,54119,1,8,0:0:0:0:
256,192,54189,1,8,0:0:0:0:
256,192,54259,1,8,0:0:0:0:
256,192,54538,1,0,0:0:0:0:
256,192,54607,1,0,0:0:0:0:
256,192,54677,1,0,0:0:0:0:
256,192,54817,1,8,0:0:0:0:
256,192,55096,1,8,0:0:0:0:
256,192,55235,1,8,0:0:0:0:
256,192,55375,1,0,0:0:0:0:
256,192,55514,1,8,0:0:0:0:
256,192,55584,1,8,0:0:0:0:
256,192,55654,1,8,0:0:0:0:
256,192,55793,1,0,0:0:0:0:
256,192,56073,1,8,0:0:0:0:
256,192,56142,1,8,0:0:0:0:
256,192,56212,1,8,0:0:0:0:
256,192,56352,1,8,0:0:0:0:
256,192,56491,1,0,0:0:0:0:
256,192,56910,1,0,0:0:0:0:
256,192,57189,1,8,0:0:0:0:
256,192,57328,1,8,0:0:0:0:
256,192,57468,1,8,0:0:0:0:
256,192,57747,1,12,0:0:0:0:
256,192,58305,1,0,0:0:0:0:
256,192,58724,1,8,0:0:0:0:
256,192,59142,1,8,0:0:0:0:
256,192,59421,1,8,0:0:0:0:
256,192,59980,1,0,0:0:0:0:
256,192,60538,1,0,0:0:0:0:
256,192,60817,1,8,0:0:0:0:
256,192,61375,1,0,0:0:0:0:
256,192,61654,1,8,0:0:0:0:
256,192,62212,1,0,0:0:0:0:
256,192,62770,1,0,0:0:0:0:
256,192,63049,1,0,0:0:0:0:
256,192,63189,1,8,0:0:0:0:
256,192,63607,1,8,0:0:0:0:
256,192,63886,1,8,0:0:0:0:
256,192,64166,1,8,0:0:0:0:
256,192,64305,1,8,0:0:0:0:
256,192,64445,1,0,0:0:0:0:
256,192,65003,1,0,0:0:0:0:
256,192,65421,1,8,0:0:0:0:
256,192,65840,1,0,0:0:0:0:
256,192,66119,1,0,0:0:0:0:
256,192,66398,1,0,0:0:0:0:
256,192,66677,1,8,0:0:0:0:
256,192,66956,1,8,0:0:0:0:
256,192,67096,1,0,0:0:0:0:
256,192,67235,1,8,0:0:0:0:
256,192,67514,1,8,0:0:0:0:
256,192,67654,1,8,0:0:0:0:
256,192,67933,1,0,0:0:0:0:
256,192,68073,1,8,0:0:0:0:
256,192,68352,1,8,0:0:0:0:
256,192,68631,1,0,0:0:0:0:
256,192,68770,1,8,0:0:0:0:
256,192,68910,1,0,0:0:0:0:
256,192,69189,1,0,0:0:0:0:
256,192,69329,1,0,0:0:0:0:
256,192,69468,1,8,0:0:0:0:
256,192,69747,1,0,0:0:0:0:
256,192,69887,1,8,0:0:0:0:
256,192,70166,1,0,0:0:0:0:
256,192,70306,1,0,0:0:0:0:
256,192,70585,1,8,0:0:0:0:
256,192,70864,1,8,0:0:0:0:
256,192,71003,1,8,0:0:0:0:
256,192,71143,1,0,0:0:0:0:
256,192,71421,1,0,0:0:0:0:
256,192,71561,1,0,0:0:0:0:
256,192,71700,1,0,0:0:0:0:
256,192,71980,1,8,0:0:0:0:
256,192,72119,1,8,0:0:0:0:
256,192,72538,1,0,0:0:0:0:
256,192,72817,1,8,0:0:0:0:
256,192,73096,1,8,0:0:0:0:
256,192,73235,1,8,0:0:0:0:
256,192,73375,1,0,0:0:0:0:
256,192,73654,1,0,0:0:0:0:
256,192,73793,1,0,0:0:0:0:
256,192,73933,1,0,0:0:0:0:
256,192,74073,1,8,0:0:0:0:
256,192,74212,1,0,0:0:0:0:
256,192,74352,1,8,0:0:0:0:
256,192,74770,1,0,0:0:0:0:
256,192,75049,1,8,0:0:0:0:
256,192,75328,1,0,0:0:0:0:
256,192,75607,1,8,0:0:0:0:
256,192,75886,1,0,0:0:0:0:
256,192,76025,1,0,0:0:0:0:
256,192,76165,1,8,0:0:0:0:
256,192,76305,1,0,0:0:0:0:
256,192,76444,1,8,0:0:0:0:
256,192,76583,1,8,0:0:0:0:
256,192,76863,1,0,0:0:0:0:
256,192,77002,1,0,0:0:0:0:
256,192,77281,1,8,0:0:0:0:
256,192,77560,1,8,0:0:0:0:
256,192,77839,1,0,0:0:0:0:
256,192,77979,1,0,0:0:0:0:
256,192,78118,1,0,0:0:0:0:
256,192,78397,1,8,0:0:0:0:
256,192,78538,1,0,0:0:0:0:
256,192,78676,1,0,0:0:0:0:
256,192,78817,1,8,0:0:0:0:
256,192,79095,1,0,0:0:0:0:
256,192,79235,1,0,0:0:0:0:
256,192,79374,1,8,0:0:0:0:
256,192,79514,1,8,0:0:0:0:
256,192,79793,1,8,0:0:0:0:
256,192,80073,1,0,0:0:0:0:
256,192,80352,1,0,0:0:0:0:
256,192,80491,1,8,0:0:0:0:
256,192,80631,1,0,0:0:0:0:
256,192,80771,1,0,0:0:0:0:
256,192,80910,1,8,0:0:0:0:
256,192,81049,1,8,0:0:0:0:
256,192,81328,1,8,0:0:0:0:
256,192,81468,1,0,0:0:0:0:
256,192,81747,1,8,0:0:0:0:
256,192,82026,1,8,0:0:0:0:
256,192,82305,1,0,0:0:0:0:
256,192,82445,1,0,0:0:0:0:
256,192,82584,1,0,0:0:0:0:
256,192,82863,1,8,0:0:0:0:
256,192,83004,1,8,0:0:0:0:
256,192,83143,1,0,0:0:0:0:
256,192,83282,1,8,0:0:0:0:
256,192,83561,1,0,0:0:0:0:
256,192,83701,1,8,0:0:0:0:
256,192,83840,1,0,0:0:0:0:
256,192,83980,1,8,0:0:0:0:
256,192,84259,1,8,0:0:0:0:
256,192,84538,1,0,0:0:0:0:
256,192,84677,1,0,0:0:0:0:
256,192,84817,1,8,0:0:0:0:
256,192,85096,1,8,0:0:0:0:
256,192,85235,1,8,0:0:0:0:
256,192,85375,1,0,0:0:0:0:
256,192,85514,1,8,0:0:0:0:
256,192,85793,1,0,0:0:0:0:
256,192,85933,1,8,0:0:0:0:
256,192,86073,1,0,0:0:0:0:
256,192,86212,1,8,0:0:0:0:
256,192,86491,1,8,0:0:0:0:
256,192,86631,1,8,0:0:0:0:
256,192,86770,1,0,0:0:0:0:
256,192,87049,1,0,0:0:0:0:
256,192,87189,1,8,0:0:0:0:
256,192,87328,1,0,0:0:0:0:
256,192,87468,1,0,0:0:0:0:
256,192,87607,1,8,0:0:0:0:
256,192,87747,1,8,0:0:0:0:
256,192,88026,1,0,0:0:0:0:
256,192,88166,1,8,0:0:0:0:
256,192,88305,1,0,0:0:0:0:
256,192,88445,1,8,0:0:0:0:
256,192,88724,1,0,0:0:0:0:
256,192,88863,1,8,0:0:0:0:
256,192,89003,1,0,0:0:0:0:
256,192,89282,1,0,0:0:0:0:
256,192,89422,1,0,0:0:0:0:
256,192,89561,1,0,0:0:0:0:
256,192,89700,1,8,0:0:0:0:
256,192,89840,1,0,0:0:0:0:
256,192,89980,1,8,0:0:0:0:
256,192,90259,1,0,0:0:0:0:
256,192,90398,1,0,0:0:0:0:
256,192,90677,1,8,0:0:0:0:
256,192,90956,1,0,0:0:0:0:
256,192,91096,1,8,0:0:0:0:
256,192,91235,1,8,0:0:0:0:
256,192,91514,1,0,0:0:0:0:
256,192,91654,1,8,0:0:0:0:
256,192,91793,1,0,0:0:0:0:
256,192,91933,1,0,0:0:0:0:
256,192,92073,1,8,0:0:0:0:
256,192,92212,1,8,0:0:0:0:
256,192,92491,1,0,0:0:0:0:
256,192,92631,1,8,0:0:0:0:
256,192,92910,1,8,0:0:0:0:
256,192,93189,1,8,0:0:0:0:
256,192,93468,1,4,0:0:0:0:
256,192,94026,1,0,0:0:0:0:
256,192,94584,1,0,0:0:0:0:
256,192,95142,2,0,L|480:320,1,248.849986913878
256,192,95701,1,0,0:0:0:0:
256,192,95980,1,8,0:0:0:0:
256,192,96119,1,0,0:0:0:0:
256,192,96189,1,0,0:0:0:0:
256,192,96259,1,0,0:0:0:0:
256,192,96398,1,0,0:0:0:0:
256,192,96538,1,8,0:0:0:0:
256,192,96817,1,0,0:0:0:0:
256,192,96956,1,0,0:0:0:0:
256,192,97096,1,8,0:0:0:0:
256,192,97235,1,8,0:0:0:0:
256,192,97375,1,0,0:0:0:0:
256,192,97654,1,8,0:0:0:0:
256,192,97794,1,0,0:0:0:0:
256,192,97863,1,0,0:0:0:0:
256,192,97933,1,0,0:0:0:0:
256,192,98212,1,8,0:0:0:0:
256,192,98352,1,8,0:0:0:0:
256,192,98421,1,8,0:0:0:0:
256,192,98491,1,8,0:0:0:0:
256,192,98631,1,0,0:0:0:0:
256,192,98770,1,8,0:0:0:0:
256,192,99049,1,8,0:0:0:0:
256,192,99189,1,8,0:0:0:0:
256,192,99258,1,8,0:0:0:0:
256,192,99328,1,8,0:0:0:0:
256,192,99468,1,0,0:0:0:0:
256,192,99607,1,8,0:0:0:0:
256,192,99887,1,8,0:0:0:0:
256,192,100026,1,8,0:0:0:0:
256,192,100166,1,0,0:0:0:0:
256,192,100445,1,8,0:0:0:0:
256,192,100584,1,0,0:0:0:0:
256,192,100654,1,0,0:0:0:0:
256,192,100724,1,0,0:0:0:0:
256,192,100863,1,8,0:0:0:0:
256,192,101003,1,0,0:0:0:0:
256,192,101282,1,0,0:0:0:0:
256,192,101352,1,0,0:0:0:0:
256,192,101421,1,0,0:0:0:0:
256,192,101561,1,8,0:0:0:0:
256,192,101700,1,0,0:0:0:0:
256,192,101840,1,8,0:0:0:0:
256,192,102119,1,8,0:0:0:0:
256,192,102259,1,0,0:0:0:0:
256,192,102398,1,0,0:0:0:0:
256,192,102677,1,0,0:0:0:0:
256,192,102817,1,8,0:0:0:0:
256,192,102887,1,8,0:0:0:0:
256,192,102956,1,8,0:0:0:0:
256,192,103096,1,0,0:0:0:0:
256,192,103235,1,8,0:0:0:0:
256,192,103514,1,8,0:0:0:0:
256,192,103584,1,8,0:0:0:0:
256,192,103654,1,8,0:0:0:0:
256,192,103794,1,0,0:0:0:0:
256,192,104073,1,8,0:0:0:0:
256,192,104142,1,8,0:0:0:0:
256,192,104212,1,8,0:0:0:0:
256,192,104352,1,0,0:0:0:0:
256,192,104491,1,0,0:0:0:0:
256,192,104561,1,0,0:0:0:0:
256,192,104631,1,0,0:0:0:0:
256,192,104910,1,8,0:0:0:0:
256,192,105049,1,0,0:0:0:0:
256,192,105119,1,0,0:0:0:0:
256,192,105189,1,0,0:0:0:0:
256,192,105328,1,0,0:0:0:0:
256,192,105468,1,8,0:0:0:0:
256,192,105747,1,0,0:0:0:0:
256,192,105817,1,0,0:0:0:0:
256,192,105886,1,0,0:0:0:0:
256,192,106026,1,8,0:0:0:0:
256,192,106165,1,8,0:0:0:0:
256,192,106305,1,0,0:0:0:0:
256,192,106584,1,8,0:0:0:0:
256,192,106724,1,0,0:0:0:0:
256,192,106793,1,0,0:0:0:0:
256,192,106863,1,0,0:0:0:0:
256,192,107142,1,8,0:0:0:0:
256,192,107282,1,8,0:0:0:0:
256,192,107351,1,8,0:0:0:0:
256,192,107421,1,8,0:0:0:0:
256,192,107561,1,0,0:0:0:0:
256,192,107700,1,8,0:0:0:0:
256,192,107979,1,0,0:0:0:0:
256,192,108119,1,8,0:0:0:0:
256,192,108258,1,8,0:0:0:0:
256,192,108398,1,0,0:0:0:0:
256,192,108537,1,0,0:0:0:0:
256,192,108817,1,8,0:0:0:0:
256,192,108956,1,8,0:0:0:0:
256,192,109096,1,0,0:0:0:0:
256,192,109375,1,8,0:0:0:0:
256,192,109514,1,0,0:0:0:0:
256,192,109584,1,0,0:0:0:0:
256,192,109654,1,0,0:0:0:0:
256,192,109793,1,8,0:0:0:0:
256,192,109933,1,0,0:0:0:0:
256,192,110212,1,0,0:0:0:0:
256,192,110282,1,0,0:0:0:0:
256,192,110351,1,0,0:0:0:0:
256,192,110491,1,8,0:0:0:0:
256,192,110630,1,0,0:0:0:0:
256,192,110770,1,8,0:0:0:0:
256,192,111049,1,8,0:0:0:0:
256,192,111189,1,0,0:0:0:0:
256,192,111258,1,0,0:0:0:0:
256,192,111328,1,0,0:0:0:0:
256,192,111607,1,0,0:0:0:0:
256,192,111747,1,8,0:0:0:0:
256,192,111817,1,8,0:0:0:0:
256,192,111886,1,8,0:0:0:0:
256,192,112026,1,0,0:0:0:0:
256,192,112166,1,8,0:0:0:0:
256,192,112305,1,8,0:0:0:0:
256,192,113003,1,0,0:0:0:0:
256,192,113073,1,0,0:0:0:0:
256,192,113142,1,0,0:0:0:0:
256,192,113282,2,4,L|368:264,1,118.500001905262
256,192,113561,1,0,0:0:0:0:
256,192,113840,1,0,0:0:0:0:
256,192,113909,1,0,0:0:0:0:
256,192,113979,1,0,0:0:0:0:
256,192,114119,1,0,0:0:0:0:
256,192,114398,1,8,0:0:0:0:
256,192,114537,1,0,0:0:0:0:
256,192,114817,1,0,0:0:0:0:
256,192,114886,1,0,0:0:0:0:
256,192,114956,1,0,0:0:0:0:
256,192,115095,1,8,0:0:0:0:
256,192,115374,1,8,0:0:0:0:
256,192,115514,1,8,0:0:0:0:
256,192,115654,1,0,0:0:0:0:
256,192,115723,1,0,0:0:0:0:
256,192,115793,1,0,0:0:0:0:
256,192,115933,1,0,0:0:0:0:
256,192,116072,1,8,0:0:0:0:
256,192,116142,1,8,0:0:0:0:
256,192,116212,1,8,0:0:0:0:
256,192,116351,1,8,0:0:0:0:
256,192,116630,1,8,0:0:0:0:
256,192,116770,1,0,0:0:0:0:
256,192,117049,1,0,0:0:0:0:
256,192,117119,1,0,0:0:0:0:
256,192,117189,1,0,0:0:0:0:
256,192,117328,1,8,0:0:0:0:
256,192,117607,1,8,0:0:0:0:
256,192,117677,1,8,0:0:0:0:
256,192,117747,1,8,0:0:0:0:
256,192,118026,1,8,0:0:0:0:
256,192,118305,1,0,0:0:0:0:
256,192,118444,1,8,0:0:0:0:
256,192,118514,1,8,0:0:0:0:
256,192,118584,1,8,0:0:0:0:
256,192,118863,1,8,0:0:0:0:
256,192,119003,1,8,0:0:0:0:
256,192,119282,1,0,0:0:0:0:
256,192,119351,1,0,0:0:0:0:
256,192,119421,1,0,0:0:0:0:
256,192,119561,1,8,0:0:0:0:
256,192,119840,1,0,0:0:0:0:
256,192,119979,1,8,0:0:0:0:
256,192,120119,1,0,0:0:0:0:
256,192,120258,1,8,0:0:0:0:
256,192,120328,1,8,0:0:0:0:
256,192,120398,1,8,0:0:0:0:
256,192,120537,1,8,0:0:0:0:
256,192,120817,1,8,0:0:0:0:
256,192,120886,1,8,0:0:0:0:
256,192,120956,1,8,0:0:0:0:
256,192,121096,1,0,0:0:0:0:
256,192,121165,1,0,0:0:0:0:
256,192,121235,1,0,0:0:0:0:
256,192,121514,1,8,0:0:0:0:
256,192,121654,1,8,0:0:0:0:
256,192,121933,1,8,0:0:0:0:
256,192,122072,1,8,0:0:0:0:
256,192,122212,1,0,0:0:0:0:
256,192,122491,1,8,0:0:0:0:
256,192,122770,1,0,0:0:0:0:
256,192,122909,1,0,0:0:0:0:
256,192,123049,1,8,0:0:0:0:
256,192,123328,1,8,0:0:0:0:
256,192,123467,1,8,0:0:0:0:
256,192,123747,1,8,0:0:0:0:
256,192,123886,1,0,0:0:0:0:
256,192,124026,1,0,0:0:0:0:
256,192,124165,1,8,0:0:0:0:
256,192,124444,1,8,0:0:0:0:
256,192,124584,1,0,0:0:0:0:
256,192,124723,1,8,0:0:0:0:
256,192,125002,1,0,0:0:0:0:
256,192,125142,1,8,0:0:0:0:
256,192,125281,1,8,0:0:0:0:
256,192,125560,1,8,0:0:0:0:
256,192,125700,1,0,0:0:0:0:
256,192,125979,1,0,0:0:0:0:
256,192,126118,1,8,0:0:0:0:
256,192,126258,1,8,0:0:0:0:
256,192,126537,1,0,0:0:0:0:
256,192,126677,1,8,0:0:0:0:
256,192,126816,1,0,0:0:0:0:
256,192,126956,1,8,0:0:0:0:
256,192,127235,1,0,0:0:0:0:
256,192,127374,1,0,0:0:0:0:
256,192,127514,1,8,0:0:0:0:
256,192,127793,1,8,0:0:0:0:
256,192,127932,1,8,0:0:0:0:
256,192,128212,1,8,0:0:0:0:
256,192,128351,1,0,0:0:0:0:
256,192,128491,1,8,0:0:0:0:
256,192,128770,1,0,0:0:0:0:
256,192,128909,1,0,0:0:0:0:
256,192,129049,1,8,0:0:0:0:
256,192,129188,1,8,0:0:0:0:
256,192,129467,1,0,0:0:0:0:
256,192,129607,1,0,0:0:0:0:
256,192,129746,1,8,0:0:0:0:
256,192,129886,1,0,0:0:0:0:
256,192,130026,1,8,0:0:0:0:
256,192,130165,1,0,0:0:0:0:
256,192,130583,1,8,0:0:0:0:
256,192,130862,1,0,0:0:0:0:
256,192,131002,1,0,0:0:0:0:
256,192,131142,1,8,0:0:0:0:
256,192,131421,1,4,0:0:0:0:
