osu file format v14

[General]
AudioFilename: audio.mp3
AudioLeadIn: 0
PreviewTime: 95701
Countdown: 1
SampleSet: Normal
StackLeniency: 0.7
Mode: 1
LetterboxInBreaks: 0
WidescreenStoryboard: 0

[Editor]
DistanceSpacing: 1
BeatDivisor: 4
GridSize: 4
TimelineZoom: 1

[Metadata]
Title:Marble Dove
TitleUnicode:Marble Dove
Artist:Kobaryo
ArtistUnicode:Kobaryo
Creator:heitonto
Version:Incomprehensible Madness
Source:
Tags:The Psycho Blast Vol. 4 kobaryo 430 bpm hard fast rankeable maybe?
BeatmapID:4554675
BeatmapSetID:2160025

[Difficulty]
HPDrainRate:2.9
CircleSize:7
OverallDifficulty:8.7
ApproachRate:8
SliderMultiplier:1.84999995730817
SliderTickRate:1

[Events]
//Background and Video events
0,0,"hqdefault-transformed.jpeg",0,0
//Break Periods
//Storyboard Layer 0 (Background)
//Storyboard Layer 1 (Fail)
//Storyboard Layer 2 (Pass)
//Storyboard Layer 3 (Foreground)
//Storyboard Layer 4 (Overlay)
//Storyboard Sound Samples

[TimingPoints]
1934,279.06976744186,4,1,0,100,1,0
9608,-83.3333333333333,4,1,0,100,0,0
10863,-90.90909,4,1,0,100,0,0
11002,-90.24388,4,1,0,100,0,0
11142,-89.578804,4,1,0,100,0,0
11212,-89.2481,4,1,0,100,0,0
11281,-88.92332,4,1,0,100,0,0
11351,-88.59505,4,1,0,100,0,0
11421,-88.267975,4,1,0,100,0,0
11560,-87.62209,4,1,0,100,0,0
11630,-87.298615,4,1,0,100,0,0
11700,-86.97634,4,1,0,100,0,0
11840,-86.335335,4,1,0,100,0,0
11909,-86.02116,4,1,0,100,0,0
11979,-85.7036,4,1,0,100,0,0
12119,-85.07198,4,1,0,100,0,0
12258,-84.44948,4,1,0,100,0,0
12328,-84.13772,4,1,0,100,0,0
12398,-83.82711,4,1,0,100,0,0
12467,-83.52206,4,1,0,100,0,0
12537,-83.21372,4,1,0,100,0,0
12677,-82.60046,4,1,0,100,0,0
12747,-82.2955,4,1,0,100,0,0
12816,-81.99603,4,1,0,100,0,0
12886,-81.69334,4,1,0,100,0,0
12956,-81.39174,4,1,0,100,0,0
13026,-81.09128,4,1,0,100,0,0
13095,-80.79617,4,1,0,100,0,0
13235,-80.20072,4,1,0,100,0,0
13374,-79.61386,4,1,0,100,0,0
13444,-79.319954,4,1,0,100,0,0
13514,-79.02713,4,1,0,100,0,0
13584,-78.73539,4,1,0,100,0,0
13654,-78.44472,4,1,0,100,0,0
13723,-78.159256,4,1,0,100,0,0
13793,-77.87071,4,1,0,100,0,0
13933,-77.29682,4,1,0,100,0,0
14072,-76.731224,4,1,0,100,0,0
14212,-76.165726,4,1,0,100,0,0
14351,-75.6084,4,1,0,100,0,0
14421,-75.32927,4,1,0,100,0,0
14491,-75.05118,4,1,0,100,0,0
14560,-74.77806,4,1,0,100,0,0
14630,-74.502,4,1,0,100,0,0
14700,-74.22696,4,1,0,100,0,0
14770,-73.952934,4,1,0,100,0,0
14840,-73.67993,4,1,0,100,0,0
14909,-73.4118,4,1,0,100,0,0
14979,-73.140785,4,1,0,100,0,0
15049,-72.87077,4,1,0,100,0,0
15119,-72.60175,4,1,0,100,0,0
15188,-72.337555,4,1,0,100,0,0
15258,-72.07051,4,1,0,100,0,0
15328,-71.80444,4,1,0,100,0,0
15467,-71.27902,4,1,0,100,0,0
15537,-71.015884,4,1,0,100,0,0
15607,-70.753716,4,1,0,100,0,0
15747,-70.23227,4,1,0,100,0,0
15886,-69.71836,4,1,0,100,0,0
15956,-69.46098,4,1,0,100,0,0
16026,-69.20455,4,1,0,100,0,0
16095,-68.95271,4,1,0,100,0,0
16165,-68.69816,4,1,0,100,0,0
16305,-68.191864,4,1,0,100,0,0
16444,-67.692894,4,1,0,100,0,0
16514,-67.442986,4,1,0,100,0,0
16584,-67.194016,4,1,0,100,0,0
16654,-66.945946,4,1,0,100,0,0
16723,-66.702324,4,1,0,100,0,0
16793,-66.45608,4,1,0,100,0,0
16863,-66.21075,4,1,0,100,0,0
16933,-65.96632,4,1,0,100,0,0
17002,-65.72626,4,1,0,100,0,0
17072,-65.48362,4,1,0,100,0,0
17142,-65.241875,4,1,0,100,0,0
17212,-65.001015,4,1,0,100,0,0
17281,-64.76448,4,1,0,100,0,0
17421,-64.28717,4,1,0,100,0,0
17560,-63.816757,4,1,0,100,0,0
17607,-63.65848,4,1,0,100,0,0
17654,-63.5006,4,1,0,100,0,0
17700,-63.34645,4,1,0,100,0,0
17770,-63.11259,4,1,0,100,0,0
17840,-62.879597,4,1,0,100,0,0
17886,-62.72696,4,1,0,100,0,0
17933,-62.571377,4,1,0,100,0,0
17979,-62.419483,4,1,0,100,0,0
18049,-62.189053,4,1,0,100,0,0
18119,-61.95947,4,1,0,100,0,0
18165,-61.809063,4,1,0,100,0,0
18212,-61.655758,4,1,0,100,0,0
18258,-61.506092,4,1,0,100,0,0
18328,-61.279026,4,1,0,100,0,0
18398,-61.05281,4,1,0,100,0,0
18444,-60.9046,4,1,0,100,0,0
18491,-60.75354,4,1,0,100,0,0
18537,-60.60606,4,1,0,100,0,0
18608,-111.111111111111,4,1,0,100,0,0
19794,-90.9090909090909,4,1,0,100,0,0
21468,-62.5,4,1,0,100,0,0
22027,139.53488372093,4,1,0,100,1,1
22027,-133.333333333333,4,1,0,100,0,1
38806,-200,4,1,0,100,0,0
39887,279.06976744186,4,1,0,100,1,0
44352,-83.3333333333333,4,1,0,100,0,1
47561,-133.333333333333,4,1,0,100,0,0
48817,-100,4,1,0,100,0,0
52724,-90.9090909090909,4,1,0,100,0,0
52864,-86.9565217391304,4,1,0,100,0,0
53003,-83.3333333333333,4,1,0,100,0,0
53143,-80,4,1,0,100,0,0
53282,-76.9230769230769,4,1,0,100,0,1
56492,-133.333333333333,4,1,0,100,0,0
57748,-125,4,1,0,100,0,0
71143,-111.111111111111,4,1,0,100,0,0
73375,-100,4,1,0,100,0,0
75608,-90.9090909090909,4,1,0,100,0,0
84538,-86.9565217391304,4,1,0,100,0,0
92352,-100,4,1,0,100,0,0
93468,-125,4,1,0,100,0,0
95143,-62.5,4,1,0,100,0,0
95701,139.53488372093,4,1,0,100,1,1
95701,-133.333333333333,4,1,0,100,0,1
112445,-200,4,1,0,100,0,0
113003,-125,4,1,0,100,0,0
113282,-100,4,1,0,100,0,0
113561,279.06976744186,4,1,0,100,1,1
113561,-83.3333333333333,4,1,0,100,0,1
121236,-133.333333333333,4,1,0,100,0,0
122490,-99.995,4,1,0,100,0,0
122630,-100.69724,4,1,0,100,0,0
122770,-101.40442,4,1,0,100,0,0
122909,-102.11145,4,1,0,100,0,0
123049,-102.82856,4,1,0,100,0,0
123188,-103.545525,4,1,0,100,0,0
123328,-104.272705,4,1,0,100,0,0
123467,-104.99974,4,1,0,100,0,0
123747,-106.47969,4,1,0,100,0,0
123886,-107.22211,4,1,0,100,0,0
124026,-107.97511,4,1,0,100,0,0
124165,-108.72796,4,1,0,100,0,0
124305,-109.49153,4,1,0,100,0,0
124444,-110.25496,4,1,0,100,0,0
124584,-111.02925,4,1,0,100,0,0
124723,-111.8034,4,1,0,100,0,0
124863,-112.58856,4,1,0,100,0,0
125002,-113.37359,4,1,0,100,0,0
125142,-114.16977,4,1,0,100,0,0
125281,-114.96583,4,1,0,100,0,0
125421,-115.7732,4,1,0,100,0,0
125560,-116.58042,4,1,0,100,0,0
125700,-117.39915,4,1,0,100,0,0
125979,-119.04792,4,1,0,100,0,0
126119,-119.88396,4,1,0,100,0,0
126258,-120.71984,4,1,0,100,0,0
126398,-121.56764,4,1,0,100,0,0
126537,-122.41526,4,1,0,100,0,0
126677,-123.274956,4,1,0,100,0,0
126816,-124.134476,4,1,0,100,0,0
126954,-125,4,1,0,100,0,0
127235,-120.44741,4,1,0,100,0,0
127374,-118.257095,4,1,0,100,0,0
127514,-116.09128,4,1,0,100,0,0
127654,-113.96513,4,1,0,100,0,0
127793,-111.8927,4,1,0,100,0,0
127933,-109.843445,4,1,0,100,0,0
128212,-105.87082,4,1,0,100,0,0
128351,-103.94557,4,1,0,100,0,0
128491,-102.04187,4,1,0,100,0,0
128630,-100.18625,4,1,0,100,0,0
128770,-98.35139,4,1,0,100,0,0
128909,-96.56288,4,1,0,100,0,0
129049,-94.794395,4,1,0,100,0,0
129188,-93.07057,4,1,0,100,0,0
129328,-91.366035,4,1,0,100,0,0
129398,-90.52551,4,1,0,100,0,0
129467,-89.70456,4,1,0,100,0,0
129607,-88.06167,4,1,0,100,0,0
129677,-87.25154,4,1,0,100,0,0
129747,-86.44885,4,1,0,100,0,0
129816,-85.66488,4,1,0,100,0,0
129886,-84.876816,4,1,0,100,0,0
130025,-83.33333,4,1,0,100,0,0
130166,-133.333333333333,4,1,0,100,0,0
131422,-66.6666666666667,4,1,0,100,0,0

[Colours]
Combo1 : 255,192,0
Combo2 : 0,202,0
Combo3 : 18,124,255
Combo4 : 242,24,57

[HitObjects]
256,192,1934,5,0,1:1:0:0:
256,192,2073,1,0,1:0:0:0:
256,192,2213,1,8,1:1:0:0:
256,192,2352,1,0,1:0:0:0:
256,192,2492,1,8,1:1:0:0:
256,192,2631,1,0,1:0:0:0:
256,192,2771,1,0,1:0:0:0:
256,192,2910,1,8,1:1:0:0:
256,192,3189,1,0,1:0:0:0:
256,192,3329,1,8,1:1:0:0:
256,192,3468,1,0,1:0:0:0:
256,192,3608,1,8,1:1:0:0:
256,192,3748,1,8,1:1:0:0:
256,192,3887,1,8,1:1:0:0:
256,192,4027,1,0,1:0:0:0:
256,192,4166,1,8,1:1:0:0:
256,192,4306,1,8,1:1:0:0:
256,192,4445,1,8,1:1:0:0:
256,192,4585,1,0,1:0:0:0:
256,192,4724,1,8,1:1:0:0:
256,192,4864,1,8,1:1:0:0:
256,192,5003,1,0,1:0:0:0:
256,192,5143,1,8,1:1:0:0:
256,192,5422,1,0,1:0:0:0:
256,192,5561,1,8,1:1:0:0:
256,192,5701,1,8,1:1:0:0:
256,192,5841,1,8,1:1:0:0:
256,192,5980,1,0,1:0:0:0:
256,192,6120,1,0,1:0:0:0:
256,192,6399,1,8,1:1:0:0:
256,192,6538,1,8,1:1:0:0:
256,192,6678,1,0,1:0:0:0:
256,192,6817,1,8,1:1:0:0:
256,192,6957,1,8,1:1:0:0:
256,192,7096,1,0,1:0:0:0:
256,192,7236,1,0,1:0:0:0:
256,192,7375,1,8,1:1:0:0:
256,192,7655,1,8,1:1:0:0:
256,192,7794,1,0,1:0:0:0:
256,192,7934,1,0,1:0:0:0:
256,192,8073,1,8,1:1:0:0:
256,192,8213,1,8,1:1:0:0:
256,192,8352,1,0,1:0:0:0:
256,192,8631,1,8,1:1:0:0:
256,192,8771,1,8,1:1:0:0:
256,192,8910,1,0,1:0:0:0:
256,192,8980,1,0,1:0:0:0:
256,192,9050,1,8,1:1:0:0:
256,192,9189,1,8,1:1:0:0:
256,192,9329,1,0,1:0:0:0:
256,192,9399,1,0,1:0:0:0:
256,192,9468,1,8,1:1:0:0:
256,192,9608,1,12,1:1:0:0:
256,192,9887,1,0,1:0:0:0:
256,192,9957,1,0,1:0:0:0:
256,192,10027,1,8,1:1:0:0:
256,192,10096,1,0,1:0:0:0:
256,192,10166,1,0,1:0:0:0:
256,192,10236,1,8,1:1:0:0:
256,192,10306,1,0,1:0:0:0:
256,192,10375,1,0,1:0:0:0:
256,192,10445,1,8,1:1:0:0:
256,192,10515,1,0,1:0:0:0:
256,192,10585,1,8,1:1:0:0:
256,192,10655,1,8,1:1:0:0:
256,192,10724,1,0,1:0:0:0:
256,192,10794,1,0,1:0:0:0:
256,192,10864,1,8,1:1:0:0:
256,192,11003,1,0,1:0:0:0:
256,192,11143,1,8,1:1:0:0:
256,192,11213,1,0,1:0:0:0:
256,192,11282,1,8,1:1:0:0:
256,192,11352,1,8,1:1:0:0:
256,192,11422,1,0,1:0:0:0:
256,192,11561,1,0,1:0:0:0:
256,192,11631,1,8,1:1:0:0:
256,192,11701,1,0,1:0:0:0:
256,192,11841,1,8,1:1:0:0:
256,192,11910,1,8,1:1:0:0:
256,192,11980,1,0,1:0:0:0:
256,192,12120,1,0,1:0:0:0:
256,192,12259,1,8,1:1:0:0:
256,192,12329,1,8,1:1:0:0:
256,192,12399,1,0,1:0:0:0:
256,192,12468,1,8,1:1:0:0:
256,192,12538,1,8,1:1:0:0:
256,192,12678,1,0,1:0:0:0:
256,192,12748,1,8,1:1:0:0:
256,192,12817,1,8,1:1:0:0:
256,192,12887,1,8,1:1:0:0:
256,192,12957,1,0,1:0:0:0:
256,192,13027,1,0,1:0:0:0:
256,192,13096,1,8,1:1:0:0:
256,192,13236,1,0,1:0:0:0:
256,192,13375,1,8,1:1:0:0:
256,192,13445,1,8,1:1:0:0:
256,192,13515,1,0,1:0:0:0:
256,192,13585,1,8,1:1:0:0:
256,192,13655,1,8,1:1:0:0:
256,192,13724,1,8,1:1:0:0:
256,192,13794,1,0,1:0:0:0:
256,192,13934,1,0,1:0:0:0:
256,192,14073,1,8,1:1:0:0:
256,192,14213,1,0,1:0:0:0:
256,192,14352,1,0,1:0:0:0:
256,192,14422,1,0,1:0:0:0:
256,192,14492,1,8,1:1:0:0:
256,192,14561,1,0,1:0:0:0:
256,192,14631,1,0,1:0:0:0:
256,192,14701,1,0,1:0:0:0:
256,192,14771,1,8,1:1:0:0:
256,192,14841,1,8,1:1:0:0:
256,192,14910,1,0,1:0:0:0:
256,192,14980,1,8,1:1:0:0:
256,192,15050,1,8,1:1:0:0:
256,192,15120,1,0,1:0:0:0:
256,192,15189,1,8,1:1:0:0:
256,192,15259,1,8,1:1:0:0:
256,192,15329,1,8,1:1:0:0:
256,192,15468,1,0,1:0:0:0:
256,192,15538,1,0,1:0:0:0:
256,192,15608,1,8,1:1:0:0:
256,192,15748,1,8,1:1:0:0:
256,192,15887,1,8,1:1:0:0:
256,192,15957,1,0,1:0:0:0:
256,192,16027,1,0,1:0:0:0:
256,192,16096,1,0,1:0:0:0:
256,192,16166,1,8,1:1:0:0:
256,192,16306,1,8,1:1:0:0:
256,192,16445,1,0,1:0:0:0:
256,192,16515,1,0,1:0:0:0:
256,192,16585,1,0,1:0:0:0:
256,192,16655,1,0,1:0:0:0:
256,192,16724,1,8,1:1:0:0:
256,192,16794,1,8,1:1:0:0:
256,192,16864,1,0,1:0:0:0:
256,192,16934,1,0,1:0:0:0:
256,192,17003,1,8,1:1:0:0:
256,192,17073,1,0,1:0:0:0:
256,192,17143,1,8,1:1:0:0:
256,192,17213,1,8,1:1:0:0:
256,192,17282,1,0,1:0:0:0:
256,192,17422,1,0,1:0:0:0:
256,192,17561,1,0,1:0:0:0:
256,192,17608,1,0,1:0:0:0:
256,192,17655,1,0,1:0:0:0:
256,192,17701,1,8,1:1:0:0:
256,192,17771,1,0,1:0:0:0:
256,192,17841,1,8,1:1:0:0:
256,192,17887,1,8,1:1:0:0:
256,192,17934,1,8,1:1:0:0:
256,192,17980,1,0,1:0:0:0:
256,192,18050,1,8,1:1:0:0:
256,192,18120,1,8,1:1:0:0:
256,192,18166,1,8,1:1:0:0:
256,192,18213,1,0,1:0:0:0:
256,192,18259,1,0,1:0:0:0:
256,192,18329,1,0,1:0:0:0:
256,192,18399,1,8,1:1:0:0:
256,192,18445,1,8,1:1:0:0:
256,192,18492,1,8,1:1:0:0:
256,192,18538,1,0,1:0:0:0:
256,192,18817,1,0,1:0:0:0:
256,192,18957,1,0,1:0:0:0:
256,192,19096,1,8,1:1:0:0:
256,192,19236,1,0,1:0:0:0:
256,192,19375,1,8,1:1:0:0:
256,192,19515,1,8,1:1:0:0:
256,192,19794,1,8,1:1:0:0:
256,192,19934,1,0,1:0:0:0:
256,192,20073,1,8,1:1:0:0:
256,192,20143,1,8,1:1:0:0:
256,192,20213,1,0,1:0:0:0:
256,192,20282,1,8,1:1:0:0:
256,192,20352,1,0,1:0:0:0:
256,192,20492,1,0,1:0:0:0:
256,192,20631,1,8,1:1:0:0:
256,192,20701,1,0,1:0:0:0:
256,192,20771,1,8,1:1:0:0:
256,192,20841,1,8,1:1:0:0:
256,192,20910,1,0,1:0:0:0:
256,192,21050,1,0,1:0:0:0:
256,192,21120,1,0,1:0:0:0:
256,192,21189,1,8,1:1:0:0:
256,192,21259,1,0,1:0:0:0:
256,192,21329,1,8,1:1:0:0:
256,192,21399,1,8,1:1:0:0:
256,192,21468,1,0,1:0:0:0:
256,192,21515,1,0,1:0:0:0:
256,192,21561,1,0,1:0:0:0:
256,192,21608,1,0,1:0:0:0:
256,192,21655,1,0,1:0:0:0:
256,192,21701,1,0,1:0:0:0:
256,192,21748,1,0,1:0:0:0:
256,192,21794,1,0,1:0:0:0:
256,192,21841,1,0,1:0:0:0:
256,192,21887,1,0,1:0:0:0:
256,192,21934,1,0,1:0:0:0:
256,192,21980,1,0,1:0:0:0:
256,192,22027,1,8,1:1:0:0:
256,192,22096,1,8,1:1:0:0:
256,192,22131,1,8,1:1:0:0:
256,192,22166,1,0,1:0:0:0:
256,192,22236,1,0,1:0:0:0:
256,192,22271,1,0,1:0:0:0:
256,192,22306,1,8,1:1:0:0:
256,192,22375,1,0,1:0:0:0:
256,192,22445,1,8,1:1:0:0:
256,192,22515,1,0,1:0:0:0:
256,192,22585,1,8,1:1:0:0:
256,192,22620,1,8,1:1:0:0:
256,192,22655,1,8,1:1:0:0:
256,192,22689,1,8,1:1:0:0:
256,192,22724,1,0,1:0:0:0:
256,192,22794,1,0,1:0:0:0:
256,192,22864,1,8,1:1:0:0:
256,192,22899,1,0,1:0:0:0:
256,192,22934,1,8,1:1:0:0:
256,192,22968,1,8,1:1:0:0:
256,192,23003,1,8,1:1:0:0:
256,192,23073,1,0,1:0:0:0:
256,192,23143,1,8,1:1:0:0:
256,192,23213,1,8,1:1:0:0:
256,192,23282,1,0,1:0:0:0:
256,192,23352,1,0,1:0:0:0:
256,192,23422,1,8,1:1:0:0:
256,192,23457,1,8,1:1:0:0:
256,192,23492,1,0,1:0:0:0:
256,192,23527,1,0,1:0:0:0:
256,192,23561,1,8,1:1:0:0:
256,192,23631,1,0,1:0:0:0:
256,192,23666,1,0,1:0:0:0:
256,192,23701,1,8,1:1:0:0:
256,192,23736,1,0,1:0:0:0:
256,192,23771,1,8,1:1:0:0:
256,192,23841,1,8,1:1:0:0:
256,192,23875,1,8,1:1:0:0:
256,192,23910,1,8,1:1:0:0:
256,192,23945,1,8,1:1:0:0:
256,192,23980,1,0,1:0:0:0:
256,192,24050,1,0,1:0:0:0:
256,192,24120,1,8,1:1:0:0:
256,192,24189,1,8,1:1:0:0:
256,192,24259,1,8,1:1:0:0:
256,192,24294,1,8,1:1:0:0:
256,192,24329,1,0,1:0:0:0:
256,192,24364,1,0,1:0:0:0:
256,192,24399,1,8,1:1:0:0:
256,192,24468,1,8,1:1:0:0:
256,192,24538,1,0,1:0:0:0:
256,192,24573,1,0,1:0:0:0:
256,192,24608,1,8,1:1:0:0:
256,192,24643,1,0,1:0:0:0:
256,192,24678,1,8,1:1:0:0:
256,192,24748,1,8,1:1:0:0:
256,192,24782,1,8,1:1:0:0:
256,192,24817,1,0,1:0:0:0:
256,192,24887,1,0,1:0:0:0:
256,192,24922,1,0,1:0:0:0:
256,192,24957,1,8,1:1:0:0:
256,192,25027,1,8,1:1:0:0:
256,192,25096,1,8,1:1:0:0:
256,192,25166,1,0,1:0:0:0:
256,192,25236,1,8,1:1:0:0:
256,192,25271,1,8,1:1:0:0:
256,192,25306,1,0,1:0:0:0:
256,192,25341,1,0,1:0:0:0:
256,192,25375,1,8,1:1:0:0:
256,192,25445,1,8,1:1:0:0:
256,192,25515,1,0,1:0:0:0:
256,192,25585,1,0,1:0:0:0:
256,192,25655,1,8,1:1:0:0:
256,192,25724,1,0,1:0:0:0:
256,192,25794,1,8,1:1:0:0:
256,192,25829,1,0,1:0:0:0:
256,192,25864,1,0,1:0:0:0:
256,192,25899,1,0,1:0:0:0:
256,192,25934,1,8,1:1:0:0:
256,192,26003,1,8,1:1:0:0:
256,192,26073,1,0,1:0:0:0:
256,192,26143,1,0,1:0:0:0:
256,192,26213,1,8,1:1:0:0:
256,192,26282,1,0,1:0:0:0:
256,192,26352,1,8,1:1:0:0:
256,192,26422,1,8,1:1:0:0:
256,192,26492,1,8,1:1:0:0:
256,192,26527,1,8,1:1:0:0:
256,192,26561,1,8,1:1:0:0:
256,192,26596,1,8,1:1:0:0:
256,192,26631,1,0,1:0:0:0:
256,192,26701,1,0,1:0:0:0:
256,192,26771,1,8,1:1:0:0:
256,192,26806,1,0,1:0:0:0:
256,192,26841,1,8,1:1:0:0:
256,192,26875,1,8,1:1:0:0:
256,192,26910,1,0,1:0:0:0:
256,192,26980,1,0,1:0:0:0:
256,192,27050,1,8,1:1:0:0:
256,192,27085,1,8,1:1:0:0:
256,192,27120,1,0,1:0:0:0:
256,192,27155,1,0,1:0:0:0:
256,192,27189,1,8,1:1:0:0:
256,192,27259,1,0,1:0:0:0:
256,192,27329,1,8,1:1:0:0:
256,192,27364,1,8,1:1:0:0:
256,192,27399,1,0,1:0:0:0:
256,192,27434,1,0,1:0:0:0:
256,192,27468,1,8,1:1:0:0:
256,192,27538,1,8,1:1:0:0:
256,192,27608,1,0,1:0:0:0:
256,192,27643,1,0,1:0:0:0:
256,192,27678,1,8,1:1:0:0:
256,192,27713,1,0,1:0:0:0:
256,192,27748,1,8,1:1:0:0:
256,192,27817,1,8,1:1:0:0:
256,192,27887,1,8,1:1:0:0:
256,192,27922,1,0,1:0:0:0:
256,192,27957,1,0,1:0:0:0:
256,192,27992,1,0,1:0:0:0:
256,192,28027,1,8,1:1:0:0:
256,192,28096,1,8,1:1:0:0:
256,192,28166,1,0,1:0:0:0:
256,192,28201,1,0,1:0:0:0:
256,192,28236,1,8,1:1:0:0:
256,192,28271,1,0,1:0:0:0:
256,192,28306,1,8,1:1:0:0:
256,192,28341,1,8,1:1:0:0:
256,192,28375,1,0,1:0:0:0:
256,192,28445,1,8,1:1:0:0:
256,192,28515,1,0,1:0:0:0:
256,192,28585,1,8,1:1:0:0:
256,192,28620,1,8,1:1:0:0:
256,192,28655,1,8,1:1:0:0:
256,192,28689,1,8,1:1:0:0:
256,192,28724,1,0,1:0:0:0:
256,192,28759,1,0,1:0:0:0:
256,192,28794,1,0,1:0:0:0:
256,192,28864,1,8,1:1:0:0:
256,192,28934,1,0,1:0:0:0:
256,192,29003,1,8,1:1:0:0:
256,192,29038,1,8,1:1:0:0:
256,192,29073,1,0,1:0:0:0:
256,192,29143,1,8,1:1:0:0:
256,192,29213,1,0,1:0:0:0:
256,192,29248,1,0,1:0:0:0:
256,192,29282,1,8,1:1:0:0:
256,192,29352,1,0,1:0:0:0:
256,192,29422,1,8,1:1:0:0:
256,192,29492,1,0,1:0:0:0:
256,192,29527,1,0,1:0:0:0:
256,192,29561,1,8,1:1:0:0:
256,192,29631,1,8,1:1:0:0:
256,192,29701,1,0,1:0:0:0:
256,192,29736,1,0,1:0:0:0:
256,192,29771,1,8,1:1:0:0:
256,192,29806,1,0,1:0:0:0:
256,192,29841,1,8,1:1:0:0:
256,192,29910,1,8,1:1:0:0:
256,192,29945,1,8,1:1:0:0:
256,192,29980,1,0,1:0:0:0:
256,192,30050,1,2,1:1:0:0:
256,192,30120,1,8,1:1:0:0:
256,192,30189,1,8,1:1:0:0:
256,192,30259,1,0,1:0:0:0:
256,192,30329,1,8,1:1:0:0:
256,192,30399,1,0,1:0:0:0:
256,192,30434,1,0,1:0:0:0:
256,192,30468,1,0,1:0:0:0:
256,192,30503,1,0,1:0:0:0:
256,192,30538,1,8,1:1:0:0:
256,192,30608,1,0,1:0:0:0:
256,192,30643,1,0,1:0:0:0:
256,192,30678,1,8,1:1:0:0:
256,192,30748,1,0,1:0:0:0:
256,192,30817,1,8,1:1:0:0:
256,192,30852,1,8,1:1:0:0:
256,192,30887,1,0,1:0:0:0:
256,192,30922,1,8,1:1:0:0:
256,192,30957,1,0,1:0:0:0:
256,192,31027,1,0,1:0:0:0:
256,192,31096,1,8,1:1:0:0:
256,192,31131,1,8,1:1:0:0:
256,192,31166,1,8,1:1:0:0:
256,192,31201,1,8,1:1:0:0:
256,192,31236,1,0,1:0:0:0:
256,192,31306,1,0,1:0:0:0:
256,192,31341,1,0,1:0:0:0:
256,192,31375,1,8,1:1:0:0:
256,192,31410,1,8,1:1:0:0:
256,192,31445,1,8,1:1:0:0:
256,192,31515,1,0,1:0:0:0:
256,192,31585,1,0,1:0:0:0:
256,192,31655,1,8,1:1:0:0:
256,192,31689,1,8,1:1:0:0:
256,192,31724,1,0,1:0:0:0:
256,192,31759,1,0,1:0:0:0:
256,192,31794,1,8,1:1:0:0:
256,192,31864,1,8,1:1:0:0:
256,192,31934,1,0,1:0:0:0:
256,192,32003,1,8,1:1:0:0:
256,192,32073,1,8,1:1:0:0:
256,192,32108,1,0,1:0:0:0:
256,192,32143,1,0,1:0:0:0:
256,192,32178,1,0,1:0:0:0:
256,192,32213,1,8,1:1:0:0:
256,192,32282,1,0,1:0:0:0:
256,192,32352,1,8,1:1:0:0:
256,192,32387,1,8,1:1:0:0:
256,192,32422,1,8,1:1:0:0:
256,192,32457,1,8,1:1:0:0:
256,192,32492,1,0,1:0:0:0:
256,192,32527,1,0,1:0:0:0:
256,192,32561,1,8,1:1:0:0:
256,192,32631,1,0,1:0:0:0:
256,192,32666,1,0,1:0:0:0:
256,192,32701,1,0,1:0:0:0:
256,192,32771,1,8,1:1:0:0:
256,192,32841,1,8,1:1:0:0:
256,192,32910,1,8,1:1:0:0:
256,192,32945,1,8,1:1:0:0:
256,192,32980,1,0,1:0:0:0:
256,192,33015,1,0,1:0:0:0:
256,192,33050,1,8,1:1:0:0:
256,192,33120,1,0,1:0:0:0:
256,192,33189,1,8,1:1:0:0:
256,192,33259,1,8,1:1:0:0:
256,192,33329,1,0,1:0:0:0:
256,192,33364,1,0,1:0:0:0:
256,192,33399,1,0,1:0:0:0:
256,192,33434,1,0,1:0:0:0:
256,192,33468,1,8,1:1:0:0:
256,192,33538,1,0,1:0:0:0:
256,192,33573,1,0,1:0:0:0:
256,192,33608,1,8,1:1:0:0:
256,192,33678,1,8,1:1:0:0:
256,192,33713,1,0,1:0:0:0:
256,192,33748,1,8,1:1:0:0:
256,192,33817,1,8,1:1:0:0:
256,192,33887,1,8,1:1:0:0:
256,192,33922,1,0,1:0:0:0:
256,192,33957,1,0,1:0:0:0:
256,192,33992,1,0,1:0:0:0:
256,192,34027,1,8,1:1:0:0:
256,192,34096,1,8,1:1:0:0:
256,192,34166,1,0,1:0:0:0:
256,192,34201,1,0,1:0:0:0:
256,192,34236,1,8,1:1:0:0:
256,192,34306,1,8,1:1:0:0:
256,192,34341,1,0,1:0:0:0:
256,192,34375,1,0,1:0:0:0:
256,192,34410,1,0,1:0:0:0:
256,192,34445,1,8,1:1:0:0:
256,192,34515,1,8,1:1:0:0:
256,192,34585,1,0,1:0:0:0:
256,192,34620,1,0,1:0:0:0:
256,192,34655,1,8,1:1:0:0:
256,192,34689,1,0,1:0:0:0:
256,192,34724,1,8,1:1:0:0:
256,192,34794,1,0,1:0:0:0:
256,192,34864,1,8,1:1:0:0:
256,192,34899,1,8,1:1:0:0:
256,192,34934,1,0,1:0:0:0:
256,192,34968,1,0,1:0:0:0:
256,192,35003,1,8,1:1:0:0:
256,192,35073,1,0,1:0:0:0:
256,192,35108,1,0,1:0:0:0:
256,192,35143,1,8,1:1:0:0:
256,192,35178,1,0,1:0:0:0:
256,192,35213,1,0,1:0:0:0:
256,192,35248,1,0,1:0:0:0:
256,192,35282,1,8,1:1:0:0:
256,192,35352,1,8,1:1:0:0:
256,192,35422,1,0,1:0:0:0:
256,192,35492,1,0,1:0:0:0:
256,192,35561,1,8,1:1:0:0:
256,192,35596,1,8,1:1:0:0:
256,192,35631,1,0,1:0:0:0:
256,192,35666,1,0,1:0:0:0:
256,192,35701,1,8,1:1:0:0:
256,192,35771,1,0,1:0:0:0:
256,192,35841,1,8,1:1:0:0:
256,192,35875,1,0,1:0:0:0:
256,192,35910,1,0,1:0:0:0:
256,192,35945,1,0,1:0:0:0:
256,192,35980,1,8,1:1:0:0:
256,192,36050,1,8,1:1:0:0:
256,192,36120,1,0,1:0:0:0:
256,192,36189,1,8,1:1:0:0:
256,192,36259,1,8,1:1:0:0:
256,192,36294,1,0,1:0:0:0:
256,192,36329,1,0,1:0:0:0:
256,192,36364,1,0,1:0:0:0:
256,192,36399,1,8,1:1:0:0:
256,192,36468,1,8,1:1:0:0:
256,192,36538,1,0,1:0:0:0:
256,192,36608,1,0,1:0:0:0:
256,192,36678,1,8,1:1:0:0:
256,192,36748,1,0,1:0:0:0:
256,192,36817,1,8,1:1:0:0:
256,192,36852,1,8,1:1:0:0:
256,192,36887,1,8,1:1:0:0:
256,192,36957,1,0,1:0:0:0:
256,192,36992,1,0,1:0:0:0:
256,192,37027,1,0,1:0:0:0:
256,192,37096,1,8,1:1:0:0:
256,192,37166,1,8,1:1:0:0:
256,192,37236,1,8,1:1:0:0:
256,192,37271,1,8,1:1:0:0:
256,192,37306,1,8,1:1:0:0:
256,192,37341,1,8,1:1:0:0:
256,192,37375,1,0,1:0:0:0:
256,192,37410,1,0,1:0:0:0:
256,192,37445,1,8,1:1:0:0:
256,192,37515,1,8,1:1:0:0:
256,192,37585,1,0,1:0:0:0:
256,192,37620,1,0,1:0:0:0:
256,192,37655,1,8,1:1:0:0:
256,192,37689,1,8,1:1:0:0:
256,192,37724,1,8,1:1:0:0:
256,192,37794,1,0,1:0:0:0:
256,192,37864,1,0,1:0:0:0:
256,192,37934,1,8,1:1:0:0:
256,192,37968,1,8,1:1:0:0:
256,192,38003,1,8,1:1:0:0:
256,192,38073,1,0,1:0:0:0:
256,192,38143,1,0,1:0:0:0:
256,192,38213,1,8,1:1:0:0:
256,192,38248,1,8,1:1:0:0:
256,192,38282,1,0,1:0:0:0:
256,192,38352,1,8,1:1:0:0:
256,192,38387,1,8,1:1:0:0:
256,192,38422,1,0,1:0:0:0:
256,192,38492,1,8,1:1:0:0:
256,192,38527,1,8,1:1:0:0:
256,192,38561,1,0,1:0:0:0:
256,192,38596,1,0,1:0:0:0:
256,192,38631,1,8,1:1:0:0:
256,192,38666,1,8,1:1:0:0:
256,192,38701,1,8,1:1:0:0:
256,192,38771,1,4,1:1:0:0:
256,192,39887,1,8,1:1:0:0:
256,192,40027,1,8,1:1:0:0:
256,192,40166,1,0,1:0:0:0:
256,192,40306,1,8,1:1:0:0:
256,192,40445,1,8,1:1:0:0:
256,192,40585,1,0,1:0:0:0:
256,192,40724,1,8,1:1:0:0:
256,192,40864,1,8,1:1:0:0:
256,192,41143,1,0,1:0:0:0:
256,192,41213,1,0,1:0:0:0:
256,192,41282,1,8,1:1:0:0:
256,192,41422,1,0,1:0:0:0:
256,192,41561,1,8,1:1:0:0:
256,192,41701,1,8,1:1:0:0:
256,192,41771,1,0,1:0:0:0:
256,192,41841,1,0,1:0:0:0:
256,192,41910,1,0,1:0:0:0:
256,192,41980,1,8,1:1:0:0:
256,192,42050,1,0,1:0:0:0:
256,192,42120,1,8,1:1:0:0:
256,192,42259,1,0,1:0:0:0:
256,192,42329,1,0,1:0:0:0:
256,192,42399,1,8,1:1:0:0:
256,192,42538,1,8,1:1:0:0:
256,192,42678,1,0,1:0:0:0:
256,192,42748,1,0,1:0:0:0:
256,192,42817,1,0,1:0:0:0:
256,192,42887,1,0,1:0:0:0:
256,192,42957,1,8,1:1:0:0:
256,192,43096,1,8,1:1:0:0:
256,192,43236,1,0,1:0:0:0:
256,192,43375,1,8,1:1:0:0:
256,192,43445,1,0,1:0:0:0:
256,192,43515,1,8,1:1:0:0:
256,192,43655,1,0,1:0:0:0:
256,192,43724,1,0,1:0:0:0:
256,192,43794,1,8,1:1:0:0:
256,192,43934,1,0,1:0:0:0:
256,192,44003,1,0,1:0:0:0:
256,192,44073,1,8,1:1:0:0:
256,192,44143,1,8,1:1:0:0:
256,192,44213,1,0,1:0:0:0:
256,192,44282,1,0,1:0:0:0:
256,192,44352,1,8,1:1:0:0:
256,192,44492,1,0,1:0:0:0:
256,192,44561,1,0,1:0:0:0:
256,192,44631,1,8,1:1:0:0:
256,192,44771,1,8,1:1:0:0:
256,192,44910,1,0,1:0:0:0:
256,192,44980,1,0,1:0:0:0:
256,192,45050,1,8,1:1:0:0:
256,192,45120,1,0,1:0:0:0:
256,192,45189,1,8,1:1:0:0:
256,192,45259,1,8,1:1:0:0:
256,192,45329,1,0,1:0:0:0:
256,192,45468,1,0,1:0:0:0:
256,192,45608,1,8,1:1:0:0:
256,192,45678,1,8,1:1:0:0:
256,192,45748,1,0,1:0:0:0:
256,192,45887,1,8,1:1:0:0:
256,192,45957,1,8,1:1:0:0:
256,192,46027,1,0,1:0:0:0:
256,192,46096,1,0,1:0:0:0:
256,192,46166,1,0,1:0:0:0:
256,192,46236,1,0,1:0:0:0:
256,192,46306,1,8,1:1:0:0:
256,192,46445,1,0,1:0:0:0:
256,192,46515,1,0,1:0:0:0:
256,192,46585,1,8,1:1:0:0:
256,192,46724,1,0,1:0:0:0:
256,192,46794,1,0,1:0:0:0:
256,192,46864,1,8,1:1:0:0:
256,192,46934,1,8,1:1:0:0:
256,192,47003,1,0,1:0:0:0:
256,192,47143,1,8,1:1:0:0:
256,192,47213,1,0,1:0:0:0:
256,192,47282,1,0,1:0:0:0:
256,192,47352,1,0,1:0:0:0:
256,192,47422,1,8,1:1:0:0:
256,192,47561,1,8,1:1:0:0:
256,192,47841,1,0,1:0:0:0:
256,192,47980,1,8,1:1:0:0:
256,192,48120,1,8,1:1:0:0:
256,192,48259,1,8,1:1:0:0:
256,192,48399,1,0,1:0:0:0:
256,192,48538,1,0,1:0:0:0:
256,192,48817,1,8,1:1:0:0:
256,192,48957,1,0,1:0:0:0:
256,192,49027,1,0,1:0:0:0:
256,192,49096,1,8,1:1:0:0:
256,192,49236,1,0,1:0:0:0:
256,192,49306,1,0,1:0:0:0:
256,192,49375,1,8,1:1:0:0:
256,192,49515,1,0,1:0:0:0:
256,192,49585,1,0,1:0:0:0:
256,192,49655,1,8,1:1:0:0:
256,192,49724,1,8,1:1:0:0:
256,192,49794,1,0,1:0:0:0:
256,192,49864,1,0,1:0:0:0:
256,192,49934,1,8,1:1:0:0:
256,192,50073,1,0,1:0:0:0:
256,192,50143,1,0,1:0:0:0:
256,192,50213,1,8,1:1:0:0:
256,192,50352,1,0,1:0:0:0:
256,192,50422,1,0,1:0:0:0:
256,192,50492,1,8,1:1:0:0:
256,192,50631,1,0,1:0:0:0:
256,192,50701,1,0,1:0:0:0:
256,192,50771,1,8,1:1:0:0:
256,192,50841,1,0,1:0:0:0:
256,192,50910,1,8,1:1:0:0:
256,192,50980,1,8,1:1:0:0:
256,192,51050,1,0,1:0:0:0:
256,192,51189,1,8,1:1:0:0:
256,192,51259,1,8,1:1:0:0:
256,192,51329,1,0,1:0:0:0:
256,192,51468,1,8,1:1:0:0:
256,192,51538,1,8,1:1:0:0:
256,192,51608,1,0,1:0:0:0:
256,192,51748,1,8,1:1:0:0:
256,192,51817,1,8,1:1:0:0:
256,192,51887,1,0,1:0:0:0:
256,192,51957,1,0,1:0:0:0:
256,192,52027,1,8,1:1:0:0:
256,192,52096,1,8,1:1:0:0:
256,192,52166,1,0,1:0:0:0:
256,192,52306,1,8,1:1:0:0:
256,192,52375,1,0,1:0:0:0:
256,192,52445,1,8,1:1:0:0:
256,192,52585,1,8,1:1:0:0:
256,192,52655,1,8,1:1:0:0:
256,192,52724,1,0,1:0:0:0:
256,192,52794,1,0,1:0:0:0:
256,192,52864,1,8,1:1:0:0:
256,192,52934,1,0,1:0:0:0:
256,192,53003,1,8,1:1:0:0:
256,192,53073,1,8,1:1:0:0:
256,192,53143,1,0,1:0:0:0:
256,192,53189,1,8,1:1:0:0:
256,192,53236,1,8,1:1:0:0:
256,192,53282,1,0,1:0:0:0:
256,192,53422,1,8,1:1:0:0:
256,192,53492,1,0,1:0:0:0:
256,192,53561,1,8,1:1:0:0:
256,192,53608,1,8,1:1:0:0:
256,192,53655,1,8,1:1:0:0:
256,192,53701,1,0,1:0:0:0:
256,192,53771,1,0,1:0:0:0:
256,192,53841,1,8,1:1:0:0:
256,192,53887,1,8,1:1:0:0:
256,192,53934,1,8,1:1:0:0:
256,192,53980,1,0,1:0:0:0:
256,192,54027,1,0,1:0:0:0:
256,192,54073,1,0,1:0:0:0:
256,192,54120,1,8,1:1:0:0:
256,192,54189,1,0,1:0:0:0:
256,192,54259,1,8,1:1:0:0:
256,192,54399,1,0,1:0:0:0:
256,192,54468,1,0,1:0:0:0:
256,192,54538,1,8,1:1:0:0:
256,192,54608,1,0,1:0:0:0:
256,192,54678,1,8,1:1:0:0:
256,192,54748,1,8,1:1:0:0:
256,192,54817,1,0,1:0:0:0:
256,192,54887,1,0,1:0:0:0:
256,192,54957,1,8,1:1:0:0:
256,192,55003,1,8,1:1:0:0:
256,192,55050,1,8,1:1:0:0:
256,192,55096,1,0,1:0:0:0:
256,192,55236,1,8,1:1:0:0:
256,192,55375,1,0,1:0:0:0:
256,192,55410,1,0,1:0:0:0:
256,192,55445,1,0,1:0:0:0:
256,192,55480,1,0,1:0:0:0:
256,192,55515,1,8,1:1:0:0:
256,192,55585,1,8,1:1:0:0:
256,192,55655,1,0,1:0:0:0:
256,192,55724,1,0,1:0:0:0:
256,192,55794,1,8,1:1:0:0:
256,192,55864,1,0,1:0:0:0:
256,192,55934,1,0,1:0:0:0:
256,192,56003,1,0,1:0:0:0:
256,192,56073,1,8,1:1:0:0:
256,192,56108,1,8,1:1:0:0:
256,192,56143,1,8,1:1:0:0:
256,192,56178,1,8,1:1:0:0:
256,192,56213,1,0,1:0:0:0:
256,192,56282,1,0,1:0:0:0:
256,192,56352,1,8,1:1:0:0:
256,192,56492,1,8,1:1:0:0:
256,192,56771,1,0,1:0:0:0:
256,192,56910,1,8,1:1:0:0:
256,192,57050,1,8,1:1:0:0:
256,192,57189,1,0,1:0:0:0:
256,192,57329,1,8,1:1:0:0:
256,192,57468,1,8,1:1:0:0:
256,192,57748,1,8,1:1:0:0:
256,192,57887,1,0,1:0:0:0:
256,192,58027,1,0,1:0:0:0:
256,192,58166,1,8,1:1:0:0:
256,192,58306,1,8,1:1:0:0:
256,192,58445,1,0,1:0:0:0:
256,192,58585,1,8,1:1:0:0:
256,192,58724,1,8,1:1:0:0:
256,192,59003,1,0,1:0:0:0:
256,192,59143,1,8,1:1:0:0:
256,192,59282,1,0,1:0:0:0:
256,192,59422,1,8,1:1:0:0:
256,192,59561,1,8,1:1:0:0:
256,192,59700,1,8,0:0:0:0:
256,192,59840,1,8,0:0:0:0:
256,192,59980,1,8,1:1:0:0:
256,192,60120,1,0,1:0:0:0:
256,192,60259,1,0,1:0:0:0:
256,192,60399,1,8,1:1:0:0:
256,192,60538,1,8,1:1:0:0:
256,192,60678,1,8,1:1:0:0:
256,192,60817,1,0,1:0:0:0:
256,192,60957,1,8,1:1:0:0:
256,192,61096,1,0,1:0:0:0:
256,192,61236,1,0,1:0:0:0:
256,192,61375,1,8,1:1:0:0:
256,192,61515,1,0,1:0:0:0:
256,192,61655,1,8,1:1:0:0:
256,192,61933,1,8,1:1:0:0:
256,192,62073,1,0,1:0:0:0:
256,192,62213,1,8,1:1:0:0:
256,192,62492,1,0,1:0:0:0:
256,192,62631,1,8,1:1:0:0:
256,192,62771,1,8,1:1:0:0:
256,192,62910,1,8,1:1:0:0:
256,192,63050,1,0,1:0:0:0:
256,192,63189,1,8,1:1:0:0:
256,192,63468,1,0,1:0:0:0:
256,192,63608,1,8,1:1:0:0:
256,192,63748,1,8,1:1:0:0:
256,192,63887,1,8,1:1:0:0:
256,192,64027,1,8,1:1:0:0:
256,192,64166,1,0,1:0:0:0:
256,192,64306,1,0,1:0:0:0:
256,192,64445,1,8,1:1:0:0:
256,192,64585,1,8,1:1:0:0:
256,192,64724,1,0,1:0:0:0:
256,192,64864,1,8,1:1:0:0:
256,192,65003,1,8,1:1:0:0:
256,192,65143,1,8,1:1:0:0:
256,192,65282,1,0,1:0:0:0:
256,192,65422,1,8,1:1:0:0:
256,192,65561,1,0,1:0:0:0:
256,192,65701,1,0,1:0:0:0:
256,192,65841,1,8,1:1:0:0:
256,192,65980,1,0,1:0:0:0:
256,192,66120,1,8,1:1:0:0:
256,192,66259,1,0,1:0:0:0:
256,192,66399,1,8,1:1:0:0:
256,192,66538,1,8,1:1:0:0:
256,192,66678,1,0,1:0:0:0:
256,192,66957,1,0,1:0:0:0:
256,192,67096,1,0,1:0:0:0:
256,192,67236,1,8,1:1:0:0:
256,192,67375,1,0,1:0:0:0:
256,192,67515,1,0,1:0:0:0:
256,192,67655,1,8,1:1:0:0:
256,192,67934,1,0,1:0:0:0:
256,192,68073,1,8,1:1:0:0:
256,192,68213,1,0,1:0:0:0:
256,192,68352,1,8,1:1:0:0:
256,192,68492,1,8,1:1:0:0:
256,192,68631,1,0,1:0:0:0:
256,192,68910,1,8,1:1:0:0:
256,192,69050,1,8,1:1:0:0:
256,192,69189,1,0,1:0:0:0:
256,192,69329,1,8,1:1:0:0:
256,192,69468,1,8,1:1:0:0:
256,192,69608,1,0,1:0:0:0:
256,192,69748,1,0,1:0:0:0:
256,192,69887,1,8,1:1:0:0:
256,192,70166,1,0,1:0:0:0:
256,192,70306,1,8,1:1:0:0:
256,192,70445,1,8,1:1:0:0:
256,192,70585,1,8,1:1:0:0:
256,192,70724,1,8,1:1:0:0:
256,192,70864,1,0,1:0:0:0:
256,192,71143,1,0,1:0:0:0:
256,192,71282,1,0,1:0:0:0:
256,192,71422,1,8,1:1:0:0:
256,192,71561,1,0,1:0:0:0:
256,192,71701,1,8,1:1:0:0:
256,192,71841,1,8,1:1:0:0:
256,192,71980,1,0,1:0:0:0:
256,192,72120,1,0,1:0:0:0:
256,192,72259,1,8,1:1:0:0:
256,192,72399,1,0,1:0:0:0:
256,192,72538,1,8,1:1:0:0:
256,192,72678,1,0,1:0:0:0:
256,192,72817,1,8,1:1:0:0:
256,192,72957,1,8,1:1:0:0:
256,192,73096,1,0,1:0:0:0:
256,192,73236,1,0,1:0:0:0:
256,192,73375,1,8,1:1:0:0:
256,192,73515,1,8,1:1:0:0:
256,192,73655,1,0,1:0:0:0:
256,192,73794,1,8,1:1:0:0:
256,192,73934,1,8,1:1:0:0:
256,192,74073,1,0,1:0:0:0:
256,192,74213,1,8,1:1:0:0:
256,192,74352,1,8,1:1:0:0:
256,192,74492,1,0,1:0:0:0:
256,192,74631,1,0,1:0:0:0:
256,192,74771,1,8,1:1:0:0:
256,192,74910,1,0,1:0:0:0:
256,192,75050,1,8,1:1:0:0:
256,192,75329,1,0,1:0:0:0:
256,192,75468,1,0,1:0:0:0:
256,192,75608,1,8,1:1:0:0:
256,192,75748,1,0,1:0:0:0:
256,192,75817,1,0,1:0:0:0:
256,192,75887,1,8,1:1:0:0:
256,192,76027,1,8,1:1:0:0:
256,192,76166,1,8,1:1:0:0:
256,192,76236,1,8,1:1:0:0:
256,192,76306,1,0,1:0:0:0:
256,192,76375,1,0,1:0:0:0:
256,192,76445,1,8,1:1:0:0:
256,192,76585,1,8,1:1:0:0:
256,192,76724,1,0,1:0:0:0:
256,192,76794,1,0,1:0:0:0:
256,192,76864,1,8,1:1:0:0:
256,192,76934,1,0,1:0:0:0:
256,192,77003,1,8,1:1:0:0:
256,192,77073,1,8,1:1:0:0:
256,192,77143,1,0,1:0:0:0:
256,192,77213,1,0,1:0:0:0:
256,192,77282,1,8,1:1:0:0:
256,192,77422,1,0,1:0:0:0:
256,192,77492,1,0,1:0:0:0:
256,192,77561,1,8,1:1:0:0:
256,192,77631,1,8,1:1:0:0:
256,192,77701,1,0,1:0:0:0:
256,192,77841,1,8,1:1:0:0:
256,192,77980,1,0,1:0:0:0:
256,192,78050,1,0,1:0:0:0:
256,192,78120,1,8,1:1:0:0:
256,192,78259,1,0,1:0:0:0:
256,192,78329,1,8,1:1:0:0:
256,192,78399,1,8,1:1:0:0:
256,192,78468,1,0,1:0:0:0:
256,192,78538,1,0,1:0:0:0:
256,192,78608,1,0,1:0:0:0:
256,192,78678,1,8,1:1:0:0:
256,192,78817,1,8,1:1:0:0:
256,192,78957,1,0,1:0:0:0:
256,192,79027,1,0,1:0:0:0:
256,192,79096,1,0,1:0:0:0:
256,192,79166,1,0,1:0:0:0:
256,192,79236,1,8,1:1:0:0:
256,192,79306,1,8,1:1:0:0:
256,192,79375,1,0,1:0:0:0:
256,192,79515,1,8,1:1:0:0:
256,192,79585,1,8,1:1:0:0:
256,192,79655,1,0,1:0:0:0:
256,192,79724,1,0,1:0:0:0:
256,192,79794,1,8,1:1:0:0:
256,192,79864,1,8,1:1:0:0:
256,192,79934,1,0,1:0:0:0:
256,192,80073,1,8,1:1:0:0:
256,192,80213,1,0,1:0:0:0:
256,192,80282,1,0,1:0:0:0:
256,192,80352,1,0,1:0:0:0:
256,192,80492,1,8,1:1:0:0:
256,192,80631,1,0,1:0:0:0:
256,192,80701,1,0,1:0:0:0:
256,192,80771,1,0,1:0:0:0:
256,192,80841,1,0,1:0:0:0:
256,192,80910,1,8,1:1:0:0:
256,192,80980,1,0,1:0:0:0:
256,192,81050,1,8,1:1:0:0:
256,192,81120,1,8,1:1:0:0:
256,192,81189,1,0,1:0:0:0:
256,192,81329,1,0,1:0:0:0:
256,192,81399,1,0,1:0:0:0:
256,192,81468,1,8,1:1:0:0:
256,192,81608,1,0,1:0:0:0:
256,192,81678,1,8,1:1:0:0:
256,192,81748,1,8,1:1:0:0:
256,192,81887,1,0,1:0:0:0:
256,192,81957,1,0,1:0:0:0:
256,192,82027,1,8,1:1:0:0:
256,192,82166,1,0,1:0:0:0:
256,192,82306,1,8,1:1:0:0:
256,192,82445,1,0,1:0:0:0:
256,192,82515,1,0,1:0:0:0:
256,192,82585,1,0,1:0:0:0:
256,192,82724,1,8,1:1:0:0:
256,192,82864,1,0,1:0:0:0:
256,192,82934,1,8,1:1:0:0:
256,192,83003,1,8,1:1:0:0:
256,192,83073,1,0,1:0:0:0:
256,192,83143,1,8,1:1:0:0:
256,192,83213,1,8,1:1:0:0:
256,192,83282,1,0,1:0:0:0:
256,192,83352,1,0,1:0:0:0:
256,192,83422,1,8,1:1:0:0:
256,192,83561,1,0,1:0:0:0:
256,192,83631,1,0,1:0:0:0:
256,192,83701,1,8,1:1:0:0:
256,192,83841,1,0,1:0:0:0:
256,192,83980,1,8,1:1:0:0:
256,192,84050,1,8,1:1:0:0:
256,192,84120,1,0,1:0:0:0:
256,192,84189,1,0,1:0:0:0:
256,192,84259,1,8,1:1:0:0:
256,192,84329,1,0,1:0:0:0:
256,192,84399,1,8,1:1:0:0:
256,192,84468,1,8,1:1:0:0:
256,192,84538,1,0,1:0:0:0:
256,192,84678,1,0,1:0:0:0:
256,192,84748,1,0,1:0:0:0:
256,192,84817,1,8,1:1:0:0:
256,192,84957,1,8,1:1:0:0:
256,192,85027,1,0,1:0:0:0:
256,192,85096,1,0,1:0:0:0:
256,192,85236,1,8,1:1:0:0:
256,192,85306,1,0,1:0:0:0:
256,192,85375,1,0,1:0:0:0:
256,192,85445,1,8,1:1:0:0:
256,192,85515,1,0,1:0:0:0:
256,192,85585,1,0,1:0:0:0:
256,192,85655,1,8,1:1:0:0:
256,192,85794,1,0,1:0:0:0:
256,192,85864,1,0,1:0:0:0:
256,192,85934,1,8,1:1:0:0:
256,192,86073,1,8,1:1:0:0:
256,192,86213,1,0,1:0:0:0:
256,192,86282,1,0,1:0:0:0:
256,192,86352,1,8,1:1:0:0:
256,192,86422,1,0,1:0:0:0:
256,192,86492,1,8,1:1:0:0:
256,192,86561,1,0,1:0:0:0:
256,192,86631,1,8,1:1:0:0:
256,192,86701,1,8,1:1:0:0:
256,192,86771,1,0,1:0:0:0:
256,192,86910,1,8,1:1:0:0:
256,192,86980,1,8,1:1:0:0:
256,192,87050,1,0,1:0:0:0:
256,192,87120,1,8,1:1:0:0:
256,192,87189,1,0,1:0:0:0:
256,192,87259,1,0,1:0:0:0:
256,192,87329,1,8,1:1:0:0:
256,192,87468,1,0,1:0:0:0:
256,192,87538,1,0,1:0:0:0:
256,192,87608,1,8,1:1:0:0:
256,192,87748,1,8,1:1:0:0:
256,192,87887,1,0,1:0:0:0:
256,192,87957,1,0,1:0:0:0:
256,192,88027,1,8,1:1:0:0:
256,192,88096,1,0,1:0:0:0:
256,192,88166,1,8,1:1:0:0:
256,192,88236,1,8,1:1:0:0:
256,192,88306,1,0,1:0:0:0:
256,192,88375,1,0,1:0:0:0:
256,192,88445,1,8,1:1:0:0:
256,192,88515,1,0,1:0:0:0:
256,192,88585,1,8,1:1:0:0:
256,192,88655,1,8,1:1:0:0:
256,192,88724,1,0,1:0:0:0:
256,192,88794,1,8,1:1:0:0:
256,192,88864,1,0,1:0:0:0:
256,192,88910,1,0,1:0:0:0:
256,192,88957,1,0,1:0:0:0:
256,192,89003,1,8,1:1:0:0:
256,192,89143,1,0,1:0:0:0:
256,192,89213,1,0,1:0:0:0:
256,192,89282,1,8,1:1:0:0:
256,192,89422,1,8,1:1:0:0:
256,192,89492,1,8,1:1:0:0:
256,192,89561,1,0,1:0:0:0:
256,192,89631,1,8,1:1:0:0:
256,192,89701,1,0,1:0:0:0:
256,192,89771,1,0,1:0:0:0:
256,192,89841,1,8,1:1:0:0:
256,192,89910,1,8,1:1:0:0:
256,192,89980,1,0,1:0:0:0:
256,192,90120,1,0,1:0:0:0:
256,192,90259,1,0,1:0:0:0:
256,192,90329,1,0,1:0:0:0:
256,192,90399,1,8,1:1:0:0:
256,192,90468,1,0,1:0:0:0:
256,192,90538,1,0,1:0:0:0:
256,192,90608,1,0,1:0:0:0:
256,192,90678,1,8,1:1:0:0:
256,192,90748,1,8,1:1:0:0:
256,192,90817,1,0,1:0:0:0:
256,192,90887,1,8,1:1:0:0:
256,192,90957,1,0,1:0:0:0:
256,192,91027,1,0,1:0:0:0:
256,192,91096,1,0,1:0:0:0:
256,192,91236,1,8,1:1:0:0:
256,192,91306,1,8,1:1:0:0:
256,192,91375,1,0,1:0:0:0:
256,192,91445,1,0,1:0:0:0:
256,192,91515,1,8,1:1:0:0:
256,192,91585,1,0,1:0:0:0:
256,192,91655,1,8,1:1:0:0:
256,192,91724,1,8,1:1:0:0:
256,192,91794,1,0,1:0:0:0:
256,192,91841,1,8,1:1:0:0:
256,192,91887,1,8,1:1:0:0:
256,192,91934,1,0,1:0:0:0:
256,192,92003,1,8,1:1:0:0:
256,192,92073,1,0,1:0:0:0:
256,192,92120,1,0,1:0:0:0:
256,192,92166,1,0,1:0:0:0:
256,192,92213,1,8,1:1:0:0:
256,192,92259,1,8,1:1:0:0:
256,192,92306,1,0,1:0:0:0:
256,192,92352,1,0,1:0:0:0:
256,192,92492,1,0,1:0:0:0:
256,192,92631,1,8,1:1:0:0:
256,192,92771,1,0,1:0:0:0:
256,192,92910,1,8,1:1:0:0:
256,192,93050,1,8,1:1:0:0:
256,192,93189,1,8,1:1:0:0:
256,192,93468,1,8,1:1:0:0:
256,192,93608,1,0,1:0:0:0:
256,192,93678,1,0,1:0:0:0:
256,192,93748,1,8,1:1:0:0:
256,192,93817,1,8,1:1:0:0:
256,192,93887,1,0,1:0:0:0:
256,192,93957,1,0,1:0:0:0:
256,192,94027,1,8,1:1:0:0:
256,192,94166,1,0,1:0:0:0:
256,192,94236,1,8,1:1:0:0:
256,192,94306,1,8,1:1:0:0:
256,192,94375,1,8,1:1:0:0:
256,192,94445,1,0,1:0:0:0:
256,192,94515,1,0,1:0:0:0:
256,192,94585,1,8,1:1:0:0:
256,192,94724,1,0,1:0:0:0:
256,192,94794,1,0,1:0:0:0:
256,192,94864,1,8,1:1:0:0:
256,192,94934,1,8,1:1:0:0:
256,192,95003,1,0,1:0:0:0:
256,192,95073,1,8,1:1:0:0:
256,192,95143,1,8,1:1:0:0:
256,192,95189,1,8,1:1:0:0:
256,192,95236,1,8,1:1:0:0:
256,192,95282,1,8,1:1:0:0:
256,192,95329,1,8,1:1:0:0:
256,192,95375,1,8,1:1:0:0:
256,192,95422,1,8,1:1:0:0:
256,192,95468,1,8,1:1:0:0:
256,192,95514,1,8,1:1:0:0:
256,192,95561,1,8,1:1:0:0:
256,192,95607,1,8,1:1:0:0:
256,192,95654,1,8,1:1:0:0:
256,192,95701,1,0,1:0:0:0:
256,192,95771,1,0,1:0:0:0:
256,192,95841,1,8,1:1:0:0:
256,192,95875,1,8,1:1:0:0:
256,192,95910,1,0,1:0:0:0:
256,192,95945,1,0,1:0:0:0:
256,192,95980,1,8,1:1:0:0:
256,192,96015,1,0,1:0:0:0:
256,192,96050,1,0,1:0:0:0:
256,192,96120,1,8,1:1:0:0:
256,192,96155,1,8,1:1:0:0:
256,192,96189,1,0,1:0:0:0:
256,192,96224,1,0,1:0:0:0:
256,192,96259,1,8,1:1:0:0:
256,192,96329,1,8,1:1:0:0:
256,192,96399,1,0,1:0:0:0:
256,192,96434,1,0,1:0:0:0:
256,192,96468,1,0,1:0:0:0:
256,192,96503,1,0,1:0:0:0:
256,192,96538,1,8,1:1:0:0:
256,192,96573,1,8,1:1:0:0:
256,192,96608,1,0,1:0:0:0:
256,192,96643,1,0,1:0:0:0:
256,192,96678,1,8,1:1:0:0:
256,192,96748,1,8,1:1:0:0:
256,192,96817,1,0,1:0:0:0:
256,192,96852,1,0,1:0:0:0:
256,192,96887,1,0,1:0:0:0:
256,192,96922,1,0,1:0:0:0:
256,192,96957,1,8,1:1:0:0:
256,192,97027,1,0,1:0:0:0:
256,192,97096,1,8,1:1:0:0:
256,192,97131,1,0,1:0:0:0:
256,192,97166,1,0,1:0:0:0:
256,192,97201,1,0,1:0:0:0:
256,192,97236,1,8,1:1:0:0:
256,192,97271,1,0,1:0:0:0:
256,192,97306,1,8,1:1:0:0:
256,192,97375,1,0,1:0:0:0:
256,192,97410,1,0,1:0:0:0:
256,192,97445,1,0,1:0:0:0:
256,192,97480,1,0,1:0:0:0:
256,192,97515,1,8,1:1:0:0:
256,192,97550,1,8,1:1:0:0:
256,192,97585,1,0,1:0:0:0:
256,192,97655,1,8,1:1:0:0:
256,192,97689,1,8,1:1:0:0:
256,192,97724,1,0,1:0:0:0:
256,192,97759,1,0,1:0:0:0:
256,192,97794,1,8,1:1:0:0:
256,192,97864,1,0,1:0:0:0:
256,192,97899,1,0,1:0:0:0:
256,192,97934,1,8,1:1:0:0:
256,192,98003,1,0,1:0:0:0:
256,192,98073,1,0,1:0:0:0:
256,192,98108,1,0,1:0:0:0:
256,192,98143,1,0,1:0:0:0:
256,192,98178,1,0,1:0:0:0:
256,192,98213,1,8,1:1:0:0:
256,192,98248,1,8,1:1:0:0:
256,192,98282,1,0,1:0:0:0:
256,192,98317,1,0,1:0:0:0:
256,192,98352,1,8,1:1:0:0:
256,192,98422,1,8,1:1:0:0:
256,192,98457,1,8,1:1:0:0:
256,192,98492,1,0,1:0:0:0:
256,192,98561,1,0,1:0:0:0:
256,192,98596,1,0,1:0:0:0:
256,192,98631,1,8,1:1:0:0:
256,192,98666,1,8,1:1:0:0:
256,192,98701,1,0,1:0:0:0:
256,192,98736,1,8,1:1:0:0:
256,192,98771,1,8,1:1:0:0:
256,192,98841,1,8,1:1:0:0:
256,192,98875,1,8,1:1:0:0:
256,192,98910,1,0,1:0:0:0:
256,192,98945,1,0,1:0:0:0:
256,192,98980,1,8,1:1:0:0:
256,192,99015,1,8,1:1:0:0:
256,192,99050,1,0,1:0:0:0:
256,192,99120,1,0,1:0:0:0:
256,192,99155,1,0,1:0:0:0:
256,192,99189,1,8,1:1:0:0:
256,192,99259,1,0,1:0:0:0:
256,192,99329,1,8,1:1:0:0:
256,192,99399,1,8,1:1:0:0:
256,192,99434,1,8,1:1:0:0:
256,192,99468,1,0,1:0:0:0:
256,192,99503,1,8,1:1:0:0:
256,192,99538,1,8,1:1:0:0:
256,192,99573,1,8,1:1:0:0:
256,192,99608,1,0,1:0:0:0:
256,192,99678,1,0,1:0:0:0:
256,192,99713,1,0,1:0:0:0:
256,192,99748,1,8,1:1:0:0:
256,192,99782,1,0,1:0:0:0:
256,192,99817,1,8,1:1:0:0:
256,192,99852,1,0,1:0:0:0:
256,192,99887,1,8,1:1:0:0:
256,192,99957,1,8,1:1:0:0:
256,192,100027,1,0,1:0:0:0:
256,192,100061,1,0,1:0:0:0:
256,192,100096,1,8,1:1:0:0:
256,192,100131,1,8,1:1:0:0:
256,192,100166,1,0,1:0:0:0:
256,192,100236,1,0,1:0:0:0:
256,192,100306,1,0,1:0:0:0:
256,192,100341,1,0,1:0:0:0:
256,192,100375,1,0,1:0:0:0:
256,192,100410,1,0,1:0:0:0:
256,192,100445,1,8,1:1:0:0:
256,192,100480,1,8,1:1:0:0:
256,192,100515,1,0,1:0:0:0:
256,192,100585,1,8,1:1:0:0:
256,192,100655,1,0,1:0:0:0:
256,192,100724,1,0,1:0:0:0:
256,192,100794,1,0,1:0:0:0:
256,192,100864,1,8,1:1:0:0:
256,192,100899,1,8,1:1:0:0:
256,192,100934,1,0,1:0:0:0:
256,192,100968,1,8,1:1:0:0:
256,192,101003,1,0,1:0:0:0:
256,192,101038,1,0,1:0:0:0:
256,192,101073,1,8,1:1:0:0:
256,192,101143,1,8,1:1:0:0:
256,192,101213,1,0,1:0:0:0:
256,192,101282,1,0,1:0:0:0:
256,192,101352,1,8,1:1:0:0:
256,192,101422,1,8,1:1:0:0:
256,192,101457,1,0,1:0:0:0:
256,192,101492,1,0,1:0:0:0:
256,192,101527,1,0,1:0:0:0:
256,192,101561,1,8,1:1:0:0:
256,192,101631,1,8,1:1:0:0:
256,192,101666,1,8,1:1:0:0:
256,192,101701,1,0,1:0:0:0:
256,192,101771,1,0,1:0:0:0:
256,192,101841,1,0,1:0:0:0:
256,192,101875,1,0,1:0:0:0:
256,192,101910,1,8,1:1:0:0:
256,192,101945,1,0,1:0:0:0:
256,192,101980,1,8,1:1:0:0:
256,192,102015,1,8,1:1:0:0:
256,192,102050,1,0,1:0:0:0:
256,192,102120,1,0,1:0:0:0:
256,192,102155,1,0,1:0:0:0:
256,192,102189,1,8,1:1:0:0:
256,192,102224,1,8,1:1:0:0:
256,192,102259,1,0,1:0:0:0:
256,192,102294,1,8,1:1:0:0:
256,192,102329,1,0,1:0:0:0:
256,192,102364,1,8,1:1:0:0:
256,192,102399,1,0,1:0:0:0:
256,192,102468,1,0,1:0:0:0:
256,192,102538,1,8,1:1:0:0:
256,192,102573,1,8,1:1:0:0:
256,192,102608,1,0,1:0:0:0:
256,192,102643,1,8,1:1:0:0:
256,192,102678,1,0,1:0:0:0:
256,192,102713,1,0,1:0:0:0:
256,192,102748,1,8,1:1:0:0:
256,192,102817,1,8,1:1:0:0:
256,192,102887,1,8,1:1:0:0:
256,192,102922,1,8,1:1:0:0:
256,192,102957,1,0,1:0:0:0:
256,192,103027,1,0,1:0:0:0:
256,192,103096,1,8,1:1:0:0:
256,192,103131,1,8,1:1:0:0:
256,192,103166,1,0,1:0:0:0:
256,192,103201,1,8,1:1:0:0:
256,192,103236,1,0,1:0:0:0:
256,192,103271,1,0,1:0:0:0:
256,192,103306,1,8,1:1:0:0:
256,192,103375,1,8,1:1:0:0:
256,192,103410,1,8,1:1:0:0:
256,192,103445,1,8,1:1:0:0:
256,192,103480,1,8,1:1:0:0:
256,192,103515,1,0,1:0:0:0:
256,192,103550,1,0,1:0:0:0:
256,192,103585,1,0,1:0:0:0:
256,192,103655,1,0,1:0:0:0:
256,192,103724,1,0,1:0:0:0:
256,192,103759,1,0,1:0:0:0:
256,192,103794,1,0,1:0:0:0:
256,192,103864,1,0,1:0:0:0:
256,192,103934,1,0,1:0:0:0:
256,192,103968,1,0,1:0:0:0:
256,192,104003,1,0,1:0:0:0:
256,192,104073,1,8,1:1:0:0:
256,192,104108,1,8,1:1:0:0:
256,192,104143,1,0,1:0:0:0:
256,192,104178,1,8,1:1:0:0:
256,192,104213,1,0,1:0:0:0:
256,192,104248,1,0,1:0:0:0:
256,192,104282,1,8,1:1:0:0:
256,192,104317,1,8,1:1:0:0:
256,192,104352,1,0,1:0:0:0:
256,192,104422,1,0,1:0:0:0:
256,192,104457,1,0,1:0:0:0:
256,192,104492,1,8,1:1:0:0:
256,192,104527,1,8,1:1:0:0:
256,192,104561,1,8,1:1:0:0:
256,192,104596,1,8,1:1:0:0:
256,192,104631,1,0,1:0:0:0:
256,192,104701,1,8,1:1:0:0:
256,192,104736,1,8,1:1:0:0:
256,192,104771,1,0,1:0:0:0:
256,192,104841,1,8,1:1:0:0:
256,192,104875,1,8,1:1:0:0:
256,192,104910,1,0,1:0:0:0:
256,192,104945,1,8,1:1:0:0:
256,192,104980,1,0,1:0:0:0:
256,192,105015,1,0,1:0:0:0:
256,192,105050,1,8,1:1:0:0:
256,192,105120,1,0,1:0:0:0:
256,192,105189,1,0,1:0:0:0:
256,192,105259,1,0,1:0:0:0:
256,192,105329,1,0,1:0:0:0:
256,192,105364,1,0,1:0:0:0:
256,192,105399,1,8,1:1:0:0:
256,192,105434,1,0,1:0:0:0:
256,192,105468,1,8,1:1:0:0:
256,192,105538,1,0,1:0:0:0:
256,192,105573,1,0,1:0:0:0:
256,192,105608,1,8,1:1:0:0:
256,192,105678,1,8,1:1:0:0:
256,192,105748,1,0,1:0:0:0:
256,192,105817,1,8,1:1:0:0:
256,192,105852,1,8,1:1:0:0:
256,192,105887,1,0,1:0:0:0:
256,192,105957,1,8,1:1:0:0:
256,192,105992,1,8,1:1:0:0:
256,192,106027,1,0,1:0:0:0:
256,192,106061,1,8,1:1:0:0:
256,192,106096,1,0,1:0:0:0:
256,192,106131,1,0,1:0:0:0:
256,192,106166,1,8,1:1:0:0:
256,192,106236,1,0,1:0:0:0:
256,192,106306,1,8,1:1:0:0:
256,192,106375,1,0,1:0:0:0:
256,192,106410,1,0,1:0:0:0:
256,192,106445,1,8,1:1:0:0:
256,192,106515,1,0,1:0:0:0:
256,192,106550,1,0,1:0:0:0:
256,192,106585,1,8,1:1:0:0:
256,192,106620,1,0,1:0:0:0:
256,192,106655,1,0,1:0:0:0:
256,192,106689,1,0,1:0:0:0:
256,192,106724,1,8,1:1:0:0:
256,192,106794,1,0,1:0:0:0:
256,192,106864,1,0,1:0:0:0:
256,192,106934,1,0,1:0:0:0:
256,192,106968,1,0,1:0:0:0:
256,192,107003,1,8,1:1:0:0:
256,192,107038,1,8,1:1:0:0:
256,192,107073,1,0,1:0:0:0:
256,192,107108,1,8,1:1:0:0:
256,192,107143,1,0,1:0:0:0:
256,192,107213,1,0,1:0:0:0:
256,192,107282,1,8,1:1:0:0:
256,192,107317,1,8,1:1:0:0:
256,192,107352,1,8,1:1:0:0:
256,192,107387,1,8,1:1:0:0:
256,192,107422,1,0,1:0:0:0:
256,192,107492,1,0,1:0:0:0:
256,192,107561,1,8,1:1:0:0:
256,192,107596,1,8,1:1:0:0:
256,192,107631,1,0,1:0:0:0:
256,192,107666,1,0,1:0:0:0:
256,192,107701,1,8,1:1:0:0:
256,192,107771,1,8,1:1:0:0:
256,192,107806,1,8,1:1:0:0:
256,192,107841,1,0,1:0:0:0:
256,192,107875,1,8,1:1:0:0:
256,192,107910,1,0,1:0:0:0:
256,192,107945,1,0,1:0:0:0:
256,192,107980,1,8,1:1:0:0:
256,192,108050,1,8,1:1:0:0:
256,192,108120,1,0,1:0:0:0:
256,192,108155,1,0,1:0:0:0:
256,192,108189,1,8,1:1:0:0:
256,192,108259,1,0,1:0:0:0:
256,192,108294,1,0,1:0:0:0:
256,192,108329,1,8,1:1:0:0:
256,192,108364,1,0,1:0:0:0:
256,192,108399,1,8,1:1:0:0:
256,192,108434,1,8,1:1:0:0:
256,192,108468,1,0,1:0:0:0:
256,192,108538,1,8,1:1:0:0:
256,192,108573,1,8,1:1:0:0:
256,192,108608,1,8,1:1:0:0:
256,192,108678,1,8,1:1:0:0:
256,192,108748,1,8,1:1:0:0:
256,192,108782,1,8,1:1:0:0:
256,192,108817,1,0,1:0:0:0:
256,192,108852,1,0,1:0:0:0:
256,192,108887,1,8,1:1:0:0:
256,192,108957,1,8,1:1:0:0:
256,192,108992,1,8,1:1:0:0:
256,192,109027,1,8,1:1:0:0:
256,192,109061,1,8,1:1:0:0:
256,192,109096,1,0,1:0:0:0:
256,192,109166,1,0,1:0:0:0:
256,192,109236,1,0,1:0:0:0:
256,192,109306,1,0,1:0:0:0:
256,192,109375,1,8,1:1:0:0:
256,192,109445,1,8,1:1:0:0:
256,192,109515,1,0,1:0:0:0:
256,192,109585,1,8,1:1:0:0:
256,192,109655,1,0,1:0:0:0:
256,192,109724,1,0,1:0:0:0:
256,192,109794,1,8,1:1:0:0:
256,192,109864,1,0,1:0:0:0:
256,192,109934,1,8,1:1:0:0:
256,192,110003,1,8,1:1:0:0:
256,192,110073,1,0,1:0:0:0:
256,192,110108,1,0,1:0:0:0:
256,192,110143,1,8,1:1:0:0:
256,192,110178,1,8,1:1:0:0:
256,192,110213,1,0,1:0:0:0:
256,192,110282,1,0,1:0:0:0:
256,192,110352,1,8,1:1:0:0:
256,192,110422,1,0,1:0:0:0:
256,192,110492,1,0,1:0:0:0:
256,192,110561,1,8,1:1:0:0:
256,192,110631,1,0,1:0:0:0:
256,192,110666,1,0,1:0:0:0:
256,192,110701,1,0,1:0:0:0:
256,192,110736,1,0,1:0:0:0:
256,192,110771,1,8,1:1:0:0:
256,192,110841,1,8,1:1:0:0:
256,192,110910,1,0,1:0:0:0:
256,192,110945,1,0,1:0:0:0:
256,192,110980,1,8,1:1:0:0:
256,192,111050,1,0,1:0:0:0:
256,192,111085,1,0,1:0:0:0:
256,192,111120,1,8,1:1:0:0:
256,192,111155,1,0,1:0:0:0:
256,192,111189,1,8,1:1:0:0:
256,192,111224,1,8,1:1:0:0:
256,192,111259,1,0,1:0:0:0:
256,192,111329,1,8,1:1:0:0:
256,192,111399,1,8,1:1:0:0:
256,192,111434,1,8,1:1:0:0:
256,192,111468,1,0,1:0:0:0:
256,192,111538,1,8,1:1:0:0:
256,192,111573,1,8,1:1:0:0:
256,192,111608,1,0,1:0:0:0:
256,192,111678,1,8,1:1:0:0:
256,192,111713,1,8,1:1:0:0:
256,192,111748,1,0,1:0:0:0:
256,192,111782,1,0,1:0:0:0:
256,192,111817,1,8,1:1:0:0:
256,192,111852,1,8,1:1:0:0:
256,192,111887,1,0,1:0:0:0:
256,192,111957,1,0,1:0:0:0:
256,192,111992,1,0,1:0:0:0:
256,192,112027,1,8,1:1:0:0:
256,192,112096,1,0,1:0:0:0:
256,192,112131,1,0,1:0:0:0:
256,192,112166,1,8,1:1:0:0:
256,192,112236,1,0,1:0:0:0:
256,192,112271,1,0,1:0:0:0:
256,192,112306,1,8,1:1:0:0:
256,192,112341,1,0,1:0:0:0:
256,192,112375,1,8,1:1:0:0:
256,192,112445,1,0,1:0:0:0:
256,192,112515,1,0,1:0:0:0:
256,192,112585,1,8,1:1:0:0:
256,192,112655,1,0,1:0:0:0:
256,192,112724,1,0,1:0:0:0:
256,192,112794,1,8,1:1:0:0:
256,192,112864,1,0,1:0:0:0:
256,192,112934,1,0,1:0:0:0:
256,192,113003,1,0,1:0:0:0:
256,192,113073,1,0,1:0:0:0:
256,192,113143,1,0,1:0:0:0:
256,192,113213,1,0,1:0:0:0:
256,192,113282,2,4,B|292:124|364:140|400:200|416:292|300:320|312:304,1,277.499993596226
256,192,113561,1,8,1:1:0:0:
256,192,113701,1,8,1:1:0:0:
256,192,113841,1,0,1:0:0:0:
256,192,113910,1,0,1:0:0:0:
256,192,113980,1,8,1:1:0:0:
256,192,114050,1,0,1:0:0:0:
256,192,114120,1,8,1:1:0:0:
256,192,114155,1,8,1:1:0:0:
256,192,114189,1,0,1:0:0:0:
256,192,114259,1,8,1:1:0:0:
256,192,114329,1,8,1:1:0:0:
256,192,114399,1,0,1:0:0:0:
256,192,114468,1,8,1:1:0:0:
256,192,114538,1,0,1:0:0:0:
256,192,114817,1,0,1:0:0:0:
256,192,114887,1,0,1:0:0:0:
256,192,114957,1,8,1:1:0:0:
256,192,115027,1,0,1:0:0:0:
256,192,115096,1,0,1:0:0:0:
256,192,115166,1,8,1:1:0:0:
256,192,115236,1,0,1:0:0:0:
256,192,115271,1,0,1:0:0:0:
256,192,115306,1,0,1:0:0:0:
256,192,115375,1,8,1:1:0:0:
256,192,115445,1,0,1:0:0:0:
256,192,115515,1,8,1:1:0:0:
256,192,115550,1,8,1:1:0:0:
256,192,115585,1,8,1:1:0:0:
256,192,115655,1,0,1:0:0:0:
256,192,115794,1,8,1:1:0:0:
256,192,115864,1,8,1:1:0:0:
256,192,115934,1,8,1:1:0:0:
256,192,116003,1,8,1:1:0:0:
256,192,116073,1,0,1:0:0:0:
256,192,116143,1,8,1:1:0:0:
256,192,116213,1,0,1:0:0:0:
256,192,116282,1,0,1:0:0:0:
256,192,116352,1,8,1:1:0:0:
256,192,116387,1,8,1:1:0:0:
256,192,116422,1,8,1:1:0:0:
256,192,116492,1,0,1:0:0:0:
256,192,116561,1,8,1:1:0:0:
256,192,116631,1,8,1:1:0:0:
256,192,116666,1,8,1:1:0:0:
256,192,116701,1,8,1:1:0:0:
256,192,116771,1,0,1:0:0:0:
256,192,117050,1,0,1:0:0:0:
256,192,117120,1,0,1:0:0:0:
256,192,117189,1,8,1:1:0:0:
256,192,117329,1,8,1:1:0:0:
256,192,117468,1,0,1:0:0:0:
256,192,117503,1,0,1:0:0:0:
256,192,117538,1,0,1:0:0:0:
256,192,117608,1,8,1:1:0:0:
256,192,117678,1,0,1:0:0:0:
256,192,117748,1,8,1:1:0:0:
256,192,117782,1,8,1:1:0:0:
256,192,117817,1,8,1:1:0:0:
256,192,117887,1,0,1:0:0:0:
256,192,117957,1,0,1:0:0:0:
256,192,117992,1,0,1:0:0:0:
256,192,118027,1,8,1:1:0:0:
256,192,118166,1,0,1:0:0:0:
256,192,118306,1,8,1:1:0:0:
256,192,118375,1,8,1:1:0:0:
256,192,118445,1,0,1:0:0:0:
256,192,118515,1,0,1:0:0:0:
256,192,118585,1,8,1:1:0:0:
256,192,118620,1,8,1:1:0:0:
256,192,118655,1,0,1:0:0:0:
256,192,118724,1,0,1:0:0:0:
256,192,118794,1,0,1:0:0:0:
256,192,118829,1,0,1:0:0:0:
256,192,118864,1,8,1:1:0:0:
256,192,118934,1,0,1:0:0:0:
256,192,119003,1,8,1:1:0:0:
256,192,119282,1,0,1:0:0:0:
256,192,119352,1,0,1:0:0:0:
256,192,119422,1,8,1:1:0:0:
256,192,119561,1,8,1:1:0:0:
256,192,119701,1,0,1:0:0:0:
256,192,119736,1,0,1:0:0:0:
256,192,119771,1,0,1:0:0:0:
256,192,119806,1,0,1:0:0:0:
256,192,119841,1,8,1:1:0:0:
256,192,119910,1,0,1:0:0:0:
256,192,119980,1,8,1:1:0:0:
256,192,120015,1,8,1:1:0:0:
256,192,120050,1,0,1:0:0:0:
256,192,120120,1,0,1:0:0:0:
256,192,120189,1,0,1:0:0:0:
256,192,120259,1,8,1:1:0:0:
256,192,120399,1,0,1:0:0:0:
256,192,120538,1,8,1:1:0:0:
256,192,120608,1,0,1:0:0:0:
256,192,120678,1,8,1:1:0:0:
256,192,120748,1,8,1:1:0:0:
256,192,120817,1,0,1:0:0:0:
256,192,120887,1,0,1:0:0:0:
256,192,120922,1,0,1:0:0:0:
256,192,120957,1,8,1:1:0:0:
256,192,121027,1,0,1:0:0:0:
256,192,121096,1,8,1:1:0:0:
256,192,121166,1,8,1:1:0:0:
256,192,121236,1,0,1:0:0:0:
256,192,121515,1,0,1:0:0:0:
256,192,121655,1,8,1:1:0:0:
256,192,121794,1,8,1:1:0:0:
256,192,121934,1,8,1:1:0:0:
256,192,122073,1,0,1:0:0:0:
256,192,122213,1,0,1:0:0:0:
256,192,122491,1,12,1:1:0:0:
256,192,122631,1,8,1:1:0:0:
256,192,122771,1,0,1:0:0:0:
256,192,122910,1,8,1:1:0:0:
256,192,123050,1,8,1:1:0:0:
256,192,123189,1,0,1:0:0:0:
256,192,123329,1,8,1:1:0:0:
256,192,123468,1,0,1:0:0:0:
256,192,123748,1,0,1:0:0:0:
256,192,123887,1,0,1:0:0:0:
256,192,124027,1,8,1:1:0:0:
256,192,124166,1,0,1:0:0:0:
256,192,124306,1,0,1:0:0:0:
256,192,124445,1,8,1:1:0:0:
256,192,124585,1,0,1:0:0:0:
256,192,124724,1,8,1:1:0:0:
256,192,124864,1,8,1:1:0:0:
256,192,125003,1,8,1:1:0:0:
256,192,125143,1,0,1:0:0:0:
256,192,125282,1,8,1:1:0:0:
256,192,125422,1,0,1:0:0:0:
256,192,125561,1,8,1:1:0:0:
256,192,125701,1,0,1:0:0:0:
256,192,125980,1,8,1:1:0:0:
256,192,126120,1,0,1:0:0:0:
256,192,126259,1,0,1:0:0:0:
256,192,126399,1,0,1:0:0:0:
256,192,126538,1,8,1:1:0:0:
256,192,126678,1,0,1:0:0:0:
256,192,126817,1,0,1:0:0:0:
256,192,126957,1,8,1:1:0:0:
256,192,127236,1,0,1:0:0:0:
256,192,127375,1,8,1:1:0:0:
256,192,127515,1,8,1:1:0:0:
256,192,127655,1,0,1:0:0:0:
256,192,127794,1,8,1:1:0:0:
256,192,127934,1,0,1:0:0:0:
256,192,128213,1,0,1:0:0:0:
256,192,128352,1,0,1:0:0:0:
256,192,128492,1,8,1:1:0:0:
256,192,128631,1,0,1:0:0:0:
256,192,128771,1,0,1:0:0:0:
256,192,128910,1,8,1:1:0:0:
256,192,129050,1,0,1:0:0:0:
256,192,129189,1,8,1:1:0:0:
256,192,129329,1,8,1:1:0:0:
256,192,129399,1,8,1:1:0:0:
256,192,129468,1,8,1:1:0:0:
256,192,129608,1,0,1:0:0:0:
256,192,129678,1,8,1:1:0:0:
256,192,129748,1,8,1:1:0:0:
256,192,129817,1,8,1:1:0:0:
256,192,129887,1,0,1:0:0:0:
256,192,130027,1,8,1:1:0:0:
256,192,130166,1,0,1:0:0:0:
256,192,130445,1,0,1:0:0:0:
256,192,130585,1,8,1:1:0:0:
256,192,130724,1,8,1:1:0:0:
256,192,130864,1,8,1:1:0:0:
256,192,131003,1,0,1:0:0:0:
256,192,131143,1,8,1:1:0:0:
256,192,131422,1,4,1:1:0:0:
