osu file format v14

[General]
AudioFilename: audio.mp3
AudioLeadIn: 0
PreviewTime: 180355
Countdown: 0
SampleSet: Normal
StackLeniency: 0.7
Mode: 1
LetterboxInBreaks: 0
WidescreenStoryboard: 0

[Editor]
Bookmarks: 64681,191886
DistanceSpacing: 0.1
BeatDivisor: 4
GridSize: 4
TimelineZoom: 3.900002

[Metadata]
Title:Magical Sanctuary
TitleUnicode:Magical Sanctuary
Artist:Kobaryo
ArtistUnicode:Kobaryo
Creator:Raiden
Version:Muzukashii
Source:
Tags:speedcore ridiculous HARDCORE TANO*C SPEED BALL EVOLUTION C87 Candy Speed Pops Chaotic
BeatmapID:1365650
BeatmapSetID:534568

[Difficulty]
HPDrainRate:6
CircleSize:2
OverallDifficulty:5.5
ApproachRate:10
SliderMultiplier:1.4
SliderTickRate:1

[Events]
//Background and Video events
0,0,"sanctuary.jpg",0,0
//Break Periods
//Storyboard Layer 0 (Background)
//Storyboard Layer 1 (Fail)
//Storyboard Layer 2 (Pass)
//Storyboard Layer 3 (Foreground)
//Storyboard Sound Samples

[TimingPoints]
4505,360.36036036036,4,1,0,70,1,0
36216,180.18018018018,4,1,0,100,1,1
36216,-200,4,1,0,100,0,1
41981,360.36036036036,4,1,0,100,1,0
47746,180.18018018018,4,1,0,100,1,1
47746,-200,4,1,0,100,0,1
53511,360.36036036036,4,1,0,50,1,0
58465,-100,4,1,0,100,0,0
59276,180.18018018018,4,1,0,100,1,0
59276,-200,4,1,0,100,0,0
62249,-200,4,1,0,100,0,0
62610,-200,4,1,0,100,0,0
62970,-200,4,1,0,100,0,0
63330,-200,4,1,0,100,0,0
70807,-200,4,1,0,100,0,0
76573,360.36036036036,4,1,0,70,1,0
76573,-100,4,1,0,70,0,0
88104,-100,4,1,0,80,0,0
111167,-100,4,1,0,70,0,0
114049,-100,4,1,0,40,0,0
122699,-100,4,1,0,70,0,0
132698,-100,4,1,0,10,0,0
134229,-100,4,1,0,70,0,0
157292,-83.3333333333333,4,1,0,80,0,0
180355,180.18018018018,4,1,0,100,1,1
180355,-166.666666666667,4,1,0,100,0,1
203418,360.36036036036,4,1,0,70,1,0
203418,-100,4,1,0,70,0,0
214949,180.18018018018,4,1,0,100,1,1
214949,-166.666666666667,4,1,0,100,0,1
220714,-166.666666666667,4,1,0,100,0,1
226481,-166.666666666667,4,1,0,100,0,1
231931,-166.666666666667,4,1,0,100,0,1
232021,-181.818181818182,4,1,0,100,0,1
232111,-181.818181818182,4,1,0,100,0,1
232246,-200,4,1,0,100,0,0
237291,-200,4,1,0,100,0,1
238012,-200,4,1,0,100,0,0
238733,-200,4,1,0,80,0,0
240174,-200,4,1,0,65,0,0
240895,-200,4,1,0,50,0,0
241616,-200,4,1,0,35,0,0
242337,-200,4,1,0,20,0,0

[HitObjects]
192,96,4505,5,0,0:0:0:0:
96,128,5045,1,0,0:0:0:0:
96,128,5405,1,0,0:0:0:0:
320,352,5946,1,8,0:0:0:0:
320,352,6486,1,8,0:0:0:0:
320,352,6847,1,8,0:0:0:0:
128,128,7387,1,0,0:0:0:0:
288,288,7928,5,8,0:0:0:0:
96,96,8288,1,0,0:0:0:0:
352,320,8829,5,8,0:0:0:0:
128,96,9189,1,0,0:0:0:0:
416,352,9369,1,8,0:0:0:0:
128,96,9550,1,0,0:0:0:0:
352,320,9910,1,8,0:0:0:0:
96,96,10270,5,0,0:0:0:0:
160,128,10811,1,0,0:0:0:0:
160,128,11171,1,0,0:0:0:0:
352,320,11351,1,8,0:0:0:0:
128,96,11712,1,0,0:0:0:0:
114,108,12252,1,0,0:0:0:0:
109,121,12613,1,0,0:0:0:0:
388,285,12793,1,8,0:0:0:0:
157,139,13153,5,0,0:0:0:0:
137,133,13694,1,0,0:0:0:0:
128,104,14054,1,0,0:0:0:0:
371,329,14234,1,8,0:0:0:0:
321,283,14595,5,8,0:0:0:0:
91,146,14955,1,0,0:0:0:0:
339,290,15135,1,8,0:0:0:0:
132,111,15315,1,0,0:0:0:0:
320,315,15676,5,8,0:0:0:0:
148,268,16036,5,4,0:0:0:0:
407,268,16396,1,8,0:0:0:0:
164,77,16577,1,0,0:0:0:0:
161,117,16937,1,0,0:0:0:0:
362,290,17117,1,8,0:0:0:0:
120,108,17477,5,0,0:0:0:0:
341,274,17838,1,8,0:0:0:0:
105,107,18018,1,0,0:0:0:0:
92,82,18378,1,0,0:0:0:0:
341,274,18559,1,8,0:0:0:0:
123,95,18919,5,0,0:0:0:0:
330,318,19279,1,8,0:0:0:0:
311,280,19459,1,8,0:0:0:0:
121,112,19820,1,0,0:0:0:0:
295,261,20000,1,8,0:0:0:0:
106,98,20360,5,0,0:0:0:0:
373,323,20721,1,8,0:0:0:0:
349,329,20901,1,8,0:0:0:0:
131,120,21081,1,0,0:0:0:0:
398,109,21802,5,12,0:0:0:0:
362,265,21982,5,8,0:0:0:0:
362,265,22162,5,8,0:0:0:0:
362,265,22523,5,8,0:0:0:0:
362,265,22883,5,8,0:0:0:0:
362,265,23063,5,8,0:0:0:0:
362,265,23243,5,8,0:0:0:0:
362,265,23604,5,8,0:0:0:0:
362,265,23964,5,8,0:0:0:0:
362,265,24324,5,8,0:0:0:0:
362,265,24414,5,8,0:0:0:0:
362,265,24504,5,8,0:0:0:0:
344,292,24685,5,8,0:0:0:0:
343,259,25045,5,8,0:0:0:0:
343,259,25225,5,8,0:0:0:0:
343,259,25405,5,8,0:0:0:0:
343,259,25766,5,8,0:0:0:0:
10,307,26126,2,0,L|507:42,1,560
256,192,27748,12,0,29550,0:0:0:0:
359,188,29730,5,12,0:0:0:0:
359,188,30090,1,12,0:0:0:0:
359,188,30270,1,12,0:0:0:0:
115,286,30450,5,4,0:0:0:0:
368,284,30811,1,8,0:0:0:0:
128,96,31081,1,0,0:0:0:0:
395,291,31351,1,8,0:0:0:0:
104,116,31532,1,0,0:0:0:0:
136,112,31622,1,0,0:0:0:0:
128,128,31712,1,0,0:0:0:0:
188,104,31892,1,0,0:0:0:0:
384,256,32252,1,8,0:0:0:0:
128,128,32523,1,0,0:0:0:0:
352,288,32793,1,8,0:0:0:0:
288,256,32973,1,8,0:0:0:0:
320,256,33063,1,8,0:0:0:0:
408,300,33153,1,8,0:0:0:0:
96,96,33333,5,0,0:0:0:0:
416,320,33694,1,8,0:0:0:0:
192,192,33964,1,0,0:0:0:0:
348,292,34234,1,8,0:0:0:0:
141,82,34414,1,0,0:0:0:0:
141,82,34504,1,0,0:0:0:0:
136,96,34595,1,0,0:0:0:0:
128,128,34775,1,0,0:0:0:0:
288,256,35135,1,8,0:0:0:0:
352,288,35495,1,8,0:0:0:0:
160,160,35676,1,0,0:0:0:0:
384,320,35856,1,8,0:0:0:0:
160,288,36216,5,0,0:0:0:0:
352,320,36396,1,8,0:0:0:0:
160,96,36576,1,0,0:0:0:0:
160,96,36756,1,0,0:0:0:0:
352,288,36936,5,8,0:0:0:0:
176,164,37297,1,0,0:0:0:0:
192,128,37657,5,0,0:0:0:0:
160,96,37837,1,0,0:0:0:0:
384,256,38017,1,8,0:0:0:0:
352,288,38378,5,8,0:0:0:0:
340,236,38558,1,8,0:0:0:0:
340,236,38648,1,8,0:0:0:0:
384,256,38738,1,8,0:0:0:0:
160,288,39098,5,0,0:0:0:0:
352,320,39278,1,8,0:0:0:0:
160,96,39458,1,0,0:0:0:0:
160,96,39638,1,0,0:0:0:0:
352,288,39818,5,8,0:0:0:0:
352,288,40179,1,8,0:0:0:0:
192,128,40539,5,0,0:0:0:0:
120,68,40720,1,0,0:0:0:0:
384,256,40899,1,8,0:0:0:0:
128,128,41079,1,0,0:0:0:0:
144,132,41260,5,0,0:0:0:0:
340,236,41441,1,8,0:0:0:0:
288,176,41531,1,8,0:0:0:0:
115,286,41981,5,4,0:0:0:0:
368,284,42342,1,8,0:0:0:0:
128,96,42612,1,0,0:0:0:0:
395,291,42882,1,8,0:0:0:0:
104,116,43063,1,0,0:0:0:0:
136,112,43153,1,0,0:0:0:0:
128,128,43243,1,0,0:0:0:0:
188,104,43423,1,0,0:0:0:0:
384,256,43783,1,8,0:0:0:0:
128,128,44054,1,0,0:0:0:0:
352,288,44324,1,8,0:0:0:0:
288,256,44504,1,8,0:0:0:0:
320,256,44594,1,8,0:0:0:0:
408,300,44684,1,8,0:0:0:0:
96,96,44864,5,0,0:0:0:0:
416,320,45225,1,8,0:0:0:0:
192,192,45495,1,0,0:0:0:0:
348,292,45765,1,8,0:0:0:0:
141,82,45945,1,0,0:0:0:0:
141,82,46035,1,0,0:0:0:0:
136,96,46126,1,0,0:0:0:0:
128,128,46306,1,0,0:0:0:0:
288,256,46666,1,8,0:0:0:0:
352,288,47026,1,8,0:0:0:0:
160,160,47207,1,0,0:0:0:0:
384,320,47387,5,8,0:0:0:0:
160,288,47746,5,0,0:0:0:0:
352,320,47926,1,8,0:0:0:0:
160,96,48106,1,0,0:0:0:0:
160,96,48286,1,0,0:0:0:0:
352,288,48466,5,8,0:0:0:0:
176,164,48827,1,0,0:0:0:0:
192,128,49187,5,0,0:0:0:0:
160,96,49367,1,0,0:0:0:0:
384,256,49547,1,8,0:0:0:0:
352,288,49908,5,8,0:0:0:0:
340,236,50088,1,8,0:0:0:0:
340,236,50178,1,8,0:0:0:0:
384,256,50268,1,8,0:0:0:0:
160,288,50628,5,0,0:0:0:0:
352,320,50808,1,8,0:0:0:0:
160,96,50988,1,0,0:0:0:0:
160,96,51168,1,0,0:0:0:0:
352,288,51348,5,8,0:0:0:0:
352,288,51709,1,8,0:0:0:0:
192,128,52069,5,0,0:0:0:0:
120,68,52250,1,0,0:0:0:0:
384,256,52429,1,8,0:0:0:0:
128,128,52609,1,0,0:0:0:0:
144,132,52790,5,0,0:0:0:0:
340,236,52971,1,8,0:0:0:0:
288,176,53061,1,8,0:0:0:0:
352,244,53151,1,8,0:0:0:0:
116,280,53511,5,4,0:0:0:0:
148,107,54952,5,0,0:0:0:0:
102,97,56393,1,0,0:0:0:0:
102,97,57835,1,0,0:0:0:0:
102,97,58556,1,0,0:0:0:0:
102,97,58736,1,0,0:0:0:0:
346,288,58916,1,8,0:0:0:0:
160,286,59276,5,4,0:0:0:0:
109,122,59546,1,0,0:0:0:0:
374,288,59817,1,8,0:0:0:0:
127,157,59997,1,0,0:0:0:0:
320,271,60177,1,8,0:0:0:0:
126,107,60357,5,0,0:0:0:0:
320,304,60718,5,4,0:0:0:0:
112,100,60988,1,0,0:0:0:0:
182,135,61257,1,0,0:0:0:0:
100,97,61438,1,0,0:0:0:0:
418,311,61619,1,8,0:0:0:0:
151,121,61799,5,0,0:0:0:0:
126,308,62158,5,4,0:0:0:0:
89,98,62520,1,0,0:0:0:0:
352,295,62700,1,8,0:0:0:0:
89,98,62879,1,0,0:0:0:0:
89,98,63239,1,0,0:0:0:0:
347,296,63420,1,8,0:0:0:0:
84,99,63600,5,4,0:0:0:0:
84,99,63960,1,0,0:0:0:0:
347,296,64141,1,8,0:0:0:0:
84,99,64322,5,0,0:0:0:0:
347,296,64501,1,8,0:0:0:0:
130,296,65041,5,0,0:0:0:0:
148,112,65312,1,0,0:0:0:0:
388,268,65582,1,8,0:0:0:0:
388,268,65672,1,8,0:0:0:0:
388,268,65762,1,8,0:0:0:0:
392,312,65942,1,8,0:0:0:0:
120,132,66123,1,0,0:0:0:0:
124,96,66483,5,0,0:0:0:0:
340,264,66753,1,8,0:0:0:0:
72,88,67023,1,0,0:0:0:0:
72,88,67113,1,0,0:0:0:0:
144,116,67203,5,0,0:0:0:0:
392,312,67383,1,8,0:0:0:0:
120,132,67564,1,0,0:0:0:0:
92,56,67924,5,0,0:0:0:0:
380,296,68194,1,8,0:0:0:0:
420,340,68464,1,8,0:0:0:0:
512,348,68554,1,8,0:0:0:0:
428,320,68644,1,8,0:0:0:0:
392,312,68824,1,8,0:0:0:0:
120,132,69005,1,0,0:0:0:0:
112,92,69366,5,0,0:0:0:0:
340,264,69636,1,8,0:0:0:0:
24,36,69906,1,0,0:0:0:0:
244,168,69996,1,0,0:0:0:0:
144,116,70086,1,0,0:0:0:0:
392,312,70266,1,8,0:0:0:0:
120,132,70447,1,0,0:0:0:0:
130,296,70807,5,4,0:0:0:0:
340,264,71077,1,8,0:0:0:0:
136,136,71347,1,0,0:0:0:0:
132,92,71438,1,0,0:0:0:0:
132,144,71527,1,0,0:0:0:0:
468,380,71707,1,8,0:0:0:0:
120,132,71888,1,0,0:0:0:0:
124,96,72248,5,0,0:0:0:0:
340,264,72519,1,8,0:0:0:0:
136,136,72788,1,0,0:0:0:0:
120,104,72878,1,0,0:0:0:0:
144,116,72968,5,0,0:0:0:0:
392,312,73148,1,8,0:0:0:0:
120,132,73329,1,0,0:0:0:0:
92,56,73689,5,0,0:0:0:0:
340,264,73959,1,8,0:0:0:0:
136,136,74229,1,0,0:0:0:0:
116,88,74321,1,0,0:0:0:0:
144,116,74411,1,0,0:0:0:0:
392,312,74591,1,8,0:0:0:0:
120,132,74771,1,0,0:0:0:0:
112,92,75131,5,0,0:0:0:0:
340,264,75402,1,8,0:0:0:0:
400,320,75671,1,8,0:0:0:0:
368,296,75762,1,8,0:0:0:0:
368,248,75852,1,8,0:0:0:0:
392,312,76031,1,8,0:0:0:0:
80,248,76573,5,4,0:0:0:0:
120,136,76933,1,0,0:0:0:0:
324,296,77293,1,8,0:0:0:0:
136,120,78014,1,0,0:0:0:0:
136,152,78374,1,0,0:0:0:0:
344,260,78735,1,8,0:0:0:0:
172,144,79455,1,0,0:0:0:0:
416,304,79816,1,8,0:0:0:0:
172,144,80176,1,0,0:0:0:0:
160,152,80897,1,0,0:0:0:0:
472,312,81257,1,8,0:0:0:0:
360,256,81618,1,8,0:0:0:0:
124,88,82338,5,4,0:0:0:0:
432,316,82699,1,8,0:0:0:0:
432,316,83059,1,8,0:0:0:0:
432,316,83419,1,8,0:0:0:0:
432,316,83780,1,8,0:0:0:0:
432,316,84500,1,8,0:0:0:0:
432,316,84861,1,8,0:0:0:0:
80,284,85221,2,0,B|256:116|292:96,2,280
92,264,88104,5,4,0:0:0:0:
368,320,88824,1,8,0:0:0:0:
120,108,89545,1,0,0:0:0:0:
120,108,89815,1,0,0:0:0:0:
144,104,90085,1,0,0:0:0:0:
328,252,90266,1,8,0:0:0:0:
108,80,90986,5,0,0:0:0:0:
312,232,91707,1,8,0:0:0:0:
108,112,91977,1,0,0:0:0:0:
132,104,92248,1,0,0:0:0:0:
132,104,92428,1,0,0:0:0:0:
96,108,92699,1,0,0:0:0:0:
96,108,92968,1,0,0:0:0:0:
372,304,93149,1,8,0:0:0:0:
128,136,93509,1,0,0:0:0:0:
104,264,93869,5,4,0:0:0:0:
360,272,94590,1,8,0:0:0:0:
152,116,95311,1,0,0:0:0:0:
112,136,95582,1,0,0:0:0:0:
152,116,95852,1,0,0:0:0:0:
332,280,96031,1,8,0:0:0:0:
384,272,96302,1,8,0:0:0:0:
384,272,96572,1,8,0:0:0:0:
68,112,96752,5,0,0:0:0:0:
336,292,97473,1,8,0:0:0:0:
136,124,97833,1,0,0:0:0:0:
136,124,98013,1,0,0:0:0:0:
376,260,98194,1,8,0:0:0:0:
88,116,98464,1,0,0:0:0:0:
88,116,98734,1,0,0:0:0:0:
412,308,98914,1,8,0:0:0:0:
380,288,99185,1,8,0:0:0:0:
336,252,99455,1,8,0:0:0:0:
120,104,99635,5,0,0:0:0:0:
380,288,99995,1,8,0:0:0:0:
120,128,100356,1,0,0:0:0:0:
176,132,100536,1,0,0:0:0:0:
348,264,100716,1,8,0:0:0:0:
192,116,101076,1,0,0:0:0:0:
176,152,101257,1,0,0:0:0:0:
360,272,101437,1,8,0:0:0:0:
156,124,101617,1,0,0:0:0:0:
176,96,101708,1,0,0:0:0:0:
156,124,101797,1,0,0:0:0:0:
144,128,101977,1,0,0:0:0:0:
292,240,102158,1,8,0:0:0:0:
128,96,102518,1,0,0:0:0:0:
376,244,102878,1,8,0:0:0:0:
164,128,103058,1,0,0:0:0:0:
160,128,103149,1,0,0:0:0:0:
160,128,103239,5,0,0:0:0:0:
168,100,103419,1,0,0:0:0:0:
316,236,103599,1,8,0:0:0:0:
152,104,103959,1,0,0:0:0:0:
124,104,104140,1,0,0:0:0:0:
348,244,104320,1,8,0:0:0:0:
64,88,104500,1,0,0:0:0:0:
64,88,104590,1,0,0:0:0:0:
88,32,104680,1,0,0:0:0:0:
384,296,104860,1,8,0:0:0:0:
152,256,105401,5,4,0:0:0:0:
420,248,105761,1,8,0:0:0:0:
144,112,105941,1,0,0:0:0:0:
144,112,106031,1,0,0:0:0:0:
144,112,106122,1,0,0:0:0:0:
144,112,106302,1,0,0:0:0:0:
372,260,106482,1,8,0:0:0:0:
148,84,106842,1,0,0:0:0:0:
136,104,107022,1,0,0:0:0:0:
348,248,107203,1,8,0:0:0:0:
160,116,107383,1,0,0:0:0:0:
139,97,107473,1,0,0:0:0:0:
160,116,107563,1,0,0:0:0:0:
104,112,107743,1,0,0:0:0:0:
336,252,107923,1,8,0:0:0:0:
200,140,108284,1,0,0:0:0:0:
380,304,108644,1,8,0:0:0:0:
144,116,108824,1,0,0:0:0:0:
292,268,109004,1,8,0:0:0:0:
152,116,109185,1,0,0:0:0:0:
372,272,109365,1,8,0:0:0:0:
152,96,109725,5,0,0:0:0:0:
388,296,109905,1,8,0:0:0:0:
400,304,109995,1,8,0:0:0:0:
332,272,110085,1,8,0:0:0:0:
360,272,110266,1,8,0:0:0:0:
176,152,110446,1,0,0:0:0:0:
340,268,110626,1,8,0:0:0:0:
152,272,111167,5,4,0:0:0:0:
152,272,114049,1,0,0:0:0:0:
152,272,116932,1,0,0:0:0:0:
152,272,119815,1,0,0:0:0:0:
152,272,122698,5,0,0:0:0:0:
360,268,123418,1,8,0:0:0:0:
360,268,123600,1,8,0:0:0:0:
136,116,124139,1,0,0:0:0:0:
360,272,124860,1,8,0:0:0:0:
360,272,125040,1,8,0:0:0:0:
344,280,125220,1,8,0:0:0:0:
148,140,125582,1,0,0:0:0:0:
360,296,126302,1,8,0:0:0:0:
360,296,126482,1,8,0:0:0:0:
360,296,126663,1,8,0:0:0:0:
144,140,127022,1,0,0:0:0:0:
72,120,127923,1,0,0:0:0:0:
336,264,128103,1,8,0:0:0:0:
44,112,128463,1,0,0:0:0:0:
316,236,129184,1,8,0:0:0:0:
316,236,129364,1,8,0:0:0:0:
104,120,129905,1,0,0:0:0:0:
80,68,130627,1,0,0:0:0:0:
16,80,130806,1,0,0:0:0:0:
336,284,130986,1,8,0:0:0:0:
144,140,131346,1,0,0:0:0:0:
420,312,132067,1,8,0:0:0:0:
420,312,132247,1,8,0:0:0:0:
128,112,132427,1,0,0:0:0:0:
256,192,132788,12,0,134049,0:0:0:0:
192,96,134229,5,0,0:0:0:0:
96,128,134771,1,0,0:0:0:0:
96,128,135131,1,0,0:0:0:0:
320,352,135672,1,8,0:0:0:0:
320,352,136212,1,8,0:0:0:0:
320,352,136572,1,8,0:0:0:0:
128,128,137113,1,0,0:0:0:0:
288,288,137654,5,8,0:0:0:0:
96,96,138014,1,0,0:0:0:0:
352,320,138553,5,8,0:0:0:0:
128,96,138915,1,0,0:0:0:0:
416,352,139095,1,8,0:0:0:0:
128,96,139274,1,0,0:0:0:0:
352,320,139636,1,8,0:0:0:0:
96,96,139996,5,0,0:0:0:0:
144,128,140356,1,0,0:0:0:0:
300,288,140716,1,8,0:0:0:0:
124,108,141076,1,0,0:0:0:0:
328,260,141437,1,8,0:0:0:0:
328,260,141618,1,8,0:0:0:0:
140,84,141798,1,0,0:0:0:0:
140,84,141978,1,0,0:0:0:0:
140,84,142158,1,0,0:0:0:0:
388,304,142517,1,8,0:0:0:0:
144,116,143238,1,0,0:0:0:0:
408,312,143600,1,8,0:0:0:0:
176,144,143960,1,0,0:0:0:0:
416,296,144320,1,8,0:0:0:0:
184,112,144500,1,0,0:0:0:0:
432,304,144681,1,8,0:0:0:0:
432,304,144861,1,8,0:0:0:0:
168,112,145041,1,0,0:0:0:0:
468,316,145400,1,8,0:0:0:0:
216,112,146121,1,0,0:0:0:0:
388,248,146481,1,8,0:0:0:0:
144,96,146842,1,0,0:0:0:0:
364,248,147202,1,8,0:0:0:0:
364,248,147382,1,8,0:0:0:0:
364,248,147562,1,8,0:0:0:0:
364,248,147743,1,8,0:0:0:0:
120,72,147923,1,0,0:0:0:0:
404,280,148284,1,8,0:0:0:0:
264,180,149005,1,0,0:0:0:0:
384,260,149364,1,8,0:0:0:0:
136,124,149725,1,0,0:0:0:0:
408,312,150085,1,8,0:0:0:0:
408,312,150265,1,8,0:0:0:0:
408,312,150445,1,8,0:0:0:0:
128,104,150627,1,0,0:0:0:0:
408,312,150806,1,8,0:0:0:0:
420,280,151166,1,8,0:0:0:0:
168,120,151887,1,0,0:0:0:0:
420,296,152247,1,8,0:0:0:0:
120,100,152609,1,0,0:0:0:0:
384,292,152968,1,0,0:0:0:0:
384,292,153148,1,0,0:0:0:0:
384,292,153328,1,8,0:0:0:0:
384,292,153508,1,8,0:0:0:0:
120,96,153690,1,0,0:0:0:0:
376,272,154049,1,8,0:0:0:0:
132,120,154770,1,0,0:0:0:0:
336,256,155130,1,8,0:0:0:0:
132,68,155490,1,0,0:0:0:0:
400,272,155851,5,8,0:0:0:0:
192,88,156031,1,0,0:0:0:0:
424,284,156211,1,8,0:0:0:0:
424,284,156391,1,8,0:0:0:0:
424,284,156572,1,8,0:0:0:0:
144,100,156933,1,0,0:0:0:0:
104,288,157292,5,4,0:0:0:0:
388,304,157654,1,8,0:0:0:0:
120,120,157834,1,0,0:0:0:0:
360,312,158014,1,8,0:0:0:0:
348,300,158104,1,8,0:0:0:0:
368,288,158194,1,8,0:0:0:0:
164,120,158374,1,0,0:0:0:0:
124,136,158553,1,0,0:0:0:0:
388,320,159095,1,8,0:0:0:0:
144,128,159275,1,0,0:0:0:0:
400,336,159455,1,8,0:0:0:0:
400,280,159636,1,8,0:0:0:0:
400,280,159726,1,8,0:0:0:0:
356,272,159816,1,8,0:0:0:0:
408,320,159996,1,8,0:0:0:0:
400,324,160536,1,8,0:0:0:0:
140,160,160717,1,0,0:0:0:0:
400,280,160897,1,8,0:0:0:0:
400,280,160987,1,8,0:0:0:0:
400,280,161077,1,8,0:0:0:0:
168,144,161257,1,0,0:0:0:0:
412,296,161437,1,0,0:0:0:0:
440,320,161978,1,8,0:0:0:0:
148,128,162158,1,0,0:0:0:0:
408,272,162338,1,8,0:0:0:0:
408,272,162518,1,8,0:0:0:0:
448,248,162609,1,8,0:0:0:0:
336,232,162699,1,8,0:0:0:0:
328,260,162879,1,8,0:0:0:0:
372,176,163059,5,12,0:0:0:0:
400,276,163419,1,8,0:0:0:0:
400,276,163780,1,8,0:0:0:0:
400,276,164140,1,8,0:0:0:0:
392,264,164500,1,8,0:0:0:0:
392,264,165221,1,8,0:0:0:0:
392,264,165582,1,8,0:0:0:0:
392,264,165942,1,12,0:0:0:0:
392,264,166663,1,8,0:0:0:0:
392,264,167023,1,8,0:0:0:0:
392,264,167383,1,8,0:0:0:0:
392,264,168104,1,8,0:0:0:0:
392,264,168464,1,8,0:0:0:0:
152,272,168825,5,4,0:0:0:0:
168,112,169005,1,0,0:0:0:0:
428,288,169185,1,8,0:0:0:0:
152,104,169366,1,0,0:0:0:0:
136,84,169726,1,0,0:0:0:0:
432,312,169906,1,8,0:0:0:0:
152,104,170087,1,0,0:0:0:0:
136,84,170447,1,0,0:0:0:0:
432,312,170627,1,8,0:0:0:0:
152,104,170807,1,0,0:0:0:0:
136,84,171167,1,0,0:0:0:0:
432,312,171347,1,8,0:0:0:0:
152,104,171528,1,0,0:0:0:0:
160,84,171888,5,0,0:0:0:0:
432,312,172068,1,8,0:0:0:0:
152,104,172248,1,0,0:0:0:0:
136,84,172608,1,0,0:0:0:0:
432,312,172788,1,8,0:0:0:0:
152,104,172969,1,0,0:0:0:0:
136,84,173329,1,0,0:0:0:0:
432,312,173509,1,8,0:0:0:0:
152,104,173690,1,0,0:0:0:0:
136,84,174050,1,0,0:0:0:0:
432,312,174230,1,8,0:0:0:0:
140,104,174411,1,0,0:0:0:0:
400,296,174591,5,8,0:0:0:0:
400,296,174951,5,8,0:0:0:0:
144,88,175131,1,0,0:0:0:0:
400,296,175312,5,8,0:0:0:0:
144,88,175492,1,0,0:0:0:0:
400,296,175672,5,8,0:0:0:0:
144,88,175852,1,0,0:0:0:0:
400,296,176032,5,8,0:0:0:0:
400,296,176393,5,8,0:0:0:0:
144,88,176573,1,0,0:0:0:0:
400,296,176753,5,8,0:0:0:0:
144,88,176933,1,0,0:0:0:0:
400,296,177113,5,8,0:0:0:0:
144,88,177293,1,0,0:0:0:0:
400,296,177474,5,8,0:0:0:0:
400,296,177834,5,8,0:0:0:0:
400,296,178014,1,8,0:0:0:0:
400,296,178194,5,8,0:0:0:0:
400,296,178374,1,8,0:0:0:0:
400,296,178555,5,8,0:0:0:0:
400,296,178735,1,8,0:0:0:0:
336,260,178825,1,8,0:0:0:0:
104,288,180356,5,4,0:0:0:0:
388,304,180715,1,8,0:0:0:0:
120,120,180895,1,0,0:0:0:0:
360,312,181075,1,8,0:0:0:0:
348,300,181165,1,8,0:0:0:0:
360,300,181255,1,8,0:0:0:0:
164,120,181436,1,0,0:0:0:0:
404,332,181616,1,8,0:0:0:0:
388,320,182156,1,8,0:0:0:0:
144,128,182336,1,0,0:0:0:0:
400,336,182517,1,8,0:0:0:0:
396,328,182607,1,8,0:0:0:0:
400,280,182697,1,8,0:0:0:0:
408,320,182877,1,8,0:0:0:0:
152,112,183057,1,0,0:0:0:0:
400,324,183598,1,8,0:0:0:0:
140,160,183778,1,0,0:0:0:0:
400,280,183958,1,8,0:0:0:0:
400,280,184048,1,8,0:0:0:0:
400,280,184138,1,8,0:0:0:0:
168,144,184318,1,0,0:0:0:0:
412,296,184499,1,8,0:0:0:0:
440,320,185039,1,8,0:0:0:0:
148,128,185219,1,0,0:0:0:0:
408,272,185400,1,8,0:0:0:0:
408,272,185490,1,8,0:0:0:0:
408,272,185580,1,8,0:0:0:0:
336,232,185760,1,8,0:0:0:0:
328,260,185940,1,8,0:0:0:0:
388,304,186480,1,8,0:0:0:0:
128,108,186660,1,0,0:0:0:0:
360,312,186840,1,8,0:0:0:0:
348,300,186930,1,8,0:0:0:0:
408,304,187020,1,8,0:0:0:0:
164,120,187201,1,0,0:0:0:0:
320,264,187382,1,8,0:0:0:0:
388,320,187921,1,8,0:0:0:0:
404,304,188101,1,8,0:0:0:0:
400,336,188282,1,8,0:0:0:0:
408,288,188372,1,8,0:0:0:0:
400,280,188462,1,8,0:0:0:0:
152,112,188642,1,0,0:0:0:0:
408,320,188822,1,8,0:0:0:0:
400,324,189363,1,8,0:0:0:0:
140,160,189543,1,0,0:0:0:0:
400,280,189723,1,8,0:0:0:0:
412,296,189814,1,8,0:0:0:0:
400,280,189903,1,8,0:0:0:0:
168,144,190083,1,0,0:0:0:0:
412,296,190264,1,8,0:0:0:0:
440,320,190804,1,8,0:0:0:0:
148,128,190984,1,0,0:0:0:0:
496,356,191165,1,8,0:0:0:0:
412,320,191346,1,8,0:0:0:0:
408,336,191435,1,8,0:0:0:0:
104,288,191886,5,4,0:0:0:0:
388,304,192246,1,8,0:0:0:0:
120,120,192427,1,0,0:0:0:0:
360,312,192607,1,8,0:0:0:0:
348,300,192697,1,8,0:0:0:0:
360,300,192787,1,8,0:0:0:0:
164,120,192967,1,0,0:0:0:0:
404,332,193147,1,8,0:0:0:0:
388,320,193688,1,8,0:0:0:0:
144,128,193868,1,0,0:0:0:0:
400,336,194048,1,8,0:0:0:0:
396,328,194138,1,8,0:0:0:0:
400,280,194228,1,8,0:0:0:0:
408,320,194409,1,8,0:0:0:0:
152,112,194589,1,0,0:0:0:0:
400,324,195129,1,8,0:0:0:0:
140,160,195309,1,0,0:0:0:0:
400,280,195490,1,8,0:0:0:0:
400,280,195580,1,8,0:0:0:0:
400,280,195670,1,8,0:0:0:0:
168,144,195850,1,0,0:0:0:0:
412,296,196030,1,8,0:0:0:0:
440,320,196571,1,8,0:0:0:0:
148,128,196751,1,0,0:0:0:0:
408,272,196931,1,8,0:0:0:0:
408,272,197021,1,8,0:0:0:0:
408,272,197111,1,8,0:0:0:0:
336,232,197291,1,8,0:0:0:0:
328,260,197472,1,8,0:0:0:0:
388,304,198012,1,8,0:0:0:0:
128,108,198193,1,0,0:0:0:0:
360,312,198373,1,8,0:0:0:0:
348,300,198463,1,8,0:0:0:0:
408,304,198553,1,8,0:0:0:0:
164,120,198733,1,0,0:0:0:0:
320,264,198913,1,8,0:0:0:0:
388,320,199454,1,8,0:0:0:0:
404,304,199634,1,8,0:0:0:0:
400,336,199814,1,8,0:0:0:0:
408,288,199904,1,8,0:0:0:0:
400,280,199994,1,8,0:0:0:0:
152,112,200174,1,0,0:0:0:0:
408,320,200354,1,8,0:0:0:0:
400,324,200895,1,8,0:0:0:0:
140,160,201075,1,0,0:0:0:0:
400,280,201255,1,8,0:0:0:0:
412,296,201345,1,8,0:0:0:0:
400,280,201436,1,8,0:0:0:0:
168,144,201616,1,0,0:0:0:0:
412,296,201796,1,8,0:0:0:0:
440,320,202336,1,8,0:0:0:0:
148,128,202517,1,0,0:0:0:0:
496,356,202697,1,8,0:0:0:0:
412,320,202876,1,8,0:0:0:0:
408,336,202967,1,8,0:0:0:0:
160,104,203418,5,4,0:0:0:0:
416,276,203598,1,8,0:0:0:0:
168,128,203778,1,0,0:0:0:0:
412,248,203958,1,8,0:0:0:0:
132,96,204138,1,0,0:0:0:0:
172,108,204499,1,0,0:0:0:0:
340,240,204679,1,8,0:0:0:0:
132,96,204859,1,0,0:0:0:0:
148,120,205219,1,0,0:0:0:0:
344,272,205400,1,8,0:0:0:0:
120,128,205580,5,0,0:0:0:0:
120,128,205940,1,0,0:0:0:0:
388,288,206120,1,8,0:0:0:0:
140,124,206301,1,0,0:0:0:0:
376,304,206481,1,8,0:0:0:0:
136,104,206661,1,0,0:0:0:0:
136,80,207021,1,0,0:0:0:0:
80,88,207382,1,0,0:0:0:0:
392,288,207562,1,8,0:0:0:0:
128,96,207742,5,0,0:0:0:0:
104,48,208102,1,0,0:0:0:0:
136,104,208282,1,0,0:0:0:0:
152,96,208463,1,0,0:0:0:0:
360,288,208643,1,8,0:0:0:0:
88,272,209183,1,4,0:0:0:0:
136,112,209544,1,0,0:0:0:0:
368,312,209904,1,8,0:0:0:0:
152,112,210264,1,0,0:0:0:0:
152,112,210625,1,0,0:0:0:0:
416,280,211346,1,8,0:0:0:0:
64,120,212066,5,4,0:0:0:0:
128,232,213508,1,8,0:0:0:0:
168,296,214949,5,0,0:0:0:0:
368,286,215129,1,8,0:0:0:0:
312,248,215219,1,8,0:0:0:0:
424,296,215310,1,8,0:0:0:0:
384,264,215490,1,8,0:0:0:0:
168,92,215670,1,0,0:0:0:0:
152,96,215850,1,0,0:0:0:0:
176,112,215940,1,0,0:0:0:0:
160,116,216030,1,0,0:0:0:0:
448,288,216210,1,8,0:0:0:0:
347,276,216571,1,8,0:0:0:0:
392,308,216661,1,8,0:0:0:0:
376,256,216751,1,8,0:0:0:0:
144,104,216931,1,0,0:0:0:0:
396,304,217111,1,8,0:0:0:0:
192,144,217291,1,0,0:0:0:0:
160,120,217382,1,0,0:0:0:0:
184,96,217471,1,0,0:0:0:0:
390,272,217651,1,8,0:0:0:0:
331,246,218012,1,8,0:0:0:0:
396,276,218102,1,8,0:0:0:0:
424,296,218193,1,8,0:0:0:0:
384,264,218373,1,8,0:0:0:0:
384,264,218553,1,0,0:0:0:0:
176,112,218642,1,0,0:0:0:0:
331,246,218733,1,0,0:0:0:0:
416,304,218913,1,8,0:0:0:0:
448,288,219093,1,8,0:0:0:0:
421,279,219454,1,8,0:0:0:0:
444,260,219544,1,8,0:0:0:0:
376,256,219634,1,8,0:0:0:0:
144,104,219814,1,0,0:0:0:0:
112,128,219994,1,0,0:0:0:0:
112,128,220084,1,0,0:0:0:0:
128,104,220174,1,0,0:0:0:0:
376,256,220355,1,8,0:0:0:0:
168,296,220714,5,0,0:0:0:0:
334,265,220895,1,8,0:0:0:0:
352,244,220985,1,8,0:0:0:0:
424,296,221076,1,8,0:0:0:0:
384,264,221256,1,8,0:0:0:0:
191,75,221436,1,0,0:0:0:0:
176,112,221616,1,0,0:0:0:0:
176,112,221706,1,0,0:0:0:0:
156,104,221795,1,0,0:0:0:0:
448,288,221976,1,8,0:0:0:0:
348,245,222337,1,8,0:0:0:0:
424,256,222426,1,8,0:0:0:0:
376,256,222517,1,8,0:0:0:0:
144,104,222697,1,0,0:0:0:0:
112,128,222877,1,0,0:0:0:0:
112,128,222967,1,0,0:0:0:0:
136,76,223057,1,0,0:0:0:0:
376,256,223238,1,8,0:0:0:0:
416,296,223418,1,8,0:0:0:0:
313,214,223777,1,8,0:0:0:0:
352,256,223867,1,8,0:0:0:0:
424,296,223959,1,8,0:0:0:0:
384,264,224139,1,8,0:0:0:0:
176,112,224319,1,0,0:0:0:0:
200,124,224408,1,0,0:0:0:0:
176,112,224499,1,0,0:0:0:0:
416,304,224679,1,8,0:0:0:0:
448,288,224859,1,8,0:0:0:0:
424,328,225220,1,8,0:0:0:0:
424,296,225310,1,8,0:0:0:0:
456,268,225400,1,8,0:0:0:0:
144,104,225580,1,0,0:0:0:0:
328,264,225760,1,8,0:0:0:0:
328,264,225850,1,8,0:0:0:0:
400,280,225940,1,8,0:0:0:0:
320,248,226481,5,8,0:0:0:0:
352,256,226571,1,8,0:0:0:0:
384,256,226661,1,8,0:0:0:0:
176,152,226841,1,0,0:0:0:0:
176,152,227021,1,0,0:0:0:0:
360,240,227201,1,8,0:0:0:0:
368,256,227291,1,8,0:0:0:0:
368,256,227382,1,8,0:0:0:0:
192,152,227562,1,0,0:0:0:0:
360,240,227922,5,8,0:1:0:0:
360,280,228012,1,8,0:0:0:0:
384,256,228102,1,8,0:0:0:0:
136,64,228282,1,0,0:0:0:0:
400,272,228462,1,8,0:0:0:0:
48,36,228642,1,0,0:0:0:0:
240,148,228732,1,0,0:0:0:0:
184,160,228823,1,0,0:0:0:0:
336,240,229003,1,8,0:0:0:0:
128,144,229363,5,0,0:0:0:0:
144,112,229453,1,0,0:0:0:0:
144,112,229543,1,0,0:0:0:0:
400,272,229723,1,8,0:0:0:0:
176,152,229904,1,0,0:0:0:0:
504,336,230084,1,8,0:0:0:0:
320,240,230174,1,8,0:0:0:0:
368,256,230265,1,8,0:0:0:0:
192,152,230445,1,0,0:0:0:0:
160,112,230805,1,0,0:0:0:0:
160,152,230895,1,0,0:0:0:0:
144,92,230985,1,0,0:0:0:0:
384,256,231165,1,8,0:0:0:0:
176,152,231345,1,0,0:0:0:0:
368,256,231525,1,8,0:0:0:0:
368,256,231706,1,8,0:0:0:0:
368,256,231796,1,8,0:0:0:0:
384,296,231886,1,8,0:0:0:0:
160,112,232246,5,4,0:0:0:0:
400,296,232607,1,8,0:0:0:0:
168,96,232787,1,0,0:0:0:0:
416,336,232967,1,8,0:0:0:0:
408,296,233057,1,8,0:0:0:0:
336,252,233147,1,8,0:0:0:0:
160,112,233328,1,0,0:0:0:0:
360,280,233508,1,8,0:0:0:0:
400,296,234048,1,8,0:0:0:0:
168,96,234228,1,0,0:0:0:0:
384,304,234409,1,8,0:0:0:0:
388,296,234499,1,8,0:0:0:0:
344,248,234589,1,8,0:0:0:0:
152,104,234769,1,0,0:0:0:0:
368,272,234949,1,8,0:0:0:0:
400,296,235490,1,8,0:0:0:0:
168,96,235670,1,0,0:0:0:0:
344,260,235850,1,8,0:0:0:0:
344,260,235940,1,8,0:0:0:0:
320,248,236030,1,8,0:0:0:0:
112,72,236210,1,0,0:0:0:0:
368,272,236391,1,8,0:0:0:0:
400,296,236931,1,8,0:0:0:0:
168,96,237111,1,0,0:0:0:0:
496,336,237291,5,8,0:0:0:0:
496,336,237472,1,8,0:0:0:0:
416,296,237652,1,8,0:0:0:0:
432,304,237832,1,8,0:0:0:0:
256,192,238012,12,0,245938,0:0:0:0:
