osu file format v14

[General]
AudioFilename: audio.mp3
AudioLeadIn: 0
PreviewTime: 180355
Countdown: 0
SampleSet: Normal
StackLeniency: 0.7
Mode: 1
LetterboxInBreaks: 0
WidescreenStoryboard: 0

[Editor]
Bookmarks: 21802,30450,46755,70807,134230
DistanceSpacing: 0.1
BeatDivisor: 4
GridSize: 4
TimelineZoom: 4.000002

[Metadata]
Title:Magical Sanctuary
TitleUnicode:Magical Sanctuary
Artist:Kobaryo
ArtistUnicode:Kobaryo
Creator:Raiden
Version:Hell Oni
Source:
Tags:speedcore ridiculous HARDCORE TANO*C SPEED BALL EVOLUTION C87 Candy Speed Pops Chaotic
BeatmapID:1362878
BeatmapSetID:534568

[Difficulty]
HPDrainRate:4.5
CircleSize:2
OverallDifficulty:7
ApproachRate:10
SliderMultiplier:1.4
SliderTickRate:1

[Events]
//Background and Video events
0,0,"sanctuary.jpg",0,0
//Break Periods
//Storyboard Layer 0 (Background)
//Storyboard Layer 1 (Fail)
//Storyboard Layer 2 (Pass)
//Storyboard Layer 3 (Foreground)
//Storyboard Sound Samples

[TimingPoints]
4505,360.36036036036,4,1,0,70,1,0
35270,-95.2380952380952,4,1,0,70,0,0
35360,-90.9090909090909,4,1,0,70,0,0
35450,-83.3333333333333,4,1,0,70,0,0
35541,-76.9230769230769,4,1,0,100,0,0
35631,-71.4285714285714,4,1,0,100,0,0
35721,-66.6666666666667,4,1,0,100,0,0
35811,-62.5,4,1,0,100,0,0
35901,-58.8235294117647,4,1,0,100,0,0
35991,-55.5555555555556,4,1,0,100,0,0
36081,-52.6315789473684,4,1,0,100,0,0
36216,180.18018018018,4,1,0,100,1,1
41981,360.36036036036,4,1,0,100,1,0
46800,-95.2380952380952,4,1,0,100,0,0
46890,-90.9090909090909,4,1,0,100,0,0
46980,-83.3333333333333,4,1,0,100,0,0
47071,-76.9230769230769,4,1,0,100,0,0
47161,-71.4285714285714,4,1,0,100,0,0
47251,-66.6666666666667,4,1,0,100,0,0
47341,-62.5,4,1,0,100,0,0
47431,-58.8235294117647,4,1,0,100,0,0
47521,-55.5555555555556,4,1,0,100,0,0
47611,-52.6315789473684,4,1,0,100,0,0
47746,180.18018018018,4,1,0,100,1,1
53511,360.36036036036,4,1,0,50,1,0
58465,-66.6666666666667,4,1,0,100,0,0
59276,180.18018018018,4,1,0,100,1,0
59276,-133.333333333333,4,1,0,100,0,0
62249,-125,4,1,0,100,0,0
62610,-117.647058823529,4,1,0,100,0,0
62970,-111.111111111111,4,1,0,100,0,0
63330,-105.263157894737,4,1,0,100,0,0
70807,-100,4,1,0,100,0,0
76573,360.36036036036,4,1,0,70,1,0
76573,-80,4,1,0,70,0,0
88104,-58.8235294117647,4,1,0,80,0,0
111167,-100,4,1,0,70,0,0
114049,-100,4,1,0,40,0,0
122699,-100,4,1,0,70,0,0
132698,-100,4,1,0,10,0,0
134229,-100,4,1,0,70,0,0
157292,-66.6666666666667,4,1,0,80,0,0
180355,180.18018018018,4,1,0,100,1,1
180355,-100,4,1,0,100,0,1
203418,360.36036036036,4,1,0,70,1,0
203418,-100,4,1,0,70,0,0
214949,180.18018018018,4,1,0,100,1,1
214949,-100,4,1,0,100,0,1
220714,-100,4,1,0,100,0,1
226481,-100,4,1,0,100,0,1
231931,-102.040816326531,4,1,0,100,0,1
232021,-104.166666666667,4,1,0,100,0,1
232111,-108.695652173913,4,1,0,100,0,1
232246,-111.111111111111,4,1,0,100,0,0
237291,-83.3333333333333,4,1,0,100,0,1
238012,-83.3333333333333,4,1,0,100,0,0
238733,-100,4,1,0,80,0,0
240174,-100,4,1,0,65,0,0
240895,-100,4,1,0,50,0,0
241616,-100,4,1,0,35,0,0
242337,-100,4,1,0,20,0,0

[HitObjects]
192,96,4505,5,0,0:0:0:0:
96,128,5045,1,0,0:0:0:0:
96,128,5405,1,0,0:0:0:0:
320,352,5946,1,8,0:0:0:0:
320,352,6486,1,8,0:0:0:0:
320,352,6847,1,8,0:0:0:0:
128,128,7387,1,0,0:0:0:0:
288,288,7928,5,8,0:0:0:0:
96,96,8288,1,0,0:0:0:0:
352,320,8829,5,8,0:0:0:0:
128,96,9189,1,0,0:0:0:0:
416,352,9369,1,8,0:0:0:0:
128,96,9550,1,0,0:0:0:0:
352,320,9910,1,8,0:0:0:0:
352,320,10090,1,8,0:0:0:0:
96,96,10270,5,0,0:0:0:0:
160,128,10541,1,0,0:0:0:0:
352,352,10631,1,8,0:0:0:0:
160,128,10811,1,0,0:0:0:0:
160,128,11171,1,0,0:0:0:0:
352,320,11351,1,8,0:0:0:0:
128,96,11532,1,0,0:0:0:0:
128,96,11622,1,0,0:0:0:0:
128,96,11712,5,0,0:0:0:0:
134,133,11982,1,0,0:0:0:0:
374,293,12072,1,8,0:0:0:0:
114,108,12252,1,0,0:0:0:0:
109,121,12613,1,0,0:0:0:0:
388,285,12793,1,8,0:0:0:0:
361,283,12973,1,8,0:0:0:0:
357,279,13063,1,8,0:0:0:0:
157,139,13153,5,0,0:0:0:0:
130,91,13423,1,0,0:0:0:0:
425,351,13514,1,8,0:0:0:0:
137,133,13694,1,0,0:0:0:0:
148,127,14054,1,0,0:0:0:0:
371,329,14234,1,8,0:0:0:0:
128,128,14504,1,0,0:0:0:0:
321,283,14595,5,8,0:0:0:0:
91,146,14955,1,0,0:0:0:0:
339,290,15135,1,8,0:0:0:0:
132,111,15315,1,0,0:0:0:0:
320,315,15676,5,8,0:0:0:0:
336,303,15856,1,8,0:0:0:0:
353,305,15946,1,8,0:0:0:0:
148,268,16036,5,4,0:0:0:0:
124,119,16306,1,0,0:0:0:0:
407,268,16396,1,8,0:0:0:0:
164,77,16577,1,0,0:0:0:0:
161,117,16757,1,0,0:0:0:0:
161,117,16937,1,0,0:0:0:0:
160,116,17027,1,0,0:0:0:0:
362,290,17117,1,8,0:0:0:0:
358,266,17297,1,8,0:0:0:0:
120,108,17477,5,0,0:0:0:0:
126,123,17748,1,0,0:0:0:0:
341,274,17838,1,8,0:0:0:0:
105,107,18018,1,0,0:0:0:0:
315,273,18198,1,8,0:0:0:0:
315,273,18288,1,8,0:0:0:0:
92,82,18378,1,0,0:0:0:0:
341,274,18559,1,8,0:0:0:0:
341,279,18739,1,8,0:0:0:0:
123,95,18919,5,0,0:0:0:0:
121,112,19189,1,0,0:0:0:0:
330,318,19279,1,8,0:0:0:0:
311,280,19459,1,8,0:0:0:0:
125,98,19640,1,0,0:0:0:0:
342,325,19730,1,8,0:0:0:0:
121,112,19820,1,0,0:0:0:0:
295,261,20000,1,8,0:0:0:0:
295,261,20180,1,8,0:0:0:0:
106,98,20360,5,0,0:0:0:0:
130,107,20631,1,0,0:0:0:0:
373,323,20721,1,8,0:0:0:0:
349,329,20901,1,8,0:0:0:0:
131,120,21081,1,0,0:0:0:0:
381,312,21261,1,8,0:0:0:0:
373,296,21441,1,8,0:0:0:0:
322,283,21532,1,8,0:0:0:0:
146,147,21622,1,0,0:0:0:0:
398,109,21802,5,12,0:0:0:0:
362,265,21982,5,8,0:0:0:0:
362,265,22162,5,8,0:0:0:0:
362,265,22342,5,8,0:0:0:0:
362,265,22523,5,8,0:0:0:0:
362,265,22703,5,8,0:0:0:0:
362,265,22883,5,8,0:0:0:0:
362,265,23063,5,8,0:0:0:0:
362,265,23243,5,8,0:0:0:0:
362,265,23423,5,8,0:0:0:0:
362,265,23604,5,8,0:0:0:0:
362,265,23784,5,8,0:0:0:0:
362,265,23964,5,8,0:0:0:0:
362,265,24144,5,8,0:0:0:0:
362,265,24324,5,8,0:0:0:0:
362,265,24414,5,8,0:0:0:0:
362,265,24504,5,8,0:0:0:0:
344,292,24595,5,8,0:0:0:0:
344,292,24685,5,8,0:0:0:0:
343,259,24865,5,8,0:0:0:0:
343,259,25045,5,8,0:0:0:0:
343,259,25225,5,8,0:0:0:0:
343,259,25405,5,8,0:0:0:0:
343,259,25586,5,8,0:0:0:0:
343,259,25766,5,8,0:0:0:0:
343,259,25946,1,8,0:0:0:0:
360,301,26126,5,8,0:0:0:0:
126,87,26216,1,0,0:0:0:0:
360,301,26306,1,8,0:0:0:0:
126,87,26396,1,0,0:0:0:0:
374,269,26486,1,8,0:0:0:0:
374,269,26667,1,8,0:0:0:0:
390,338,26847,1,8,0:0:0:0:
390,338,26937,1,8,0:0:0:0:
326,271,27027,1,8,0:0:0:0:
374,269,27207,1,8,0:0:0:0:
374,269,27388,1,8,0:0:0:0:
374,269,27478,1,8,0:0:0:0:
135,81,27568,5,0,0:0:0:0:
256,192,27658,12,0,29550,0:0:0:0:
359,188,29730,5,12,0:0:0:0:
359,188,29910,1,12,0:0:0:0:
359,188,30090,1,12,0:0:0:0:
359,188,30270,1,12,0:0:0:0:
115,286,30450,5,4,0:0:0:0:
352,256,30631,1,8,0:0:0:0:
352,256,30721,1,8,0:0:0:0:
128,128,30811,1,0,0:0:0:0:
384,256,30991,1,8,0:0:0:0:
128,96,31081,1,0,0:0:0:0:
352,256,31261,1,8,0:0:0:0:
160,96,31441,1,0,0:0:0:0:
128,128,31532,1,0,0:0:0:0:
384,256,31622,1,8,0:0:0:0:
128,128,31712,1,0,0:0:0:0:
128,128,31892,5,0,0:0:0:0:
160,128,31982,1,0,0:0:0:0:
384,288,32072,1,8,0:0:0:0:
64,96,32162,1,0,0:0:0:0:
384,256,32252,1,8,0:0:0:0:
416,288,32432,1,8,0:0:0:0:
128,128,32613,1,0,0:0:0:0:
160,128,32703,1,0,0:0:0:0:
352,288,32793,1,8,0:0:0:0:
128,96,32883,1,0,0:0:0:0:
288,256,32973,1,8,0:0:0:0:
320,256,33063,1,8,0:0:0:0:
96,96,33153,1,0,0:0:0:0:
96,96,33333,5,0,0:0:0:0:
352,288,33514,1,8,0:0:0:0:
128,128,33604,1,0,0:0:0:0:
416,320,33694,1,8,0:0:0:0:
384,288,33874,1,8,0:0:0:0:
192,192,33964,1,0,0:0:0:0:
384,320,34144,1,8,0:0:0:0:
416,320,34324,1,8,0:0:0:0:
128,128,34414,1,0,0:0:0:0:
128,128,34504,1,0,0:0:0:0:
320,256,34595,1,8,0:0:0:0:
128,128,34775,1,0,0:0:0:0:
128,128,34865,1,0,0:0:0:0:
286,276,34955,1,8,0:0:0:0:
288,256,35045,1,8,0:0:0:0:
128,96,35135,1,0,0:0:0:0:
352,288,35315,1,8,0:0:0:0:
64,128,35405,1,0,0:0:0:0:
352,288,35495,1,8,0:0:0:0:
352,288,35586,1,8,0:0:0:0:
160,160,35676,1,0,0:0:0:0:
160,160,35766,1,0,0:0:0:0:
384,320,35856,1,8,0:0:0:0:
384,288,35946,1,8,0:0:0:0:
384,288,36036,1,8,0:0:0:0:
384,288,36126,1,8,0:0:0:0:
160,288,36216,5,4,0:0:0:0:
160,128,36306,1,0,0:0:0:0:
352,320,36396,1,8,0:0:0:0:
352,320,36486,1,8,0:0:0:0:
160,96,36576,1,0,0:0:0:0:
352,288,36666,1,8,0:0:0:0:
160,96,36756,1,0,0:0:0:0:
352,288,36846,1,8,0:0:0:0:
352,288,36936,5,8,0:0:0:0:
192,128,37026,1,0,0:0:0:0:
352,288,37116,1,8,0:0:0:0:
352,288,37206,1,8,0:0:0:0:
352,288,37297,1,8,0:0:0:0:
160,96,37387,1,0,0:0:0:0:
384,288,37477,1,8,0:0:0:0:
192,128,37657,5,0,0:0:0:0:
288,224,37747,1,8,0:0:0:0:
160,96,37837,1,0,0:0:0:0:
160,96,37927,1,0,0:0:0:0:
384,256,38017,1,8,0:0:0:0:
128,128,38107,1,0,0:0:0:0:
128,128,38197,1,0,0:0:0:0:
378,320,38288,1,8,0:0:0:0:
352,288,38378,5,8,0:0:0:0:
352,288,38468,1,8,0:0:0:0:
160,64,38558,1,0,0:0:0:0:
160,64,38648,1,0,0:0:0:0:
384,256,38738,1,8,0:0:0:0:
384,256,38828,1,8,0:0:0:0:
192,128,38918,1,0,0:0:0:0:
160,288,39098,5,4,0:0:0:0:
160,128,39188,1,0,0:0:0:0:
352,320,39278,1,8,0:0:0:0:
352,320,39368,1,8,0:0:0:0:
160,96,39458,1,0,0:0:0:0:
352,288,39548,1,8,0:0:0:0:
160,96,39638,1,0,0:0:0:0:
352,288,39728,1,8,0:0:0:0:
352,288,39818,5,8,0:0:0:0:
192,128,39908,1,0,0:0:0:0:
352,288,39998,1,8,0:0:0:0:
352,288,40088,1,8,0:0:0:0:
352,288,40179,1,8,0:0:0:0:
160,96,40269,1,0,0:0:0:0:
384,288,40359,1,8,0:0:0:0:
192,128,40539,5,0,0:0:0:0:
288,224,40629,1,8,0:0:0:0:
160,96,40719,1,0,0:0:0:0:
160,96,40809,1,0,0:0:0:0:
384,256,40899,1,8,0:0:0:0:
128,128,40989,1,0,0:0:0:0:
128,128,41079,1,0,0:0:0:0:
382,339,41170,1,8,0:0:0:0:
352,288,41260,5,8,0:0:0:0:
352,288,41350,1,8,0:0:0:0:
160,64,41440,1,0,0:0:0:0:
326,270,41530,1,8,0:0:0:0:
115,286,41981,5,4,0:0:0:0:
352,256,42162,1,8,0:0:0:0:
352,256,42252,1,8,0:0:0:0:
128,128,42342,1,0,0:0:0:0:
384,256,42522,1,8,0:0:0:0:
128,96,42612,1,0,0:0:0:0:
352,256,42792,1,8,0:0:0:0:
416,288,42882,1,8,0:0:0:0:
160,96,42972,1,0,0:0:0:0:
128,128,43063,1,0,0:0:0:0:
384,256,43153,1,8,0:0:0:0:
128,128,43243,1,0,0:0:0:0:
128,128,43423,5,0,0:0:0:0:
160,128,43513,1,0,0:0:0:0:
384,288,43603,1,8,0:0:0:0:
64,96,43693,1,0,0:0:0:0:
384,256,43783,1,8,0:0:0:0:
416,288,43963,1,8,0:0:0:0:
96,128,44054,1,0,0:0:0:0:
128,128,44144,1,0,0:0:0:0:
160,128,44234,1,0,0:0:0:0:
352,288,44324,1,8,0:0:0:0:
128,96,44414,1,0,0:0:0:0:
288,256,44504,1,8,0:0:0:0:
320,256,44594,1,8,0:0:0:0:
96,96,44684,1,0,0:0:0:0:
96,96,44864,5,0,0:0:0:0:
352,288,45045,1,8,0:0:0:0:
128,128,45135,1,0,0:0:0:0:
416,320,45225,1,8,0:0:0:0:
384,288,45405,1,8,0:0:0:0:
192,192,45495,1,0,0:0:0:0:
384,320,45675,1,8,0:0:0:0:
416,320,45855,1,8,0:0:0:0:
128,128,45945,1,0,0:0:0:0:
128,128,46035,1,0,0:0:0:0:
320,256,46126,1,8,0:0:0:0:
128,128,46306,1,0,0:0:0:0:
128,128,46396,1,0,0:0:0:0:
320,256,46486,1,8,0:0:0:0:
288,256,46576,1,8,0:0:0:0:
128,96,46666,1,0,0:0:0:0:
352,288,46846,1,8,0:0:0:0:
64,128,46936,1,0,0:0:0:0:
352,288,47026,1,8,0:0:0:0:
352,288,47117,1,8,0:0:0:0:
160,160,47207,1,0,0:0:0:0:
160,160,47297,1,0,0:0:0:0:
384,320,47387,1,8,0:0:0:0:
384,288,47477,1,8,0:0:0:0:
384,288,47567,1,8,0:0:0:0:
384,288,47657,1,8,0:0:0:0:
160,288,47746,5,4,0:0:0:0:
160,128,47837,1,0,0:0:0:0:
352,320,47927,1,8,0:0:0:0:
352,320,48017,1,8,0:0:0:0:
160,96,48107,1,0,0:0:0:0:
352,288,48197,1,8,0:0:0:0:
160,96,48287,1,0,0:0:0:0:
352,288,48377,1,8,0:0:0:0:
352,288,48467,5,8,0:0:0:0:
192,128,48557,1,0,0:0:0:0:
352,288,48647,1,8,0:0:0:0:
352,288,48737,1,8,0:0:0:0:
352,288,48828,1,8,0:0:0:0:
160,96,48918,1,0,0:0:0:0:
384,288,49008,1,8,0:0:0:0:
192,128,49188,5,0,0:0:0:0:
288,224,49278,1,8,0:0:0:0:
160,96,49368,1,0,0:0:0:0:
160,96,49458,1,0,0:0:0:0:
384,256,49548,1,8,0:0:0:0:
128,128,49638,1,0,0:0:0:0:
128,128,49728,1,0,0:0:0:0:
292,253,49818,1,8,0:0:0:0:
352,288,49909,5,8,0:0:0:0:
352,288,49999,1,8,0:0:0:0:
160,64,50089,1,0,0:0:0:0:
160,64,50179,1,0,0:0:0:0:
384,256,50269,1,8,0:0:0:0:
384,256,50359,1,8,0:0:0:0:
160,288,50629,5,4,0:0:0:0:
160,128,50719,1,0,0:0:0:0:
352,320,50809,1,8,0:0:0:0:
352,320,50899,1,8,0:0:0:0:
160,96,50989,1,0,0:0:0:0:
352,288,51079,1,8,0:0:0:0:
160,96,51169,1,0,0:0:0:0:
352,288,51259,1,8,0:0:0:0:
352,288,51349,5,8,0:0:0:0:
192,128,51439,1,0,0:0:0:0:
352,288,51529,1,8,0:0:0:0:
352,288,51619,1,8,0:0:0:0:
352,288,51710,1,8,0:0:0:0:
160,96,51800,1,0,0:0:0:0:
384,288,51890,1,8,0:0:0:0:
192,128,52070,5,0,0:0:0:0:
288,224,52160,1,8,0:0:0:0:
160,96,52250,1,0,0:0:0:0:
160,96,52340,1,0,0:0:0:0:
384,256,52430,1,8,0:0:0:0:
321,284,52520,1,8,0:0:0:0:
128,128,52610,1,0,0:0:0:0:
128,128,52701,1,0,0:0:0:0:
352,288,52791,5,8,0:0:0:0:
128,96,52881,1,0,0:0:0:0:
416,352,52971,1,8,0:0:0:0:
416,352,53061,1,8,0:0:0:0:
128,128,53151,1,0,0:0:0:0:
192,128,53512,5,4,0:0:0:0:
148,107,54952,1,0,0:0:0:0:
102,97,56393,1,0,0:0:0:0:
102,97,57835,1,0,0:0:0:0:
102,97,58556,1,0,0:0:0:0:
102,97,58736,1,0,0:0:0:0:
346,288,58916,1,8,0:0:0:0:
102,73,59006,1,0,0:0:0:0:
361,305,59096,1,8,0:0:0:0:
324,281,59186,1,8,0:0:0:0:
160,286,59276,5,4,0:0:0:0:
306,283,59456,1,8,0:0:0:0:
109,122,59546,1,0,0:0:0:0:
374,288,59727,1,8,0:0:0:0:
374,288,59817,1,8,0:0:0:0:
374,288,59907,1,8,0:0:0:0:
127,157,59997,1,0,0:0:0:0:
320,271,60177,1,8,0:0:0:0:
126,107,60357,5,0,0:0:0:0:
126,121,60538,1,0,0:0:0:0:
421,327,60628,1,8,0:0:0:0:
122,297,60718,5,4,0:0:0:0:
309,256,60898,1,8,0:0:0:0:
112,100,60988,1,0,0:0:0:0:
182,135,61168,1,0,0:0:0:0:
361,278,61258,1,8,0:0:0:0:
361,278,61348,1,8,0:0:0:0:
100,97,61438,1,0,0:0:0:0:
418,311,61619,1,8,0:0:0:0:
151,121,61799,5,0,0:0:0:0:
81,128,61889,1,0,0:0:0:0:
366,305,61979,1,8,0:0:0:0:
370,330,62069,1,8,0:0:0:0:
126,308,62159,5,4,0:0:0:0:
352,295,62339,1,8,0:0:0:0:
347,296,62429,1,8,0:0:0:0:
89,98,62520,1,0,0:0:0:0:
352,295,62700,1,8,0:0:0:0:
347,296,62790,1,8,0:0:0:0:
89,98,62879,1,0,0:0:0:0:
352,295,63060,1,8,0:0:0:0:
347,296,63150,1,8,0:0:0:0:
89,98,63239,1,0,0:0:0:0:
347,296,63420,1,8,0:0:0:0:
342,297,63510,1,8,0:0:0:0:
84,99,63601,5,0,0:0:0:0:
101,77,63691,1,0,0:0:0:0:
347,296,63781,1,8,0:0:0:0:
342,297,63871,1,8,0:0:0:0:
84,99,63960,1,0,0:0:0:0:
101,77,64050,1,0,0:0:0:0:
347,296,64141,1,8,0:0:0:0:
342,297,64231,1,8,0:0:0:0:
84,99,64322,5,0,0:0:0:0:
101,77,64412,1,0,0:0:0:0:
347,296,64501,1,8,0:0:0:0:
342,297,64591,1,8,0:0:0:0:
316,272,64681,6,0,L|304:61,1,199.499994672775
130,296,65041,5,4,0:0:0:0:
116,120,65132,1,0,0:0:0:0:
340,264,65222,1,8,0:0:0:0:
340,264,65312,1,8,0:0:0:0:
148,112,65402,1,0,0:0:0:0:
328,284,65492,1,8,0:0:0:0:
136,136,65582,1,0,0:0:0:0:
436,336,65672,1,8,0:0:0:0:
144,116,65762,1,0,0:0:0:0:
120,132,65852,1,0,0:0:0:0:
392,312,65942,1,8,0:0:0:0:
300,241,66032,1,8,0:0:0:0:
120,132,66123,1,0,0:0:0:0:
336,284,66303,1,8,0:0:0:0:
336,292,66393,1,8,0:0:0:0:
124,96,66483,5,0,0:0:0:0:
116,120,66573,1,0,0:0:0:0:
340,264,66663,1,8,0:0:0:0:
340,264,66753,1,8,0:0:0:0:
148,112,66843,1,0,0:0:0:0:
344,276,66933,1,8,0:0:0:0:
136,136,67023,1,0,0:0:0:0:
436,336,67113,1,8,0:0:0:0:
144,116,67203,5,0,0:0:0:0:
120,132,67293,1,0,0:0:0:0:
392,312,67383,1,8,0:0:0:0:
140,144,67473,1,0,0:0:0:0:
120,132,67564,1,0,0:0:0:0:
344,268,67744,1,8,0:0:0:0:
344,264,67834,1,8,0:0:0:0:
92,56,67924,5,0,0:0:0:0:
116,120,68014,1,0,0:0:0:0:
340,264,68104,1,8,0:0:0:0:
340,264,68194,1,8,0:0:0:0:
148,112,68284,1,0,0:0:0:0:
352,300,68374,1,8,0:0:0:0:
136,136,68464,1,0,0:0:0:0:
436,336,68554,1,8,0:0:0:0:
144,116,68644,1,0,0:0:0:0:
120,132,68734,1,0,0:0:0:0:
392,312,68824,1,8,0:0:0:0:
321,269,68915,1,8,0:0:0:0:
120,132,69005,1,0,0:0:0:0:
392,296,69186,1,8,0:0:0:0:
392,296,69276,1,8,0:0:0:0:
112,92,69366,5,0,0:0:0:0:
116,120,69456,1,0,0:0:0:0:
340,264,69546,1,8,0:0:0:0:
340,264,69636,1,8,0:0:0:0:
148,112,69726,1,0,0:0:0:0:
388,300,69816,1,8,0:0:0:0:
136,136,69906,1,0,0:0:0:0:
436,336,69996,1,8,0:0:0:0:
144,116,70086,1,0,0:0:0:0:
120,132,70176,1,0,0:0:0:0:
392,312,70266,1,8,0:0:0:0:
352,272,70357,5,8,0:0:0:0:
120,132,70447,1,0,0:0:0:0:
130,296,70807,5,4,0:0:0:0:
116,120,70897,1,0,0:0:0:0:
340,264,70987,1,8,0:0:0:0:
340,264,71077,1,8,0:0:0:0:
148,112,71167,1,0,0:0:0:0:
328,284,71257,1,8,0:0:0:0:
136,136,71347,1,0,0:0:0:0:
436,336,71437,1,8,0:0:0:0:
144,116,71527,1,0,0:0:0:0:
120,132,71617,1,0,0:0:0:0:
392,312,71707,1,8,0:0:0:0:
140,144,71797,1,0,0:0:0:0:
120,132,71888,1,0,0:0:0:0:
336,284,72068,1,8,0:0:0:0:
336,284,72113,1,8,0:0:0:0:
336,292,72158,1,8,0:0:0:0:
124,96,72248,5,0,0:0:0:0:
116,120,72338,1,0,0:0:0:0:
340,264,72428,1,8,0:0:0:0:
340,264,72518,1,8,0:0:0:0:
148,112,72608,1,0,0:0:0:0:
344,276,72698,1,8,0:0:0:0:
136,136,72788,1,0,0:0:0:0:
436,336,72878,1,8,0:0:0:0:
144,116,72968,5,0,0:0:0:0:
120,132,73058,1,0,0:0:0:0:
392,312,73148,1,8,0:0:0:0:
356,288,73239,1,8,0:0:0:0:
120,132,73329,1,0,0:0:0:0:
344,268,73509,1,8,0:0:0:0:
344,264,73554,1,8,0:0:0:0:
344,264,73599,1,8,0:0:0:0:
92,56,73689,5,0,0:0:0:0:
116,120,73779,1,0,0:0:0:0:
340,264,73869,1,8,0:0:0:0:
340,264,73959,1,8,0:0:0:0:
148,112,74049,1,0,0:0:0:0:
352,300,74139,1,8,0:0:0:0:
136,136,74229,1,0,0:0:0:0:
436,336,74321,1,8,0:0:0:0:
144,116,74411,1,0,0:0:0:0:
120,132,74501,1,0,0:0:0:0:
392,312,74591,1,8,0:0:0:0:
140,144,74681,1,0,0:0:0:0:
120,132,74771,1,0,0:0:0:0:
392,296,74951,1,8,0:0:0:0:
392,296,74996,1,8,0:0:0:0:
392,296,75041,1,8,0:0:0:0:
112,92,75131,5,0,0:0:0:0:
116,120,75221,1,0,0:0:0:0:
340,264,75311,1,8,0:0:0:0:
340,264,75401,1,8,0:0:0:0:
148,112,75491,1,0,0:0:0:0:
388,300,75581,1,8,0:0:0:0:
136,136,75671,1,0,0:0:0:0:
436,336,75761,1,8,0:0:0:0:
144,116,75851,1,0,0:0:0:0:
120,132,75941,1,0,0:0:0:0:
392,312,76031,1,8,0:0:0:0:
368,284,76077,1,8,0:0:0:0:
352,272,76122,5,8,0:0:0:0:
400,296,76168,1,8,0:0:0:0:
80,248,76573,5,4,0:0:0:0:
120,136,76933,1,0,0:0:0:0:
324,296,77293,1,8,0:0:0:0:
136,152,77834,1,0,0:0:0:0:
136,120,78014,1,0,0:0:0:0:
136,152,78374,1,0,0:0:0:0:
344,260,78735,1,8,0:0:0:0:
424,328,79095,1,8,0:0:0:0:
404,324,79275,1,8,0:0:0:0:
172,144,79455,1,0,0:0:0:0:
172,144,79816,1,0,0:0:0:0:
416,304,80176,1,8,0:0:0:0:
200,172,80536,1,0,0:0:0:0:
424,344,80717,1,8,0:0:0:0:
160,152,80897,1,0,0:0:0:0:
160,152,81257,1,0,0:0:0:0:
472,312,81618,1,8,0:0:0:0:
192,140,81798,1,0,0:0:0:0:
416,340,81978,1,8,0:0:0:0:
416,340,82158,1,8,0:0:0:0:
416,340,82248,1,8,0:0:0:0:
124,88,82338,5,4,0:0:0:0:
432,316,82699,1,8,0:0:0:0:
432,316,83059,1,8,0:0:0:0:
432,316,83419,1,8,0:0:0:0:
432,316,83780,1,8,0:0:0:0:
432,316,84140,1,8,0:0:0:0:
432,316,84500,1,8,0:0:0:0:
432,316,84861,1,8,0:0:0:0:
80,284,85221,2,0,B|256:116|376:92,2,350
92,264,88104,5,4,0:0:0:0:
160,112,88734,1,0,0:0:0:0:
368,320,88824,1,8,0:0:0:0:
120,108,89545,1,0,0:0:0:0:
120,108,89815,1,0,0:0:0:0:
144,104,90085,1,0,0:0:0:0:
112,104,90176,1,0,0:0:0:0:
328,252,90266,1,8,0:0:0:0:
344,256,90536,1,8,0:0:0:0:
344,256,90806,1,8,0:0:0:0:
108,80,90986,5,0,0:0:0:0:
152,120,91617,1,0,0:0:0:0:
312,232,91707,1,8,0:0:0:0:
140,100,91842,1,0,0:0:0:0:
108,112,91977,1,0,0:0:0:0:
108,112,92113,1,0,0:0:0:0:
132,104,92248,1,0,0:0:0:0:
132,104,92293,1,0,0:0:0:0:
332,280,92338,1,8,0:0:0:0:
132,104,92428,1,0,0:0:0:0:
136,96,92518,1,0,0:0:0:0:
128,104,92608,1,0,0:0:0:0:
128,104,92698,1,0,0:0:0:0:
96,108,92788,1,0,0:0:0:0:
96,108,92878,1,0,0:0:0:0:
96,108,92968,1,0,0:0:0:0:
200,140,93013,1,0,0:0:0:0:
96,108,93058,1,0,0:0:0:0:
372,304,93149,1,8,0:0:0:0:
136,120,93329,5,0,0:0:0:0:
352,288,93419,1,8,0:0:0:0:
128,136,93509,1,0,0:0:0:0:
128,136,93554,1,0,0:0:0:0:
128,136,93599,1,0,0:0:0:0:
128,136,93689,1,0,0:0:0:0:
304,248,93779,1,8,0:0:0:0:
104,264,93869,5,4,0:0:0:0:
152,124,94500,1,0,0:0:0:0:
360,272,94590,1,8,0:0:0:0:
360,248,94950,1,8,0:0:0:0:
152,116,95311,1,0,0:0:0:0:
380,288,95581,1,8,0:0:0:0:
144,124,95671,1,0,0:0:0:0:
152,116,95851,1,0,0:0:0:0:
152,116,95896,1,0,0:0:0:0:
152,116,95941,1,0,0:0:0:0:
332,280,96031,1,8,0:0:0:0:
384,272,96302,1,8,0:0:0:0:
384,272,96572,1,8,0:0:0:0:
68,112,96752,5,0,0:0:0:0:
80,136,96842,1,0,0:0:0:0:
80,136,96932,1,0,0:0:0:0:
80,136,97022,1,0,0:0:0:0:
80,136,97113,1,0,0:0:0:0:
80,136,97203,1,0,0:0:0:0:
80,136,97293,1,0,0:0:0:0:
80,136,97383,1,0,0:0:0:0:
336,292,97473,1,8,0:0:0:0:
376,276,97563,1,8,0:0:0:0:
136,124,97653,1,0,0:0:0:0:
136,124,97743,1,0,0:0:0:0:
136,124,97833,1,0,0:0:0:0:
136,124,97923,1,0,0:0:0:0:
136,124,98013,1,0,0:0:0:0:
168,132,98058,1,0,0:0:0:0:
136,124,98103,1,0,0:0:0:0:
376,260,98194,1,8,0:0:0:0:
88,116,98464,1,0,0:0:0:0:
88,116,98734,1,0,0:0:0:0:
412,308,98914,1,8,0:0:0:0:
152,132,99094,1,0,0:0:0:0:
176,144,99185,1,0,0:0:0:0:
380,288,99275,1,8,0:0:0:0:
172,104,99365,1,0,0:0:0:0:
416,300,99455,1,8,0:0:0:0:
416,296,99545,1,8,0:0:0:0:
120,104,99635,5,0,0:0:0:0:
380,288,99995,1,8,0:0:0:0:
116,124,100085,1,0,0:0:0:0:
376,280,100176,1,8,0:0:0:0:
376,280,100266,1,8,0:0:0:0:
120,128,100356,1,0,0:0:0:0:
348,264,100536,1,8,0:0:0:0:
360,284,100626,1,8,0:0:0:0:
176,132,100716,1,0,0:0:0:0:
364,268,100896,1,8,0:0:0:0:
364,268,100941,1,8,0:0:0:0:
364,268,100986,1,8,0:0:0:0:
192,116,101076,1,0,0:0:0:0:
176,152,101257,1,0,0:0:0:0:
88,112,101347,1,0,0:0:0:0:
360,272,101437,1,8,0:0:0:0:
156,124,101617,1,0,0:0:0:0:
156,124,101707,1,0,0:0:0:0:
156,124,101797,1,0,0:0:0:0:
144,128,101977,1,0,0:0:0:0:
144,128,102022,1,0,0:0:0:0:
144,128,102067,1,0,0:0:0:0:
292,240,102158,1,8,0:0:0:0:
188,144,102338,1,0,0:0:0:0:
340,260,102428,1,8,0:0:0:0:
340,260,102473,1,8,0:0:0:0:
128,96,102518,1,0,0:0:0:0:
376,244,102878,1,8,0:0:0:0:
164,128,103058,1,0,0:0:0:0:
160,128,103149,1,0,0:0:0:0:
160,128,103239,5,0,0:0:0:0:
168,100,103419,1,0,0:0:0:0:
168,100,103509,1,0,0:0:0:0:
316,236,103599,1,8,0:0:0:0:
336,248,103779,1,8,0:0:0:0:
336,248,103869,1,8,0:0:0:0:
336,248,103914,1,8,0:0:0:0:
152,104,103959,1,0,0:0:0:0:
124,104,104140,1,0,0:0:0:0:
348,244,104320,1,8,0:0:0:0:
384,296,104500,1,8,0:0:0:0:
384,296,104590,1,8,0:0:0:0:
152,112,104680,1,0,0:0:0:0:
152,112,104770,1,0,0:0:0:0:
384,296,104860,1,8,0:0:0:0:
384,296,104905,1,8,0:0:0:0:
384,296,104950,1,8,0:0:0:0:
384,296,104995,1,8,0:0:0:0:
152,256,105401,5,4,0:0:0:0:
60,116,105581,1,0,0:0:0:0:
420,248,105761,1,8,0:0:0:0:
144,112,105941,1,0,0:0:0:0:
144,112,106031,1,0,0:0:0:0:
144,112,106122,1,0,0:0:0:0:
144,112,106302,1,0,0:0:0:0:
372,260,106482,1,8,0:0:0:0:
452,272,106662,1,8,0:0:0:0:
452,272,106752,1,8,0:0:0:0:
148,84,106842,1,0,0:0:0:0:
216,96,106932,1,0,0:0:0:0:
136,104,107022,1,0,0:0:0:0:
136,104,107113,1,0,0:0:0:0:
348,248,107203,1,8,0:0:0:0:
160,116,107293,1,0,0:0:0:0:
160,116,107383,1,0,0:0:0:0:
160,116,107473,1,0,0:0:0:0:
160,116,107563,1,0,0:0:0:0:
96,112,107653,1,0,0:0:0:0:
104,112,107743,1,0,0:0:0:0:
104,112,107833,1,0,0:0:0:0:
336,252,107923,1,8,0:0:0:0:
380,288,108103,5,8,0:0:0:0:
380,288,108149,5,8,0:0:0:0:
380,288,108194,1,8,0:0:0:0:
200,140,108284,1,0,0:0:0:0:
380,304,108374,1,8,0:0:0:0:
152,140,108464,1,0,0:0:0:0:
152,140,108554,1,0,0:0:0:0:
380,304,108644,1,8,0:0:0:0:
364,280,108734,1,8,0:0:0:0:
144,116,108824,1,0,0:0:0:0:
376,268,108914,1,8,0:0:0:0:
172,112,109004,1,0,0:0:0:0:
368,260,109094,1,8,0:0:0:0:
152,116,109185,1,0,0:0:0:0:
160,96,109275,1,0,0:0:0:0:
372,272,109365,1,8,0:0:0:0:
156,116,109455,1,0,0:0:0:0:
320,232,109545,1,8,0:0:0:0:
320,232,109590,1,8,0:0:0:0:
320,232,109635,1,8,0:0:0:0:
152,96,109725,5,0,0:0:0:0:
388,296,109815,1,8,0:0:0:0:
388,296,109860,1,8,0:0:0:0:
388,296,109905,1,8,0:0:0:0:
128,124,109995,1,0,0:0:0:0:
332,272,110085,1,8,0:0:0:0:
360,272,110176,1,8,0:0:0:0:
360,272,110221,1,8,0:0:0:0:
192,172,110266,1,0,0:0:0:0:
360,272,110356,1,8,0:0:0:0:
176,152,110446,1,0,0:0:0:0:
340,268,110536,1,8,0:0:0:0:
340,268,110626,1,8,0:0:0:0:
364,316,110671,1,8,0:0:0:0:
364,316,110716,1,8,0:0:0:0:
152,272,111167,5,4,0:0:0:0:
152,272,114049,1,0,0:0:0:0:
152,272,116932,1,0,0:0:0:0:
152,272,119815,1,0,0:0:0:0:
152,272,122698,5,0,0:0:0:0:
360,268,123418,1,8,0:0:0:0:
360,268,123600,1,8,0:0:0:0:
136,116,124139,1,0,0:0:0:0:
360,272,124860,1,8,0:0:0:0:
360,272,125040,1,8,0:0:0:0:
344,280,125220,1,8,0:0:0:0:
148,140,125582,1,0,0:0:0:0:
360,296,126302,1,8,0:0:0:0:
360,296,126482,1,8,0:0:0:0:
360,296,126663,1,8,0:0:0:0:
144,140,127022,1,0,0:0:0:0:
72,120,127923,1,0,0:0:0:0:
336,264,128103,1,8,0:0:0:0:
44,112,128463,1,0,0:0:0:0:
316,236,129184,1,8,0:0:0:0:
316,236,129364,1,8,0:0:0:0:
104,120,129905,1,0,0:0:0:0:
80,68,130627,1,0,0:0:0:0:
16,80,130806,1,0,0:0:0:0:
336,284,130986,1,8,0:0:0:0:
144,140,131346,1,0,0:0:0:0:
420,312,132067,1,8,0:0:0:0:
420,312,132247,1,8,0:0:0:0:
128,112,132427,1,0,0:0:0:0:
256,192,132788,12,0,134049,0:0:0:0:
192,96,134229,5,0,0:0:0:0:
96,128,134771,1,0,0:0:0:0:
96,128,135131,1,0,0:0:0:0:
320,352,135672,1,8,0:0:0:0:
320,352,136212,1,8,0:0:0:0:
320,352,136572,1,8,0:0:0:0:
128,128,137113,1,0,0:0:0:0:
288,288,137654,5,8,0:0:0:0:
96,96,138014,1,0,0:0:0:0:
352,320,138553,5,8,0:0:0:0:
128,96,138915,1,0,0:0:0:0:
416,352,139095,1,8,0:0:0:0:
128,96,139274,1,0,0:0:0:0:
352,320,139636,1,8,0:0:0:0:
352,320,139816,1,8,0:0:0:0:
96,96,139996,5,0,0:0:0:0:
144,128,140356,1,0,0:0:0:0:
300,288,140716,1,8,0:0:0:0:
124,108,141076,1,0,0:0:0:0:
328,260,141437,1,8,0:0:0:0:
328,260,141618,1,8,0:0:0:0:
140,84,141798,1,0,0:0:0:0:
140,84,141978,1,0,0:0:0:0:
140,84,142158,1,0,0:0:0:0:
388,304,142517,1,8,0:0:0:0:
144,128,142878,1,0,0:0:0:0:
144,116,143238,1,0,0:0:0:0:
408,312,143600,1,8,0:0:0:0:
176,144,143960,1,0,0:0:0:0:
416,296,144320,1,8,0:0:0:0:
184,112,144500,1,0,0:0:0:0:
432,304,144681,1,8,0:0:0:0:
432,304,144861,1,8,0:0:0:0:
168,112,145041,1,0,0:0:0:0:
468,316,145400,1,8,0:0:0:0:
184,112,145761,1,0,0:0:0:0:
216,112,146121,1,0,0:0:0:0:
388,248,146481,1,8,0:0:0:0:
144,96,146842,1,0,0:0:0:0:
364,248,147202,1,8,0:0:0:0:
364,248,147382,1,8,0:0:0:0:
364,248,147562,1,8,0:0:0:0:
364,248,147743,1,8,0:0:0:0:
120,72,147923,1,0,0:0:0:0:
404,280,148284,1,8,0:0:0:0:
184,148,148644,1,0,0:0:0:0:
264,180,149005,1,0,0:0:0:0:
384,260,149364,1,8,0:0:0:0:
136,124,149725,1,0,0:0:0:0:
408,312,150085,1,8,0:0:0:0:
408,312,150265,1,8,0:0:0:0:
408,312,150445,1,8,0:0:0:0:
128,104,150627,1,0,0:0:0:0:
408,312,150806,1,8,0:0:0:0:
420,280,151166,1,8,0:0:0:0:
120,100,151526,1,0,0:0:0:0:
168,120,151887,1,0,0:0:0:0:
420,296,152247,1,8,0:0:0:0:
120,100,152609,1,0,0:0:0:0:
384,292,152968,1,0,0:0:0:0:
384,292,153148,1,0,0:0:0:0:
384,292,153328,1,8,0:0:0:0:
384,292,153508,1,8,0:0:0:0:
120,96,153690,1,0,0:0:0:0:
376,272,154049,1,8,0:0:0:0:
128,116,154409,1,0,0:0:0:0:
132,120,154770,1,0,0:0:0:0:
336,256,155130,1,8,0:0:0:0:
132,68,155490,1,0,0:0:0:0:
400,272,155851,5,8,0:0:0:0:
192,88,156031,1,0,0:0:0:0:
424,284,156211,1,8,0:0:0:0:
424,284,156391,1,8,0:0:0:0:
424,284,156572,1,8,0:0:0:0:
408,288,156633,1,8,0:0:0:0:
408,288,156693,1,8,0:0:0:0:
408,288,156753,1,8,0:0:0:0:
356,264,156813,1,8,0:0:0:0:
356,264,156873,1,8,0:0:0:0:
144,100,156933,1,0,0:0:0:0:
104,288,157292,5,4,0:0:0:0:
120,144,157472,1,0,0:0:0:0:
388,304,157654,1,8,0:0:0:0:
120,120,157834,1,0,0:0:0:0:
360,312,158014,1,8,0:0:0:0:
348,300,158104,1,8,0:0:0:0:
164,120,158194,1,0,0:0:0:0:
164,120,158284,1,0,0:0:0:0:
164,120,158374,1,0,0:0:0:0:
124,136,158553,1,0,0:0:0:0:
132,136,158915,1,0,0:0:0:0:
388,320,159095,1,8,0:0:0:0:
144,128,159275,1,0,0:0:0:0:
400,336,159455,1,8,0:0:0:0:
160,108,159545,1,0,0:0:0:0:
400,280,159636,1,8,0:0:0:0:
400,280,159726,1,8,0:0:0:0:
152,112,159816,1,0,0:0:0:0:
408,320,159996,1,8,0:0:0:0:
144,140,160356,1,0,0:0:0:0:
400,324,160536,1,8,0:0:0:0:
140,160,160717,1,0,0:0:0:0:
400,280,160897,1,8,0:0:0:0:
400,280,160987,1,8,0:0:0:0:
400,280,161077,1,8,0:0:0:0:
400,280,161167,1,8,0:0:0:0:
168,144,161257,1,0,0:0:0:0:
412,296,161437,1,0,0:0:0:0:
168,144,161798,1,0,0:0:0:0:
440,320,161978,1,8,0:0:0:0:
148,128,162158,1,0,0:0:0:0:
408,272,162338,1,8,0:0:0:0:
408,272,162428,1,8,0:0:0:0:
408,272,162518,1,8,0:0:0:0:
144,84,162609,1,0,0:0:0:0:
336,232,162699,1,8,0:0:0:0:
328,260,162879,1,8,0:0:0:0:
372,176,163059,5,12,0:0:0:0:
400,276,163419,1,8,0:0:0:0:
400,276,163780,1,8,0:0:0:0:
148,144,163960,1,0,0:0:0:0:
148,144,164050,1,0,0:0:0:0:
400,276,164140,1,8,0:0:0:0:
148,144,164320,1,0,0:0:0:0:
392,264,164500,1,8,0:0:0:0:
392,264,164861,1,8,0:0:0:0:
392,264,165221,1,8,0:0:0:0:
144,140,165401,1,0,0:0:0:0:
144,140,165491,1,0,0:0:0:0:
392,264,165582,1,8,0:0:0:0:
144,140,165762,1,0,0:0:0:0:
392,264,165942,1,12,0:0:0:0:
392,264,166302,1,8,0:0:0:0:
392,264,166663,1,8,0:0:0:0:
144,140,166843,1,0,0:0:0:0:
144,140,166933,1,0,0:0:0:0:
392,264,167023,1,8,0:0:0:0:
144,140,167203,1,0,0:0:0:0:
392,264,167383,1,8,0:0:0:0:
392,264,167744,1,8,0:0:0:0:
392,264,168104,1,8,0:0:0:0:
144,140,168284,1,0,0:0:0:0:
144,140,168374,1,0,0:0:0:0:
392,264,168464,1,8,0:0:0:0:
400,284,168645,1,8,0:0:0:0:
152,272,168825,5,4,0:0:0:0:
168,112,169005,1,0,0:0:0:0:
428,288,169185,1,8,0:0:0:0:
152,104,169366,1,0,0:0:0:0:
160,84,169546,1,0,0:0:0:0:
136,84,169726,1,0,0:0:0:0:
148,140,169816,1,0,0:0:0:0:
432,312,169906,1,8,0:0:0:0:
152,104,170087,1,0,0:0:0:0:
160,84,170267,1,0,0:0:0:0:
136,84,170447,1,0,0:0:0:0:
432,312,170627,1,8,0:0:0:0:
152,104,170807,1,0,0:0:0:0:
160,84,170987,1,0,0:0:0:0:
136,84,171167,1,0,0:0:0:0:
432,312,171347,1,8,0:0:0:0:
428,304,171438,1,8,0:0:0:0:
152,104,171528,1,0,0:0:0:0:
428,304,171618,1,8,0:0:0:0:
160,84,171708,5,4,0:0:0:0:
136,84,171888,1,0,0:0:0:0:
432,312,172068,1,8,0:0:0:0:
152,104,172248,1,0,0:0:0:0:
160,84,172428,1,0,0:0:0:0:
136,84,172608,1,0,0:0:0:0:
140,104,172699,1,0,0:0:0:0:
432,312,172788,1,8,0:0:0:0:
152,104,172969,1,0,0:0:0:0:
160,84,173149,1,0,0:0:0:0:
136,84,173329,1,0,0:0:0:0:
140,104,173420,1,0,0:0:0:0:
432,312,173509,1,8,0:0:0:0:
152,104,173690,1,0,0:0:0:0:
160,84,173870,1,0,0:0:0:0:
408,288,173960,1,8,0:0:0:0:
136,84,174050,1,0,0:0:0:0:
432,312,174230,1,8,0:0:0:0:
140,104,174411,1,0,0:0:0:0:
400,296,174591,5,8,0:0:0:0:
400,296,174681,1,8,0:0:0:0:
144,88,174771,1,0,0:0:0:0:
36,88,174861,1,0,0:0:0:0:
400,296,174951,5,8,0:0:0:0:
400,296,175041,1,8,0:0:0:0:
144,88,175131,1,0,0:0:0:0:
36,88,175221,1,0,0:0:0:0:
400,296,175312,5,8,0:0:0:0:
400,296,175402,1,8,0:0:0:0:
144,88,175492,1,0,0:0:0:0:
36,88,175582,1,0,0:0:0:0:
400,296,175672,5,8,0:0:0:0:
400,296,175762,1,8,0:0:0:0:
144,88,175852,1,0,0:0:0:0:
36,88,175942,1,0,0:0:0:0:
400,296,176032,5,8,0:0:0:0:
400,296,176122,1,8,0:0:0:0:
144,88,176212,1,0,0:0:0:0:
36,88,176302,1,0,0:0:0:0:
400,296,176393,5,8,0:0:0:0:
400,296,176483,1,8,0:0:0:0:
144,88,176573,1,0,0:0:0:0:
36,88,176663,1,0,0:0:0:0:
400,296,176753,5,8,0:0:0:0:
400,296,176843,1,8,0:0:0:0:
144,88,176933,1,0,0:0:0:0:
36,88,177023,1,0,0:0:0:0:
400,296,177113,5,8,0:0:0:0:
400,296,177203,1,8,0:0:0:0:
144,88,177293,1,0,0:0:0:0:
36,88,177383,1,0,0:0:0:0:
400,296,177474,5,8,0:0:0:0:
144,88,177564,1,0,0:0:0:0:
400,296,177654,1,8,0:0:0:0:
36,88,177744,1,0,0:0:0:0:
400,296,177834,5,8,0:0:0:0:
144,88,177924,1,0,0:0:0:0:
400,296,178014,1,8,0:0:0:0:
36,88,178104,1,0,0:0:0:0:
400,296,178194,5,8,0:0:0:0:
144,88,178284,1,0,0:0:0:0:
400,296,178374,1,8,0:0:0:0:
36,88,178464,1,0,0:0:0:0:
400,296,178555,5,8,0:0:0:0:
144,88,178645,1,0,0:0:0:0:
400,296,178735,1,8,0:0:0:0:
36,88,178825,1,0,0:0:0:0:
104,288,180355,5,4,0:0:0:0:
120,144,180535,1,0,0:0:0:0:
140,120,180625,1,0,0:0:0:0:
388,304,180715,1,8,0:0:0:0:
120,120,180895,1,0,0:0:0:0:
360,312,181075,1,8,0:0:0:0:
348,300,181165,1,8,0:0:0:0:
164,120,181255,1,0,0:0:0:0:
164,120,181345,1,0,0:0:0:0:
400,272,181436,1,8,0:0:0:0:
140,104,181526,1,0,0:0:0:0:
404,332,181616,1,8,0:0:0:0:
376,280,181706,1,8,0:0:0:0:
284,208,181751,1,8,0:0:0:0:
128,116,181796,1,0,0:0:0:0:
132,136,181976,1,0,0:0:0:0:
144,108,182066,1,0,0:0:0:0:
388,320,182156,1,8,0:0:0:0:
144,128,182336,1,0,0:0:0:0:
400,336,182517,1,8,0:0:0:0:
160,108,182607,1,0,0:0:0:0:
400,280,182697,1,8,0:0:0:0:
400,280,182787,1,8,0:0:0:0:
152,112,182877,1,0,0:0:0:0:
136,100,182967,1,0,0:0:0:0:
408,320,183057,1,8,0:0:0:0:
316,280,183147,1,8,0:0:0:0:
316,280,183192,1,8,0:0:0:0:
132,116,183237,1,0,0:0:0:0:
144,140,183418,1,0,0:0:0:0:
168,120,183508,1,0,0:0:0:0:
400,324,183598,1,8,0:0:0:0:
140,160,183778,1,0,0:0:0:0:
400,280,183958,1,8,0:0:0:0:
400,280,184048,1,8,0:0:0:0:
400,280,184138,1,8,0:0:0:0:
400,280,184228,1,8,0:0:0:0:
168,144,184318,1,0,0:0:0:0:
168,120,184364,1,0,0:0:0:0:
168,120,184409,1,0,0:0:0:0:
412,296,184499,1,8,0:0:0:0:
148,132,184589,1,0,0:0:0:0:
148,132,184679,1,0,0:0:0:0:
168,144,184859,1,0,0:0:0:0:
160,124,184949,1,0,0:0:0:0:
440,320,185039,1,8,0:0:0:0:
148,128,185219,1,0,0:0:0:0:
408,272,185400,1,8,0:0:0:0:
408,272,185490,1,8,0:0:0:0:
408,272,185580,1,8,0:0:0:0:
144,84,185670,1,0,0:0:0:0:
160,104,185715,1,0,0:0:0:0:
336,232,185760,1,8,0:0:0:0:
328,260,185940,1,8,0:0:0:0:
104,288,186120,5,4,0:0:0:0:
404,308,186210,1,8,0:0:0:0:
120,144,186300,1,0,0:0:0:0:
376,284,186391,5,8,0:0:0:0:
388,304,186480,1,8,0:0:0:0:
136,104,186571,1,0,0:0:0:0:
120,120,186660,1,0,0:0:0:0:
160,104,186751,1,0,0:0:0:0:
360,312,186840,1,8,0:0:0:0:
348,300,186930,1,8,0:0:0:0:
164,120,187020,1,0,0:0:0:0:
160,104,187066,1,0,0:0:0:0:
344,264,187110,1,8,0:0:0:0:
164,120,187201,1,0,0:0:0:0:
320,264,187382,1,8,0:0:0:0:
360,288,187472,1,8,0:0:0:0:
148,124,187562,1,0,0:0:0:0:
132,136,187741,1,0,0:0:0:0:
144,124,187832,1,0,0:0:0:0:
388,320,187921,1,8,0:0:0:0:
152,128,188012,1,0,0:0:0:0:
404,304,188101,1,8,0:0:0:0:
148,108,188192,1,0,0:0:0:0:
400,336,188282,1,8,0:0:0:0:
160,108,188372,1,0,0:0:0:0:
400,280,188462,1,8,0:0:0:0:
400,280,188552,1,8,0:0:0:0:
152,112,188642,1,0,0:0:0:0:
136,116,188688,1,0,0:0:0:0:
100,144,188733,1,0,0:0:0:0:
136,116,188778,1,0,0:0:0:0:
408,320,188822,1,8,0:0:0:0:
100,144,189003,1,0,0:0:0:0:
384,296,189093,1,8,0:0:0:0:
144,140,189183,1,0,0:0:0:0:
324,236,189273,1,8,0:0:0:0:
400,324,189363,1,8,0:0:0:0:
384,300,189454,1,8,0:0:0:0:
140,160,189543,1,0,0:0:0:0:
136,116,189634,1,0,0:0:0:0:
400,280,189723,1,8,0:0:0:0:
400,280,189813,1,8,0:0:0:0:
400,280,189903,1,8,0:0:0:0:
400,280,189993,1,8,0:0:0:0:
456,308,190039,1,8,0:0:0:0:
168,144,190083,1,0,0:0:0:0:
412,296,190264,1,8,0:0:0:0:
384,300,190355,1,8,0:0:0:0:
168,132,190445,1,0,0:0:0:0:
168,144,190624,1,0,0:0:0:0:
136,116,190715,1,0,0:0:0:0:
440,320,190805,1,8,0:0:0:0:
428,304,190895,1,8,0:0:0:0:
148,128,190984,1,0,0:0:0:0:
364,256,191030,1,8,0:0:0:0:
152,88,191075,1,0,0:0:0:0:
100,120,191120,1,0,0:0:0:0:
376,276,191165,1,8,0:0:0:0:
184,104,191255,1,0,0:0:0:0:
400,276,191345,1,8,0:0:0:0:
336,232,191435,1,8,0:0:0:0:
104,288,191886,5,4,0:0:0:0:
120,144,192066,1,0,0:0:0:0:
140,120,192156,1,0,0:0:0:0:
388,304,192246,1,8,0:0:0:0:
120,120,192426,1,0,0:0:0:0:
360,312,192606,1,8,0:0:0:0:
348,300,192696,1,8,0:0:0:0:
164,120,192786,1,0,0:0:0:0:
164,120,192876,1,0,0:0:0:0:
400,272,192967,1,8,0:0:0:0:
140,104,193057,1,0,0:0:0:0:
404,332,193147,1,8,0:0:0:0:
88,108,193192,1,0,0:0:0:0:
376,280,193237,1,8,0:0:0:0:
284,208,193282,1,8,0:0:0:0:
128,116,193327,1,0,0:0:0:0:
132,136,193507,1,0,0:0:0:0:
144,108,193597,1,0,0:0:0:0:
388,320,193687,1,8,0:0:0:0:
144,128,193867,1,0,0:0:0:0:
400,336,194048,1,8,0:0:0:0:
160,108,194138,1,0,0:0:0:0:
400,280,194228,1,8,0:0:0:0:
400,280,194318,1,8,0:0:0:0:
152,112,194408,1,0,0:0:0:0:
136,100,194498,1,0,0:0:0:0:
408,320,194588,1,8,0:0:0:0:
248,280,194634,1,8,0:0:0:0:
316,280,194678,1,8,0:0:0:0:
316,280,194723,1,8,0:0:0:0:
132,116,194768,1,0,0:0:0:0:
144,140,194949,1,0,0:0:0:0:
168,120,195039,1,0,0:0:0:0:
400,324,195129,1,8,0:0:0:0:
140,160,195309,1,0,0:0:0:0:
400,280,195489,1,8,0:0:0:0:
400,280,195579,1,8,0:0:0:0:
400,280,195669,1,8,0:0:0:0:
400,280,195759,1,8,0:0:0:0:
168,144,195849,1,0,0:0:0:0:
168,120,195895,1,0,0:0:0:0:
168,120,195940,1,0,0:0:0:0:
192,128,195985,1,0,0:0:0:0:
412,296,196030,1,8,0:0:0:0:
148,132,196120,1,0,0:0:0:0:
148,132,196210,1,0,0:0:0:0:
168,144,196390,1,0,0:0:0:0:
160,124,196480,1,0,0:0:0:0:
440,320,196570,1,8,0:0:0:0:
148,128,196750,1,0,0:0:0:0:
408,272,196931,1,8,0:0:0:0:
408,272,197021,1,8,0:0:0:0:
408,272,197111,1,8,0:0:0:0:
144,84,197201,1,0,0:0:0:0:
160,104,197246,1,0,0:0:0:0:
336,232,197291,1,8,0:0:0:0:
328,260,197471,1,8,0:0:0:0:
104,288,197651,5,4,0:0:0:0:
404,308,197741,1,8,0:0:0:0:
120,144,197831,1,0,0:0:0:0:
376,284,197922,5,8,0:0:0:0:
388,304,198011,1,8,0:0:0:0:
136,104,198102,1,0,0:0:0:0:
120,120,198191,1,0,0:0:0:0:
160,104,198282,1,0,0:0:0:0:
360,312,198373,1,8,0:0:0:0:
348,300,198463,1,8,0:0:0:0:
164,120,198553,1,0,0:0:0:0:
160,104,198598,1,0,0:0:0:0:
344,264,198643,1,8,0:0:0:0:
384,272,198688,1,8,0:0:0:0:
164,120,198733,1,0,0:0:0:0:
320,264,198913,1,8,0:0:0:0:
360,288,199003,1,8,0:0:0:0:
148,124,199093,1,0,0:0:0:0:
132,136,199272,1,0,0:0:0:0:
144,124,199363,1,0,0:0:0:0:
388,320,199454,1,8,0:0:0:0:
152,128,199543,1,0,0:0:0:0:
404,304,199634,1,8,0:0:0:0:
148,108,199724,1,0,0:0:0:0:
400,336,199814,1,8,0:0:0:0:
160,108,199904,1,0,0:0:0:0:
400,280,199994,1,8,0:0:0:0:
400,280,200083,1,8,0:0:0:0:
388,296,200129,1,8,0:0:0:0:
152,112,200173,1,0,0:0:0:0:
100,144,200264,1,0,0:0:0:0:
136,116,200309,1,0,0:0:0:0:
408,320,200353,1,8,0:0:0:0:
100,144,200534,1,0,0:0:0:0:
384,296,200624,1,8,0:0:0:0:
144,140,200714,1,0,0:0:0:0:
324,236,200804,1,8,0:0:0:0:
400,324,200894,1,8,0:0:0:0:
384,300,200985,1,8,0:0:0:0:
140,160,201074,1,0,0:0:0:0:
136,116,201165,1,0,0:0:0:0:
400,280,201254,1,8,0:0:0:0:
400,280,201344,1,8,0:0:0:0:
400,280,201436,1,8,0:0:0:0:
148,124,201481,1,0,0:0:0:0:
400,280,201526,1,8,0:0:0:0:
456,308,201572,1,8,0:0:0:0:
168,144,201616,1,0,0:0:0:0:
412,296,201795,1,8,0:0:0:0:
384,300,201886,1,8,0:0:0:0:
168,132,201976,1,0,0:0:0:0:
168,144,202155,1,0,0:0:0:0:
136,116,202246,1,0,0:0:0:0:
440,320,202336,1,8,0:0:0:0:
428,304,202426,1,8,0:0:0:0:
148,128,202517,1,0,0:0:0:0:
152,88,202606,1,0,0:0:0:0:
100,120,202651,1,0,0:0:0:0:
376,276,202696,1,8,0:0:0:0:
184,104,202786,1,0,0:0:0:0:
144,124,202832,1,0,0:0:0:0:
400,276,202876,1,8,0:0:0:0:
352,264,202922,1,8,0:0:0:0:
336,232,202966,1,8,0:0:0:0:
160,104,203418,5,4,0:0:0:0:
416,276,203598,1,8,0:0:0:0:
408,272,203688,1,8,0:0:0:0:
168,128,203778,1,0,0:0:0:0:
412,248,203958,1,8,0:0:0:0:
132,96,204138,1,0,0:0:0:0:
172,92,204319,1,0,0:0:0:0:
384,264,204409,1,8,0:0:0:0:
172,108,204499,1,0,0:0:0:0:
142,94,204589,1,0,0:0:0:0:
340,240,204679,1,8,0:0:0:0:
132,96,204859,1,0,0:0:0:0:
388,288,205039,1,8,0:0:0:0:
384,280,205129,1,8,0:0:0:0:
148,120,205219,1,0,0:0:0:0:
344,272,205400,1,8,0:0:0:0:
120,128,205580,5,0,0:0:0:0:
384,236,205760,1,8,0:0:0:0:
152,92,205850,1,0,0:0:0:0:
120,128,205940,1,0,0:0:0:0:
388,288,206120,1,8,0:0:0:0:
140,124,206301,1,0,0:0:0:0:
376,304,206481,1,8,0:0:0:0:
376,304,206571,1,8,0:0:0:0:
136,104,206661,1,0,0:0:0:0:
368,288,206841,1,8,0:0:0:0:
136,80,207021,1,0,0:0:0:0:
360,272,207201,1,8,0:0:0:0:
360,264,207291,1,8,0:0:0:0:
80,88,207382,1,0,0:0:0:0:
130,87,207472,1,0,0:0:0:0:
392,288,207562,1,8,0:0:0:0:
128,96,207742,5,0,0:0:0:0:
336,272,207922,1,8,0:0:0:0:
141,87,208012,5,0,0:0:0:0:
104,48,208102,1,0,0:0:0:0:
136,104,208282,1,0,0:0:0:0:
360,272,208373,1,8,0:0:0:0:
152,96,208463,1,0,0:0:0:0:
136,136,208553,1,0,0:0:0:0:
360,288,208643,1,8,0:0:0:0:
164,96,208733,5,0,0:0:0:0:
88,272,209183,1,4,0:0:0:0:
136,112,209544,1,0,0:0:0:0:
368,312,209904,1,8,0:0:0:0:
152,112,210264,1,0,0:0:0:0:
152,112,210445,1,0,0:0:0:0:
152,112,210625,1,0,0:0:0:0:
48,112,210985,1,0,0:0:0:0:
416,280,211346,1,8,0:0:0:0:
400,272,211706,1,8,0:0:0:0:
400,272,211886,1,8,0:0:0:0:
64,120,212066,5,4,0:0:0:0:
128,232,213508,1,8,0:0:0:0:
168,296,214949,5,4,0:0:0:0:
208,136,215039,1,0,0:0:0:0:
368,286,215129,1,8,0:0:0:0:
208,128,215219,1,0,0:0:0:0:
424,296,215310,1,8,0:0:0:0:
176,112,215400,1,0,0:0:0:0:
384,264,215490,1,8,0:0:0:0:
400,272,215580,1,8,0:0:0:0:
384,264,215670,1,0,0:0:0:0:
384,264,215760,1,8,0:0:0:0:
361,297,215850,1,0,0:0:0:0:
176,112,215940,1,0,0:0:0:0:
416,304,216030,1,8,0:0:0:0:
448,288,216210,1,8,0:0:0:0:
352,295,216255,1,8,0:0:0:0:
352,295,216300,1,8,0:0:0:0:
96,80,216391,1,0,0:0:0:0:
176,104,216481,1,0,0:0:0:0:
347,276,216571,1,8,0:0:0:0:
184,64,216661,1,0,0:0:0:0:
376,256,216751,1,8,0:0:0:0:
424,256,216841,1,8,0:0:0:0:
144,104,216931,1,0,0:0:0:0:
456,304,217021,1,8,0:0:0:0:
112,128,217111,1,0,0:0:0:0:
132,85,217156,1,0,0:0:0:0:
112,128,217201,1,0,0:0:0:0:
400,280,217291,1,8,0:0:0:0:
192,144,217382,1,0,0:0:0:0:
376,256,217472,1,8,0:0:0:0:
358,281,217516,1,8,0:0:0:0:
358,281,217561,1,8,0:0:0:0:
390,272,217651,1,8,0:0:0:0:
168,296,217832,5,0,0:0:0:0:
208,136,217922,1,0,0:0:0:0:
331,246,218012,1,8,0:0:0:0:
208,128,218102,1,0,0:0:0:0:
424,296,218193,1,8,0:0:0:0:
176,112,218283,1,0,0:0:0:0:
384,264,218373,1,8,0:0:0:0:
400,272,218463,1,8,0:0:0:0:
384,264,218553,1,0,0:0:0:0:
384,264,218643,1,8,0:0:0:0:
331,246,218733,1,0,0:0:0:0:
176,112,218823,1,0,0:0:0:0:
416,304,218913,1,8,0:0:0:0:
448,288,219093,1,8,0:0:0:0:
448,288,219138,1,8,0:0:0:0:
448,288,219184,1,8,0:0:0:0:
96,80,219274,1,0,0:0:0:0:
176,104,219364,1,0,0:0:0:0:
421,279,219454,1,8,0:0:0:0:
184,64,219544,1,0,0:0:0:0:
376,256,219634,1,8,0:0:0:0:
424,256,219724,1,8,0:0:0:0:
144,104,219814,1,0,0:0:0:0:
456,304,219904,1,8,0:0:0:0:
112,128,219994,1,0,0:0:0:0:
112,128,220084,1,0,0:0:0:0:
169,111,220129,1,0,0:0:0:0:
400,280,220174,1,8,0:0:0:0:
192,144,220265,1,0,0:0:0:0:
112,128,220309,1,0,0:0:0:0:
376,256,220355,1,8,0:0:0:0:
168,296,220714,5,4,0:0:0:0:
208,136,220805,1,0,0:0:0:0:
334,265,220895,1,8,0:0:0:0:
208,128,220985,1,0,0:0:0:0:
424,296,221076,1,8,0:0:0:0:
176,112,221166,1,0,0:0:0:0:
384,264,221256,1,8,0:0:0:0:
400,272,221346,1,8,0:0:0:0:
191,75,221436,1,0,0:0:0:0:
384,264,221526,1,8,0:0:0:0:
176,112,221616,1,0,0:0:0:0:
176,112,221706,1,0,0:0:0:0:
416,304,221796,1,8,0:0:0:0:
448,288,221976,1,8,0:0:0:0:
448,288,222021,1,8,0:0:0:0:
448,288,222067,1,8,0:0:0:0:
448,288,222112,1,8,0:0:0:0:
96,80,222157,1,0,0:0:0:0:
176,104,222247,1,0,0:0:0:0:
348,245,222337,1,8,0:0:0:0:
184,64,222427,1,0,0:0:0:0:
376,256,222517,1,8,0:0:0:0:
424,256,222607,1,8,0:0:0:0:
144,104,222697,1,0,0:0:0:0:
456,304,222787,1,8,0:0:0:0:
112,128,222877,1,0,0:0:0:0:
112,128,222921,1,0,0:0:0:0:
112,128,222967,1,0,0:0:0:0:
400,280,223057,1,8,0:0:0:0:
192,144,223148,1,0,0:0:0:0:
376,256,223238,1,8,0:0:0:0:
376,256,223283,1,8,0:0:0:0:
303,250,223328,1,8,0:0:0:0:
416,296,223418,1,8,0:0:0:0:
168,296,223597,5,0,0:0:0:0:
208,136,223687,1,0,0:0:0:0:
313,214,223777,1,8,0:0:0:0:
208,128,223867,1,0,0:0:0:0:
424,296,223959,1,8,0:0:0:0:
176,112,224049,1,0,0:0:0:0:
384,264,224139,1,8,0:0:0:0:
400,272,224229,1,8,0:0:0:0:
176,112,224319,1,0,0:0:0:0:
384,264,224409,1,8,0:0:0:0:
176,112,224499,1,0,0:0:0:0:
176,112,224589,1,0,0:0:0:0:
416,304,224679,1,8,0:0:0:0:
152,112,224769,1,0,0:0:0:0:
448,288,224859,1,8,0:0:0:0:
448,288,224904,1,8,0:0:0:0:
448,288,224950,1,8,0:0:0:0:
448,288,224995,1,8,0:0:0:0:
96,80,225040,1,0,0:0:0:0:
184,96,225220,1,0,0:0:0:0:
184,64,225310,1,0,0:0:0:0:
376,256,225400,1,8,0:0:0:0:
424,256,225490,1,8,0:0:0:0:
144,104,225580,1,0,0:0:0:0:
456,304,225670,1,8,0:0:0:0:
375,269,225714,1,8,0:0:0:0:
112,128,225760,1,0,0:0:0:0:
112,128,225850,1,0,0:0:0:0:
112,128,225895,1,0,0:0:0:0:
400,280,225940,1,8,0:0:0:0:
368,272,225985,1,8,0:0:0:0:
192,144,226031,1,0,0:0:0:0:
128,144,226481,5,4,0:0:0:0:
160,152,226571,1,0,0:0:0:0:
384,256,226661,1,8,0:0:0:0:
384,256,226706,1,8,0:0:0:0:
384,256,226751,1,8,0:0:0:0:
384,256,226796,1,8,0:0:0:0:
176,152,226841,1,0,0:0:0:0:
176,152,226931,1,0,0:0:0:0:
400,272,227021,1,8,0:0:0:0:
400,288,227066,1,8,0:0:0:0:
368,256,227111,1,8,0:0:0:0:
392,264,227156,1,8,0:0:0:0:
176,144,227201,1,0,0:0:0:0:
184,160,227291,1,0,0:0:0:0:
168,112,227336,1,0,0:0:0:0:
368,256,227382,1,8,0:0:0:0:
368,256,227472,1,8,0:0:0:0:
192,152,227562,1,0,0:0:0:0:
168,112,227607,1,0,0:0:0:0:
168,96,227652,1,0,0:0:0:0:
216,152,227697,1,0,0:0:0:0:
336,240,227742,1,8,0:0:0:0:
160,112,227922,5,0,0:1:0:0:
160,152,228012,1,0,0:0:0:0:
384,256,228102,1,8,0:0:0:0:
384,256,228147,1,8,0:0:0:0:
384,256,228192,1,8,0:0:0:0:
384,256,228237,1,8,0:0:0:0:
176,152,228282,1,0,0:0:0:0:
176,152,228372,1,0,0:0:0:0:
132,136,228417,1,0,0:0:0:0:
400,272,228462,1,8,0:0:0:0:
368,256,228552,1,8,0:0:0:0:
176,144,228642,1,0,0:0:0:0:
168,112,228687,1,0,0:0:0:0:
184,160,228732,1,0,0:0:0:0:
160,112,228823,1,0,0:0:0:0:
368,256,228913,1,8,0:0:0:0:
192,152,229003,1,0,0:0:0:0:
168,112,229048,1,0,0:0:0:0:
168,96,229093,1,0,0:0:0:0:
216,152,229138,1,0,0:0:0:0:
336,240,229183,1,8,0:0:0:0:
128,144,229364,5,4,0:0:0:0:
160,152,229454,1,0,0:0:0:0:
384,256,229544,1,8,0:0:0:0:
384,256,229589,1,8,0:0:0:0:
384,256,229634,1,8,0:0:0:0:
384,256,229679,1,8,0:0:0:0:
176,152,229724,1,0,0:0:0:0:
176,152,229814,1,0,0:0:0:0:
400,272,229904,1,8,0:0:0:0:
400,288,229949,1,8,0:0:0:0:
368,256,229994,1,8,0:0:0:0:
392,264,230039,1,8,0:0:0:0:
176,144,230084,1,0,0:0:0:0:
184,160,230174,1,0,0:0:0:0:
168,112,230219,1,0,0:0:0:0:
368,256,230265,1,8,0:0:0:0:
368,256,230355,1,8,0:0:0:0:
192,152,230445,1,0,0:0:0:0:
168,112,230490,1,0,0:0:0:0:
168,96,230535,1,0,0:0:0:0:
216,152,230580,1,0,0:0:0:0:
336,240,230625,1,8,0:0:0:0:
160,112,230805,1,0,0:0:0:0:
160,152,230895,1,0,0:0:0:0:
384,256,230985,1,8,0:0:0:0:
384,256,231030,1,8,0:0:0:0:
384,256,231075,1,8,0:0:0:0:
384,256,231120,1,8,0:0:0:0:
176,152,231165,1,0,0:0:0:0:
176,152,231255,1,0,0:0:0:0:
180,112,231300,1,0,0:0:0:0:
400,272,231345,1,8,0:0:0:0:
368,256,231435,1,8,0:0:0:0:
176,144,231525,1,0,0:0:0:0:
168,112,231570,1,0,0:0:0:0:
184,160,231615,1,0,0:0:0:0:
152,116,231706,1,0,0:0:0:0:
368,256,231796,1,8,0:0:0:0:
368,256,231841,1,8,0:0:0:0:
192,152,231886,1,0,0:0:0:0:
168,96,231976,1,0,0:0:0:0:
336,240,232066,1,8,0:0:0:0:
384,264,232156,1,8,0:0:0:0:
160,112,232246,5,4,0:0:0:0:
128,112,232427,1,0,0:0:0:0:
400,296,232607,1,8,0:0:0:0:
168,96,232787,1,0,0:0:0:0:
416,336,232967,1,8,0:0:0:0:
416,336,233057,1,8,0:0:0:0:
160,112,233147,1,0,0:0:0:0:
160,112,233237,1,0,0:0:0:0:
160,112,233328,1,0,0:0:0:0:
360,280,233508,1,8,0:0:0:0:
128,112,233868,1,0,0:0:0:0:
400,296,234048,1,8,0:0:0:0:
168,96,234228,1,0,0:0:0:0:
384,304,234409,1,8,0:0:0:0:
184,136,234499,1,0,0:0:0:0:
344,248,234589,1,8,0:0:0:0:
344,248,234679,1,8,0:0:0:0:
152,104,234769,1,0,0:0:0:0:
368,272,234949,1,8,0:0:0:0:
128,112,235310,1,0,0:0:0:0:
400,296,235490,1,8,0:0:0:0:
168,96,235670,1,0,0:0:0:0:
152,104,235850,1,0,0:0:0:0:
152,104,235940,1,0,0:0:0:0:
320,248,236030,1,8,0:0:0:0:
320,248,236120,1,8,0:0:0:0:
112,72,236210,1,0,0:0:0:0:
368,272,236391,1,8,0:0:0:0:
128,112,236751,1,0,0:0:0:0:
400,296,236931,1,8,0:0:0:0:
168,96,237111,1,0,0:0:0:0:
496,336,237291,5,8,0:0:0:0:
496,336,237382,1,8,0:0:0:0:
496,336,237427,1,8,0:0:0:0:
496,336,237472,1,8,0:0:0:0:
496,336,237562,1,8,0:0:0:0:
416,296,237652,1,8,0:0:0:0:
432,304,237832,1,8,0:0:0:0:
256,192,238013,12,0,245939,0:0:0:0:
