osu file format v14

[General]
AudioFilename: audio.mp3
AudioLeadIn: 0
PreviewTime: 180355
Countdown: 0
SampleSet: Normal
StackLeniency: 0.7
Mode: 1
LetterboxInBreaks: 0
WidescreenStoryboard: 0

[Editor]
Bookmarks: 163059
DistanceSpacing: 0.1
BeatDivisor: 4
GridSize: 4
TimelineZoom: 3.000003

[Metadata]
Title:Magical Sanctuary
TitleUnicode:Magical Sanctuary
Artist:Kobaryo
ArtistUnicode:Kobaryo
Creator:Raiden
Version:Kantan
Source:
Tags:speedcore ridiculous HARDCORE TANO*C SPEED BALL EVOLUTION C87 Candy Speed Pops Chaotic
BeatmapID:1365723
BeatmapSetID:534568

[Difficulty]
HPDrainRate:6.5
CircleSize:2
OverallDifficulty:4.5
ApproachRate:10
SliderMultiplier:1.4
SliderTickRate:1

[Events]
//Background and Video events
0,0,"sanctuary.jpg",0,0
//Break Periods
//Storyboard Layer 0 (Background)
//Storyboard Layer 1 (Fail)
//Storyboard Layer 2 (Pass)
//Storyboard Layer 3 (Foreground)
//Storyboard Sound Samples

[TimingPoints]
4505,360.36036036036,4,1,0,70,1,0
36216,180.18018018018,4,1,0,100,1,1
36216,-200,4,1,0,100,0,1
41981,360.36036036036,4,1,0,100,1,0
47746,180.18018018018,4,1,0,100,1,1
47746,-200,4,1,0,100,0,1
53511,360.36036036036,4,1,0,50,1,0
58465,-100,4,1,0,100,0,0
59276,180.18018018018,4,1,0,100,1,0
59276,-200,4,1,0,100,0,0
62249,-200,4,1,0,100,0,0
62610,-200,4,1,0,100,0,0
62970,-200,4,1,0,100,0,0
63330,-200,4,1,0,100,0,0
70807,-200,4,1,0,100,0,0
76573,360.36036036036,4,1,0,70,1,0
76573,-100,4,1,0,70,0,0
88104,-100,4,1,0,80,0,0
111167,-100,4,1,0,70,0,0
114049,-100,4,1,0,40,0,0
122699,-100,4,1,0,70,0,0
132698,-100,4,1,0,10,0,0
134229,-100,4,1,0,70,0,0
157292,-100,4,1,0,80,0,0
180355,180.18018018018,4,1,0,100,1,1
180355,-200,4,1,0,100,0,1
203418,360.36036036036,4,1,0,70,1,0
203418,-100,4,1,0,70,0,0
214949,180.18018018018,4,1,0,100,1,1
214949,-200,4,1,0,100,0,1
220714,-200,4,1,0,100,0,1
226481,-200,4,1,0,100,0,1
231931,-200,4,1,0,100,0,1
232021,-200,4,1,0,100,0,1
232111,-200,4,1,0,100,0,1
232246,-200,4,1,0,100,0,0
237291,-200,4,1,0,100,0,1
238012,-200,4,1,0,100,0,0
238733,-200,4,1,0,80,0,0
240174,-200,4,1,0,65,0,0
240895,-200,4,1,0,50,0,0
241616,-200,4,1,0,35,0,0
242337,-200,4,1,0,20,0,0

[HitObjects]
192,96,4505,5,0,0:0:0:0:
320,352,5946,1,8,0:0:0:0:
128,128,7387,1,0,0:0:0:0:
352,320,8829,5,8,0:0:0:0:
96,96,10270,5,0,0:0:0:0:
352,320,10991,1,8,0:0:0:0:
128,96,11712,1,0,0:0:0:0:
388,285,12432,1,8,0:0:0:0:
157,139,13153,5,0,0:0:0:0:
321,283,14595,5,8,0:0:0:0:
132,111,15315,1,0,0:0:0:0:
148,268,16036,5,4,0:0:0:0:
362,290,17117,1,8,0:0:0:0:
120,108,17477,5,0,0:0:0:0:
123,95,18919,5,0,0:0:0:0:
295,261,20000,1,8,0:0:0:0:
106,98,20360,5,0,0:0:0:0:
160,106,21081,1,0,0:0:0:0:
398,109,21802,5,12,0:0:0:0:
362,265,22523,5,8,0:0:0:0:
362,265,23243,5,8,0:0:0:0:
362,265,23964,5,8,0:0:0:0:
362,265,24324,5,8,0:0:0:0:
344,292,24685,5,8,0:0:0:0:
343,259,25405,5,8,0:0:0:0:
10,307,26126,2,0,L|404:88,1,420
256,192,27568,12,0,29369,0:0:0:0:
359,188,29730,5,12,0:0:0:0:
115,286,30450,5,4,0:0:0:0:
395,291,31171,1,8,0:0:0:0:
188,104,31892,1,0,0:0:0:0:
352,288,32613,1,8,0:0:0:0:
408,300,32973,1,8,0:0:0:0:
96,96,33333,5,0,0:0:0:0:
416,320,34054,1,8,0:0:0:0:
128,128,34775,1,0,0:0:0:0:
352,288,35495,1,8,0:0:0:0:
352,288,35856,1,8,0:0:0:0:
160,288,36216,5,0,0:0:0:0:
352,288,36936,5,8,0:0:0:0:
192,128,37657,5,0,0:0:0:0:
384,256,38017,1,8,0:0:0:0:
352,288,38378,5,8,0:0:0:0:
160,288,39098,5,0,0:0:0:0:
352,288,39818,5,8,0:0:0:0:
192,128,40539,5,0,0:0:0:0:
384,256,40899,1,8,0:0:0:0:
144,132,41260,5,0,0:0:0:0:
115,286,41981,5,4,0:0:0:0:
395,291,42702,1,8,0:0:0:0:
188,104,43423,1,0,0:0:0:0:
352,288,44144,1,8,0:0:0:0:
408,300,44504,1,8,0:0:0:0:
96,96,44864,5,0,0:0:0:0:
416,320,45585,1,8,0:0:0:0:
128,128,46306,1,0,0:0:0:0:
352,288,47026,1,8,0:0:0:0:
352,288,47387,1,8,0:0:0:0:
160,288,47747,5,0,0:0:0:0:
352,288,48467,5,8,0:0:0:0:
192,128,49188,5,0,0:0:0:0:
384,256,49548,1,8,0:0:0:0:
352,288,49909,5,8,0:0:0:0:
160,288,50629,5,0,0:0:0:0:
352,288,51349,5,8,0:0:0:0:
192,128,52070,5,0,0:0:0:0:
384,256,52430,1,8,0:0:0:0:
144,132,52791,5,0,0:0:0:0:
116,280,53511,5,4,0:0:0:0:
102,97,56393,1,0,0:0:0:0:
102,97,58556,1,0,0:0:0:0:
160,286,59276,5,4,0:0:0:0:
320,304,60718,5,4,0:0:0:0:
126,308,62158,5,4,0:0:0:0:
396,332,62879,1,8,0:0:0:0:
84,99,63600,5,4,0:0:0:0:
384,308,64322,5,8,0:0:0:0:
130,296,65041,5,0,0:0:0:0:
188,128,65762,1,0,0:0:0:0:
428,340,66122,1,8,0:0:0:0:
124,96,66483,5,0,0:0:0:0:
352,284,67203,1,8,0:0:0:0:
140,100,67924,5,0,0:0:0:0:
168,64,68644,1,0,0:0:0:0:
344,268,69005,1,8,0:0:0:0:
112,92,69366,5,0,0:0:0:0:
144,116,70086,1,0,0:0:0:0:
130,296,70807,5,4,0:0:0:0:
188,128,71528,1,0,0:0:0:0:
300,240,71888,1,8,0:0:0:0:
124,96,72249,5,0,0:0:0:0:
124,96,72969,1,0,0:0:0:0:
420,264,73330,1,8,0:0:0:0:
64,308,73690,5,4,0:0:0:0:
168,64,74410,1,0,0:0:0:0:
352,292,74771,1,8,0:0:0:0:
112,92,75132,5,0,0:0:0:0:
360,272,75492,1,8,0:0:0:0:
144,116,75852,1,0,0:0:0:0:
80,248,76573,5,4,0:0:0:0:
136,120,78014,1,0,0:0:0:0:
172,144,79455,1,0,0:0:0:0:
160,152,80897,1,0,0:0:0:0:
124,88,82338,5,4,0:0:0:0:
432,316,83780,1,8,0:0:0:0:
432,316,84500,1,8,0:0:0:0:
80,284,85221,2,0,B|256:116|292:96,2,280
92,264,88104,5,4,0:0:0:0:
368,320,88824,1,8,0:0:0:0:
120,108,89545,1,0,0:0:0:0:
108,80,90986,5,0,0:0:0:0:
312,232,91707,1,8,0:0:0:0:
132,104,92428,1,0,0:0:0:0:
104,264,93869,5,4,0:0:0:0:
360,272,94590,1,8,0:0:0:0:
152,116,95311,1,0,0:0:0:0:
332,280,96031,1,8,0:0:0:0:
68,112,96752,5,0,0:0:0:0:
376,260,98194,1,8,0:0:0:0:
412,308,98914,1,8,0:0:0:0:
120,104,99635,5,0,0:0:0:0:
348,264,100356,1,8,0:0:0:0:
192,116,101076,1,0,0:0:0:0:
448,384,101798,1,8,0:0:0:0:
128,96,102518,1,0,0:0:0:0:
316,236,103239,1,8,0:0:0:0:
152,104,103959,1,0,0:0:0:0:
152,256,105401,5,4,0:0:0:0:
368,284,106122,1,8,0:0:0:0:
372,260,106482,1,8,0:0:0:0:
148,84,106842,1,0,0:0:0:0:
160,116,107563,1,0,0:0:0:0:
336,252,107923,1,8,0:0:0:0:
200,140,108284,1,0,0:0:0:0:
292,268,109004,1,8,0:0:0:0:
372,272,109365,1,8,0:0:0:0:
152,96,109725,5,0,0:0:0:0:
176,152,110446,1,0,0:0:0:0:
152,272,111167,5,4,0:0:0:0:
152,272,114049,1,0,0:0:0:0:
152,272,116932,1,0,0:0:0:0:
152,272,119815,1,0,0:0:0:0:
152,272,122698,5,0,0:0:0:0:
136,116,124139,1,0,0:0:0:0:
360,272,124860,1,8,0:0:0:0:
148,140,125582,1,0,0:0:0:0:
144,140,127022,1,0,0:0:0:0:
400,296,127744,1,8,0:0:0:0:
44,112,128463,1,0,0:0:0:0:
104,120,129905,1,0,0:0:0:0:
404,248,130627,1,8,0:0:0:0:
144,140,131346,1,0,0:0:0:0:
420,312,132067,1,8,0:0:0:0:
256,192,132788,12,0,133870,0:0:0:0:
192,96,134229,5,0,0:0:0:0:
320,352,135672,1,8,0:0:0:0:
128,128,137113,1,0,0:0:0:0:
352,320,138553,5,8,0:0:0:0:
96,96,139996,5,0,0:0:0:0:
300,288,140716,1,8,0:0:0:0:
328,260,141437,1,8,0:0:0:0:
140,84,142158,1,0,0:0:0:0:
388,304,142517,1,8,0:0:0:0:
144,116,143238,1,0,0:0:0:0:
416,296,143960,1,8,0:0:0:0:
104,64,145041,1,0,0:0:0:0:
468,316,145400,1,8,0:0:0:0:
216,112,146121,1,0,0:0:0:0:
364,248,146843,1,8,0:0:0:0:
120,72,147923,1,0,0:0:0:0:
404,280,148284,1,8,0:0:0:0:
264,180,149005,1,0,0:0:0:0:
136,124,149725,1,0,0:0:0:0:
408,312,150806,1,8,0:0:0:0:
420,280,151166,1,8,0:0:0:0:
168,120,151887,1,0,0:0:0:0:
120,100,152609,1,0,0:0:0:0:
120,96,153690,1,0,0:0:0:0:
376,272,154049,1,8,0:0:0:0:
132,120,154770,1,0,0:0:0:0:
132,68,155490,1,0,0:0:0:0:
400,272,155851,5,8,0:0:0:0:
104,288,157293,5,4,0:0:0:0:
360,312,158014,1,8,0:0:0:0:
136,92,158735,1,0,0:0:0:0:
400,336,159455,1,8,0:0:0:0:
76,256,160176,1,4,0:0:0:0:
400,280,160897,1,8,0:0:0:0:
44,84,161618,1,0,0:0:0:0:
408,272,162338,1,8,0:0:0:0:
372,176,163059,5,12,0:0:0:0:
400,276,163780,1,8,0:0:0:0:
392,264,164500,1,8,0:0:0:0:
392,264,165942,1,12,0:0:0:0:
392,264,166663,1,8,0:0:0:0:
392,264,167383,1,8,0:0:0:0:
152,272,168825,5,4,0:0:0:0:
428,288,169185,1,8,0:0:0:0:
432,312,169906,1,8,0:0:0:0:
432,312,170627,1,8,0:0:0:0:
432,312,171347,1,8,0:0:0:0:
432,312,172068,1,8,0:0:0:0:
432,312,172788,1,8,0:0:0:0:
432,312,173509,1,8,0:0:0:0:
432,312,174230,1,8,0:0:0:0:
400,296,174591,5,8,0:0:0:0:
400,296,175312,5,8,0:0:0:0:
400,296,176032,5,8,0:0:0:0:
400,296,176753,5,8,0:0:0:0:
388,268,177113,1,8,0:0:0:0:
400,296,177474,5,8,0:0:0:0:
400,296,178194,5,8,0:0:0:0:
400,296,178555,5,8,0:0:0:0:
104,288,180356,5,4,0:0:0:0:
360,312,181075,1,8,0:0:0:0:
164,120,181436,1,0,0:0:0:0:
348,316,181796,1,8,0:0:0:0:
168,144,182517,1,0,0:0:0:0:
412,296,182877,1,8,0:0:0:0:
124,92,183237,1,0,0:0:0:0:
408,320,183958,1,8,0:0:0:0:
112,120,184318,1,0,0:0:0:0:
400,336,184679,1,8,0:0:0:0:
392,328,185400,1,8,0:0:0:0:
112,80,186120,5,0,0:0:0:0:
360,312,186840,1,8,0:0:0:0:
164,120,187201,1,0,0:0:0:0:
320,264,187562,1,8,0:0:0:0:
196,140,188282,1,0,0:0:0:0:
400,280,188644,1,8,0:0:0:0:
168,144,189004,1,0,0:0:0:0:
408,320,189724,1,8,0:0:0:0:
152,112,190085,1,0,0:0:0:0:
400,336,190445,1,8,0:0:0:0:
496,356,191165,1,8,0:0:0:0:
104,288,191886,5,4,0:0:0:0:
360,312,192607,1,8,0:0:0:0:
164,120,192966,1,0,0:0:0:0:
348,316,193327,1,8,0:0:0:0:
168,144,194048,1,0,0:0:0:0:
412,296,194409,1,8,0:0:0:0:
124,92,194769,1,0,0:0:0:0:
408,320,195490,1,8,0:0:0:0:
112,120,195850,1,0,0:0:0:0:
400,336,196210,1,8,0:0:0:0:
392,328,196930,1,8,0:0:0:0:
112,80,197652,5,0,0:0:0:0:
360,312,198373,1,8,0:0:0:0:
164,120,198733,1,0,0:0:0:0:
320,264,199092,1,8,0:0:0:0:
196,140,199814,1,0,0:0:0:0:
400,280,200173,1,8,0:0:0:0:
168,144,200534,1,0,0:0:0:0:
408,320,201255,1,8,0:0:0:0:
152,112,201615,1,0,0:0:0:0:
400,336,201976,1,8,0:0:0:0:
496,356,202697,1,8,0:0:0:0:
104,288,203418,5,4,0:0:0:0:
324,268,204138,1,8,0:0:0:0:
132,96,204859,1,0,0:0:0:0:
140,124,206301,1,0,0:0:0:0:
440,312,207021,1,8,0:0:0:0:
128,96,207742,5,0,0:0:0:0:
88,272,209183,1,4,0:0:0:0:
152,112,210625,1,0,0:0:0:0:
416,280,211346,1,8,0:0:0:0:
64,120,212066,5,4,0:0:0:0:
128,232,213508,1,8,0:0:0:0:
168,296,215309,5,0,0:0:0:0:
424,296,215670,1,8,0:0:0:0:
168,92,216030,1,0,0:0:0:0:
376,256,216751,1,8,0:0:0:0:
396,304,217111,1,8,0:0:0:0:
192,144,217471,1,0,0:0:0:0:
424,296,218193,1,8,0:0:0:0:
117,73,218553,1,0,0:0:0:0:
416,304,218913,1,8,0:0:0:0:
376,256,219634,1,8,0:0:0:0:
412,256,219994,1,8,0:0:0:0:
376,256,220355,1,8,0:0:0:0:
424,296,221076,1,8,0:0:0:0:
191,75,221436,1,0,0:0:0:0:
448,288,221795,1,8,0:0:0:0:
112,128,222517,1,0,0:0:0:0:
376,256,222877,1,8,0:0:0:0:
376,256,223238,1,8,0:0:0:0:
424,296,223959,1,8,0:0:0:0:
176,112,224319,1,0,0:0:0:0:
416,304,224679,1,8,0:0:0:0:
208,88,225400,1,0,0:0:0:0:
440,320,225760,1,8,0:0:0:0:
320,248,226481,5,8,0:0:0:0:
176,152,226841,1,0,0:0:0:0:
368,256,227201,1,8,0:0:0:0:
376,264,227561,1,8,0:0:0:0:
136,64,227922,5,0,0:0:0:0:
128,116,228642,1,0,0:0:0:0:
400,272,229363,5,8,0:0:0:0:
128,144,229723,1,0,0:0:0:0:
368,256,230084,1,8,0:0:0:0:
400,260,230444,1,8,0:0:0:0:
160,112,230805,1,0,0:0:0:0:
368,256,231525,1,8,0:0:0:0:
384,296,231886,1,8,0:0:0:0:
160,112,232246,5,4,0:0:0:0:
416,336,232967,1,8,0:0:0:0:
160,112,233328,1,0,0:0:0:0:
384,308,233687,1,8,0:0:0:0:
68,92,234409,1,0,0:0:0:0:
328,240,234769,1,8,0:0:0:0:
108,52,235129,1,0,0:0:0:0:
360,216,235850,1,8,0:0:0:0:
136,56,236211,1,0,0:0:0:0:
384,304,236570,1,8,0:0:0:0:
496,336,237291,5,8,0:0:0:0:
416,296,237652,1,8,0:0:0:0:
256,192,238012,12,0,245938,0:0:0:0:
