osu file format v14

[General]
AudioFilename: audio.mp3
AudioLeadIn: 0
PreviewTime: 178915
Countdown: 0
SampleSet: Normal
StackLeniency: 0.7
Mode: 2
LetterboxInBreaks: 0
WidescreenStoryboard: 0

[Editor]
DistanceSpacing: 0.6
BeatDivisor: 6
GridSize: 4
TimelineZoom: 3.099998

[Metadata]
Title:Magical Sanctuary
TitleUnicode:Magical Sanctuary
Artist:Kobaryo
ArtistUnicode:Kobaryo
Creator:JarvisGaming
Version:Dodge The Beat (Use NF)
Source:
Tags:speedcore ridiculous HARDCORE TANO*C SPEED BALL EVOLUTION C87 Candy Speed Pops Chaotic dtb avoid fruit
BeatmapID:1928777
BeatmapSetID:923598

[Difficulty]
HPDrainRate:0
CircleSize:6
OverallDifficulty:10
ApproachRate:9
SliderMultiplier:1.4
SliderTickRate:4

[Events]
//Background and Video events
0,0,"sanctuary.jpg",0,0
//Break Periods
2,53711,57956
2,76683,86063
2,111007,122099
2,134430,155252
//Storyboard Layer 0 (Background)
//Storyboard Layer 1 (Fail)
//Storyboard Layer 2 (Pass)
//Storyboard Layer 3 (Foreground)
//Storyboard Sound Samples

[TimingPoints]
4505,360.36036036036,4,1,0,20,1,0
21081,-50,4,1,0,70,0,0
35856,-50,4,1,0,70,0,1
35901,-50,4,1,0,70,0,0
35946,-50,4,1,0,70,0,1
35991,-50,4,1,0,70,0,0
36036,-50,4,1,0,70,0,1
36081,-50,4,1,0,70,0,0
36126,-50,4,1,0,70,0,1
36171,-50,4,1,0,70,0,0
36216,180.18018018018,4,1,0,20,1,1
41981,360.36036036036,4,1,0,20,1,0
41981,-50,4,1,0,100,0,0
47746,180.18018018018,4,1,0,20,1,1
53511,360.36036036036,4,1,0,20,1,0
59276,180.18018018018,4,1,0,20,1,0
65041,-66.6666666666667,4,1,0,100,0,0
76573,360.36036036036,4,1,0,20,1,0
159455,-50,4,1,0,70,0,0
160176,-100,4,1,0,70,0,0
162338,-50,4,1,0,70,0,0
180355,180.18018018018,4,1,0,20,1,1
203418,360.36036036036,4,1,0,20,1,0
214949,180.18018018018,4,1,0,20,1,1
232246,-100,4,1,0,100,0,0
237291,-100,4,1,0,100,0,1
245939,-100,4,1,0,100,0,0

[HitObjects]
256,192,1261,12,0,4324,0:0:0:0:
512,0,4505,5,0,0:0:0:0:
128,0,4505,1,0,0:0:0:0:
0,0,4505,1,0,0:0:0:0:
192,0,4505,1,0,0:0:0:0:
64,0,4505,1,0,0:0:0:0:
448,0,4505,2,0,P|480:64|448:128,1,140
256,0,4505,2,0,P|288:64|256:128,1,140
448,192,5045,1,0,0:0:0:0:
512,192,5045,1,0,0:0:0:0:
128,192,5045,1,0,0:0:0:0:
0,192,5045,1,0,0:0:0:0:
64,192,5045,1,0,0:0:0:0:
384,192,5045,2,0,B|336:256|336:256|384:304,1,140
192,192,5045,2,0,B|144:256|144:256|192:304,1,140
0,0,5946,5,0,0:0:0:0:
448,0,5946,1,0,0:0:0:0:
384,0,5946,1,0,0:0:0:0:
320,0,5946,1,0,0:0:0:0:
64,0,5946,2,0,P|32:64|64:128,1,140
512,0,5946,1,0,0:0:0:0:
256,0,5946,2,0,P|224:64|256:128,1,140
128,192,6486,2,0,B|176:256|176:256|128:304,1,140
512,192,6486,1,0,0:0:0:0:
64,192,6486,1,0,0:0:0:0:
384,192,6486,1,0,0:0:0:0:
448,192,6486,1,0,0:0:0:0:
0,192,6486,1,0,0:0:0:0:
320,192,6486,2,0,B|368:256|368:256|320:304,1,140
512,0,7387,5,0,0:0:0:0:
128,0,7387,1,0,0:0:0:0:
192,0,7387,1,0,0:0:0:0:
0,0,7387,1,0,0:0:0:0:
64,0,7387,1,0,0:0:0:0:
256,0,7387,2,0,P|288:64|256:128,1,140
448,0,7387,2,0,P|480:64|448:128,1,140
0,192,7927,1,0,0:0:0:0:
448,192,7927,1,0,0:0:0:0:
128,192,7927,1,0,0:0:0:0:
64,192,7927,1,0,0:0:0:0:
512,192,7927,1,0,0:0:0:0:
192,192,7927,2,0,B|144:256|144:256|192:304,1,140
384,192,7927,2,0,B|336:256|336:256|384:304,1,140
224,76,8649,1,0,0:0:0:0:
288,76,8649,1,0,0:0:0:0:
400,0,8829,1,0,0:0:0:0:
456,0,8829,1,0,0:0:0:0:
512,0,8829,1,0,0:0:0:0:
56,0,8829,1,0,0:0:0:0:
0,0,8829,1,0,0:0:0:0:
112,0,8829,1,0,0:0:0:0:
168,0,8829,2,0,L|168:80,1,70
344,0,8829,2,0,L|344:80,1,70
224,132,9189,2,0,L|224:220,1,70
288,132,9189,2,0,L|288:220,1,70
168,132,9189,1,0,0:0:0:0:
344,132,9189,1,0,0:0:0:0:
112,0,9550,1,0,0:0:0:0:
0,0,9550,1,0,0:0:0:0:
344,0,9550,2,0,L|344:80,1,70
168,0,9550,2,0,L|168:80,1,70
456,0,9550,1,0,0:0:0:0:
400,0,9550,1,0,0:0:0:0:
56,0,9550,1,0,0:0:0:0:
512,0,9550,1,0,0:0:0:0:
256,192,9910,2,0,L|208:192,1,35
256,192,9910,2,0,L|304:192,1,35
172,192,10090,2,0,L|132:192,1,35
340,192,10090,2,0,L|380:192,1,35
512,192,10270,2,0,P|476:256|512:308,1,140
0,192,10270,2,0,P|36:256|0:308,1,140
228,192,10811,1,0,0:0:0:0:
284,192,10811,1,0,0:0:0:0:
228,192,10991,2,0,P|184:272|228:308,1,140
284,192,10991,2,0,P|328:272|284:308,1,140
172,192,11532,1,0,0:0:0:0:
120,192,11532,1,0,0:0:0:0:
68,192,11532,1,0,0:0:0:0:
444,192,11532,1,0,0:0:0:0:
392,192,11532,1,0,0:0:0:0:
340,192,11532,1,0,0:0:0:0:
0,192,11712,2,0,P|36:256|0:308,1,140
512,192,11712,2,0,P|476:256|512:308,1,140
256,192,12252,1,0,0:0:0:0:
228,192,12432,2,0,P|184:272|228:308,1,140
284,192,12432,2,0,P|328:272|284:308,1,140
256,300,12793,1,0,0:0:0:0:
232,300,12883,1,0,0:0:0:0:
280,300,12883,1,0,0:0:0:0:
206,299,12973,1,0,0:0:0:0:
305,299,12973,1,0,0:0:0:0:
184,300,13063,1,0,0:0:0:0:
328,300,13063,1,0,0:0:0:0:
132,300,13063,1,0,0:0:0:0:
80,300,13063,1,0,0:0:0:0:
432,300,13063,1,0,0:0:0:0:
380,300,13063,1,0,0:0:0:0:
512,192,13153,2,0,P|476:256|512:308,1,140
0,192,13153,2,0,P|36:256|0:308,1,140
56,192,13694,1,0,0:0:0:0:
112,192,13694,1,0,0:0:0:0:
168,192,13694,1,0,0:0:0:0:
344,192,13694,1,0,0:0:0:0:
400,192,13694,1,0,0:0:0:0:
456,192,13694,1,0,0:0:0:0:
284,192,13874,2,0,P|328:272|284:308,1,140
228,192,13874,2,0,P|184:272|228:308,1,140
344,192,14414,1,0,0:0:0:0:
400,192,14414,1,0,0:0:0:0:
456,192,14414,1,0,0:0:0:0:
56,192,14414,1,0,0:0:0:0:
112,192,14414,1,0,0:0:0:0:
168,192,14414,1,0,0:0:0:0:
0,0,14595,5,0,0:0:0:0:
288,0,14595,1,0,0:0:0:0:
344,0,14595,1,0,0:0:0:0:
400,0,14595,1,0,0:0:0:0:
456,0,14595,1,0,0:0:0:0:
512,0,14595,1,0,0:0:0:0:
228,0,14595,2,0,P|204:44|232:60,1,70
60,0,14595,2,0,P|36:44|64:60,1,70
512,0,14955,5,0,0:0:0:0:
112,0,14955,1,0,0:0:0:0:
168,0,14955,1,0,0:0:0:0:
56,0,14955,1,0,0:0:0:0:
0,0,14955,1,0,0:0:0:0:
452,0,14955,2,0,P|476:44|448:60,1,70
224,0,14955,1,0,0:0:0:0:
284,0,14955,2,0,P|308:44|280:60,1,70
0,68,15315,5,0,0:0:0:0:
288,68,15315,1,0,0:0:0:0:
344,68,15315,1,0,0:0:0:0:
400,68,15315,1,0,0:0:0:0:
456,68,15315,1,0,0:0:0:0:
512,68,15315,1,0,0:0:0:0:
224,68,15315,2,0,L|288:120,1,70
56,68,15315,2,0,L|120:120,1,70
512,68,15676,5,0,0:0:0:0:
112,68,15676,1,0,0:0:0:0:
168,68,15676,1,0,0:0:0:0:
56,68,15676,1,0,0:0:0:0:
0,68,15676,1,0,0:0:0:0:
456,68,15676,2,0,L|392:120,1,70
224,68,15676,1,0,0:0:0:0:
288,68,15676,2,0,L|224:120,1,70
0,0,16036,5,0,0:0:0:0:
400,0,16036,1,0,0:0:0:0:
456,0,16036,1,0,0:0:0:0:
512,0,16036,1,0,0:0:0:0:
56,0,16036,1,0,0:0:0:0:
112,0,16036,1,0,0:0:0:0:
344,0,16036,2,0,L|344:88,1,70
168,0,16036,2,0,L|168:88,1,70
224,68,16396,1,0,0:0:0:0:
288,68,16396,1,0,0:0:0:0:
288,120,16577,1,0,0:0:0:0:
344,120,16577,1,0,0:0:0:0:
224,120,16577,1,0,0:0:0:0:
168,120,16577,1,0,0:0:0:0:
368,120,16667,1,0,0:0:0:0:
132,120,16667,1,0,0:0:0:0:
132,120,16757,2,0,B|96:148|96:152|204:204,1,140
368,120,16757,2,0,B|404:148|404:152|296:204,1,140
0,120,16757,2,0,B|-36:148|-36:152|72:204,1,140
512,120,16757,2,0,B|548:148|548:152|440:204,1,140
340,204,17297,1,0,0:0:0:0:
392,204,17297,1,0,0:0:0:0:
446,201,17297,1,0,0:0:0:0:
65,201,17297,1,0,0:0:0:0:
120,204,17297,1,0,0:0:0:0:
172,204,17297,1,0,0:0:0:0:
256,192,17477,2,0,L|160:192,1,70
256,192,17477,2,0,L|352:192,1,70
92,192,17838,2,0,L|168:192,1,70
32,192,17838,1,0,0:0:0:0:
480,192,17838,1,0,0:0:0:0:
420,192,17838,2,0,L|344:192,1,70
256,192,18198,2,0,L|160:192,1,70
256,192,18198,2,0,L|352:192,1,70
32,192,18559,1,0,0:0:0:0:
92,192,18559,2,0,L|168:192,1,70
480,192,18559,1,0,0:0:0:0:
420,192,18559,2,0,L|344:192,1,70
288,0,18919,1,0,0:0:0:0:
224,0,18919,1,0,0:0:0:0:
168,48,19099,1,0,0:0:0:0:
224,48,19099,1,0,0:0:0:0:
344,48,19099,1,0,0:0:0:0:
288,48,19099,1,0,0:0:0:0:
168,104,19279,2,0,L|88:104,1,70
344,104,19279,2,0,L|424:104,1,70
100,104,19550,1,0,0:0:0:0:
412,104,19550,1,0,0:0:0:0:
98,104,19640,2,0,P|64:172|88:228,1,140
414,104,19640,2,0,P|448:172|424:228,1,140
0,192,20180,1,0,0:0:0:0:
52,192,20180,1,0,0:0:0:0:
460,192,20180,1,0,0:0:0:0:
512,192,20180,1,0,0:0:0:0:
52,192,20360,2,0,L|136:192,1,70
460,192,20360,2,0,L|376:192,1,70
256,192,20721,2,0,L|176:192,1,70
256,192,20721,2,0,L|336:192,1,70
32,192,21081,2,0,L|188:192,1,140
480,192,21081,2,0,L|324:192,1,140
340,192,21351,1,0,0:0:0:0:
172,192,21351,1,0,0:0:0:0:
172,192,21441,2,0,B|172:-8|172:-8|172:20,1,210
340,192,21441,2,0,B|340:-8|340:-8|340:20,1,210
4,0,21802,5,0,0:0:0:0:
340,0,21802,1,0,0:0:0:0:
396,0,21802,1,0,0:0:0:0:
452,0,21802,1,0,0:0:0:0:
508,0,21802,1,0,0:0:0:0:
60,0,21802,1,0,0:0:0:0:
116,0,21802,1,0,0:0:0:0:
172,0,21802,1,0,0:0:0:0:
4,52,21982,5,0,0:0:0:0:
60,52,21982,1,0,0:0:0:0:
228,52,21982,1,0,0:0:0:0:
340,52,21982,1,0,0:0:0:0:
284,52,21982,1,0,0:0:0:0:
396,52,21982,1,0,0:0:0:0:
508,52,21982,1,0,0:0:0:0:
452,52,21982,1,0,0:0:0:0:
4,100,22162,5,0,0:0:0:0:
340,100,22162,1,0,0:0:0:0:
396,100,22162,1,0,0:0:0:0:
452,100,22162,1,0,0:0:0:0:
508,100,22162,1,0,0:0:0:0:
60,100,22162,1,0,0:0:0:0:
116,100,22162,1,0,0:0:0:0:
172,100,22162,1,0,0:0:0:0:
4,152,22342,5,0,0:0:0:0:
60,152,22342,1,0,0:0:0:0:
116,152,22342,1,0,0:0:0:0:
172,152,22342,1,0,0:0:0:0:
228,152,22342,1,0,0:0:0:0:
340,152,22342,1,0,0:0:0:0:
284,152,22342,1,0,0:0:0:0:
508,152,22342,1,0,0:0:0:0:
4,207,22523,5,0,0:0:0:0:
116,207,22523,1,0,0:0:0:0:
60,207,22523,1,0,0:0:0:0:
172,207,22523,1,0,0:0:0:0:
228,207,22523,1,0,0:0:0:0:
396,207,22523,1,0,0:0:0:0:
508,207,22523,1,0,0:0:0:0:
452,207,22523,1,0,0:0:0:0:
4,260,22703,5,0,0:0:0:0:
396,260,22703,1,0,0:0:0:0:
452,260,22703,1,0,0:0:0:0:
508,260,22703,1,0,0:0:0:0:
340,260,22703,1,0,0:0:0:0:
116,260,22703,1,0,0:0:0:0:
60,260,22703,1,0,0:0:0:0:
172,260,22703,1,0,0:0:0:0:
4,308,22883,5,0,0:0:0:0:
340,308,22883,1,0,0:0:0:0:
60,308,22883,1,0,0:0:0:0:
228,308,22883,1,0,0:0:0:0:
396,308,22883,1,0,0:0:0:0:
284,308,22883,1,0,0:0:0:0:
508,308,22883,1,0,0:0:0:0:
452,308,22883,1,0,0:0:0:0:
4,356,23063,5,0,0:0:0:0:
396,356,23063,1,0,0:0:0:0:
284,356,23063,1,0,0:0:0:0:
452,356,23063,1,0,0:0:0:0:
508,356,23063,1,0,0:0:0:0:
340,356,23063,1,0,0:0:0:0:
116,356,23063,1,0,0:0:0:0:
60,356,23063,1,0,0:0:0:0:
4,0,23243,5,0,0:0:0:0:
116,0,23243,1,0,0:0:0:0:
60,0,23243,1,0,0:0:0:0:
172,0,23243,1,0,0:0:0:0:
228,0,23243,1,0,0:0:0:0:
284,0,23243,1,0,0:0:0:0:
508,0,23243,1,0,0:0:0:0:
452,0,23243,1,0,0:0:0:0:
4,52,23423,5,0,0:0:0:0:
116,52,23423,1,0,0:0:0:0:
340,52,23423,1,0,0:0:0:0:
60,52,23423,1,0,0:0:0:0:
172,52,23423,1,0,0:0:0:0:
228,52,23423,1,0,0:0:0:0:
284,52,23423,1,0,0:0:0:0:
508,52,23423,1,0,0:0:0:0:
4,100,23604,5,0,0:0:0:0:
396,100,23604,1,0,0:0:0:0:
452,100,23604,1,0,0:0:0:0:
508,100,23604,1,0,0:0:0:0:
116,100,23604,1,0,0:0:0:0:
60,100,23604,1,0,0:0:0:0:
228,100,23604,1,0,0:0:0:0:
172,100,23604,1,0,0:0:0:0:
4,148,23784,5,0,0:0:0:0:
284,148,23784,1,0,0:0:0:0:
340,148,23784,1,0,0:0:0:0:
396,148,23784,1,0,0:0:0:0:
452,148,23784,1,0,0:0:0:0:
508,148,23784,1,0,0:0:0:0:
60,148,23784,1,0,0:0:0:0:
116,148,23784,1,0,0:0:0:0:
4,200,23964,5,0,0:0:0:0:
60,200,23964,1,0,0:0:0:0:
116,200,23964,1,0,0:0:0:0:
172,200,23964,1,0,0:0:0:0:
228,200,23964,1,0,0:0:0:0:
284,200,23964,1,0,0:0:0:0:
508,200,23964,1,0,0:0:0:0:
452,200,23964,1,0,0:0:0:0:
4,248,24144,5,0,0:0:0:0:
340,248,24144,1,0,0:0:0:0:
396,248,24144,1,0,0:0:0:0:
452,248,24144,1,0,0:0:0:0:
508,248,24144,1,0,0:0:0:0:
60,248,24144,1,0,0:0:0:0:
116,248,24144,1,0,0:0:0:0:
172,248,24144,1,0,0:0:0:0:
4,0,24324,5,0,0:0:0:0:
60,0,24324,1,0,0:0:0:0:
116,0,24324,1,0,0:0:0:0:
340,0,24324,1,0,0:0:0:0:
284,0,24324,1,0,0:0:0:0:
396,0,24324,1,0,0:0:0:0:
508,0,24324,1,0,0:0:0:0:
452,0,24324,1,0,0:0:0:0:
4,60,24414,5,0,0:0:0:0:
284,60,24414,1,0,0:0:0:0:
340,60,24414,1,0,0:0:0:0:
396,60,24414,1,0,0:0:0:0:
452,60,24414,1,0,0:0:0:0:
508,60,24414,1,0,0:0:0:0:
60,60,24414,1,0,0:0:0:0:
228,60,24414,1,0,0:0:0:0:
4,116,24504,5,0,0:0:0:0:
172,116,24504,1,0,0:0:0:0:
228,116,24504,1,0,0:0:0:0:
340,116,24504,1,0,0:0:0:0:
284,116,24504,1,0,0:0:0:0:
396,116,24504,1,0,0:0:0:0:
508,116,24504,1,0,0:0:0:0:
452,116,24504,1,0,0:0:0:0:
4,168,24595,5,0,0:0:0:0:
284,168,24595,1,0,0:0:0:0:
340,168,24595,1,0,0:0:0:0:
396,168,24595,1,0,0:0:0:0:
452,168,24595,1,0,0:0:0:0:
508,168,24595,1,0,0:0:0:0:
60,168,24595,1,0,0:0:0:0:
228,168,24595,1,0,0:0:0:0:
4,224,24685,5,0,0:0:0:0:
60,224,24685,1,0,0:0:0:0:
116,224,24685,1,0,0:0:0:0:
340,224,24685,1,0,0:0:0:0:
284,224,24685,1,0,0:0:0:0:
396,224,24685,1,0,0:0:0:0:
508,224,24685,1,0,0:0:0:0:
452,224,24685,1,0,0:0:0:0:
4,0,24865,5,0,0:0:0:0:
284,0,24865,1,0,0:0:0:0:
452,0,24865,1,0,0:0:0:0:
508,0,24865,1,0,0:0:0:0:
60,0,24865,1,0,0:0:0:0:
116,0,24865,1,0,0:0:0:0:
228,0,24865,1,0,0:0:0:0:
172,0,24865,1,0,0:0:0:0:
4,60,25045,5,0,0:0:0:0:
60,60,25045,1,0,0:0:0:0:
116,60,25045,1,0,0:0:0:0:
172,60,25045,1,0,0:0:0:0:
228,60,25045,1,0,0:0:0:0:
340,60,25045,1,0,0:0:0:0:
284,60,25045,1,0,0:0:0:0:
396,60,25045,1,0,0:0:0:0:
4,112,25225,5,0,0:0:0:0:
284,112,25225,1,0,0:0:0:0:
340,112,25225,1,0,0:0:0:0:
508,112,25225,1,0,0:0:0:0:
60,112,25225,1,0,0:0:0:0:
116,112,25225,1,0,0:0:0:0:
228,112,25225,1,0,0:0:0:0:
172,112,25225,1,0,0:0:0:0:
4,156,25405,5,0,0:0:0:0:
60,156,25405,1,0,0:0:0:0:
116,156,25405,1,0,0:0:0:0:
172,156,25405,1,0,0:0:0:0:
340,156,25405,1,0,0:0:0:0:
396,156,25405,1,0,0:0:0:0:
508,156,25405,1,0,0:0:0:0:
452,156,25405,1,0,0:0:0:0:
4,208,25586,5,0,0:0:0:0:
340,208,25586,1,0,0:0:0:0:
396,208,25586,1,0,0:0:0:0:
452,208,25586,1,0,0:0:0:0:
508,208,25586,1,0,0:0:0:0:
60,208,25586,1,0,0:0:0:0:
116,208,25586,1,0,0:0:0:0:
172,208,25586,1,0,0:0:0:0:
4,252,25766,5,0,0:0:0:0:
284,252,25766,1,0,0:0:0:0:
340,252,25766,1,0,0:0:0:0:
396,252,25766,1,0,0:0:0:0:
452,252,25766,1,0,0:0:0:0:
508,252,25766,1,0,0:0:0:0:
60,252,25766,1,0,0:0:0:0:
228,252,25766,1,0,0:0:0:0:
284,288,25946,1,0,0:0:0:0:
340,288,25946,1,0,0:0:0:0:
396,288,25946,1,0,0:0:0:0:
452,288,25946,1,0,0:0:0:0:
508,288,25946,1,0,0:0:0:0:
116,288,25946,1,0,0:0:0:0:
228,288,25946,1,0,0:0:0:0:
172,288,25946,1,0,0:0:0:0:
4,312,26126,5,0,0:0:0:0:
172,312,26126,1,0,0:0:0:0:
228,312,26126,1,0,0:0:0:0:
340,312,26126,1,0,0:0:0:0:
284,312,26126,1,0,0:0:0:0:
396,312,26126,1,0,0:0:0:0:
508,312,26126,1,0,0:0:0:0:
452,312,26126,1,0,0:0:0:0:
4,344,26306,5,0,0:0:0:0:
340,344,26306,1,0,0:0:0:0:
396,344,26306,1,0,0:0:0:0:
452,344,26306,1,0,0:0:0:0:
508,344,26306,1,0,0:0:0:0:
60,344,26306,1,0,0:0:0:0:
116,344,26306,1,0,0:0:0:0:
172,344,26306,1,0,0:0:0:0:
4,0,26486,5,0,0:0:0:0:
60,0,26486,1,0,0:0:0:0:
116,0,26486,1,0,0:0:0:0:
340,0,26486,1,0,0:0:0:0:
284,0,26486,1,0,0:0:0:0:
396,0,26486,1,0,0:0:0:0:
508,0,26486,1,0,0:0:0:0:
452,0,26486,1,0,0:0:0:0:
4,64,26667,5,0,0:0:0:0:
284,64,26667,1,0,0:0:0:0:
452,64,26667,1,0,0:0:0:0:
508,64,26667,1,0,0:0:0:0:
60,64,26667,1,0,0:0:0:0:
116,64,26667,1,0,0:0:0:0:
228,64,26667,1,0,0:0:0:0:
172,64,26667,1,0,0:0:0:0:
4,116,26847,5,0,0:0:0:0:
284,116,26847,1,0,0:0:0:0:
340,116,26847,1,0,0:0:0:0:
508,116,26847,1,0,0:0:0:0:
60,116,26847,1,0,0:0:0:0:
116,116,26847,1,0,0:0:0:0:
228,116,26847,1,0,0:0:0:0:
172,116,26847,1,0,0:0:0:0:
4,152,26937,5,0,0:0:0:0:
60,152,26937,1,0,0:0:0:0:
116,152,26937,1,0,0:0:0:0:
172,152,26937,1,0,0:0:0:0:
228,152,26937,1,0,0:0:0:0:
284,152,26937,1,0,0:0:0:0:
508,152,26937,1,0,0:0:0:0:
452,152,26937,1,0,0:0:0:0:
4,192,27027,5,0,0:0:0:0:
396,192,27027,1,0,0:0:0:0:
452,192,27027,1,0,0:0:0:0:
508,192,27027,1,0,0:0:0:0:
60,192,27027,1,0,0:0:0:0:
116,192,27027,1,0,0:0:0:0:
228,192,27027,1,0,0:0:0:0:
172,192,27027,1,0,0:0:0:0:
4,12,27207,5,0,0:0:0:0:
60,12,27207,1,0,0:0:0:0:
116,12,27207,1,0,0:0:0:0:
340,12,27207,1,0,0:0:0:0:
284,12,27207,1,0,0:0:0:0:
396,12,27207,1,0,0:0:0:0:
508,12,27207,1,0,0:0:0:0:
452,12,27207,1,0,0:0:0:0:
4,60,27387,5,0,0:0:0:0:
284,60,27387,1,0,0:0:0:0:
340,60,27387,1,0,0:0:0:0:
396,60,27387,1,0,0:0:0:0:
452,60,27387,1,0,0:0:0:0:
508,60,27387,1,0,0:0:0:0:
228,60,27387,1,0,0:0:0:0:
172,60,27387,1,0,0:0:0:0:
4,96,27477,5,0,0:0:0:0:
228,96,27477,1,0,0:0:0:0:
340,96,27477,1,0,0:0:0:0:
284,96,27477,1,0,0:0:0:0:
396,96,27477,1,0,0:0:0:0:
508,96,27477,1,0,0:0:0:0:
452,96,27477,1,0,0:0:0:0:
60,96,27477,1,0,0:0:0:0:
4,140,27568,5,0,0:0:0:0:
256,192,27568,12,0,29550,0:0:0:0:
60,140,27568,5,0,0:0:0:0:
116,140,27568,1,0,0:0:0:0:
340,140,27568,1,0,0:0:0:0:
284,140,27568,1,0,0:0:0:0:
396,140,27568,1,0,0:0:0:0:
508,140,27568,1,0,0:0:0:0:
452,140,27568,1,0,0:0:0:0:
4,0,29730,5,0,0:0:0:0:
60,0,29730,1,0,0:0:0:0:
116,0,29730,1,0,0:0:0:0:
228,0,29730,1,0,0:0:0:0:
172,0,29730,1,0,0:0:0:0:
508,0,29910,5,0,0:0:0:0:
284,0,29910,1,0,0:0:0:0:
340,0,29910,1,0,0:0:0:0:
396,0,29910,1,0,0:0:0:0:
452,0,29910,1,0,0:0:0:0:
4,0,30090,5,0,0:0:0:0:
60,0,30090,1,0,0:0:0:0:
116,0,30090,1,0,0:0:0:0:
228,0,30090,1,0,0:0:0:0:
172,0,30090,1,0,0:0:0:0:
508,0,30270,5,0,0:0:0:0:
284,0,30270,1,0,0:0:0:0:
340,0,30270,1,0,0:0:0:0:
396,0,30270,1,0,0:0:0:0:
452,0,30270,1,0,0:0:0:0:
4,44,30450,5,0,0:0:0:0:
396,44,30450,1,0,0:0:0:0:
452,44,30450,1,0,0:0:0:0:
508,44,30450,1,0,0:0:0:0:
60,44,30450,1,0,0:0:0:0:
116,44,30450,1,0,0:0:0:0:
172,44,30450,2,0,L|172:188,1,140
340,44,30450,2,0,L|340:188,1,140
256,192,30721,1,0,0:0:0:0:
256,192,30811,2,0,L|64:332,1,210
256,192,30811,2,0,L|448:332,1,210
0,192,31171,2,0,L|160:192,1,140
512,192,31171,2,0,L|352:192,1,140
256,0,31532,2,0,L|256:148,1,140
204,72,31622,2,0,L|204:152,1,70
308,72,31622,2,0,L|308:152,1,70
152,140,31712,1,0,0:0:0:0:
360,140,31712,1,0,0:0:0:0:
0,192,31892,1,0,0:0:0:0:
512,192,31892,1,0,0:0:0:0:
56,192,31982,1,0,0:0:0:0:
456,192,31982,1,0,0:0:0:0:
112,192,32072,1,0,0:0:0:0:
400,192,32072,1,0,0:0:0:0:
168,192,32162,1,0,0:0:0:0:
344,192,32162,1,0,0:0:0:0:
224,192,32252,2,0,L|68:192,1,140
288,192,32252,2,0,L|444:192,1,140
0,192,32523,1,0,0:0:0:0:
512,192,32523,1,0,0:0:0:0:
456,192,32613,1,0,0:0:0:0:
56,192,32613,1,0,0:0:0:0:
112,192,32703,1,0,0:0:0:0:
400,192,32703,1,0,0:0:0:0:
344,192,32793,1,0,0:0:0:0:
168,192,32793,1,0,0:0:0:0:
4,0,32973,5,0,0:0:0:0:
452,0,32973,1,0,0:0:0:0:
508,0,32973,1,0,0:0:0:0:
60,0,32973,1,0,0:0:0:0:
120,0,32973,2,0,L|120:80,1,70
396,0,32973,2,0,L|396:80,1,70
228,72,33153,1,0,0:0:0:0:
284,72,33153,1,0,0:0:0:0:
256,192,33333,5,0,0:0:0:0:
200,192,33423,1,0,0:0:0:0:
312,192,33423,1,0,0:0:0:0:
144,192,33513,1,0,0:0:0:0:
368,192,33513,1,0,0:0:0:0:
88,192,33604,1,0,0:0:0:0:
424,192,33604,1,0,0:0:0:0:
32,192,33694,1,0,0:0:0:0:
480,192,33694,1,0,0:0:0:0:
88,192,33874,1,0,0:0:0:0:
424,192,33874,1,0,0:0:0:0:
144,192,33964,1,0,0:0:0:0:
368,192,33964,1,0,0:0:0:0:
256,192,34144,1,0,0:0:0:0:
200,192,34234,1,0,0:0:0:0:
312,192,34234,1,0,0:0:0:0:
4,0,34414,5,0,0:0:0:0:
60,0,34414,1,0,0:0:0:0:
116,0,34414,1,0,0:0:0:0:
228,0,34414,1,0,0:0:0:0:
172,0,34414,1,0,0:0:0:0:
508,0,34504,5,0,0:0:0:0:
284,0,34504,1,0,0:0:0:0:
340,0,34504,1,0,0:0:0:0:
396,0,34504,1,0,0:0:0:0:
452,0,34504,1,0,0:0:0:0:
4,0,34595,5,0,0:0:0:0:
60,0,34595,1,0,0:0:0:0:
116,0,34595,1,0,0:0:0:0:
228,0,34595,1,0,0:0:0:0:
172,0,34595,1,0,0:0:0:0:
4,40,34775,5,0,0:0:0:0:
508,40,34775,1,0,0:0:0:0:
60,40,34775,1,0,0:0:0:0:
116,40,34775,1,0,0:0:0:0:
228,40,34775,1,0,0:0:0:0:
172,40,34775,1,0,0:0:0:0:
452,44,34775,2,0,L|360:104,1,70
284,44,34775,2,0,L|192:104,1,70
4,100,34955,5,0,0:0:0:0:
228,100,34955,2,0,L|136:160,1,70
396,100,34955,2,0,L|304:160,1,70
452,100,34955,1,0,0:0:0:0:
60,100,34955,1,0,0:0:0:0:
116,100,34955,1,0,0:0:0:0:
172,100,34955,1,0,0:0:0:0:
508,100,34955,1,0,0:0:0:0:
252,356,35315,1,0,0:0:0:0:
300,356,35315,1,0,0:0:0:0:
424,364,35315,1,0,0:0:0:0:
468,364,35315,1,0,0:0:0:0:
104,320,35375,1,0,0:0:0:0:
216,320,35375,1,0,0:0:0:0:
332,320,35375,1,0,0:0:0:0:
404,328,35375,1,0,0:0:0:0:
488,328,35375,1,0,0:0:0:0:
104,288,35435,1,0,0:0:0:0:
332,292,35435,1,0,0:0:0:0:
216,292,35435,1,0,0:0:0:0:
488,288,35435,1,0,0:0:0:0:
400,288,35435,1,0,0:0:0:0:
84,264,35495,1,0,0:0:0:0:
128,264,35495,1,0,0:0:0:0:
216,256,35495,1,0,0:0:0:0:
332,256,35495,1,0,0:0:0:0:
400,256,35495,1,0,0:0:0:0:
488,256,35495,1,0,0:0:0:0:
68,232,35556,1,0,0:0:0:0:
152,232,35556,1,0,0:0:0:0:
300,224,35556,1,0,0:0:0:0:
252,224,35556,1,0,0:0:0:0:
488,228,35556,1,0,0:0:0:0:
400,228,35556,1,0,0:0:0:0:
72,160,35736,1,0,0:0:0:0:
200,168,35736,1,0,0:0:0:0:
224,168,35736,1,0,0:0:0:0:
324,172,35736,1,0,0:0:0:0:
352,180,35736,1,0,0:0:0:0:
436,176,35736,1,0,0:0:0:0:
508,180,35736,1,0,0:0:0:0:
72,128,35796,1,0,0:0:0:0:
176,136,35796,1,0,0:0:0:0:
244,136,35796,1,0,0:0:0:0:
380,172,35796,1,0,0:0:0:0:
308,144,35796,1,0,0:0:0:0:
436,140,35796,1,0,0:0:0:0:
476,140,35796,1,0,0:0:0:0:
72,100,35856,1,0,0:0:0:0:
92,104,35856,1,0,0:0:0:0:
116,104,35856,1,0,0:0:0:0:
172,100,35856,1,0,0:0:0:0:
252,104,35856,1,0,0:0:0:0:
304,104,35856,1,0,0:0:0:0:
436,108,35856,1,0,0:0:0:0:
456,108,35856,1,0,0:0:0:0:
72,72,35916,1,0,0:0:0:0:
252,72,35916,1,0,0:0:0:0:
172,72,35916,1,0,0:0:0:0:
380,48,35916,1,0,0:0:0:0:
308,72,35916,1,0,0:0:0:0:
436,72,35916,1,0,0:0:0:0:
476,72,35916,1,0,0:0:0:0:
72,44,35976,1,0,0:0:0:0:
88,44,35976,1,0,0:0:0:0:
116,44,35976,1,0,0:0:0:0:
176,40,35976,1,0,0:0:0:0:
252,40,35976,1,0,0:0:0:0:
320,48,35976,1,0,0:0:0:0:
348,44,35976,1,0,0:0:0:0:
436,40,35976,1,0,0:0:0:0:
512,40,35976,1,0,0:0:0:0:
4,0,36216,5,0,0:0:0:0:
0,192,36216,1,0,0:0:0:0:
512,192,36216,1,0,0:0:0:0:
396,0,36216,1,0,0:0:0:0:
284,0,36216,1,0,0:0:0:0:
508,0,36216,1,0,0:0:0:0:
452,0,36216,1,0,0:0:0:0:
60,0,36216,1,0,0:0:0:0:
340,0,36216,1,0,0:0:0:0:
228,0,36216,1,0,0:0:0:0:
4,48,36306,5,0,0:0:0:0:
0,192,36306,1,0,0:0:0:0:
512,192,36306,1,0,0:0:0:0:
60,48,36306,1,0,0:0:0:0:
228,48,36306,1,0,0:0:0:0:
340,48,36306,1,0,0:0:0:0:
284,48,36306,1,0,0:0:0:0:
396,48,36306,1,0,0:0:0:0:
508,48,36306,1,0,0:0:0:0:
452,48,36306,1,0,0:0:0:0:
4,104,36396,5,0,0:0:0:0:
0,192,36396,1,0,0:0:0:0:
512,192,36396,1,0,0:0:0:0:
508,104,36396,1,0,0:0:0:0:
396,104,36396,1,0,0:0:0:0:
172,104,36396,1,0,0:0:0:0:
452,104,36396,1,0,0:0:0:0:
116,104,36396,1,0,0:0:0:0:
60,104,36396,1,0,0:0:0:0:
340,104,36396,1,0,0:0:0:0:
4,156,36486,5,0,0:0:0:0:
0,192,36486,1,0,0:0:0:0:
512,192,36486,1,0,0:0:0:0:
396,156,36486,1,0,0:0:0:0:
508,156,36486,1,0,0:0:0:0:
172,156,36486,1,0,0:0:0:0:
452,156,36486,1,0,0:0:0:0:
60,156,36486,1,0,0:0:0:0:
116,156,36486,1,0,0:0:0:0:
340,156,36486,1,0,0:0:0:0:
0,192,36531,1,0,0:0:0:0:
512,192,36531,1,0,0:0:0:0:
4,204,36576,5,0,0:0:0:0:
0,192,36576,1,0,0:0:0:0:
512,192,36576,1,0,0:0:0:0:
60,204,36576,1,0,0:0:0:0:
116,204,36576,1,0,0:0:0:0:
228,204,36576,1,0,0:0:0:0:
284,204,36576,1,0,0:0:0:0:
508,204,36576,1,0,0:0:0:0:
452,204,36576,1,0,0:0:0:0:
172,204,36576,1,0,0:0:0:0:
4,256,36666,5,0,0:0:0:0:
0,192,36666,1,0,0:0:0:0:
512,192,36666,1,0,0:0:0:0:
116,256,36666,1,0,0:0:0:0:
284,256,36666,1,0,0:0:0:0:
60,256,36666,1,0,0:0:0:0:
228,256,36666,1,0,0:0:0:0:
508,256,36666,1,0,0:0:0:0:
452,256,36666,1,0,0:0:0:0:
172,256,36666,1,0,0:0:0:0:
4,300,36756,5,0,0:0:0:0:
0,192,36756,1,0,0:0:0:0:
512,192,36756,1,0,0:0:0:0:
172,300,36756,1,0,0:0:0:0:
284,300,36756,1,0,0:0:0:0:
116,300,36756,1,0,0:0:0:0:
60,300,36756,1,0,0:0:0:0:
340,300,36756,1,0,0:0:0:0:
228,300,36756,1,0,0:0:0:0:
4,360,36846,5,0,0:0:0:0:
0,192,36846,1,0,0:0:0:0:
512,192,36846,1,0,0:0:0:0:
284,360,36846,1,0,0:0:0:0:
172,360,36846,1,0,0:0:0:0:
60,360,36846,1,0,0:0:0:0:
116,360,36846,1,0,0:0:0:0:
340,360,36846,1,0,0:0:0:0:
228,360,36846,1,0,0:0:0:0:
0,192,36891,1,0,0:0:0:0:
512,192,36891,1,0,0:0:0:0:
4,0,36936,5,0,0:0:0:0:
0,192,36936,1,0,0:0:0:0:
512,192,36936,1,0,0:0:0:0:
284,0,36936,1,0,0:0:0:0:
508,0,36936,1,0,0:0:0:0:
172,0,36936,1,0,0:0:0:0:
60,0,36936,1,0,0:0:0:0:
116,0,36936,1,0,0:0:0:0:
340,0,36936,1,0,0:0:0:0:
228,0,36936,1,0,0:0:0:0:
0,192,36981,1,0,0:0:0:0:
512,192,36981,1,0,0:0:0:0:
4,52,37026,5,0,0:0:0:0:
0,192,37026,1,0,0:0:0:0:
512,192,37026,1,0,0:0:0:0:
60,52,37026,1,0,0:0:0:0:
116,52,37026,1,0,0:0:0:0:
228,52,37026,1,0,0:0:0:0:
284,52,37026,1,0,0:0:0:0:
508,52,37026,1,0,0:0:0:0:
452,52,37026,1,0,0:0:0:0:
172,52,37026,1,0,0:0:0:0:
0,192,37071,1,0,0:0:0:0:
512,192,37071,1,0,0:0:0:0:
4,96,37116,5,0,0:0:0:0:
0,192,37116,1,0,0:0:0:0:
512,192,37116,1,0,0:0:0:0:
396,96,37116,1,0,0:0:0:0:
508,96,37116,1,0,0:0:0:0:
172,96,37116,1,0,0:0:0:0:
452,96,37116,1,0,0:0:0:0:
60,96,37116,1,0,0:0:0:0:
116,96,37116,1,0,0:0:0:0:
228,96,37116,1,0,0:0:0:0:
0,192,37162,1,0,0:0:0:0:
512,192,37162,1,0,0:0:0:0:
4,148,37206,5,0,0:0:0:0:
396,148,37206,1,0,0:0:0:0:
508,148,37206,1,0,0:0:0:0:
172,148,37206,1,0,0:0:0:0:
452,148,37206,1,0,0:0:0:0:
60,148,37206,1,0,0:0:0:0:
116,148,37206,1,0,0:0:0:0:
340,148,37206,1,0,0:0:0:0:
0,192,37207,1,0,0:0:0:0:
512,192,37207,1,0,0:0:0:0:
0,192,37252,1,0,0:0:0:0:
512,192,37252,1,0,0:0:0:0:
4,204,37297,5,0,0:0:0:0:
0,192,37297,1,0,0:0:0:0:
512,192,37297,1,0,0:0:0:0:
60,204,37297,1,0,0:0:0:0:
116,204,37297,1,0,0:0:0:0:
340,204,37297,1,0,0:0:0:0:
284,204,37297,1,0,0:0:0:0:
396,204,37297,1,0,0:0:0:0:
508,204,37297,1,0,0:0:0:0:
452,204,37297,1,0,0:0:0:0:
0,192,37342,1,0,0:0:0:0:
512,192,37342,1,0,0:0:0:0:
4,256,37387,5,0,0:0:0:0:
0,192,37387,1,0,0:0:0:0:
512,192,37387,1,0,0:0:0:0:
396,256,37387,1,0,0:0:0:0:
508,256,37387,1,0,0:0:0:0:
172,256,37387,1,0,0:0:0:0:
452,256,37387,1,0,0:0:0:0:
60,256,37387,1,0,0:0:0:0:
116,256,37387,1,0,0:0:0:0:
340,256,37387,1,0,0:0:0:0:
0,192,37432,1,0,0:0:0:0:
512,192,37432,1,0,0:0:0:0:
4,300,37477,5,0,0:0:0:0:
0,192,37477,1,0,0:0:0:0:
512,192,37477,1,0,0:0:0:0:
396,300,37477,1,0,0:0:0:0:
508,300,37477,1,0,0:0:0:0:
172,300,37477,1,0,0:0:0:0:
452,300,37477,1,0,0:0:0:0:
60,300,37477,1,0,0:0:0:0:
116,300,37477,1,0,0:0:0:0:
228,300,37477,1,0,0:0:0:0:
0,192,37522,1,0,0:0:0:0:
512,192,37522,1,0,0:0:0:0:
4,352,37567,5,0,0:0:0:0:
0,192,37567,1,0,0:0:0:0:
512,192,37567,1,0,0:0:0:0:
60,352,37567,1,0,0:0:0:0:
116,352,37567,1,0,0:0:0:0:
228,352,37567,1,0,0:0:0:0:
284,352,37567,1,0,0:0:0:0:
508,352,37567,1,0,0:0:0:0:
452,352,37567,1,0,0:0:0:0:
172,352,37567,1,0,0:0:0:0:
4,0,37657,5,0,0:0:0:0:
0,192,37657,1,0,0:0:0:0:
512,192,37657,1,0,0:0:0:0:
396,0,37657,1,0,0:0:0:0:
508,0,37657,1,0,0:0:0:0:
172,0,37657,1,0,0:0:0:0:
452,0,37657,1,0,0:0:0:0:
60,0,37657,1,0,0:0:0:0:
116,0,37657,1,0,0:0:0:0:
340,0,37657,1,0,0:0:0:0:
0,192,37702,1,0,0:0:0:0:
512,192,37702,1,0,0:0:0:0:
4,48,37747,5,0,0:0:0:0:
0,192,37747,1,0,0:0:0:0:
512,192,37747,1,0,0:0:0:0:
60,48,37747,1,0,0:0:0:0:
116,48,37747,1,0,0:0:0:0:
340,48,37747,1,0,0:0:0:0:
396,48,37747,1,0,0:0:0:0:
508,48,37747,1,0,0:0:0:0:
452,48,37747,1,0,0:0:0:0:
172,48,37747,1,0,0:0:0:0:
4,96,37837,5,0,0:0:0:0:
0,192,37837,1,0,0:0:0:0:
512,192,37837,1,0,0:0:0:0:
284,96,37837,1,0,0:0:0:0:
60,96,37837,1,0,0:0:0:0:
228,96,37837,1,0,0:0:0:0:
340,96,37837,1,0,0:0:0:0:
508,96,37837,1,0,0:0:0:0:
396,96,37837,1,0,0:0:0:0:
452,96,37837,1,0,0:0:0:0:
4,148,37927,5,0,0:0:0:0:
0,192,37927,1,0,0:0:0:0:
512,192,37927,1,0,0:0:0:0:
508,148,37927,1,0,0:0:0:0:
396,148,37927,1,0,0:0:0:0:
452,148,37927,1,0,0:0:0:0:
284,148,37927,1,0,0:0:0:0:
60,148,37927,1,0,0:0:0:0:
340,148,37927,1,0,0:0:0:0:
228,148,37927,1,0,0:0:0:0:
0,192,37972,1,0,0:0:0:0:
512,192,37972,1,0,0:0:0:0:
4,200,38017,5,0,0:0:0:0:
0,192,38017,1,0,0:0:0:0:
512,192,38017,1,0,0:0:0:0:
396,200,38017,1,0,0:0:0:0:
508,200,38017,1,0,0:0:0:0:
172,200,38017,1,0,0:0:0:0:
452,200,38017,1,0,0:0:0:0:
60,200,38017,1,0,0:0:0:0:
116,200,38017,1,0,0:0:0:0:
340,200,38017,1,0,0:0:0:0:
0,192,38062,1,0,0:0:0:0:
512,192,38062,1,0,0:0:0:0:
4,248,38107,5,0,0:0:0:0:
0,192,38107,1,0,0:0:0:0:
512,192,38107,1,0,0:0:0:0:
396,248,38107,1,0,0:0:0:0:
508,248,38107,1,0,0:0:0:0:
172,248,38107,1,0,0:0:0:0:
452,248,38107,1,0,0:0:0:0:
60,248,38107,1,0,0:0:0:0:
116,248,38107,1,0,0:0:0:0:
340,248,38107,1,0,0:0:0:0:
0,192,38153,1,0,0:0:0:0:
512,192,38153,1,0,0:0:0:0:
4,300,38197,5,0,0:0:0:0:
60,300,38197,1,0,0:0:0:0:
116,300,38197,1,0,0:0:0:0:
228,300,38197,1,0,0:0:0:0:
284,300,38197,1,0,0:0:0:0:
508,300,38197,1,0,0:0:0:0:
452,300,38197,1,0,0:0:0:0:
172,300,38197,1,0,0:0:0:0:
0,192,38198,1,0,0:0:0:0:
512,192,38198,1,0,0:0:0:0:
0,192,38243,1,0,0:0:0:0:
512,192,38243,1,0,0:0:0:0:
4,352,38288,5,0,0:0:0:0:
0,192,38288,1,0,0:0:0:0:
512,192,38288,1,0,0:0:0:0:
116,352,38288,1,0,0:0:0:0:
284,352,38288,1,0,0:0:0:0:
60,352,38288,1,0,0:0:0:0:
228,352,38288,1,0,0:0:0:0:
508,352,38288,1,0,0:0:0:0:
452,352,38288,1,0,0:0:0:0:
172,352,38288,1,0,0:0:0:0:
0,192,38333,1,0,0:0:0:0:
512,192,38333,1,0,0:0:0:0:
4,0,38378,5,0,0:0:0:0:
0,192,38378,1,0,0:0:0:0:
512,192,38378,1,0,0:0:0:0:
508,0,38378,1,0,0:0:0:0:
396,0,38378,1,0,0:0:0:0:
172,0,38378,1,0,0:0:0:0:
452,0,38378,1,0,0:0:0:0:
116,0,38378,1,0,0:0:0:0:
60,0,38378,1,0,0:0:0:0:
228,0,38378,1,0,0:0:0:0:
4,52,38468,5,0,0:0:0:0:
0,192,38468,1,0,0:0:0:0:
512,192,38468,1,0,0:0:0:0:
60,52,38468,1,0,0:0:0:0:
116,52,38468,1,0,0:0:0:0:
340,52,38468,1,0,0:0:0:0:
508,52,38468,1,0,0:0:0:0:
396,52,38468,1,0,0:0:0:0:
452,52,38468,1,0,0:0:0:0:
172,52,38468,1,0,0:0:0:0:
0,192,38513,1,0,0:0:0:0:
512,192,38513,1,0,0:0:0:0:
4,100,38558,5,0,0:0:0:0:
0,192,38558,1,0,0:0:0:0:
512,192,38558,1,0,0:0:0:0:
508,100,38558,1,0,0:0:0:0:
396,100,38558,1,0,0:0:0:0:
452,100,38558,1,0,0:0:0:0:
116,100,38558,1,0,0:0:0:0:
60,100,38558,1,0,0:0:0:0:
340,100,38558,1,0,0:0:0:0:
284,100,38558,1,0,0:0:0:0:
4,144,38648,5,0,0:0:0:0:
0,192,38648,1,0,0:0:0:0:
512,192,38648,1,0,0:0:0:0:
60,144,38648,1,0,0:0:0:0:
228,144,38648,1,0,0:0:0:0:
284,144,38648,1,0,0:0:0:0:
340,144,38648,1,0,0:0:0:0:
508,144,38648,1,0,0:0:0:0:
396,144,38648,1,0,0:0:0:0:
452,144,38648,1,0,0:0:0:0:
0,192,38693,1,0,0:0:0:0:
512,192,38693,1,0,0:0:0:0:
4,188,38738,5,0,0:0:0:0:
0,192,38738,1,0,0:0:0:0:
512,192,38738,1,0,0:0:0:0:
228,188,38738,1,0,0:0:0:0:
284,188,38738,1,0,0:0:0:0:
340,188,38738,1,0,0:0:0:0:
508,188,38738,1,0,0:0:0:0:
396,188,38738,1,0,0:0:0:0:
452,188,38738,1,0,0:0:0:0:
172,188,38738,1,0,0:0:0:0:
4,212,38783,5,0,0:0:0:0:
32,212,38783,5,0,0:0:0:0:
0,192,38783,1,0,0:0:0:0:
512,192,38783,1,0,0:0:0:0:
396,212,38783,1,0,0:0:0:0:
508,212,38783,1,0,0:0:0:0:
200,212,38783,1,0,0:0:0:0:
452,212,38783,1,0,0:0:0:0:
228,212,38783,1,0,0:0:0:0:
340,212,38783,1,0,0:0:0:0:
284,212,38783,1,0,0:0:0:0:
4,236,38828,5,0,0:0:0:0:
0,192,38828,1,0,0:0:0:0:
512,192,38828,1,0,0:0:0:0:
508,236,38828,1,0,0:0:0:0:
396,236,38828,1,0,0:0:0:0:
452,236,38828,1,0,0:0:0:0:
60,236,38828,1,0,0:0:0:0:
228,236,38828,1,0,0:0:0:0:
340,236,38828,1,0,0:0:0:0:
284,236,38828,1,0,0:0:0:0:
0,192,38873,1,0,0:0:0:0:
512,192,38873,1,0,0:0:0:0:
4,288,38918,5,0,0:0:0:0:
0,192,38918,1,0,0:0:0:0:
512,192,38918,1,0,0:0:0:0:
396,288,38918,1,0,0:0:0:0:
116,288,38918,1,0,0:0:0:0:
508,288,38918,1,0,0:0:0:0:
452,288,38918,1,0,0:0:0:0:
60,288,38918,1,0,0:0:0:0:
340,288,38918,1,0,0:0:0:0:
284,288,38918,1,0,0:0:0:0:
0,192,38963,1,0,0:0:0:0:
512,192,38963,1,0,0:0:0:0:
4,340,39008,5,0,0:0:0:0:
0,192,39008,1,0,0:0:0:0:
512,192,39008,1,0,0:0:0:0:
60,340,39008,1,0,0:0:0:0:
340,340,39008,1,0,0:0:0:0:
116,340,39008,1,0,0:0:0:0:
396,340,39008,1,0,0:0:0:0:
508,340,39008,1,0,0:0:0:0:
452,340,39008,1,0,0:0:0:0:
172,340,39008,1,0,0:0:0:0:
0,192,39053,1,0,0:0:0:0:
512,192,39053,1,0,0:0:0:0:
4,0,39098,5,0,0:0:0:0:
0,192,39098,1,0,0:0:0:0:
512,192,39098,1,0,0:0:0:0:
508,0,39098,1,0,0:0:0:0:
172,0,39098,1,0,0:0:0:0:
60,0,39098,1,0,0:0:0:0:
116,0,39098,1,0,0:0:0:0:
228,0,39098,1,0,0:0:0:0:
284,0,39098,2,0,L|284:84,1,70
452,0,39098,2,0,L|452:84,1,70
0,192,39189,1,0,0:0:0:0:
512,192,39189,1,0,0:0:0:0:
4,112,39279,5,0,0:0:0:0:
0,192,39279,1,0,0:0:0:0:
512,192,39279,1,0,0:0:0:0:
508,112,39279,1,0,0:0:0:0:
172,112,39279,1,0,0:0:0:0:
452,112,39279,1,0,0:0:0:0:
60,112,39279,1,0,0:0:0:0:
116,112,39279,1,0,0:0:0:0:
228,112,39279,2,0,L|228:204,1,70
396,112,39279,2,0,L|396:204,1,70
0,192,39369,1,0,0:0:0:0:
512,192,39369,1,0,0:0:0:0:
0,192,39414,1,0,0:0:0:0:
512,192,39414,1,0,0:0:0:0:
4,224,39459,5,0,0:0:0:0:
0,192,39459,1,0,0:0:0:0:
512,192,39459,1,0,0:0:0:0:
60,224,39459,1,0,0:0:0:0:
340,224,39459,1,0,0:0:0:0:
396,224,39459,1,0,0:0:0:0:
508,224,39459,1,0,0:0:0:0:
452,224,39459,1,0,0:0:0:0:
116,224,39459,2,0,L|116:304,1,70
284,224,39459,2,0,L|284:304,1,70
0,192,39549,1,0,0:0:0:0:
512,192,39549,1,0,0:0:0:0:
4,0,39639,5,0,0:0:0:0:
0,192,39639,1,0,0:0:0:0:
512,192,39639,1,0,0:0:0:0:
396,0,39639,1,0,0:0:0:0:
508,0,39639,1,0,0:0:0:0:
172,0,39639,1,0,0:0:0:0:
452,0,39639,1,0,0:0:0:0:
60,0,39639,1,0,0:0:0:0:
116,0,39639,1,0,0:0:0:0:
340,0,39639,1,0,0:0:0:0:
4,48,39729,5,0,0:0:0:0:
0,192,39729,1,0,0:0:0:0:
512,192,39729,1,0,0:0:0:0:
60,48,39729,1,0,0:0:0:0:
116,48,39729,1,0,0:0:0:0:
228,48,39729,1,0,0:0:0:0:
396,48,39729,1,0,0:0:0:0:
508,48,39729,1,0,0:0:0:0:
452,48,39729,1,0,0:0:0:0:
172,48,39729,1,0,0:0:0:0:
0,192,39774,1,0,0:0:0:0:
512,192,39774,1,0,0:0:0:0:
4,100,39819,5,0,0:0:0:0:
0,192,39819,1,0,0:0:0:0:
512,192,39819,1,0,0:0:0:0:
284,100,39819,1,0,0:0:0:0:
508,100,39819,1,0,0:0:0:0:
172,100,39819,1,0,0:0:0:0:
452,100,39819,1,0,0:0:0:0:
60,100,39819,1,0,0:0:0:0:
116,100,39819,1,0,0:0:0:0:
228,100,39819,1,0,0:0:0:0:
0,192,39864,1,0,0:0:0:0:
512,192,39864,1,0,0:0:0:0:
4,148,39909,5,0,0:0:0:0:
0,192,39909,1,0,0:0:0:0:
512,192,39909,1,0,0:0:0:0:
60,148,39909,1,0,0:0:0:0:
116,148,39909,1,0,0:0:0:0:
228,148,39909,1,0,0:0:0:0:
340,148,39909,1,0,0:0:0:0:
284,148,39909,1,0,0:0:0:0:
508,148,39909,1,0,0:0:0:0:
172,148,39909,1,0,0:0:0:0:
4,200,39999,5,0,0:0:0:0:
0,192,39999,1,0,0:0:0:0:
512,192,39999,1,0,0:0:0:0:
284,200,39999,1,0,0:0:0:0:
508,200,39999,1,0,0:0:0:0:
172,200,39999,1,0,0:0:0:0:
452,200,39999,1,0,0:0:0:0:
60,200,39999,1,0,0:0:0:0:
116,200,39999,1,0,0:0:0:0:
228,200,39999,1,0,0:0:0:0:
4,244,40089,5,0,0:0:0:0:
0,192,40089,1,0,0:0:0:0:
512,192,40089,1,0,0:0:0:0:
60,244,40089,1,0,0:0:0:0:
116,244,40089,1,0,0:0:0:0:
228,244,40089,1,0,0:0:0:0:
396,244,40089,1,0,0:0:0:0:
508,244,40089,1,0,0:0:0:0:
452,244,40089,1,0,0:0:0:0:
172,244,40089,1,0,0:0:0:0:
0,192,40135,1,0,0:0:0:0:
512,192,40135,1,0,0:0:0:0:
4,288,40179,5,0,0:0:0:0:
396,288,40179,1,0,0:0:0:0:
508,288,40179,1,0,0:0:0:0:
172,288,40179,1,0,0:0:0:0:
452,288,40179,1,0,0:0:0:0:
60,288,40179,1,0,0:0:0:0:
116,288,40179,1,0,0:0:0:0:
340,288,40179,1,0,0:0:0:0:
0,192,40180,1,0,0:0:0:0:
512,192,40180,1,0,0:0:0:0:
0,192,40225,1,0,0:0:0:0:
512,192,40225,1,0,0:0:0:0:
4,328,40270,5,0,0:0:0:0:
0,192,40270,1,0,0:0:0:0:
512,192,40270,1,0,0:0:0:0:
60,328,40270,1,0,0:0:0:0:
116,328,40270,1,0,0:0:0:0:
340,328,40270,1,0,0:0:0:0:
284,328,40270,1,0,0:0:0:0:
396,328,40270,1,0,0:0:0:0:
508,328,40270,1,0,0:0:0:0:
452,328,40270,1,0,0:0:0:0:
4,356,40360,5,0,0:0:0:0:
0,192,40360,1,0,0:0:0:0:
512,192,40360,1,0,0:0:0:0:
396,356,40360,1,0,0:0:0:0:
508,356,40360,1,0,0:0:0:0:
172,356,40360,1,0,0:0:0:0:
452,356,40360,1,0,0:0:0:0:
60,356,40360,1,0,0:0:0:0:
116,356,40360,1,0,0:0:0:0:
340,356,40360,1,0,0:0:0:0:
4,384,40450,5,0,0:0:0:0:
0,192,40450,1,0,0:0:0:0:
512,192,40450,1,0,0:0:0:0:
396,384,40450,1,0,0:0:0:0:
508,384,40450,1,0,0:0:0:0:
172,384,40450,1,0,0:0:0:0:
452,384,40450,1,0,0:0:0:0:
60,384,40450,1,0,0:0:0:0:
116,384,40450,1,0,0:0:0:0:
228,384,40450,1,0,0:0:0:0:
0,192,40495,1,0,0:0:0:0:
512,192,40495,1,0,0:0:0:0:
4,0,40540,5,0,0:0:0:0:
0,192,40540,1,0,0:0:0:0:
512,192,40540,1,0,0:0:0:0:
508,0,40540,1,0,0:0:0:0:
60,0,40540,1,0,0:0:0:0:
116,0,40540,1,0,0:0:0:0:
228,0,40540,1,0,0:0:0:0:
172,0,40540,1,0,0:0:0:0:
452,0,40540,2,0,L|452:84,1,70
284,0,40540,2,0,L|284:84,1,70
0,192,40585,1,0,0:0:0:0:
512,192,40585,1,0,0:0:0:0:
0,192,40630,1,0,0:0:0:0:
512,192,40630,1,0,0:0:0:0:
0,192,40675,1,0,0:0:0:0:
512,192,40675,1,0,0:0:0:0:
0,192,40720,1,0,0:0:0:0:
512,192,40720,1,0,0:0:0:0:
4,112,40721,5,0,0:0:0:0:
508,112,40721,1,0,0:0:0:0:
60,112,40721,1,0,0:0:0:0:
228,112,40721,2,0,L|228:204,1,70
116,112,40721,1,0,0:0:0:0:
172,112,40721,1,0,0:0:0:0:
452,112,40721,1,0,0:0:0:0:
396,112,40721,2,0,L|396:204,1,70
0,192,40765,1,0,0:0:0:0:
512,192,40765,1,0,0:0:0:0:
0,192,40810,1,0,0:0:0:0:
512,192,40810,1,0,0:0:0:0:
0,192,40900,1,0,0:0:0:0:
512,192,40900,1,0,0:0:0:0:
4,224,40901,5,0,0:0:0:0:
396,224,40901,1,0,0:0:0:0:
508,224,40901,1,0,0:0:0:0:
116,224,40901,2,0,L|116:304,1,70
340,224,40901,1,0,0:0:0:0:
60,224,40901,1,0,0:0:0:0:
284,224,40901,2,0,L|284:304,1,70
452,224,40901,1,0,0:0:0:0:
0,192,40990,1,0,0:0:0:0:
512,192,40990,1,0,0:0:0:0:
0,192,41080,1,0,0:0:0:0:
512,192,41080,1,0,0:0:0:0:
4,0,41081,5,0,0:0:0:0:
452,0,41081,1,0,0:0:0:0:
60,0,41081,1,0,0:0:0:0:
508,0,41081,1,0,0:0:0:0:
396,0,41081,1,0,0:0:0:0:
340,0,41081,1,0,0:0:0:0:
116,0,41081,1,0,0:0:0:0:
172,0,41081,1,0,0:0:0:0:
4,48,41171,5,0,0:0:0:0:
0,192,41171,1,0,0:0:0:0:
512,192,41171,1,0,0:0:0:0:
60,48,41171,1,0,0:0:0:0:
452,48,41171,1,0,0:0:0:0:
396,48,41171,1,0,0:0:0:0:
116,48,41171,1,0,0:0:0:0:
228,48,41171,1,0,0:0:0:0:
508,48,41171,1,0,0:0:0:0:
172,48,41171,1,0,0:0:0:0:
0,192,41216,1,0,0:0:0:0:
512,192,41216,1,0,0:0:0:0:
4,100,41261,5,0,0:0:0:0:
0,192,41261,1,0,0:0:0:0:
512,192,41261,1,0,0:0:0:0:
116,100,41261,1,0,0:0:0:0:
172,100,41261,1,0,0:0:0:0:
284,100,41261,1,0,0:0:0:0:
60,100,41261,1,0,0:0:0:0:
228,100,41261,1,0,0:0:0:0:
452,100,41261,1,0,0:0:0:0:
508,100,41261,1,0,0:0:0:0:
0,192,41306,1,0,0:0:0:0:
512,192,41306,1,0,0:0:0:0:
4,148,41351,5,0,0:0:0:0:
0,192,41351,1,0,0:0:0:0:
512,192,41351,1,0,0:0:0:0:
60,148,41351,1,0,0:0:0:0:
172,148,41351,1,0,0:0:0:0:
116,148,41351,1,0,0:0:0:0:
284,148,41351,1,0,0:0:0:0:
508,148,41351,1,0,0:0:0:0:
340,148,41351,1,0,0:0:0:0:
228,148,41351,1,0,0:0:0:0:
0,192,41396,1,0,0:0:0:0:
512,192,41396,1,0,0:0:0:0:
4,200,41441,5,0,0:0:0:0:
0,192,41441,1,0,0:0:0:0:
512,192,41441,1,0,0:0:0:0:
228,200,41441,1,0,0:0:0:0:
116,200,41441,1,0,0:0:0:0:
60,200,41441,1,0,0:0:0:0:
284,200,41441,1,0,0:0:0:0:
172,200,41441,1,0,0:0:0:0:
508,200,41441,1,0,0:0:0:0:
452,200,41441,1,0,0:0:0:0:
0,192,41486,1,0,0:0:0:0:
512,192,41486,1,0,0:0:0:0:
4,244,41531,5,0,0:0:0:0:
228,244,41531,2,0,P|132:100|200:64,1,280
0,192,41531,1,0,0:0:0:0:
512,192,41531,1,0,0:0:0:0:
452,244,41531,1,0,0:0:0:0:
508,244,41531,1,0,0:0:0:0:
116,244,41531,1,0,0:0:0:0:
60,244,41531,1,0,0:0:0:0:
172,244,41531,1,0,0:0:0:0:
396,244,41531,2,0,P|300:100|368:64,1,280
256,64,41981,6,0,L|336:64,1,70
256,64,41981,6,0,L|176:64,1,70
326,64,42161,2,0,L|400:64,1,70
186,64,42161,2,0,L|112:64,1,70
24,68,42341,2,0,P|24:148|84:172,1,140
488,68,42341,2,0,P|488:148|428:172,1,140
120,176,42611,1,0,0:0:0:0:
392,176,42611,1,0,0:0:0:0:
256,192,42701,2,0,L|204:192,1,35
256,192,42701,2,0,L|308:192,1,35
172,192,42791,2,0,L|88:192,1,70
340,192,42791,2,0,L|424:192,1,70
24,240,43062,5,0,0:0:0:0:
488,240,43062,5,0,0:0:0:0:
80,240,43062,1,0,0:0:0:0:
432,240,43062,1,0,0:0:0:0:
24,296,43152,1,0,0:0:0:0:
80,296,43152,1,0,0:0:0:0:
136,296,43152,1,0,0:0:0:0:
432,296,43152,1,0,0:0:0:0:
488,296,43152,1,0,0:0:0:0:
376,296,43152,1,0,0:0:0:0:
136,352,43242,1,0,0:0:0:0:
80,352,43242,1,0,0:0:0:0:
24,352,43242,1,0,0:0:0:0:
192,352,43242,2,0,L|192:184,1,140
488,352,43242,1,0,0:0:0:0:
376,352,43242,1,0,0:0:0:0:
432,352,43242,1,0,0:0:0:0:
320,352,43242,2,0,L|320:184,1,140
256,192,43512,1,0,0:0:0:0:
228,192,43602,1,0,0:0:0:0:
280,192,43602,1,0,0:0:0:0:
256,192,43692,1,0,0:0:0:0:
204,192,43692,1,0,0:0:0:0:
312,192,43692,1,0,0:0:0:0:
312,192,43782,1,0,0:0:0:0:
204,192,43782,1,0,0:0:0:0:
256,192,43782,1,0,0:0:0:0:
152,192,43782,2,0,L|152:28,1,140
360,192,43782,2,0,L|360:28,1,140
0,184,44053,1,0,0:0:0:0:
512,184,44053,1,0,0:0:0:0:
56,188,44143,2,0,L|140:188,1,70
456,188,44143,2,0,L|372:188,1,70
256,192,44323,2,0,L|160:192,1,70
256,192,44323,2,0,L|352:192,1,70
0,128,44503,1,0,0:0:0:0:
56,128,44503,1,0,0:0:0:0:
112,128,44503,1,0,0:0:0:0:
400,128,44503,1,0,0:0:0:0:
512,128,44503,1,0,0:0:0:0:
456,128,44503,1,0,0:0:0:0:
256,128,44593,1,0,0:0:0:0:
200,128,44593,1,0,0:0:0:0:
144,128,44593,1,0,0:0:0:0:
256,128,44593,1,0,0:0:0:0:
312,128,44593,1,0,0:0:0:0:
368,128,44593,1,0,0:0:0:0:
80,128,44683,2,0,P|80:-4|80:24,1,140
24,128,44683,2,0,P|24:-4|24:24,1,140
488,128,44683,2,0,P|488:-4|488:24,1,140
432,128,44683,2,0,P|432:-4|432:24,1,140
148,0,44863,1,0,0:0:0:0:
200,0,44863,1,0,0:0:0:0:
312,0,44863,1,0,0:0:0:0:
364,0,44863,1,0,0:0:0:0:
256,0,45044,2,0,L|256:80,1,70
312,0,45224,1,0,0:0:0:0:
364,0,45224,1,0,0:0:0:0:
148,0,45224,1,0,0:0:0:0:
200,0,45224,1,0,0:0:0:0:
0,192,45404,1,0,0:0:0:0:
56,192,45404,1,0,0:0:0:0:
112,192,45404,1,0,0:0:0:0:
168,192,45404,1,0,0:0:0:0:
224,192,45404,1,0,0:0:0:0:
344,192,45494,1,0,0:0:0:0:
288,192,45494,1,0,0:0:0:0:
400,192,45494,1,0,0:0:0:0:
512,192,45494,1,0,0:0:0:0:
456,192,45494,1,0,0:0:0:0:
368,192,45674,1,0,0:0:0:0:
312,192,45674,1,0,0:0:0:0:
256,192,45674,1,0,0:0:0:0:
200,192,45674,1,0,0:0:0:0:
144,192,45674,1,0,0:0:0:0:
0,124,45944,1,0,0:0:0:0:
56,124,45944,1,0,0:0:0:0:
512,124,45944,1,0,0:0:0:0:
456,124,45944,1,0,0:0:0:0:
112,124,46035,2,0,L|196:124,1,70
400,124,46035,2,0,L|316:124,1,70
256,124,46215,2,0,L|104:124,1,140
256,124,46215,2,0,L|408:124,1,140
252,240,47146,1,0,0:0:0:0:
300,240,47146,1,0,0:0:0:0:
208,240,47146,1,0,0:0:0:0:
148,240,47146,1,0,0:0:0:0:
0,240,47146,1,0,0:0:0:0:
40,240,47146,1,0,0:0:0:0:
208,192,47206,1,0,0:0:0:0:
148,192,47206,1,0,0:0:0:0:
0,200,47206,1,0,0:0:0:0:
72,200,47206,1,0,0:0:0:0:
300,148,47266,1,0,0:0:0:0:
252,148,47266,1,0,0:0:0:0:
208,148,47266,1,0,0:0:0:0:
148,148,47266,1,0,0:0:0:0:
0,160,47266,1,0,0:0:0:0:
88,160,47266,1,0,0:0:0:0:
208,112,47326,1,0,0:0:0:0:
148,112,47326,1,0,0:0:0:0:
0,120,47326,1,0,0:0:0:0:
80,120,47326,1,0,0:0:0:0:
252,80,47386,1,0,0:0:0:0:
300,80,47386,1,0,0:0:0:0:
208,84,47386,1,0,0:0:0:0:
148,84,47386,1,0,0:0:0:0:
0,84,47386,1,0,0:0:0:0:
40,88,47386,1,0,0:0:0:0:
508,0,47746,5,0,0:0:0:0:
60,0,47746,1,0,0:0:0:0:
4,0,47746,1,0,0:0:0:0:
452,0,47746,1,0,0:0:0:0:
284,0,47746,1,0,0:0:0:0:
172,0,47746,1,0,0:0:0:0:
512,192,47746,1,0,0:0:0:0:
0,192,47746,1,0,0:0:0:0:
228,0,47746,1,0,0:0:0:0:
116,0,47746,1,0,0:0:0:0:
508,48,47836,5,0,0:0:0:0:
0,192,47836,1,0,0:0:0:0:
172,48,47836,1,0,0:0:0:0:
512,192,47836,1,0,0:0:0:0:
452,48,47836,1,0,0:0:0:0:
284,48,47836,1,0,0:0:0:0:
116,48,47836,1,0,0:0:0:0:
228,48,47836,1,0,0:0:0:0:
4,48,47836,1,0,0:0:0:0:
60,48,47836,1,0,0:0:0:0:
508,104,47926,5,0,0:0:0:0:
60,104,47926,1,0,0:0:0:0:
340,104,47926,1,0,0:0:0:0:
396,104,47926,1,0,0:0:0:0:
172,104,47926,1,0,0:0:0:0:
452,104,47926,1,0,0:0:0:0:
512,192,47926,1,0,0:0:0:0:
0,192,47926,1,0,0:0:0:0:
116,104,47926,1,0,0:0:0:0:
4,104,47926,1,0,0:0:0:0:
508,156,48016,5,0,0:0:0:0:
0,192,48016,1,0,0:0:0:0:
340,156,48016,1,0,0:0:0:0:
512,192,48016,1,0,0:0:0:0:
116,156,48016,1,0,0:0:0:0:
4,156,48016,1,0,0:0:0:0:
452,156,48016,1,0,0:0:0:0:
60,156,48016,1,0,0:0:0:0:
396,156,48016,1,0,0:0:0:0:
172,156,48016,1,0,0:0:0:0:
0,192,48061,1,0,0:0:0:0:
512,192,48061,1,0,0:0:0:0:
508,204,48106,5,0,0:0:0:0:
0,192,48106,1,0,0:0:0:0:
284,204,48106,1,0,0:0:0:0:
512,192,48106,1,0,0:0:0:0:
452,204,48106,1,0,0:0:0:0:
396,204,48106,1,0,0:0:0:0:
4,204,48106,1,0,0:0:0:0:
228,204,48106,1,0,0:0:0:0:
60,204,48106,1,0,0:0:0:0:
340,204,48106,1,0,0:0:0:0:
508,256,48196,5,0,0:0:0:0:
284,256,48196,1,0,0:0:0:0:
452,256,48196,1,0,0:0:0:0:
4,256,48196,1,0,0:0:0:0:
340,256,48196,1,0,0:0:0:0:
60,256,48196,1,0,0:0:0:0:
512,192,48196,1,0,0:0:0:0:
0,192,48196,1,0,0:0:0:0:
228,256,48196,1,0,0:0:0:0:
396,256,48196,1,0,0:0:0:0:
508,300,48286,5,0,0:0:0:0:
512,192,48286,1,0,0:0:0:0:
0,192,48286,1,0,0:0:0:0:
340,300,48286,1,0,0:0:0:0:
228,300,48286,1,0,0:0:0:0:
172,300,48286,1,0,0:0:0:0:
452,300,48286,1,0,0:0:0:0:
284,300,48286,1,0,0:0:0:0:
396,300,48286,1,0,0:0:0:0:
508,360,48376,5,0,0:0:0:0:
396,360,48376,1,0,0:0:0:0:
452,360,48376,1,0,0:0:0:0:
284,360,48376,1,0,0:0:0:0:
172,360,48376,1,0,0:0:0:0:
340,360,48376,1,0,0:0:0:0:
512,192,48376,1,0,0:0:0:0:
228,360,48376,1,0,0:0:0:0:
0,192,48376,1,0,0:0:0:0:
512,192,48421,1,0,0:0:0:0:
0,192,48421,1,0,0:0:0:0:
508,0,48466,5,0,0:0:0:0:
452,0,48466,1,0,0:0:0:0:
340,0,48466,1,0,0:0:0:0:
396,0,48466,1,0,0:0:0:0:
284,0,48466,1,0,0:0:0:0:
172,0,48466,1,0,0:0:0:0:
512,192,48466,1,0,0:0:0:0:
0,192,48466,1,0,0:0:0:0:
4,0,48466,1,0,0:0:0:0:
228,0,48466,1,0,0:0:0:0:
512,192,48511,1,0,0:0:0:0:
0,192,48511,1,0,0:0:0:0:
508,52,48556,5,0,0:0:0:0:
228,52,48556,1,0,0:0:0:0:
284,52,48556,1,0,0:0:0:0:
4,52,48556,1,0,0:0:0:0:
340,52,48556,1,0,0:0:0:0:
60,52,48556,1,0,0:0:0:0:
512,192,48556,1,0,0:0:0:0:
0,192,48556,1,0,0:0:0:0:
396,52,48556,1,0,0:0:0:0:
452,52,48556,1,0,0:0:0:0:
512,192,48601,1,0,0:0:0:0:
0,192,48601,1,0,0:0:0:0:
508,96,48646,5,0,0:0:0:0:
60,96,48646,1,0,0:0:0:0:
340,96,48646,1,0,0:0:0:0:
452,96,48646,1,0,0:0:0:0:
284,96,48646,1,0,0:0:0:0:
396,96,48646,1,0,0:0:0:0:
512,192,48646,1,0,0:0:0:0:
0,192,48646,1,0,0:0:0:0:
4,96,48646,1,0,0:0:0:0:
116,96,48646,1,0,0:0:0:0:
512,192,48692,1,0,0:0:0:0:
0,192,48692,1,0,0:0:0:0:
508,148,48736,5,0,0:0:0:0:
452,148,48736,1,0,0:0:0:0:
60,148,48736,1,0,0:0:0:0:
172,148,48736,1,0,0:0:0:0:
396,148,48736,1,0,0:0:0:0:
116,148,48736,1,0,0:0:0:0:
340,148,48736,1,0,0:0:0:0:
4,148,48736,1,0,0:0:0:0:
0,192,48737,1,0,0:0:0:0:
512,192,48737,1,0,0:0:0:0:
512,192,48782,1,0,0:0:0:0:
0,192,48782,1,0,0:0:0:0:
508,204,48827,5,0,0:0:0:0:
228,204,48827,1,0,0:0:0:0:
172,204,48827,1,0,0:0:0:0:
116,204,48827,1,0,0:0:0:0:
60,204,48827,1,0,0:0:0:0:
4,204,48827,1,0,0:0:0:0:
512,192,48827,1,0,0:0:0:0:
0,192,48827,1,0,0:0:0:0:
396,204,48827,1,0,0:0:0:0:
452,204,48827,1,0,0:0:0:0:
512,192,48872,1,0,0:0:0:0:
0,192,48872,1,0,0:0:0:0:
508,256,48917,5,0,0:0:0:0:
60,256,48917,1,0,0:0:0:0:
340,256,48917,1,0,0:0:0:0:
452,256,48917,1,0,0:0:0:0:
172,256,48917,1,0,0:0:0:0:
396,256,48917,1,0,0:0:0:0:
512,192,48917,1,0,0:0:0:0:
0,192,48917,1,0,0:0:0:0:
4,256,48917,1,0,0:0:0:0:
116,256,48917,1,0,0:0:0:0:
512,192,48962,1,0,0:0:0:0:
0,192,48962,1,0,0:0:0:0:
508,300,49007,5,0,0:0:0:0:
60,300,49007,1,0,0:0:0:0:
340,300,49007,1,0,0:0:0:0:
452,300,49007,1,0,0:0:0:0:
284,300,49007,1,0,0:0:0:0:
396,300,49007,1,0,0:0:0:0:
512,192,49007,1,0,0:0:0:0:
0,192,49007,1,0,0:0:0:0:
4,300,49007,1,0,0:0:0:0:
116,300,49007,1,0,0:0:0:0:
512,192,49052,1,0,0:0:0:0:
0,192,49052,1,0,0:0:0:0:
508,352,49097,5,0,0:0:0:0:
228,352,49097,1,0,0:0:0:0:
284,352,49097,1,0,0:0:0:0:
4,352,49097,1,0,0:0:0:0:
340,352,49097,1,0,0:0:0:0:
60,352,49097,1,0,0:0:0:0:
512,192,49097,1,0,0:0:0:0:
0,192,49097,1,0,0:0:0:0:
396,352,49097,1,0,0:0:0:0:
452,352,49097,1,0,0:0:0:0:
508,0,49187,5,0,0:0:0:0:
0,192,49187,1,0,0:0:0:0:
340,0,49187,1,0,0:0:0:0:
512,192,49187,1,0,0:0:0:0:
116,0,49187,1,0,0:0:0:0:
4,0,49187,1,0,0:0:0:0:
452,0,49187,1,0,0:0:0:0:
60,0,49187,1,0,0:0:0:0:
396,0,49187,1,0,0:0:0:0:
172,0,49187,1,0,0:0:0:0:
0,192,49232,1,0,0:0:0:0:
512,192,49232,1,0,0:0:0:0:
508,48,49277,5,0,0:0:0:0:
0,192,49277,1,0,0:0:0:0:
172,48,49277,1,0,0:0:0:0:
512,192,49277,1,0,0:0:0:0:
452,48,49277,1,0,0:0:0:0:
396,48,49277,1,0,0:0:0:0:
4,48,49277,1,0,0:0:0:0:
116,48,49277,1,0,0:0:0:0:
60,48,49277,1,0,0:0:0:0:
340,48,49277,1,0,0:0:0:0:
508,96,49367,5,0,0:0:0:0:
172,96,49367,1,0,0:0:0:0:
284,96,49367,1,0,0:0:0:0:
4,96,49367,1,0,0:0:0:0:
60,96,49367,1,0,0:0:0:0:
116,96,49367,1,0,0:0:0:0:
512,192,49367,1,0,0:0:0:0:
0,192,49367,1,0,0:0:0:0:
452,96,49367,1,0,0:0:0:0:
228,96,49367,1,0,0:0:0:0:
508,148,49457,5,0,0:0:0:0:
0,192,49457,1,0,0:0:0:0:
60,148,49457,1,0,0:0:0:0:
512,192,49457,1,0,0:0:0:0:
4,148,49457,1,0,0:0:0:0:
116,148,49457,1,0,0:0:0:0:
452,148,49457,1,0,0:0:0:0:
228,148,49457,1,0,0:0:0:0:
172,148,49457,1,0,0:0:0:0:
284,148,49457,1,0,0:0:0:0:
0,192,49502,1,0,0:0:0:0:
512,192,49502,1,0,0:0:0:0:
508,200,49547,5,0,0:0:0:0:
0,192,49547,1,0,0:0:0:0:
340,200,49547,1,0,0:0:0:0:
512,192,49547,1,0,0:0:0:0:
116,200,49547,1,0,0:0:0:0:
4,200,49547,1,0,0:0:0:0:
452,200,49547,1,0,0:0:0:0:
60,200,49547,1,0,0:0:0:0:
396,200,49547,1,0,0:0:0:0:
172,200,49547,1,0,0:0:0:0:
0,192,49592,1,0,0:0:0:0:
512,192,49592,1,0,0:0:0:0:
508,248,49637,5,0,0:0:0:0:
60,248,49637,1,0,0:0:0:0:
340,248,49637,1,0,0:0:0:0:
452,248,49637,1,0,0:0:0:0:
172,248,49637,1,0,0:0:0:0:
396,248,49637,1,0,0:0:0:0:
512,192,49637,1,0,0:0:0:0:
0,192,49637,1,0,0:0:0:0:
4,248,49637,1,0,0:0:0:0:
116,248,49637,1,0,0:0:0:0:
512,192,49683,1,0,0:0:0:0:
0,192,49683,1,0,0:0:0:0:
508,300,49727,5,0,0:0:0:0:
4,300,49727,1,0,0:0:0:0:
228,300,49727,1,0,0:0:0:0:
340,300,49727,1,0,0:0:0:0:
60,300,49727,1,0,0:0:0:0:
452,300,49727,1,0,0:0:0:0:
284,300,49727,1,0,0:0:0:0:
396,300,49727,1,0,0:0:0:0:
0,192,49728,1,0,0:0:0:0:
512,192,49728,1,0,0:0:0:0:
512,192,49773,1,0,0:0:0:0:
0,192,49773,1,0,0:0:0:0:
508,352,49818,5,0,0:0:0:0:
284,352,49818,1,0,0:0:0:0:
452,352,49818,1,0,0:0:0:0:
4,352,49818,1,0,0:0:0:0:
340,352,49818,1,0,0:0:0:0:
60,352,49818,1,0,0:0:0:0:
512,192,49818,1,0,0:0:0:0:
0,192,49818,1,0,0:0:0:0:
228,352,49818,1,0,0:0:0:0:
396,352,49818,1,0,0:0:0:0:
512,192,49863,1,0,0:0:0:0:
0,192,49863,1,0,0:0:0:0:
508,0,49908,5,0,0:0:0:0:
60,0,49908,1,0,0:0:0:0:
340,0,49908,1,0,0:0:0:0:
396,0,49908,1,0,0:0:0:0:
284,0,49908,1,0,0:0:0:0:
452,0,49908,1,0,0:0:0:0:
512,192,49908,1,0,0:0:0:0:
0,192,49908,1,0,0:0:0:0:
116,0,49908,1,0,0:0:0:0:
4,0,49908,1,0,0:0:0:0:
508,52,49998,5,0,0:0:0:0:
0,192,49998,1,0,0:0:0:0:
172,52,49998,1,0,0:0:0:0:
512,192,49998,1,0,0:0:0:0:
452,52,49998,1,0,0:0:0:0:
396,52,49998,1,0,0:0:0:0:
116,52,49998,1,0,0:0:0:0:
4,52,49998,1,0,0:0:0:0:
60,52,49998,1,0,0:0:0:0:
340,52,49998,1,0,0:0:0:0:
0,192,50043,1,0,0:0:0:0:
512,192,50043,1,0,0:0:0:0:
508,100,50088,5,0,0:0:0:0:
0,192,50088,1,0,0:0:0:0:
60,100,50088,1,0,0:0:0:0:
512,192,50088,1,0,0:0:0:0:
4,100,50088,1,0,0:0:0:0:
116,100,50088,1,0,0:0:0:0:
452,100,50088,1,0,0:0:0:0:
396,100,50088,1,0,0:0:0:0:
172,100,50088,1,0,0:0:0:0:
228,100,50088,1,0,0:0:0:0:
508,144,50178,5,0,0:0:0:0:
172,144,50178,1,0,0:0:0:0:
228,144,50178,1,0,0:0:0:0:
4,144,50178,1,0,0:0:0:0:
60,144,50178,1,0,0:0:0:0:
116,144,50178,1,0,0:0:0:0:
512,192,50178,1,0,0:0:0:0:
0,192,50178,1,0,0:0:0:0:
284,144,50178,1,0,0:0:0:0:
452,144,50178,1,0,0:0:0:0:
508,144,50223,5,0,0:0:0:0:
512,192,50223,1,0,0:0:0:0:
116,144,50223,1,0,0:0:0:0:
0,192,50223,1,0,0:0:0:0:
452,144,50223,1,0,0:0:0:0:
284,144,50223,1,0,0:0:0:0:
172,144,50223,1,0,0:0:0:0:
228,144,50223,1,0,0:0:0:0:
60,144,50223,1,0,0:0:0:0:
4,144,50223,1,0,0:0:0:0:
508,144,50268,5,0,0:0:0:0:
172,144,50268,1,0,0:0:0:0:
228,144,50268,1,0,0:0:0:0:
4,144,50268,1,0,0:0:0:0:
60,144,50268,1,0,0:0:0:0:
116,144,50268,1,0,0:0:0:0:
512,192,50268,1,0,0:0:0:0:
0,192,50268,1,0,0:0:0:0:
284,144,50268,1,0,0:0:0:0:
452,144,50268,1,0,0:0:0:0:
512,192,50583,1,0,0:0:0:0:
0,192,50583,1,0,0:0:0:0:
508,0,50628,5,0,0:0:0:0:
396,0,50628,1,0,0:0:0:0:
452,0,50628,1,0,0:0:0:0:
284,0,50628,1,0,0:0:0:0:
60,0,50628,2,0,L|60:84,1,70
228,0,50628,2,0,L|228:84,1,70
512,192,50628,1,0,0:0:0:0:
0,192,50628,1,0,0:0:0:0:
340,0,50628,1,0,0:0:0:0:
4,0,50628,1,0,0:0:0:0:
0,192,50719,1,0,0:0:0:0:
512,192,50719,1,0,0:0:0:0:
508,112,50809,5,0,0:0:0:0:
452,112,50809,1,0,0:0:0:0:
60,112,50809,1,0,0:0:0:0:
396,112,50809,1,0,0:0:0:0:
116,112,50809,2,0,L|116:204,1,70
284,112,50809,2,0,L|284:204,1,70
512,192,50809,1,0,0:0:0:0:
0,192,50809,1,0,0:0:0:0:
340,112,50809,1,0,0:0:0:0:
4,112,50809,1,0,0:0:0:0:
512,192,50899,1,0,0:0:0:0:
0,192,50899,1,0,0:0:0:0:
0,192,50944,1,0,0:0:0:0:
512,192,50944,1,0,0:0:0:0:
508,224,50989,5,0,0:0:0:0:
4,224,50989,1,0,0:0:0:0:
116,224,50989,1,0,0:0:0:0:
60,224,50989,1,0,0:0:0:0:
228,224,50989,2,0,L|228:304,1,70
396,224,50989,2,0,L|396:304,1,70
512,192,50989,1,0,0:0:0:0:
0,192,50989,1,0,0:0:0:0:
172,224,50989,1,0,0:0:0:0:
452,224,50989,1,0,0:0:0:0:
512,192,51079,1,0,0:0:0:0:
0,192,51079,1,0,0:0:0:0:
508,0,51169,5,0,0:0:0:0:
60,0,51169,1,0,0:0:0:0:
340,0,51169,1,0,0:0:0:0:
452,0,51169,1,0,0:0:0:0:
172,0,51169,1,0,0:0:0:0:
396,0,51169,1,0,0:0:0:0:
512,192,51169,1,0,0:0:0:0:
0,192,51169,1,0,0:0:0:0:
4,0,51169,1,0,0:0:0:0:
116,0,51169,1,0,0:0:0:0:
508,48,51259,5,0,0:0:0:0:
0,192,51259,1,0,0:0:0:0:
284,48,51259,1,0,0:0:0:0:
512,192,51259,1,0,0:0:0:0:
452,48,51259,1,0,0:0:0:0:
396,48,51259,1,0,0:0:0:0:
4,48,51259,1,0,0:0:0:0:
116,48,51259,1,0,0:0:0:0:
60,48,51259,1,0,0:0:0:0:
340,48,51259,1,0,0:0:0:0:
0,192,51304,1,0,0:0:0:0:
512,192,51304,1,0,0:0:0:0:
508,100,51349,5,0,0:0:0:0:
0,192,51349,1,0,0:0:0:0:
340,100,51349,1,0,0:0:0:0:
512,192,51349,1,0,0:0:0:0:
228,100,51349,1,0,0:0:0:0:
4,100,51349,1,0,0:0:0:0:
452,100,51349,1,0,0:0:0:0:
60,100,51349,1,0,0:0:0:0:
396,100,51349,1,0,0:0:0:0:
284,100,51349,1,0,0:0:0:0:
0,192,51394,1,0,0:0:0:0:
512,192,51394,1,0,0:0:0:0:
508,148,51439,5,0,0:0:0:0:
0,192,51439,1,0,0:0:0:0:
284,148,51439,1,0,0:0:0:0:
512,192,51439,1,0,0:0:0:0:
452,148,51439,1,0,0:0:0:0:
396,148,51439,1,0,0:0:0:0:
228,148,51439,1,0,0:0:0:0:
172,148,51439,1,0,0:0:0:0:
4,148,51439,1,0,0:0:0:0:
340,148,51439,1,0,0:0:0:0:
508,200,51529,5,0,0:0:0:0:
60,200,51529,1,0,0:0:0:0:
340,200,51529,1,0,0:0:0:0:
452,200,51529,1,0,0:0:0:0:
284,200,51529,1,0,0:0:0:0:
396,200,51529,1,0,0:0:0:0:
512,192,51529,1,0,0:0:0:0:
0,192,51529,1,0,0:0:0:0:
4,200,51529,1,0,0:0:0:0:
228,200,51529,1,0,0:0:0:0:
508,244,51619,5,0,0:0:0:0:
0,192,51619,1,0,0:0:0:0:
284,244,51619,1,0,0:0:0:0:
512,192,51619,1,0,0:0:0:0:
452,244,51619,1,0,0:0:0:0:
396,244,51619,1,0,0:0:0:0:
4,244,51619,1,0,0:0:0:0:
116,244,51619,1,0,0:0:0:0:
60,244,51619,1,0,0:0:0:0:
340,244,51619,1,0,0:0:0:0:
512,192,51665,1,0,0:0:0:0:
0,192,51665,1,0,0:0:0:0:
508,288,51709,5,0,0:0:0:0:
452,288,51709,1,0,0:0:0:0:
60,288,51709,1,0,0:0:0:0:
172,288,51709,1,0,0:0:0:0:
396,288,51709,1,0,0:0:0:0:
116,288,51709,1,0,0:0:0:0:
340,288,51709,1,0,0:0:0:0:
4,288,51709,1,0,0:0:0:0:
0,192,51710,1,0,0:0:0:0:
512,192,51710,1,0,0:0:0:0:
512,192,51755,1,0,0:0:0:0:
0,192,51755,1,0,0:0:0:0:
508,328,51800,5,0,0:0:0:0:
228,328,51800,1,0,0:0:0:0:
172,328,51800,1,0,0:0:0:0:
116,328,51800,1,0,0:0:0:0:
60,328,51800,1,0,0:0:0:0:
4,328,51800,1,0,0:0:0:0:
512,192,51800,1,0,0:0:0:0:
0,192,51800,1,0,0:0:0:0:
396,328,51800,1,0,0:0:0:0:
452,328,51800,1,0,0:0:0:0:
508,356,51890,5,0,0:0:0:0:
0,192,51890,1,0,0:0:0:0:
340,356,51890,1,0,0:0:0:0:
512,192,51890,1,0,0:0:0:0:
116,356,51890,1,0,0:0:0:0:
4,356,51890,1,0,0:0:0:0:
452,356,51890,1,0,0:0:0:0:
60,356,51890,1,0,0:0:0:0:
396,356,51890,1,0,0:0:0:0:
172,356,51890,1,0,0:0:0:0:
508,384,51980,5,0,0:0:0:0:
60,384,51980,1,0,0:0:0:0:
340,384,51980,1,0,0:0:0:0:
452,384,51980,1,0,0:0:0:0:
284,384,51980,1,0,0:0:0:0:
396,384,51980,1,0,0:0:0:0:
512,192,51980,1,0,0:0:0:0:
0,192,51980,1,0,0:0:0:0:
4,384,51980,1,0,0:0:0:0:
116,384,51980,1,0,0:0:0:0:
512,192,52025,1,0,0:0:0:0:
0,192,52025,1,0,0:0:0:0:
508,0,52070,5,0,0:0:0:0:
284,0,52070,1,0,0:0:0:0:
396,0,52070,1,0,0:0:0:0:
340,0,52070,1,0,0:0:0:0:
228,0,52070,2,0,L|228:84,1,70
60,0,52070,2,0,L|60:84,1,70
512,192,52070,1,0,0:0:0:0:
0,192,52070,1,0,0:0:0:0:
452,0,52070,1,0,0:0:0:0:
4,0,52070,1,0,0:0:0:0:
512,192,52115,1,0,0:0:0:0:
0,192,52115,1,0,0:0:0:0:
512,192,52160,1,0,0:0:0:0:
0,192,52160,1,0,0:0:0:0:
0,192,52205,1,0,0:0:0:0:
512,192,52205,1,0,0:0:0:0:
512,192,52250,1,0,0:0:0:0:
0,192,52250,1,0,0:0:0:0:
508,112,52251,5,0,0:0:0:0:
4,112,52251,1,0,0:0:0:0:
396,112,52251,1,0,0:0:0:0:
284,112,52251,2,0,L|284:204,1,70
452,112,52251,1,0,0:0:0:0:
340,112,52251,1,0,0:0:0:0:
116,112,52251,2,0,L|116:204,1,70
60,112,52251,1,0,0:0:0:0:
512,192,52295,1,0,0:0:0:0:
0,192,52295,1,0,0:0:0:0:
0,192,52340,1,0,0:0:0:0:
512,192,52340,1,0,0:0:0:0:
512,192,52430,1,0,0:0:0:0:
0,192,52430,1,0,0:0:0:0:
508,224,52431,5,0,0:0:0:0:
116,224,52431,1,0,0:0:0:0:
172,224,52431,1,0,0:0:0:0:
396,224,52431,2,0,L|396:304,1,70
4,224,52431,1,0,0:0:0:0:
452,224,52431,1,0,0:0:0:0:
60,224,52431,1,0,0:0:0:0:
228,224,52431,2,0,L|228:304,1,70
0,192,52520,1,0,0:0:0:0:
512,192,52520,1,0,0:0:0:0:
512,192,52610,1,0,0:0:0:0:
0,192,52610,1,0,0:0:0:0:
508,0,52611,5,0,0:0:0:0:
60,0,52611,1,0,0:0:0:0:
116,0,52611,1,0,0:0:0:0:
4,0,52611,1,0,0:0:0:0:
452,0,52611,1,0,0:0:0:0:
172,0,52611,1,0,0:0:0:0:
340,0,52611,1,0,0:0:0:0:
396,0,52611,1,0,0:0:0:0:
508,48,52701,5,0,0:0:0:0:
396,48,52701,1,0,0:0:0:0:
116,48,52701,1,0,0:0:0:0:
284,48,52701,1,0,0:0:0:0:
340,48,52701,1,0,0:0:0:0:
4,48,52701,1,0,0:0:0:0:
512,192,52701,1,0,0:0:0:0:
0,192,52701,1,0,0:0:0:0:
60,48,52701,1,0,0:0:0:0:
452,48,52701,1,0,0:0:0:0:
512,192,52746,1,0,0:0:0:0:
0,192,52746,1,0,0:0:0:0:
508,100,52791,5,0,0:0:0:0:
452,100,52791,1,0,0:0:0:0:
228,100,52791,1,0,0:0:0:0:
284,100,52791,1,0,0:0:0:0:
4,100,52791,1,0,0:0:0:0:
60,100,52791,1,0,0:0:0:0:
512,192,52791,1,0,0:0:0:0:
0,192,52791,1,0,0:0:0:0:
340,100,52791,1,0,0:0:0:0:
396,100,52791,1,0,0:0:0:0:
512,192,52836,1,0,0:0:0:0:
0,192,52836,1,0,0:0:0:0:
508,148,52881,5,0,0:0:0:0:
228,148,52881,1,0,0:0:0:0:
396,148,52881,1,0,0:0:0:0:
4,148,52881,1,0,0:0:0:0:
284,148,52881,1,0,0:0:0:0:
172,148,52881,1,0,0:0:0:0:
512,192,52881,1,0,0:0:0:0:
0,192,52881,1,0,0:0:0:0:
340,148,52881,1,0,0:0:0:0:
452,148,52881,1,0,0:0:0:0:
512,192,52926,1,0,0:0:0:0:
0,192,52926,1,0,0:0:0:0:
508,200,52971,5,0,0:0:0:0:
228,200,52971,1,0,0:0:0:0:
452,200,52971,1,0,0:0:0:0:
340,200,52971,1,0,0:0:0:0:
60,200,52971,1,0,0:0:0:0:
4,200,52971,1,0,0:0:0:0:
512,192,52971,1,0,0:0:0:0:
0,192,52971,1,0,0:0:0:0:
396,200,52971,1,0,0:0:0:0:
284,200,52971,1,0,0:0:0:0:
512,192,53016,1,0,0:0:0:0:
0,192,53016,1,0,0:0:0:0:
508,244,53061,5,0,0:0:0:0:
396,244,53061,1,0,0:0:0:0:
4,244,53061,1,0,0:0:0:0:
452,244,53061,1,0,0:0:0:0:
116,244,53061,2,0,P|212:100|144:64,1,280
340,244,53061,1,0,0:0:0:0:
284,244,53061,2,0,P|380:100|312:64,1,280
512,192,53061,1,0,0:0:0:0:
60,244,53061,1,0,0:0:0:0:
0,192,53061,1,0,0:0:0:0:
256,68,53511,1,0,0:0:0:0:
256,192,58556,12,0,58646,0:0:0:0:
256,192,58736,12,0,58826,0:0:0:0:
256,192,58916,12,0,59186,0:0:0:0:
4,0,59276,5,0,0:0:0:0:
172,0,59276,1,0,0:0:0:0:
60,0,59276,1,0,0:0:0:0:
116,0,59276,1,0,0:0:0:0:
228,0,59276,1,0,0:0:0:0:
508,0,59456,5,0,0:0:0:0:
396,0,59456,1,0,0:0:0:0:
284,0,59456,1,0,0:0:0:0:
452,0,59456,1,0,0:0:0:0:
340,0,59456,1,0,0:0:0:0:
4,0,59636,5,0,0:0:0:0:
228,0,59636,1,0,0:0:0:0:
116,0,59636,1,0,0:0:0:0:
172,0,59636,1,0,0:0:0:0:
60,0,59636,1,0,0:0:0:0:
508,0,59816,5,0,0:0:0:0:
284,0,59816,1,0,0:0:0:0:
396,0,59816,1,0,0:0:0:0:
452,0,59816,1,0,0:0:0:0:
340,0,59816,1,0,0:0:0:0:
4,0,59996,5,0,0:0:0:0:
60,0,59996,1,0,0:0:0:0:
172,0,59996,1,0,0:0:0:0:
228,0,59996,1,0,0:0:0:0:
116,0,59996,1,0,0:0:0:0:
508,0,60176,5,0,0:0:0:0:
340,0,60176,1,0,0:0:0:0:
452,0,60176,1,0,0:0:0:0:
284,0,60176,1,0,0:0:0:0:
396,0,60176,1,0,0:0:0:0:
4,0,60357,5,0,0:0:0:0:
228,0,60357,1,0,0:0:0:0:
116,0,60357,1,0,0:0:0:0:
172,0,60357,1,0,0:0:0:0:
60,0,60357,1,0,0:0:0:0:
508,0,60537,5,0,0:0:0:0:
284,0,60537,1,0,0:0:0:0:
396,0,60537,1,0,0:0:0:0:
452,0,60537,1,0,0:0:0:0:
340,0,60537,1,0,0:0:0:0:
4,0,60717,5,0,0:0:0:0:
396,0,60717,1,0,0:0:0:0:
508,0,60717,1,0,0:0:0:0:
172,0,60717,1,0,0:0:0:0:
452,0,60717,1,0,0:0:0:0:
60,0,60717,1,0,0:0:0:0:
116,0,60717,1,0,0:0:0:0:
340,0,60717,1,0,0:0:0:0:
4,0,60897,5,0,0:0:0:0:
172,0,60897,1,0,0:0:0:0:
60,0,60897,1,0,0:0:0:0:
116,0,60897,1,0,0:0:0:0:
228,0,60897,1,0,0:0:0:0:
508,0,61077,5,0,0:0:0:0:
284,0,61077,1,0,0:0:0:0:
396,0,61077,1,0,0:0:0:0:
452,0,61077,1,0,0:0:0:0:
340,0,61077,1,0,0:0:0:0:
4,0,61257,5,0,0:0:0:0:
228,0,61257,1,0,0:0:0:0:
60,0,61257,1,0,0:0:0:0:
172,0,61257,1,0,0:0:0:0:
116,0,61257,1,0,0:0:0:0:
508,0,61437,5,0,0:0:0:0:
396,0,61437,1,0,0:0:0:0:
284,0,61437,1,0,0:0:0:0:
452,0,61437,1,0,0:0:0:0:
340,0,61437,1,0,0:0:0:0:
4,0,61617,5,0,0:0:0:0:
116,0,61617,1,0,0:0:0:0:
60,0,61617,1,0,0:0:0:0:
172,0,61617,1,0,0:0:0:0:
228,0,61617,1,0,0:0:0:0:
508,0,61797,5,0,0:0:0:0:
396,0,61797,1,0,0:0:0:0:
452,0,61797,1,0,0:0:0:0:
284,0,61797,1,0,0:0:0:0:
340,0,61797,1,0,0:0:0:0:
4,0,61978,5,0,0:0:0:0:
116,0,61978,1,0,0:0:0:0:
228,0,61978,1,0,0:0:0:0:
172,0,61978,1,0,0:0:0:0:
60,0,61978,1,0,0:0:0:0:
4,0,62158,5,0,0:0:0:0:
508,0,62158,1,0,0:0:0:0:
116,0,62158,1,0,0:0:0:0:
340,0,62158,1,0,0:0:0:0:
396,0,62158,1,0,0:0:0:0:
452,0,62158,1,0,0:0:0:0:
172,0,62158,1,0,0:0:0:0:
60,0,62158,1,0,0:0:0:0:
228,56,62339,1,0,0:0:0:0:
284,56,62339,1,0,0:0:0:0:
4,0,62519,5,0,0:0:0:0:
396,0,62519,1,0,0:0:0:0:
172,0,62519,1,0,0:0:0:0:
452,0,62519,1,0,0:0:0:0:
340,0,62519,1,0,0:0:0:0:
116,0,62519,1,0,0:0:0:0:
60,0,62519,1,0,0:0:0:0:
508,0,62519,1,0,0:0:0:0:
284,56,62700,1,0,0:0:0:0:
228,56,62700,1,0,0:0:0:0:
4,0,62879,5,0,0:0:0:0:
116,0,62879,1,0,0:0:0:0:
508,0,62879,1,0,0:0:0:0:
60,0,62879,1,0,0:0:0:0:
172,0,62879,1,0,0:0:0:0:
396,0,62879,1,0,0:0:0:0:
340,0,62879,1,0,0:0:0:0:
452,0,62879,1,0,0:0:0:0:
228,56,63060,1,0,0:0:0:0:
284,56,63060,1,0,0:0:0:0:
4,0,63239,5,0,0:0:0:0:
396,0,63239,1,0,0:0:0:0:
172,0,63239,1,0,0:0:0:0:
452,0,63239,1,0,0:0:0:0:
340,0,63239,1,0,0:0:0:0:
116,0,63239,1,0,0:0:0:0:
60,0,63239,1,0,0:0:0:0:
508,0,63239,1,0,0:0:0:0:
284,56,63420,1,0,0:0:0:0:
228,56,63420,1,0,0:0:0:0:
4,0,63600,5,0,0:0:0:0:
116,0,63600,1,0,0:0:0:0:
340,0,63600,1,0,0:0:0:0:
508,0,63600,1,0,0:0:0:0:
60,0,63600,1,0,0:0:0:0:
396,0,63600,1,0,0:0:0:0:
452,0,63600,1,0,0:0:0:0:
172,0,63600,1,0,0:0:0:0:
4,0,63780,5,0,0:0:0:0:
396,0,63780,1,0,0:0:0:0:
172,0,63780,1,0,0:0:0:0:
452,0,63780,1,0,0:0:0:0:
340,0,63780,1,0,0:0:0:0:
116,0,63780,1,0,0:0:0:0:
60,0,63780,1,0,0:0:0:0:
508,0,63780,1,0,0:0:0:0:
4,0,63960,5,0,0:0:0:0:
116,0,63960,1,0,0:0:0:0:
340,0,63960,1,0,0:0:0:0:
508,0,63960,1,0,0:0:0:0:
60,0,63960,1,0,0:0:0:0:
396,0,63960,1,0,0:0:0:0:
452,0,63960,1,0,0:0:0:0:
172,0,63960,1,0,0:0:0:0:
4,0,64140,5,0,0:0:0:0:
396,0,64140,1,0,0:0:0:0:
172,0,64140,1,0,0:0:0:0:
452,0,64140,1,0,0:0:0:0:
340,0,64140,1,0,0:0:0:0:
116,0,64140,1,0,0:0:0:0:
60,0,64140,1,0,0:0:0:0:
508,0,64140,1,0,0:0:0:0:
4,0,64321,5,0,0:0:0:0:
172,0,64321,1,0,0:0:0:0:
60,0,64321,1,0,0:0:0:0:
228,0,64321,1,0,0:0:0:0:
116,0,64321,1,0,0:0:0:0:
508,0,64411,5,0,0:0:0:0:
452,0,64411,1,0,0:0:0:0:
340,0,64411,1,0,0:0:0:0:
284,0,64411,1,0,0:0:0:0:
396,0,64411,1,0,0:0:0:0:
4,0,64501,5,0,0:0:0:0:
228,0,64501,1,0,0:0:0:0:
116,0,64501,1,0,0:0:0:0:
60,0,64501,1,0,0:0:0:0:
172,0,64501,1,0,0:0:0:0:
508,0,64591,5,0,0:0:0:0:
452,0,64591,1,0,0:0:0:0:
340,0,64591,1,0,0:0:0:0:
396,0,64591,1,0,0:0:0:0:
284,0,64591,1,0,0:0:0:0:
4,60,64681,5,0,0:0:0:0:
396,60,64681,1,0,0:0:0:0:
508,60,64681,1,0,0:0:0:0:
172,60,64681,1,0,0:0:0:0:
452,60,64681,1,0,0:0:0:0:
60,60,64681,1,0,0:0:0:0:
116,60,64681,1,0,0:0:0:0:
340,60,64681,1,0,0:0:0:0:
176,60,64692,1,0,0:0:0:0:
336,60,64692,1,0,0:0:0:0:
172,60,64703,1,0,0:0:0:0:
340,60,64703,1,0,0:0:0:0:
176,60,64715,1,0,0:0:0:0:
336,60,64715,1,0,0:0:0:0:
172,60,64726,1,0,0:0:0:0:
340,60,64726,1,0,0:0:0:0:
336,60,64737,1,0,0:0:0:0:
176,60,64737,1,0,0:0:0:0:
340,60,64748,1,0,0:0:0:0:
172,60,64748,1,0,0:0:0:0:
176,60,64760,1,0,0:0:0:0:
336,60,64760,1,0,0:0:0:0:
172,60,64771,1,0,0:0:0:0:
340,60,64771,1,0,0:0:0:0:
336,60,64782,1,0,0:0:0:0:
176,60,64782,1,0,0:0:0:0:
340,60,64793,1,0,0:0:0:0:
172,60,64793,1,0,0:0:0:0:
176,60,64805,1,0,0:0:0:0:
336,60,64805,1,0,0:0:0:0:
172,60,64816,1,0,0:0:0:0:
340,60,64816,1,0,0:0:0:0:
336,60,64827,1,0,0:0:0:0:
176,60,64827,1,0,0:0:0:0:
340,60,64838,1,0,0:0:0:0:
172,60,64838,1,0,0:0:0:0:
176,60,64850,1,0,0:0:0:0:
336,60,64850,1,0,0:0:0:0:
172,60,64861,1,0,0:0:0:0:
340,60,64861,1,0,0:0:0:0:
336,60,64872,1,0,0:0:0:0:
176,60,64872,1,0,0:0:0:0:
340,60,64883,1,0,0:0:0:0:
172,60,64883,1,0,0:0:0:0:
176,60,64895,1,0,0:0:0:0:
336,60,64895,1,0,0:0:0:0:
172,60,64906,1,0,0:0:0:0:
340,60,64906,1,0,0:0:0:0:
336,60,64917,1,0,0:0:0:0:
176,60,64917,1,0,0:0:0:0:
340,60,64928,1,0,0:0:0:0:
172,60,64928,1,0,0:0:0:0:
176,60,64940,1,0,0:0:0:0:
336,60,64940,1,0,0:0:0:0:
172,60,64951,1,0,0:0:0:0:
340,60,64951,1,0,0:0:0:0:
336,60,64962,1,0,0:0:0:0:
176,60,64962,1,0,0:0:0:0:
340,60,64973,1,0,0:0:0:0:
172,60,64973,1,0,0:0:0:0:
176,60,64985,1,0,0:0:0:0:
336,60,64985,1,0,0:0:0:0:
256,188,65041,2,0,L|136:188,1,105.000004005432
256,188,65041,2,0,L|376:188,1,105.000004005432
0,192,65221,2,0,L|120:192,1,105.000004005432
512,192,65221,2,0,L|392:192,1,105.000004005432
148,300,65402,1,0,0:0:0:0:
204,300,65402,1,0,0:0:0:0:
148,244,65447,1,0,0:0:0:0:
204,244,65447,1,0,0:0:0:0:
304,300,65492,1,0,0:0:0:0:
360,300,65492,1,0,0:0:0:0:
360,244,65537,1,0,0:0:0:0:
304,244,65537,1,0,0:0:0:0:
56,300,65582,1,0,0:0:0:0:
0,300,65582,1,0,0:0:0:0:
0,244,65627,1,0,0:0:0:0:
56,244,65627,1,0,0:0:0:0:
456,300,65672,1,0,0:0:0:0:
512,300,65672,1,0,0:0:0:0:
512,244,65717,1,0,0:0:0:0:
456,244,65717,1,0,0:0:0:0:
4,0,65762,5,0,0:0:0:0:
396,0,65762,1,0,0:0:0:0:
508,0,65762,1,0,0:0:0:0:
452,0,65762,1,0,0:0:0:0:
60,0,65762,1,0,0:0:0:0:
116,0,65762,1,0,0:0:0:0:
172,0,65762,2,0,L|248:92,1,105.000004005432
340,0,65762,2,0,L|416:92,1,105.000004005432
508,136,65942,5,0,0:0:0:0:
172,136,65942,2,0,L|96:228,1,105.000004005432
340,136,65942,2,0,L|264:228,1,105.000004005432
116,136,65942,1,0,0:0:0:0:
4,136,65942,1,0,0:0:0:0:
60,136,65942,1,0,0:0:0:0:
396,136,65942,1,0,0:0:0:0:
452,136,65942,1,0,0:0:0:0:
4,0,66122,5,0,0:0:0:0:
116,0,66122,1,0,0:0:0:0:
60,0,66122,1,0,0:0:0:0:
340,0,66122,2,0,L|416:92,1,105.000004005432
172,0,66122,2,0,L|248:92,1,105.000004005432
396,0,66122,1,0,0:0:0:0:
452,0,66122,1,0,0:0:0:0:
508,0,66122,1,0,0:0:0:0:
4,240,66303,5,0,0:0:0:0:
396,240,66303,1,0,0:0:0:0:
508,240,66303,1,0,0:0:0:0:
172,240,66303,1,0,0:0:0:0:
452,240,66303,1,0,0:0:0:0:
60,240,66303,1,0,0:0:0:0:
116,240,66303,1,0,0:0:0:0:
340,240,66303,1,0,0:0:0:0:
176,240,66333,1,0,0:0:0:0:
336,240,66333,1,0,0:0:0:0:
172,240,66363,1,0,0:0:0:0:
340,240,66363,1,0,0:0:0:0:
176,240,66393,1,0,0:0:0:0:
336,240,66393,1,0,0:0:0:0:
340,240,66423,1,0,0:0:0:0:
172,240,66423,1,0,0:0:0:0:
256,192,66483,2,0,L|116:192,1,105.000004005432
256,192,66483,2,0,L|396:192,1,105.000004005432
256,192,66663,1,0,0:0:0:0:
4,188,66663,1,0,0:0:0:0:
508,188,66663,1,0,0:0:0:0:
256,192,66708,1,0,0:0:0:0:
4,188,66708,1,0,0:0:0:0:
508,188,66708,1,0,0:0:0:0:
256,192,66753,1,0,0:0:0:0:
4,188,66753,1,0,0:0:0:0:
508,188,66753,1,0,0:0:0:0:
4,188,66798,1,0,0:0:0:0:
508,188,66798,1,0,0:0:0:0:
172,188,66843,1,0,0:0:0:0:
4,188,66843,1,0,0:0:0:0:
116,188,66843,1,0,0:0:0:0:
60,188,66843,1,0,0:0:0:0:
508,188,66843,1,0,0:0:0:0:
452,188,66843,1,0,0:0:0:0:
396,188,66843,1,0,0:0:0:0:
340,188,66843,1,0,0:0:0:0:
172,188,66888,1,0,0:0:0:0:
340,188,66888,1,0,0:0:0:0:
172,188,66933,1,0,0:0:0:0:
340,188,66933,1,0,0:0:0:0:
172,188,66978,1,0,0:0:0:0:
340,188,66978,1,0,0:0:0:0:
508,188,67023,1,0,0:0:0:0:
340,188,67023,1,0,0:0:0:0:
396,188,67023,1,0,0:0:0:0:
4,188,67023,1,0,0:0:0:0:
116,188,67023,1,0,0:0:0:0:
60,188,67023,1,0,0:0:0:0:
172,188,67023,1,0,0:0:0:0:
452,188,67023,1,0,0:0:0:0:
256,192,67068,1,0,0:0:0:0:
4,188,67068,1,0,0:0:0:0:
508,188,67068,1,0,0:0:0:0:
256,192,67113,1,0,0:0:0:0:
508,188,67113,1,0,0:0:0:0:
4,188,67113,1,0,0:0:0:0:
4,188,67158,1,0,0:0:0:0:
508,188,67158,1,0,0:0:0:0:
452,188,67203,1,0,0:0:0:0:
508,188,67203,1,0,0:0:0:0:
340,188,67203,1,0,0:0:0:0:
396,188,67203,1,0,0:0:0:0:
4,188,67203,1,0,0:0:0:0:
172,188,67203,1,0,0:0:0:0:
60,188,67203,1,0,0:0:0:0:
116,188,67203,1,0,0:0:0:0:
172,188,67248,1,0,0:0:0:0:
340,188,67248,1,0,0:0:0:0:
340,188,67293,1,0,0:0:0:0:
172,188,67293,1,0,0:0:0:0:
172,188,67338,1,0,0:0:0:0:
340,188,67338,1,0,0:0:0:0:
60,188,67383,1,0,0:0:0:0:
116,188,67383,1,0,0:0:0:0:
452,188,67383,1,0,0:0:0:0:
172,188,67383,1,0,0:0:0:0:
340,188,67383,1,0,0:0:0:0:
508,188,67383,1,0,0:0:0:0:
4,188,67383,1,0,0:0:0:0:
396,188,67383,1,0,0:0:0:0:
508,188,67429,1,0,0:0:0:0:
4,188,67429,1,0,0:0:0:0:
256,192,67429,1,0,0:0:0:0:
4,188,67474,1,0,0:0:0:0:
508,188,67474,1,0,0:0:0:0:
256,192,67474,1,0,0:0:0:0:
508,188,67519,1,0,0:0:0:0:
4,188,67519,1,0,0:0:0:0:
172,188,67564,1,0,0:0:0:0:
4,188,67564,1,0,0:0:0:0:
116,188,67564,1,0,0:0:0:0:
60,188,67564,1,0,0:0:0:0:
508,188,67564,1,0,0:0:0:0:
452,188,67564,1,0,0:0:0:0:
396,188,67564,1,0,0:0:0:0:
340,188,67564,1,0,0:0:0:0:
312,264,67744,1,0,0:0:0:0:
256,264,67744,1,0,0:0:0:0:
200,264,67744,1,0,0:0:0:0:
200,264,67774,1,0,0:0:0:0:
256,264,67774,1,0,0:0:0:0:
312,264,67774,1,0,0:0:0:0:
312,264,67804,1,0,0:0:0:0:
256,264,67804,1,0,0:0:0:0:
200,264,67804,1,0,0:0:0:0:
200,264,67834,1,0,0:0:0:0:
256,264,67834,1,0,0:0:0:0:
312,264,67834,1,0,0:0:0:0:
312,264,67864,1,0,0:0:0:0:
256,264,67864,1,0,0:0:0:0:
200,264,67864,1,0,0:0:0:0:
200,264,67894,1,0,0:0:0:0:
256,264,67894,1,0,0:0:0:0:
312,264,67894,1,0,0:0:0:0:
4,0,67924,5,0,0:0:0:0:
284,0,67924,1,0,0:0:0:0:
508,0,67924,1,0,0:0:0:0:
172,0,67924,1,0,0:0:0:0:
340,0,67924,1,0,0:0:0:0:
228,0,67924,1,0,0:0:0:0:
4,56,68014,5,0,0:0:0:0:
228,56,68014,1,0,0:0:0:0:
340,56,68014,1,0,0:0:0:0:
284,56,68014,1,0,0:0:0:0:
508,56,68014,1,0,0:0:0:0:
172,56,68014,1,0,0:0:0:0:
4,112,68104,5,0,0:0:0:0:
396,112,68104,1,0,0:0:0:0:
508,112,68104,1,0,0:0:0:0:
452,112,68104,1,0,0:0:0:0:
60,112,68104,1,0,0:0:0:0:
116,112,68104,1,0,0:0:0:0:
4,168,68194,5,0,0:0:0:0:
60,168,68194,1,0,0:0:0:0:
116,168,68194,1,0,0:0:0:0:
396,168,68194,1,0,0:0:0:0:
508,168,68194,1,0,0:0:0:0:
452,168,68194,1,0,0:0:0:0:
4,224,68285,5,0,0:0:0:0:
116,224,68285,1,0,0:0:0:0:
60,224,68285,1,0,0:0:0:0:
340,224,68285,1,0,0:0:0:0:
508,224,68285,1,0,0:0:0:0:
396,224,68285,1,0,0:0:0:0:
452,224,68285,1,0,0:0:0:0:
172,224,68285,1,0,0:0:0:0:
4,272,68375,5,0,0:0:0:0:
508,272,68375,1,0,0:0:0:0:
396,272,68375,1,0,0:0:0:0:
172,272,68375,1,0,0:0:0:0:
452,272,68375,1,0,0:0:0:0:
116,272,68375,1,0,0:0:0:0:
60,272,68375,1,0,0:0:0:0:
340,272,68375,1,0,0:0:0:0:
4,308,68465,5,0,0:0:0:0:
508,308,68465,1,0,0:0:0:0:
452,308,68465,1,0,0:0:0:0:
60,308,68465,1,0,0:0:0:0:
228,308,68465,1,0,0:0:0:0:
284,308,68465,1,0,0:0:0:0:
4,340,68555,5,0,0:0:0:0:
60,340,68555,1,0,0:0:0:0:
228,340,68555,1,0,0:0:0:0:
284,340,68555,1,0,0:0:0:0:
508,340,68555,1,0,0:0:0:0:
452,340,68555,1,0,0:0:0:0:
4,0,68645,5,0,0:0:0:0:
396,0,68645,1,0,0:0:0:0:
508,0,68645,1,0,0:0:0:0:
452,0,68645,1,0,0:0:0:0:
60,0,68645,1,0,0:0:0:0:
116,0,68645,1,0,0:0:0:0:
172,0,68645,2,0,L|172:124,1,105.000004005432
340,0,68645,2,0,L|340:120,1,105.000004005432
220,192,68825,2,0,P|220:48|220:40,1,105.000004005432
292,192,68825,2,0,L|292:80,1,105.000004005432
4,0,69005,5,0,0:0:0:0:
452,0,69005,1,0,0:0:0:0:
508,0,69005,1,0,0:0:0:0:
60,0,69005,1,0,0:0:0:0:
116,0,69005,1,0,0:0:0:0:
340,0,69005,2,0,L|340:120,1,105.000004005432
396,0,69005,1,0,0:0:0:0:
172,0,69005,2,0,L|172:124,1,105.000004005432
256,192,69185,1,0,0:0:0:0:
312,192,69185,1,0,0:0:0:0:
200,192,69185,1,0,0:0:0:0:
200,192,69215,1,0,0:0:0:0:
312,192,69215,1,0,0:0:0:0:
256,192,69215,1,0,0:0:0:0:
256,192,69245,1,0,0:0:0:0:
312,192,69245,1,0,0:0:0:0:
200,192,69245,1,0,0:0:0:0:
200,192,69275,1,0,0:0:0:0:
312,192,69275,1,0,0:0:0:0:
256,192,69275,1,0,0:0:0:0:
256,192,69306,1,0,0:0:0:0:
312,192,69306,1,0,0:0:0:0:
200,192,69306,1,0,0:0:0:0:
200,192,69336,1,0,0:0:0:0:
312,192,69336,1,0,0:0:0:0:
256,192,69336,1,0,0:0:0:0:
4,0,69366,5,0,0:0:0:0:
172,0,69366,1,0,0:0:0:0:
284,0,69366,1,0,0:0:0:0:
508,0,69366,1,0,0:0:0:0:
340,0,69366,1,0,0:0:0:0:
228,0,69366,1,0,0:0:0:0:
4,56,69456,5,0,0:0:0:0:
284,56,69456,1,0,0:0:0:0:
508,56,69456,1,0,0:0:0:0:
172,56,69456,1,0,0:0:0:0:
228,56,69456,1,0,0:0:0:0:
340,56,69456,1,0,0:0:0:0:
4,112,69546,5,0,0:0:0:0:
452,112,69546,1,0,0:0:0:0:
396,112,69546,1,0,0:0:0:0:
508,112,69546,1,0,0:0:0:0:
60,112,69546,1,0,0:0:0:0:
116,112,69546,1,0,0:0:0:0:
4,168,69636,5,0,0:0:0:0:
396,168,69636,1,0,0:0:0:0:
508,168,69636,1,0,0:0:0:0:
452,168,69636,1,0,0:0:0:0:
60,168,69636,1,0,0:0:0:0:
116,168,69636,1,0,0:0:0:0:
4,224,69727,5,0,0:0:0:0:
116,224,69727,1,0,0:0:0:0:
508,224,69727,1,0,0:0:0:0:
340,224,69727,1,0,0:0:0:0:
60,224,69727,1,0,0:0:0:0:
396,224,69727,1,0,0:0:0:0:
172,224,69727,1,0,0:0:0:0:
452,224,69727,1,0,0:0:0:0:
4,272,69817,5,0,0:0:0:0:
116,272,69817,1,0,0:0:0:0:
452,272,69817,1,0,0:0:0:0:
340,272,69817,1,0,0:0:0:0:
60,272,69817,1,0,0:0:0:0:
508,272,69817,1,0,0:0:0:0:
172,272,69817,1,0,0:0:0:0:
396,272,69817,1,0,0:0:0:0:
4,308,69907,5,0,0:0:0:0:
60,308,69907,1,0,0:0:0:0:
508,308,69907,1,0,0:0:0:0:
452,308,69907,1,0,0:0:0:0:
228,308,69907,1,0,0:0:0:0:
284,308,69907,1,0,0:0:0:0:
228,308,69996,1,0,0:0:0:0:
284,308,69996,1,0,0:0:0:0:
340,308,69996,1,0,0:0:0:0:
396,308,69996,1,0,0:0:0:0:
4,340,69997,5,0,0:0:0:0:
284,340,69997,1,0,0:0:0:0:
508,340,69997,1,0,0:0:0:0:
452,340,69997,1,0,0:0:0:0:
60,340,69997,1,0,0:0:0:0:
228,340,69997,1,0,0:0:0:0:
284,308,70041,1,0,0:0:0:0:
228,308,70041,1,0,0:0:0:0:
396,308,70042,1,0,0:0:0:0:
340,308,70042,1,0,0:0:0:0:
116,340,70086,1,0,0:0:0:0:
284,308,70086,1,0,0:0:0:0:
228,308,70086,1,0,0:0:0:0:
396,340,70086,1,0,0:0:0:0:
340,340,70086,1,0,0:0:0:0:
172,340,70086,1,0,0:0:0:0:
172,340,70116,1,0,0:0:0:0:
116,340,70116,1,0,0:0:0:0:
396,340,70116,1,0,0:0:0:0:
340,340,70116,1,0,0:0:0:0:
228,308,70131,1,0,0:0:0:0:
284,308,70131,1,0,0:0:0:0:
396,340,70146,1,0,0:0:0:0:
340,340,70146,1,0,0:0:0:0:
172,340,70146,1,0,0:0:0:0:
116,340,70146,1,0,0:0:0:0:
228,308,70176,1,0,0:0:0:0:
284,308,70176,1,0,0:0:0:0:
172,340,70176,1,0,0:0:0:0:
116,340,70176,1,0,0:0:0:0:
396,340,70176,1,0,0:0:0:0:
340,340,70176,1,0,0:0:0:0:
340,308,70176,1,0,0:0:0:0:
396,308,70176,1,0,0:0:0:0:
396,340,70206,1,0,0:0:0:0:
340,340,70206,1,0,0:0:0:0:
172,340,70206,1,0,0:0:0:0:
116,340,70206,1,0,0:0:0:0:
284,308,70221,1,0,0:0:0:0:
228,308,70221,1,0,0:0:0:0:
340,308,70221,1,0,0:0:0:0:
396,308,70221,1,0,0:0:0:0:
172,340,70236,1,0,0:0:0:0:
116,340,70236,1,0,0:0:0:0:
396,340,70236,1,0,0:0:0:0:
340,340,70236,1,0,0:0:0:0:
228,308,70266,1,0,0:0:0:0:
284,308,70266,1,0,0:0:0:0:
116,340,70266,1,0,0:0:0:0:
172,340,70266,1,0,0:0:0:0:
60,340,70266,1,0,0:0:0:0:
452,340,70266,1,0,0:0:0:0:
340,340,70266,1,0,0:0:0:0:
396,340,70266,1,0,0:0:0:0:
396,308,70266,1,0,0:0:0:0:
340,308,70266,1,0,0:0:0:0:
452,340,70297,1,0,0:0:0:0:
340,340,70297,1,0,0:0:0:0:
396,340,70297,1,0,0:0:0:0:
116,340,70297,1,0,0:0:0:0:
172,340,70297,1,0,0:0:0:0:
60,340,70297,1,0,0:0:0:0:
284,308,70311,1,0,0:0:0:0:
228,308,70311,1,0,0:0:0:0:
396,308,70311,1,0,0:0:0:0:
340,308,70311,1,0,0:0:0:0:
116,340,70327,1,0,0:0:0:0:
172,340,70327,1,0,0:0:0:0:
60,340,70327,1,0,0:0:0:0:
452,340,70327,1,0,0:0:0:0:
340,340,70327,1,0,0:0:0:0:
396,340,70327,1,0,0:0:0:0:
340,308,70356,1,0,0:0:0:0:
396,308,70356,1,0,0:0:0:0:
452,340,70357,1,0,0:0:0:0:
340,340,70357,1,0,0:0:0:0:
396,340,70357,1,0,0:0:0:0:
116,340,70357,1,0,0:0:0:0:
172,340,70357,1,0,0:0:0:0:
60,340,70357,1,0,0:0:0:0:
116,340,70387,1,0,0:0:0:0:
172,340,70387,1,0,0:0:0:0:
60,340,70387,1,0,0:0:0:0:
452,340,70387,1,0,0:0:0:0:
340,340,70387,1,0,0:0:0:0:
396,340,70387,1,0,0:0:0:0:
396,308,70401,1,0,0:0:0:0:
340,308,70401,1,0,0:0:0:0:
340,340,70417,1,0,0:0:0:0:
396,340,70417,1,0,0:0:0:0:
116,340,70417,1,0,0:0:0:0:
172,340,70417,1,0,0:0:0:0:
340,308,70446,1,0,0:0:0:0:
396,308,70446,1,0,0:0:0:0:
4,192,70447,1,0,0:0:0:0:
508,192,70447,1,0,0:0:0:0:
396,0,70807,1,0,0:0:0:0:
284,0,70807,1,0,0:0:0:0:
508,0,70807,1,0,0:0:0:0:
172,0,70807,1,0,0:0:0:0:
452,0,70807,1,0,0:0:0:0:
116,0,70807,1,0,0:0:0:0:
340,0,70807,1,0,0:0:0:0:
228,0,70807,1,0,0:0:0:0:
116,0,70897,1,0,0:0:0:0:
452,0,70897,1,0,0:0:0:0:
228,0,70897,1,0,0:0:0:0:
340,0,70897,1,0,0:0:0:0:
284,0,70897,1,0,0:0:0:0:
396,0,70897,1,0,0:0:0:0:
172,0,70897,1,0,0:0:0:0:
508,0,70897,1,0,0:0:0:0:
4,52,70987,5,0,0:0:0:0:
60,52,70987,1,0,0:0:0:0:
228,52,70987,1,0,0:0:0:0:
340,52,70987,1,0,0:0:0:0:
284,52,70987,1,0,0:0:0:0:
396,52,70987,1,0,0:0:0:0:
508,52,70987,1,0,0:0:0:0:
452,52,70987,1,0,0:0:0:0:
4,52,71077,5,0,0:0:0:0:
396,52,71077,1,0,0:0:0:0:
284,52,71077,1,0,0:0:0:0:
452,52,71077,1,0,0:0:0:0:
508,52,71077,1,0,0:0:0:0:
60,52,71077,1,0,0:0:0:0:
340,52,71077,1,0,0:0:0:0:
228,52,71077,1,0,0:0:0:0:
4,104,71167,5,0,0:0:0:0:
396,104,71167,1,0,0:0:0:0:
508,104,71167,1,0,0:0:0:0:
172,104,71167,1,0,0:0:0:0:
452,104,71167,1,0,0:0:0:0:
60,104,71167,1,0,0:0:0:0:
116,104,71167,1,0,0:0:0:0:
340,104,71167,1,0,0:0:0:0:
4,104,71257,5,0,0:0:0:0:
60,104,71257,1,0,0:0:0:0:
452,104,71257,1,0,0:0:0:0:
340,104,71257,1,0,0:0:0:0:
116,104,71257,1,0,0:0:0:0:
396,104,71257,1,0,0:0:0:0:
172,104,71257,1,0,0:0:0:0:
508,104,71257,1,0,0:0:0:0:
4,156,71348,5,0,0:0:0:0:
60,156,71348,1,0,0:0:0:0:
116,156,71348,1,0,0:0:0:0:
228,156,71348,1,0,0:0:0:0:
284,156,71348,1,0,0:0:0:0:
508,156,71348,1,0,0:0:0:0:
452,156,71348,1,0,0:0:0:0:
172,156,71348,1,0,0:0:0:0:
4,212,71438,5,0,0:0:0:0:
284,212,71438,1,0,0:0:0:0:
508,212,71438,1,0,0:0:0:0:
172,212,71438,1,0,0:0:0:0:
60,212,71438,1,0,0:0:0:0:
116,212,71438,1,0,0:0:0:0:
340,212,71438,1,0,0:0:0:0:
228,212,71438,1,0,0:0:0:0:
512,304,71528,1,0,0:0:0:0:
512,304,71573,1,0,0:0:0:0:
512,304,71618,1,0,0:0:0:0:
512,304,71663,1,0,0:0:0:0:
512,304,71708,1,0,0:0:0:0:
456,304,71708,1,0,0:0:0:0:
456,304,71753,1,0,0:0:0:0:
512,304,71753,1,0,0:0:0:0:
512,304,71798,1,0,0:0:0:0:
456,304,71798,1,0,0:0:0:0:
456,304,71843,1,0,0:0:0:0:
512,304,71843,1,0,0:0:0:0:
456,304,71888,1,0,0:0:0:0:
512,304,71888,1,0,0:0:0:0:
400,304,71888,1,0,0:0:0:0:
400,304,71933,1,0,0:0:0:0:
512,304,71933,1,0,0:0:0:0:
456,304,71933,1,0,0:0:0:0:
456,304,71978,1,0,0:0:0:0:
512,304,71978,1,0,0:0:0:0:
400,304,71978,1,0,0:0:0:0:
400,304,72023,1,0,0:0:0:0:
512,304,72023,1,0,0:0:0:0:
456,304,72023,1,0,0:0:0:0:
400,304,72068,1,0,0:0:0:0:
512,304,72068,1,0,0:0:0:0:
456,304,72068,1,0,0:0:0:0:
344,304,72068,1,0,0:0:0:0:
456,304,72113,1,0,0:0:0:0:
344,304,72113,1,0,0:0:0:0:
400,304,72113,1,0,0:0:0:0:
512,304,72113,1,0,0:0:0:0:
116,0,72248,1,0,0:0:0:0:
228,0,72248,1,0,0:0:0:0:
4,0,72248,1,0,0:0:0:0:
340,0,72248,1,0,0:0:0:0:
60,0,72248,1,0,0:0:0:0:
396,0,72248,1,0,0:0:0:0:
172,0,72248,1,0,0:0:0:0:
284,0,72248,1,0,0:0:0:0:
116,0,72338,1,0,0:0:0:0:
228,0,72338,1,0,0:0:0:0:
4,0,72338,1,0,0:0:0:0:
340,0,72338,1,0,0:0:0:0:
60,0,72338,1,0,0:0:0:0:
396,0,72338,1,0,0:0:0:0:
172,0,72338,1,0,0:0:0:0:
284,0,72338,1,0,0:0:0:0:
508,52,72428,5,0,0:0:0:0:
452,52,72428,1,0,0:0:0:0:
228,52,72428,1,0,0:0:0:0:
172,52,72428,1,0,0:0:0:0:
284,52,72428,1,0,0:0:0:0:
116,52,72428,1,0,0:0:0:0:
60,52,72428,1,0,0:0:0:0:
4,52,72428,1,0,0:0:0:0:
508,52,72518,5,0,0:0:0:0:
452,52,72518,1,0,0:0:0:0:
4,52,72518,1,0,0:0:0:0:
284,52,72518,1,0,0:0:0:0:
172,52,72518,1,0,0:0:0:0:
116,52,72518,1,0,0:0:0:0:
60,52,72518,1,0,0:0:0:0:
228,52,72518,1,0,0:0:0:0:
508,104,72608,5,0,0:0:0:0:
452,104,72608,1,0,0:0:0:0:
60,104,72608,1,0,0:0:0:0:
172,104,72608,1,0,0:0:0:0:
396,104,72608,1,0,0:0:0:0:
116,104,72608,1,0,0:0:0:0:
340,104,72608,1,0,0:0:0:0:
4,104,72608,1,0,0:0:0:0:
508,104,72698,5,0,0:0:0:0:
452,104,72698,1,0,0:0:0:0:
396,104,72698,1,0,0:0:0:0:
172,104,72698,1,0,0:0:0:0:
60,104,72698,1,0,0:0:0:0:
116,104,72698,1,0,0:0:0:0:
4,104,72698,1,0,0:0:0:0:
340,104,72698,1,0,0:0:0:0:
508,156,72789,5,0,0:0:0:0:
4,156,72789,1,0,0:0:0:0:
228,156,72789,1,0,0:0:0:0:
340,156,72789,1,0,0:0:0:0:
60,156,72789,1,0,0:0:0:0:
452,156,72789,1,0,0:0:0:0:
284,156,72789,1,0,0:0:0:0:
396,156,72789,1,0,0:0:0:0:
508,212,72879,5,0,0:0:0:0:
228,212,72879,1,0,0:0:0:0:
452,212,72879,1,0,0:0:0:0:
340,212,72879,1,0,0:0:0:0:
4,212,72879,1,0,0:0:0:0:
396,212,72879,1,0,0:0:0:0:
284,212,72879,1,0,0:0:0:0:
172,212,72879,1,0,0:0:0:0:
0,304,72969,1,0,0:0:0:0:
0,304,73014,1,0,0:0:0:0:
0,304,73059,1,0,0:0:0:0:
0,304,73104,1,0,0:0:0:0:
56,304,73149,1,0,0:0:0:0:
0,304,73149,1,0,0:0:0:0:
0,304,73194,1,0,0:0:0:0:
56,304,73194,1,0,0:0:0:0:
56,304,73239,1,0,0:0:0:0:
0,304,73239,1,0,0:0:0:0:
0,304,73284,1,0,0:0:0:0:
56,304,73284,1,0,0:0:0:0:
56,304,73329,1,0,0:0:0:0:
0,304,73329,1,0,0:0:0:0:
112,304,73329,1,0,0:0:0:0:
56,304,73374,1,0,0:0:0:0:
0,304,73374,1,0,0:0:0:0:
112,304,73374,1,0,0:0:0:0:
56,304,73419,1,0,0:0:0:0:
0,304,73419,1,0,0:0:0:0:
112,304,73419,1,0,0:0:0:0:
56,304,73464,1,0,0:0:0:0:
0,304,73464,1,0,0:0:0:0:
112,304,73464,1,0,0:0:0:0:
112,304,73509,1,0,0:0:0:0:
0,304,73509,1,0,0:0:0:0:
56,304,73509,1,0,0:0:0:0:
168,304,73509,1,0,0:0:0:0:
112,304,73554,1,0,0:0:0:0:
0,304,73554,1,0,0:0:0:0:
56,304,73554,1,0,0:0:0:0:
168,304,73554,1,0,0:0:0:0:
4,0,73690,5,0,0:0:0:0:
396,0,73690,1,0,0:0:0:0:
284,0,73690,1,0,0:0:0:0:
508,0,73690,1,0,0:0:0:0:
452,0,73690,1,0,0:0:0:0:
60,0,73690,1,0,0:0:0:0:
116,0,73690,1,0,0:0:0:0:
340,0,73690,1,0,0:0:0:0:
4,0,73780,5,0,0:0:0:0:
452,0,73780,1,0,0:0:0:0:
340,0,73780,1,0,0:0:0:0:
508,0,73780,1,0,0:0:0:0:
284,0,73780,1,0,0:0:0:0:
116,0,73780,1,0,0:0:0:0:
396,0,73780,1,0,0:0:0:0:
60,0,73780,1,0,0:0:0:0:
4,48,73870,5,0,0:0:0:0:
60,48,73870,1,0,0:0:0:0:
116,48,73870,1,0,0:0:0:0:
228,48,73870,1,0,0:0:0:0:
396,48,73870,1,0,0:0:0:0:
508,48,73870,1,0,0:0:0:0:
452,48,73870,1,0,0:0:0:0:
172,48,73870,1,0,0:0:0:0:
4,48,73960,5,0,0:0:0:0:
508,48,73960,1,0,0:0:0:0:
396,48,73960,1,0,0:0:0:0:
172,48,73960,1,0,0:0:0:0:
452,48,73960,1,0,0:0:0:0:
60,48,73960,1,0,0:0:0:0:
228,48,73960,1,0,0:0:0:0:
116,48,73960,1,0,0:0:0:0:
4,0,74050,5,0,0:0:0:0:
508,0,74050,1,0,0:0:0:0:
116,0,74050,1,0,0:0:0:0:
396,0,74050,1,0,0:0:0:0:
284,0,74050,1,0,0:0:0:0:
340,0,74050,1,0,0:0:0:0:
60,0,74050,1,0,0:0:0:0:
452,0,74050,1,0,0:0:0:0:
4,0,74140,5,0,0:0:0:0:
60,0,74140,1,0,0:0:0:0:
396,0,74140,1,0,0:0:0:0:
116,0,74140,1,0,0:0:0:0:
284,0,74140,1,0,0:0:0:0:
508,0,74140,1,0,0:0:0:0:
452,0,74140,1,0,0:0:0:0:
340,0,74140,1,0,0:0:0:0:
4,48,74230,5,0,0:0:0:0:
116,48,74230,1,0,0:0:0:0:
60,48,74230,1,0,0:0:0:0:
452,48,74230,1,0,0:0:0:0:
508,48,74230,1,0,0:0:0:0:
396,48,74230,1,0,0:0:0:0:
228,48,74230,1,0,0:0:0:0:
172,48,74230,1,0,0:0:0:0:
4,48,74320,5,0,0:0:0:0:
60,48,74320,1,0,0:0:0:0:
116,48,74320,1,0,0:0:0:0:
172,48,74320,1,0,0:0:0:0:
228,48,74320,1,0,0:0:0:0:
396,48,74320,1,0,0:0:0:0:
452,48,74320,1,0,0:0:0:0:
508,48,74320,1,0,0:0:0:0:
256,192,74411,1,0,0:0:0:0:
256,192,74456,1,0,0:0:0:0:
256,192,74501,1,0,0:0:0:0:
256,192,74546,1,0,0:0:0:0:
284,144,74591,1,0,0:0:0:0:
228,144,74591,1,0,0:0:0:0:
228,144,74636,1,0,0:0:0:0:
284,144,74636,1,0,0:0:0:0:
284,144,74681,1,0,0:0:0:0:
228,144,74681,1,0,0:0:0:0:
228,144,74726,1,0,0:0:0:0:
284,144,74726,1,0,0:0:0:0:
256,192,74771,1,0,0:0:0:0:
200,192,74771,1,0,0:0:0:0:
312,192,74771,1,0,0:0:0:0:
312,192,74816,1,0,0:0:0:0:
200,192,74816,1,0,0:0:0:0:
256,192,74816,1,0,0:0:0:0:
256,192,74861,1,0,0:0:0:0:
200,192,74861,1,0,0:0:0:0:
312,192,74861,1,0,0:0:0:0:
312,192,74906,1,0,0:0:0:0:
200,192,74906,1,0,0:0:0:0:
256,192,74906,1,0,0:0:0:0:
228,240,74951,1,0,0:0:0:0:
340,240,74951,1,0,0:0:0:0:
284,240,74951,1,0,0:0:0:0:
172,240,74951,1,0,0:0:0:0:
284,240,74996,1,0,0:0:0:0:
172,240,74996,1,0,0:0:0:0:
228,240,74996,1,0,0:0:0:0:
340,240,74996,1,0,0:0:0:0:
508,0,75131,5,0,0:0:0:0:
116,0,75131,1,0,0:0:0:0:
60,0,75131,1,0,0:0:0:0:
4,0,75131,1,0,0:0:0:0:
228,0,75131,1,0,0:0:0:0:
452,0,75131,1,0,0:0:0:0:
172,0,75131,1,0,0:0:0:0:
396,0,75131,1,0,0:0:0:0:
508,0,75221,5,0,0:0:0:0:
396,0,75221,1,0,0:0:0:0:
228,0,75221,1,0,0:0:0:0:
452,0,75221,1,0,0:0:0:0:
116,0,75221,1,0,0:0:0:0:
60,0,75221,1,0,0:0:0:0:
4,0,75221,1,0,0:0:0:0:
172,0,75221,1,0,0:0:0:0:
508,48,75311,5,0,0:0:0:0:
452,48,75311,1,0,0:0:0:0:
116,48,75311,1,0,0:0:0:0:
284,48,75311,1,0,0:0:0:0:
396,48,75311,1,0,0:0:0:0:
4,48,75311,1,0,0:0:0:0:
340,48,75311,1,0,0:0:0:0:
60,48,75311,1,0,0:0:0:0:
508,48,75401,5,0,0:0:0:0:
452,48,75401,1,0,0:0:0:0:
60,48,75401,1,0,0:0:0:0:
396,48,75401,1,0,0:0:0:0:
284,48,75401,1,0,0:0:0:0:
4,48,75401,1,0,0:0:0:0:
340,48,75401,1,0,0:0:0:0:
116,48,75401,1,0,0:0:0:0:
508,0,75491,5,0,0:0:0:0:
4,0,75491,1,0,0:0:0:0:
228,0,75491,1,0,0:0:0:0:
116,0,75491,1,0,0:0:0:0:
396,0,75491,1,0,0:0:0:0:
172,0,75491,1,0,0:0:0:0:
60,0,75491,1,0,0:0:0:0:
452,0,75491,1,0,0:0:0:0:
508,0,75581,5,0,0:0:0:0:
4,0,75581,1,0,0:0:0:0:
228,0,75581,1,0,0:0:0:0:
172,0,75581,1,0,0:0:0:0:
60,0,75581,1,0,0:0:0:0:
452,0,75581,1,0,0:0:0:0:
396,0,75581,1,0,0:0:0:0:
116,0,75581,1,0,0:0:0:0:
508,48,75671,5,0,0:0:0:0:
396,48,75671,1,0,0:0:0:0:
4,48,75671,1,0,0:0:0:0:
60,48,75671,1,0,0:0:0:0:
452,48,75671,1,0,0:0:0:0:
116,48,75671,1,0,0:0:0:0:
340,48,75671,1,0,0:0:0:0:
284,48,75671,1,0,0:0:0:0:
508,48,75761,5,0,0:0:0:0:
452,48,75761,1,0,0:0:0:0:
284,48,75761,1,0,0:0:0:0:
340,48,75761,1,0,0:0:0:0:
396,48,75761,1,0,0:0:0:0:
116,48,75761,1,0,0:0:0:0:
4,48,75761,1,0,0:0:0:0:
60,48,75761,1,0,0:0:0:0:
256,192,75852,1,0,0:0:0:0:
256,192,75897,1,0,0:0:0:0:
256,192,75942,1,0,0:0:0:0:
256,192,75987,1,0,0:0:0:0:
284,144,76032,1,0,0:0:0:0:
228,144,76032,1,0,0:0:0:0:
284,144,76077,1,0,0:0:0:0:
228,144,76077,1,0,0:0:0:0:
284,144,76122,1,0,0:0:0:0:
228,144,76122,1,0,0:0:0:0:
284,144,76167,1,0,0:0:0:0:
228,144,76167,1,0,0:0:0:0:
256,192,76212,12,0,76483,0:0:0:0:
256,192,86663,12,0,87924,0:0:0:0:
256,192,88104,5,0,0:0:0:0:
256,192,88104,5,0,0:0:0:0:
308,192,88284,1,0,0:0:0:0:
204,192,88284,1,0,0:0:0:0:
360,192,88374,1,0,0:0:0:0:
152,192,88374,1,0,0:0:0:0:
416,192,88464,2,0,P|448:136|424:112,1,105
96,192,88464,2,0,P|64:136|88:112,1,105
512,96,88825,2,0,L|308:36,1,210
0,96,88825,2,0,L|204:36,1,210
256,192,89545,1,0,0:0:0:0:
256,192,89545,1,0,0:0:0:0:
256,192,89636,1,0,0:0:0:0:
256,192,89636,1,0,0:0:0:0:
256,192,89726,1,0,0:0:0:0:
256,192,89726,1,0,0:0:0:0:
256,192,89816,1,0,0:0:0:0:
256,192,89816,1,0,0:0:0:0:
256,192,89906,2,0,L|388:192,1,105
256,192,89906,2,0,L|124:192,1,105
512,192,90266,2,0,L|424:192,1,70
0,192,90266,2,0,L|88:192,1,70
512,192,90536,1,0,0:0:0:0:
256,192,90536,2,0,L|344:192,1,70
0,192,90536,1,0,0:0:0:0:
256,192,90536,2,0,L|168:192,1,70
512,192,90807,2,0,L|424:192,1,70
0,192,90807,2,0,L|88:192,1,70
256,192,90987,2,0,P|336:60|256:4,1,280
256,192,90987,2,0,P|176:60|256:4,1,280
256,192,91708,2,0,L|292:244,1,35
256,192,91708,2,0,L|220:244,1,35
308,192,91888,2,0,L|332:228,1,35
204,192,91888,2,0,L|180:228,1,35
364,192,92068,2,0,L|388:224,1,35
148,192,92068,2,0,L|124:224,1,35
420,188,92248,2,0,L|448:232,1,35
92,188,92248,2,0,L|64:232,1,35
512,192,92383,1,0,0:0:0:0:
0,192,92383,1,0,0:0:0:0:
512,192,92428,1,0,0:0:0:0:
0,192,92428,1,0,0:0:0:0:
512,192,92518,1,0,0:0:0:0:
456,192,92518,1,0,0:0:0:0:
0,192,92518,1,0,0:0:0:0:
56,192,92518,1,0,0:0:0:0:
512,192,92608,1,0,0:0:0:0:
456,192,92608,1,0,0:0:0:0:
400,192,92608,1,0,0:0:0:0:
56,192,92609,1,0,0:0:0:0:
0,192,92609,1,0,0:0:0:0:
112,192,92609,1,0,0:0:0:0:
312,188,92699,1,0,0:0:0:0:
256,188,92699,1,0,0:0:0:0:
256,188,92699,1,0,0:0:0:0:
200,188,92699,1,0,0:0:0:0:
368,188,92789,1,0,0:0:0:0:
256,188,92789,1,0,0:0:0:0:
312,188,92789,1,0,0:0:0:0:
144,188,92790,1,0,0:0:0:0:
256,188,92790,1,0,0:0:0:0:
200,188,92790,1,0,0:0:0:0:
512,192,92879,1,0,0:0:0:0:
456,192,92879,1,0,0:0:0:0:
56,192,92879,1,0,0:0:0:0:
0,192,92879,1,0,0:0:0:0:
512,192,92969,1,0,0:0:0:0:
0,192,92969,1,0,0:0:0:0:
456,192,93014,1,0,0:0:0:0:
56,192,93014,1,0,0:0:0:0:
400,192,93059,1,0,0:0:0:0:
112,192,93059,1,0,0:0:0:0:
348,192,93104,1,0,0:0:0:0:
164,192,93104,1,0,0:0:0:0:
348,192,93149,2,0,B|348:0|348:0|348:104,1,280
164,192,93149,2,0,B|164:0|164:0|164:104,1,280
204,192,94050,1,0,0:0:0:0:
308,192,94050,1,0,0:0:0:0:
360,192,94140,1,0,0:0:0:0:
152,192,94140,1,0,0:0:0:0:
96,192,94230,2,0,P|64:136|88:112,1,105
416,192,94230,2,0,P|448:136|424:112,1,105
512,96,94590,2,0,L|392:96,1,105
0,96,94591,2,0,L|120:96,1,105
256,96,94951,2,0,L|376:96,1,105
256,96,94951,2,0,L|136:96,1,105
256,192,95311,1,0,0:0:0:0:
256,192,95311,1,0,0:0:0:0:
256,192,95402,1,0,0:0:0:0:
256,192,95402,1,0,0:0:0:0:
256,192,95492,1,0,0:0:0:0:
256,192,95492,1,0,0:0:0:0:
256,192,95582,1,0,0:0:0:0:
256,192,95582,1,0,0:0:0:0:
256,192,95672,2,0,L|124:192,1,105
256,192,95672,2,0,L|388:192,1,105
512,192,96032,2,0,L|424:192,1,70
0,192,96032,2,0,L|88:192,1,70
0,192,96302,1,0,0:0:0:0:
256,192,96302,2,0,L|168:192,1,70
512,192,96302,1,0,0:0:0:0:
256,192,96302,2,0,L|344:192,1,70
512,192,96573,2,0,L|424:192,1,70
0,192,96573,2,0,L|88:192,1,70
256,192,96753,2,0,P|176:60|256:4,1,280
256,192,96753,2,0,P|336:60|256:4,1,280
256,192,97474,2,0,L|292:244,1,35
256,192,97474,2,0,L|220:244,1,35
204,192,97654,2,0,L|180:228,1,35
308,192,97654,2,0,L|332:228,1,35
364,192,97834,2,0,L|388:224,1,35
148,192,97834,2,0,L|124:224,1,35
92,188,98014,2,0,L|64:232,1,35
420,188,98014,2,0,L|448:232,1,35
512,192,98149,1,0,0:0:0:0:
0,192,98149,1,0,0:0:0:0:
0,192,98194,2,0,L|92:192,1,70
512,192,98194,2,0,L|420:192,1,70
70,192,98554,2,0,L|152:192,1,70
442,192,98555,2,0,L|360:192,1,70
256,192,98915,2,0,L|160:192,1,70
256,192,98915,2,0,L|352:192,1,70
186,192,99275,2,0,L|104:192,1,70
326,192,99275,2,0,L|408:192,1,70
4,0,99636,5,0,0:0:0:0:
396,0,99636,1,0,0:0:0:0:
508,0,99636,1,0,0:0:0:0:
452,0,99636,1,0,0:0:0:0:
60,0,99636,1,0,0:0:0:0:
116,0,99636,1,0,0:0:0:0:
340,0,99636,2,0,P|400:68|348:96,1,175
172,0,99636,2,0,P|232:68|180:96,1,175
4,108,100176,5,0,0:0:0:0:
396,108,100176,1,0,0:0:0:0:
508,108,100176,1,0,0:0:0:0:
172,108,100176,1,0,0:0:0:0:
452,108,100176,1,0,0:0:0:0:
60,108,100176,1,0,0:0:0:0:
116,108,100176,1,0,0:0:0:0:
340,108,100176,1,0,0:0:0:0:
4,52,100266,5,0,0:0:0:0:
60,52,100266,1,0,0:0:0:0:
116,52,100266,1,0,0:0:0:0:
340,52,100266,1,0,0:0:0:0:
284,52,100266,1,0,0:0:0:0:
396,52,100266,1,0,0:0:0:0:
508,52,100266,1,0,0:0:0:0:
452,52,100266,1,0,0:0:0:0:
4,0,100356,5,0,0:0:0:0:
396,0,100356,1,0,0:0:0:0:
284,0,100356,1,0,0:0:0:0:
508,0,100356,1,0,0:0:0:0:
452,0,100356,1,0,0:0:0:0:
340,0,100356,1,0,0:0:0:0:
60,0,100356,2,0,P|24:40|32:52,1,70
228,0,100356,2,0,P|192:40|200:52,1,70
4,92,100627,5,0,0:0:0:0:
396,92,100627,1,0,0:0:0:0:
284,92,100627,1,0,0:0:0:0:
508,92,100627,1,0,0:0:0:0:
452,92,100627,1,0,0:0:0:0:
60,92,100627,1,0,0:0:0:0:
340,92,100627,1,0,0:0:0:0:
228,92,100627,1,0,0:0:0:0:
4,144,100717,5,0,0:0:0:0:
60,144,100717,1,0,0:0:0:0:
116,144,100717,1,0,0:0:0:0:
396,144,100717,1,0,0:0:0:0:
508,144,100717,1,0,0:0:0:0:
452,144,100717,1,0,0:0:0:0:
340,148,100717,2,0,P|372:184|360:200,1,70
172,148,100717,2,0,P|204:184|192:200,1,70
252,192,100987,1,0,0:0:0:0:
308,192,100987,1,0,0:0:0:0:
252,192,101009,1,0,0:0:0:0:
308,192,101009,1,0,0:0:0:0:
252,192,101032,1,0,0:0:0:0:
308,192,101032,1,0,0:0:0:0:
252,192,101054,1,0,0:0:0:0:
308,192,101054,1,0,0:0:0:0:
508,0,101077,5,0,0:0:0:0:
396,0,101077,1,0,0:0:0:0:
452,0,101077,1,0,0:0:0:0:
340,0,101077,2,0,P|280:68|332:96,1,175
172,0,101077,2,0,P|112:68|164:96,1,175
116,0,101077,1,0,0:0:0:0:
60,0,101077,1,0,0:0:0:0:
4,0,101077,1,0,0:0:0:0:
508,108,101618,5,0,0:0:0:0:
116,108,101618,1,0,0:0:0:0:
60,108,101618,1,0,0:0:0:0:
340,108,101618,1,0,0:0:0:0:
4,108,101618,1,0,0:0:0:0:
452,108,101618,1,0,0:0:0:0:
172,108,101618,1,0,0:0:0:0:
396,108,101618,1,0,0:0:0:0:
508,52,101708,5,0,0:0:0:0:
116,52,101708,1,0,0:0:0:0:
228,52,101708,1,0,0:0:0:0:
60,52,101708,1,0,0:0:0:0:
4,52,101708,1,0,0:0:0:0:
452,52,101708,1,0,0:0:0:0:
172,52,101708,1,0,0:0:0:0:
396,52,101708,1,0,0:0:0:0:
508,0,101798,5,0,0:0:0:0:
116,0,101798,1,0,0:0:0:0:
60,0,101798,1,0,0:0:0:0:
4,0,101798,1,0,0:0:0:0:
228,0,101798,1,0,0:0:0:0:
172,0,101798,1,0,0:0:0:0:
284,0,101798,2,0,P|320:40|312:52,1,70
452,0,101798,2,0,P|488:40|480:52,1,70
508,92,102069,5,0,0:0:0:0:
452,92,102069,1,0,0:0:0:0:
60,92,102069,1,0,0:0:0:0:
284,92,102069,1,0,0:0:0:0:
172,92,102069,1,0,0:0:0:0:
116,92,102069,1,0,0:0:0:0:
4,92,102069,1,0,0:0:0:0:
228,92,102069,1,0,0:0:0:0:
508,144,102159,5,0,0:0:0:0:
60,144,102159,1,0,0:0:0:0:
4,144,102159,1,0,0:0:0:0:
340,148,102159,2,0,P|308:184|320:200,1,70
172,148,102159,2,0,P|140:184|152:200,1,70
452,144,102159,1,0,0:0:0:0:
116,144,102159,1,0,0:0:0:0:
396,144,102159,1,0,0:0:0:0:
256,192,102518,2,0,L|76:272,1,175
256,192,102518,2,0,L|436:272,1,175
28,268,103059,2,0,L|80:268,1,35
484,268,103059,2,0,L|432:268,1,35
116,268,103239,2,0,P|192:268|200:288,1,105
396,268,103239,2,0,P|320:268|312:288,1,105
256,284,103600,1,0,0:0:0:0:
256,284,103690,1,0,0:0:0:0:
256,284,103780,1,0,0:0:0:0:
200,284,103780,1,0,0:0:0:0:
312,288,103780,1,0,0:0:0:0:
312,288,103870,1,0,0:0:0:0:
200,284,103870,1,0,0:0:0:0:
256,284,103870,1,0,0:0:0:0:
144,284,103960,2,0,P|96:216|160:176,1,175
256,284,103960,1,0,0:0:0:0:
200,284,103960,1,0,0:0:0:0:
312,288,103960,1,0,0:0:0:0:
368,284,103960,2,0,P|416:216|352:176,1,175
24,192,104500,1,0,0:0:0:0:
80,192,104500,1,0,0:0:0:0:
136,192,104500,1,0,0:0:0:0:
376,192,104500,1,0,0:0:0:0:
432,192,104500,1,0,0:0:0:0:
488,192,104500,1,0,0:0:0:0:
228,192,104681,1,0,0:0:0:0:
284,192,104681,1,0,0:0:0:0:
256,192,104771,1,0,0:0:0:0:
312,192,104771,1,0,0:0:0:0:
204,192,104771,1,0,0:0:0:0:
228,192,104861,1,0,0:0:0:0:
176,192,104861,1,0,0:0:0:0:
284,192,104861,1,0,0:0:0:0:
336,192,104861,1,0,0:0:0:0:
284,192,104883,1,0,0:0:0:0:
336,192,104883,1,0,0:0:0:0:
228,192,104883,1,0,0:0:0:0:
176,192,104883,1,0,0:0:0:0:
228,192,104906,1,0,0:0:0:0:
176,192,104906,1,0,0:0:0:0:
284,192,104906,1,0,0:0:0:0:
336,192,104906,1,0,0:0:0:0:
284,192,104928,1,0,0:0:0:0:
336,192,104928,1,0,0:0:0:0:
228,192,104928,1,0,0:0:0:0:
176,192,104928,1,0,0:0:0:0:
228,192,104951,1,0,0:0:0:0:
176,192,104951,1,0,0:0:0:0:
284,192,104951,1,0,0:0:0:0:
336,192,104951,1,0,0:0:0:0:
228,192,104973,1,0,0:0:0:0:
176,192,104973,1,0,0:0:0:0:
284,192,104973,1,0,0:0:0:0:
336,192,104973,1,0,0:0:0:0:
284,192,104996,1,0,0:0:0:0:
336,192,104996,1,0,0:0:0:0:
228,192,104996,1,0,0:0:0:0:
176,192,104996,1,0,0:0:0:0:
508,0,105401,5,0,0:0:0:0:
396,0,105401,1,0,0:0:0:0:
452,0,105401,1,0,0:0:0:0:
340,0,105401,2,0,P|280:68|332:96,1,175
172,0,105401,2,0,P|112:68|164:96,1,175
116,0,105401,1,0,0:0:0:0:
60,0,105401,1,0,0:0:0:0:
4,0,105401,1,0,0:0:0:0:
508,108,105941,5,0,0:0:0:0:
116,108,105941,1,0,0:0:0:0:
60,108,105941,1,0,0:0:0:0:
340,108,105941,1,0,0:0:0:0:
4,108,105941,1,0,0:0:0:0:
452,108,105941,1,0,0:0:0:0:
172,108,105941,1,0,0:0:0:0:
396,108,105941,1,0,0:0:0:0:
508,52,106031,5,0,0:0:0:0:
116,52,106031,1,0,0:0:0:0:
228,52,106031,1,0,0:0:0:0:
60,52,106031,1,0,0:0:0:0:
4,52,106031,1,0,0:0:0:0:
452,52,106031,1,0,0:0:0:0:
172,52,106031,1,0,0:0:0:0:
396,52,106031,1,0,0:0:0:0:
508,0,106121,5,0,0:0:0:0:
116,0,106121,1,0,0:0:0:0:
60,0,106121,1,0,0:0:0:0:
4,0,106121,1,0,0:0:0:0:
228,0,106121,1,0,0:0:0:0:
172,0,106121,1,0,0:0:0:0:
284,0,106121,2,0,P|320:40|312:52,1,70
452,0,106121,2,0,P|488:40|480:52,1,70
508,92,106392,5,0,0:0:0:0:
452,92,106392,1,0,0:0:0:0:
60,92,106392,1,0,0:0:0:0:
284,92,106392,1,0,0:0:0:0:
172,92,106392,1,0,0:0:0:0:
116,92,106392,1,0,0:0:0:0:
4,92,106392,1,0,0:0:0:0:
228,92,106392,1,0,0:0:0:0:
508,144,106482,5,0,0:0:0:0:
452,144,106482,1,0,0:0:0:0:
4,144,106482,1,0,0:0:0:0:
116,144,106482,1,0,0:0:0:0:
396,144,106482,1,0,0:0:0:0:
60,144,106482,1,0,0:0:0:0:
340,148,106482,2,0,P|308:184|320:200,1,70
172,148,106482,2,0,P|140:184|152:200,1,70
204,192,106752,1,0,0:0:0:0:
260,192,106752,1,0,0:0:0:0:
260,192,106774,1,0,0:0:0:0:
204,192,106774,1,0,0:0:0:0:
260,192,106797,1,0,0:0:0:0:
204,192,106797,1,0,0:0:0:0:
260,192,106819,1,0,0:0:0:0:
204,192,106819,1,0,0:0:0:0:
4,0,106842,5,0,0:0:0:0:
396,0,106842,1,0,0:0:0:0:
340,0,106842,2,0,P|400:68|348:96,1,175
508,0,106842,1,0,0:0:0:0:
452,0,106842,1,0,0:0:0:0:
116,0,106842,1,0,0:0:0:0:
172,0,106842,2,0,P|232:68|180:96,1,175
60,0,106842,1,0,0:0:0:0:
4,108,107383,5,0,0:0:0:0:
396,108,107383,1,0,0:0:0:0:
508,108,107383,1,0,0:0:0:0:
172,108,107383,1,0,0:0:0:0:
452,108,107383,1,0,0:0:0:0:
60,108,107383,1,0,0:0:0:0:
116,108,107383,1,0,0:0:0:0:
340,108,107383,1,0,0:0:0:0:
4,52,107473,5,0,0:0:0:0:
60,52,107473,1,0,0:0:0:0:
508,52,107473,1,0,0:0:0:0:
116,52,107473,1,0,0:0:0:0:
340,52,107473,1,0,0:0:0:0:
396,52,107473,1,0,0:0:0:0:
452,52,107473,1,0,0:0:0:0:
284,52,107473,1,0,0:0:0:0:
4,0,107563,5,0,0:0:0:0:
396,0,107563,1,0,0:0:0:0:
284,0,107563,1,0,0:0:0:0:
508,0,107563,1,0,0:0:0:0:
452,0,107563,1,0,0:0:0:0:
340,0,107563,1,0,0:0:0:0:
60,0,107563,2,0,P|24:40|32:52,1,70
228,0,107563,2,0,P|192:40|200:52,1,70
4,92,107834,5,0,0:0:0:0:
396,92,107834,1,0,0:0:0:0:
340,92,107834,1,0,0:0:0:0:
284,92,107834,1,0,0:0:0:0:
508,92,107834,1,0,0:0:0:0:
60,92,107834,1,0,0:0:0:0:
228,92,107834,1,0,0:0:0:0:
452,92,107834,1,0,0:0:0:0:
4,144,107924,5,0,0:0:0:0:
452,144,107924,1,0,0:0:0:0:
340,148,107924,2,0,P|372:184|360:200,1,70
172,148,107924,2,0,P|204:184|192:200,1,70
508,144,107924,1,0,0:0:0:0:
60,144,107924,1,0,0:0:0:0:
116,144,107924,1,0,0:0:0:0:
396,144,107924,1,0,0:0:0:0:
256,268,108172,1,0,0:0:0:0:
308,268,108172,1,0,0:0:0:0:
308,268,108194,1,0,0:0:0:0:
256,268,108194,1,0,0:0:0:0:
256,268,108217,1,0,0:0:0:0:
308,268,108217,1,0,0:0:0:0:
308,268,108239,1,0,0:0:0:0:
256,268,108239,1,0,0:0:0:0:
256,268,108262,1,0,0:0:0:0:
308,268,108262,1,0,0:0:0:0:
4,0,108284,5,0,0:0:0:0:
396,0,108284,1,0,0:0:0:0:
284,0,108284,1,0,0:0:0:0:
508,0,108284,1,0,0:0:0:0:
452,0,108284,1,0,0:0:0:0:
60,0,108284,1,0,0:0:0:0:
116,0,108284,1,0,0:0:0:0:
340,0,108284,1,0,0:0:0:0:
4,0,108307,5,0,0:0:0:0:
284,0,108307,1,0,0:0:0:0:
116,0,108307,1,0,0:0:0:0:
340,0,108307,1,0,0:0:0:0:
508,0,108307,1,0,0:0:0:0:
60,0,108307,1,0,0:0:0:0:
452,0,108307,1,0,0:0:0:0:
396,0,108307,1,0,0:0:0:0:
4,0,108329,5,0,0:0:0:0:
60,0,108329,1,0,0:0:0:0:
396,0,108329,1,0,0:0:0:0:
452,0,108329,1,0,0:0:0:0:
116,0,108329,1,0,0:0:0:0:
284,0,108329,1,0,0:0:0:0:
508,0,108329,1,0,0:0:0:0:
340,0,108329,1,0,0:0:0:0:
4,0,108352,5,0,0:0:0:0:
284,0,108352,1,0,0:0:0:0:
116,0,108352,1,0,0:0:0:0:
340,0,108352,1,0,0:0:0:0:
508,0,108352,1,0,0:0:0:0:
60,0,108352,1,0,0:0:0:0:
452,0,108352,1,0,0:0:0:0:
396,0,108352,1,0,0:0:0:0:
4,0,108374,5,0,0:0:0:0:
60,0,108374,1,0,0:0:0:0:
396,0,108374,1,0,0:0:0:0:
452,0,108374,1,0,0:0:0:0:
116,0,108374,1,0,0:0:0:0:
284,0,108374,1,0,0:0:0:0:
508,0,108374,1,0,0:0:0:0:
340,0,108374,1,0,0:0:0:0:
4,0,108397,5,0,0:0:0:0:
284,0,108397,1,0,0:0:0:0:
116,0,108397,1,0,0:0:0:0:
340,0,108397,1,0,0:0:0:0:
508,0,108397,1,0,0:0:0:0:
60,0,108397,1,0,0:0:0:0:
452,0,108397,1,0,0:0:0:0:
396,0,108397,1,0,0:0:0:0:
4,0,108419,5,0,0:0:0:0:
60,0,108419,1,0,0:0:0:0:
396,0,108419,1,0,0:0:0:0:
452,0,108419,1,0,0:0:0:0:
116,0,108419,1,0,0:0:0:0:
284,0,108419,1,0,0:0:0:0:
508,0,108419,1,0,0:0:0:0:
340,0,108419,1,0,0:0:0:0:
4,0,108442,5,0,0:0:0:0:
284,0,108442,1,0,0:0:0:0:
116,0,108442,1,0,0:0:0:0:
340,0,108442,1,0,0:0:0:0:
508,0,108442,1,0,0:0:0:0:
60,0,108442,1,0,0:0:0:0:
452,0,108442,1,0,0:0:0:0:
396,0,108442,1,0,0:0:0:0:
4,0,108464,5,0,0:0:0:0:
60,0,108464,1,0,0:0:0:0:
396,0,108464,1,0,0:0:0:0:
452,0,108464,1,0,0:0:0:0:
116,0,108464,1,0,0:0:0:0:
284,0,108464,1,0,0:0:0:0:
508,0,108464,1,0,0:0:0:0:
340,0,108464,1,0,0:0:0:0:
4,0,108487,5,0,0:0:0:0:
284,0,108487,1,0,0:0:0:0:
116,0,108487,1,0,0:0:0:0:
340,0,108487,1,0,0:0:0:0:
508,0,108487,1,0,0:0:0:0:
60,0,108487,1,0,0:0:0:0:
452,0,108487,1,0,0:0:0:0:
396,0,108487,1,0,0:0:0:0:
4,0,108509,5,0,0:0:0:0:
60,0,108509,1,0,0:0:0:0:
396,0,108509,1,0,0:0:0:0:
452,0,108509,1,0,0:0:0:0:
116,0,108509,1,0,0:0:0:0:
284,0,108509,1,0,0:0:0:0:
508,0,108509,1,0,0:0:0:0:
340,0,108509,1,0,0:0:0:0:
4,44,108645,5,0,0:0:0:0:
396,44,108645,1,0,0:0:0:0:
508,44,108645,1,0,0:0:0:0:
172,44,108645,1,0,0:0:0:0:
452,44,108645,1,0,0:0:0:0:
60,44,108645,1,0,0:0:0:0:
116,44,108645,1,0,0:0:0:0:
340,44,108645,1,0,0:0:0:0:
4,44,108667,5,0,0:0:0:0:
60,44,108667,1,0,0:0:0:0:
452,44,108667,1,0,0:0:0:0:
340,44,108667,1,0,0:0:0:0:
116,44,108667,1,0,0:0:0:0:
396,44,108667,1,0,0:0:0:0:
172,44,108667,1,0,0:0:0:0:
508,44,108667,1,0,0:0:0:0:
4,44,108690,5,0,0:0:0:0:
396,44,108690,1,0,0:0:0:0:
508,44,108690,1,0,0:0:0:0:
172,44,108690,1,0,0:0:0:0:
452,44,108690,1,0,0:0:0:0:
60,44,108690,1,0,0:0:0:0:
116,44,108690,1,0,0:0:0:0:
340,44,108690,1,0,0:0:0:0:
4,44,108712,5,0,0:0:0:0:
60,44,108712,1,0,0:0:0:0:
452,44,108712,1,0,0:0:0:0:
340,44,108712,1,0,0:0:0:0:
116,44,108712,1,0,0:0:0:0:
396,44,108712,1,0,0:0:0:0:
172,44,108712,1,0,0:0:0:0:
508,44,108712,1,0,0:0:0:0:
4,44,108735,5,0,0:0:0:0:
60,44,108735,1,0,0:0:0:0:
452,44,108735,1,0,0:0:0:0:
340,44,108735,1,0,0:0:0:0:
116,44,108735,1,0,0:0:0:0:
396,44,108735,1,0,0:0:0:0:
172,44,108735,1,0,0:0:0:0:
508,44,108735,1,0,0:0:0:0:
4,44,108757,5,0,0:0:0:0:
396,44,108757,1,0,0:0:0:0:
508,44,108757,1,0,0:0:0:0:
172,44,108757,1,0,0:0:0:0:
452,44,108757,1,0,0:0:0:0:
60,44,108757,1,0,0:0:0:0:
116,44,108757,1,0,0:0:0:0:
340,44,108757,1,0,0:0:0:0:
4,44,108780,5,0,0:0:0:0:
60,44,108780,1,0,0:0:0:0:
452,44,108780,1,0,0:0:0:0:
340,44,108780,1,0,0:0:0:0:
116,44,108780,1,0,0:0:0:0:
396,44,108780,1,0,0:0:0:0:
172,44,108780,1,0,0:0:0:0:
508,44,108780,1,0,0:0:0:0:
4,44,108802,5,0,0:0:0:0:
396,44,108802,1,0,0:0:0:0:
508,44,108802,1,0,0:0:0:0:
172,44,108802,1,0,0:0:0:0:
452,44,108802,1,0,0:0:0:0:
60,44,108802,1,0,0:0:0:0:
116,44,108802,1,0,0:0:0:0:
340,44,108802,1,0,0:0:0:0:
4,44,108825,5,0,0:0:0:0:
60,44,108825,1,0,0:0:0:0:
452,44,108825,1,0,0:0:0:0:
340,44,108825,1,0,0:0:0:0:
116,44,108825,1,0,0:0:0:0:
396,44,108825,1,0,0:0:0:0:
172,44,108825,1,0,0:0:0:0:
508,44,108825,1,0,0:0:0:0:
4,44,108847,5,0,0:0:0:0:
396,44,108847,1,0,0:0:0:0:
508,44,108847,1,0,0:0:0:0:
172,44,108847,1,0,0:0:0:0:
452,44,108847,1,0,0:0:0:0:
60,44,108847,1,0,0:0:0:0:
116,44,108847,1,0,0:0:0:0:
340,44,108847,1,0,0:0:0:0:
4,44,108870,5,0,0:0:0:0:
60,44,108870,1,0,0:0:0:0:
452,44,108870,1,0,0:0:0:0:
340,44,108870,1,0,0:0:0:0:
116,44,108870,1,0,0:0:0:0:
396,44,108870,1,0,0:0:0:0:
172,44,108870,1,0,0:0:0:0:
508,44,108870,1,0,0:0:0:0:
4,80,109005,5,0,0:0:0:0:
172,80,109005,1,0,0:0:0:0:
284,80,109005,1,0,0:0:0:0:
508,80,109005,1,0,0:0:0:0:
452,80,109005,1,0,0:0:0:0:
60,80,109005,1,0,0:0:0:0:
116,80,109005,1,0,0:0:0:0:
228,80,109005,1,0,0:0:0:0:
4,80,109027,5,0,0:0:0:0:
60,80,109027,1,0,0:0:0:0:
452,80,109027,1,0,0:0:0:0:
228,80,109027,1,0,0:0:0:0:
116,80,109027,1,0,0:0:0:0:
172,80,109027,1,0,0:0:0:0:
508,80,109027,1,0,0:0:0:0:
284,80,109027,1,0,0:0:0:0:
4,80,109050,5,0,0:0:0:0:
172,80,109050,1,0,0:0:0:0:
284,80,109050,1,0,0:0:0:0:
508,80,109050,1,0,0:0:0:0:
452,80,109050,1,0,0:0:0:0:
60,80,109050,1,0,0:0:0:0:
116,80,109050,1,0,0:0:0:0:
228,80,109050,1,0,0:0:0:0:
4,80,109072,5,0,0:0:0:0:
60,80,109072,1,0,0:0:0:0:
452,80,109072,1,0,0:0:0:0:
228,80,109072,1,0,0:0:0:0:
116,80,109072,1,0,0:0:0:0:
172,80,109072,1,0,0:0:0:0:
508,80,109072,1,0,0:0:0:0:
284,80,109072,1,0,0:0:0:0:
4,80,109095,5,0,0:0:0:0:
172,80,109095,1,0,0:0:0:0:
284,80,109095,1,0,0:0:0:0:
508,80,109095,1,0,0:0:0:0:
452,80,109095,1,0,0:0:0:0:
60,80,109095,1,0,0:0:0:0:
116,80,109095,1,0,0:0:0:0:
228,80,109095,1,0,0:0:0:0:
4,80,109118,5,0,0:0:0:0:
60,80,109118,1,0,0:0:0:0:
452,80,109118,1,0,0:0:0:0:
228,80,109118,1,0,0:0:0:0:
116,80,109118,1,0,0:0:0:0:
172,80,109118,1,0,0:0:0:0:
508,80,109118,1,0,0:0:0:0:
284,80,109118,1,0,0:0:0:0:
4,80,109140,5,0,0:0:0:0:
172,80,109140,1,0,0:0:0:0:
284,80,109140,1,0,0:0:0:0:
508,80,109140,1,0,0:0:0:0:
452,80,109140,1,0,0:0:0:0:
60,80,109140,1,0,0:0:0:0:
116,80,109140,1,0,0:0:0:0:
228,80,109140,1,0,0:0:0:0:
4,80,109163,5,0,0:0:0:0:
60,80,109163,1,0,0:0:0:0:
452,80,109163,1,0,0:0:0:0:
228,80,109163,1,0,0:0:0:0:
116,80,109163,1,0,0:0:0:0:
172,80,109163,1,0,0:0:0:0:
508,80,109163,1,0,0:0:0:0:
284,80,109163,1,0,0:0:0:0:
4,80,109185,5,0,0:0:0:0:
172,80,109185,1,0,0:0:0:0:
284,80,109185,1,0,0:0:0:0:
508,80,109185,1,0,0:0:0:0:
452,80,109185,1,0,0:0:0:0:
60,80,109185,1,0,0:0:0:0:
116,80,109185,1,0,0:0:0:0:
228,80,109185,1,0,0:0:0:0:
4,80,109208,5,0,0:0:0:0:
60,80,109208,1,0,0:0:0:0:
452,80,109208,1,0,0:0:0:0:
228,80,109208,1,0,0:0:0:0:
116,80,109208,1,0,0:0:0:0:
172,80,109208,1,0,0:0:0:0:
508,80,109208,1,0,0:0:0:0:
284,80,109208,1,0,0:0:0:0:
4,80,109230,5,0,0:0:0:0:
172,80,109230,1,0,0:0:0:0:
284,80,109230,1,0,0:0:0:0:
508,80,109230,1,0,0:0:0:0:
452,80,109230,1,0,0:0:0:0:
60,80,109230,1,0,0:0:0:0:
116,80,109230,1,0,0:0:0:0:
228,80,109230,1,0,0:0:0:0:
4,124,109365,5,0,0:0:0:0:
60,124,109365,1,0,0:0:0:0:
116,124,109365,1,0,0:0:0:0:
228,124,109365,1,0,0:0:0:0:
396,124,109365,1,0,0:0:0:0:
508,124,109365,1,0,0:0:0:0:
452,124,109365,1,0,0:0:0:0:
172,124,109365,1,0,0:0:0:0:
4,124,109388,5,0,0:0:0:0:
508,124,109388,1,0,0:0:0:0:
396,124,109388,1,0,0:0:0:0:
172,124,109388,1,0,0:0:0:0:
452,124,109388,1,0,0:0:0:0:
60,124,109388,1,0,0:0:0:0:
228,124,109388,1,0,0:0:0:0:
116,124,109388,1,0,0:0:0:0:
4,124,109410,5,0,0:0:0:0:
60,124,109410,1,0,0:0:0:0:
116,124,109410,1,0,0:0:0:0:
228,124,109410,1,0,0:0:0:0:
396,124,109410,1,0,0:0:0:0:
508,124,109410,1,0,0:0:0:0:
452,124,109410,1,0,0:0:0:0:
172,124,109410,1,0,0:0:0:0:
4,124,109433,5,0,0:0:0:0:
508,124,109433,1,0,0:0:0:0:
396,124,109433,1,0,0:0:0:0:
172,124,109433,1,0,0:0:0:0:
452,124,109433,1,0,0:0:0:0:
60,124,109433,1,0,0:0:0:0:
228,124,109433,1,0,0:0:0:0:
116,124,109433,1,0,0:0:0:0:
4,124,109455,5,0,0:0:0:0:
60,124,109455,1,0,0:0:0:0:
116,124,109455,1,0,0:0:0:0:
228,124,109455,1,0,0:0:0:0:
396,124,109455,1,0,0:0:0:0:
508,124,109455,1,0,0:0:0:0:
452,124,109455,1,0,0:0:0:0:
172,124,109455,1,0,0:0:0:0:
4,124,109478,5,0,0:0:0:0:
508,124,109478,1,0,0:0:0:0:
396,124,109478,1,0,0:0:0:0:
172,124,109478,1,0,0:0:0:0:
452,124,109478,1,0,0:0:0:0:
60,124,109478,1,0,0:0:0:0:
228,124,109478,1,0,0:0:0:0:
116,124,109478,1,0,0:0:0:0:
4,124,109500,5,0,0:0:0:0:
60,124,109500,1,0,0:0:0:0:
116,124,109500,1,0,0:0:0:0:
228,124,109500,1,0,0:0:0:0:
396,124,109500,1,0,0:0:0:0:
508,124,109500,1,0,0:0:0:0:
452,124,109500,1,0,0:0:0:0:
172,124,109500,1,0,0:0:0:0:
4,124,109523,5,0,0:0:0:0:
508,124,109523,1,0,0:0:0:0:
396,124,109523,1,0,0:0:0:0:
172,124,109523,1,0,0:0:0:0:
452,124,109523,1,0,0:0:0:0:
60,124,109523,1,0,0:0:0:0:
228,124,109523,1,0,0:0:0:0:
116,124,109523,1,0,0:0:0:0:
4,124,109545,5,0,0:0:0:0:
60,124,109545,1,0,0:0:0:0:
116,124,109545,1,0,0:0:0:0:
228,124,109545,1,0,0:0:0:0:
396,124,109545,1,0,0:0:0:0:
508,124,109545,1,0,0:0:0:0:
452,124,109545,1,0,0:0:0:0:
172,124,109545,1,0,0:0:0:0:
4,124,109568,5,0,0:0:0:0:
508,124,109568,1,0,0:0:0:0:
396,124,109568,1,0,0:0:0:0:
172,124,109568,1,0,0:0:0:0:
452,124,109568,1,0,0:0:0:0:
60,124,109568,1,0,0:0:0:0:
228,124,109568,1,0,0:0:0:0:
116,124,109568,1,0,0:0:0:0:
4,124,109591,5,0,0:0:0:0:
60,124,109591,1,0,0:0:0:0:
116,124,109591,1,0,0:0:0:0:
228,124,109591,1,0,0:0:0:0:
396,124,109591,1,0,0:0:0:0:
508,124,109591,1,0,0:0:0:0:
452,124,109591,1,0,0:0:0:0:
172,124,109591,1,0,0:0:0:0:
4,172,109726,5,0,0:0:0:0:
172,172,109726,2,0,L|124:256,1,70
396,172,109726,1,0,0:0:0:0:
508,172,109726,1,0,0:0:0:0:
452,172,109726,1,0,0:0:0:0:
60,172,109726,1,0,0:0:0:0:
116,172,109726,1,0,0:0:0:0:
340,172,109726,2,0,L|292:256,1,70
4,172,109748,5,0,0:0:0:0:
116,172,109748,1,0,0:0:0:0:
508,172,109748,1,0,0:0:0:0:
396,172,109748,1,0,0:0:0:0:
60,172,109748,1,0,0:0:0:0:
452,172,109748,1,0,0:0:0:0:
4,172,109771,5,0,0:0:0:0:
60,172,109771,1,0,0:0:0:0:
452,172,109771,1,0,0:0:0:0:
116,172,109771,1,0,0:0:0:0:
508,172,109771,1,0,0:0:0:0:
396,172,109771,1,0,0:0:0:0:
4,172,109793,5,0,0:0:0:0:
116,172,109793,1,0,0:0:0:0:
508,172,109793,1,0,0:0:0:0:
396,172,109793,1,0,0:0:0:0:
60,172,109793,1,0,0:0:0:0:
452,172,109793,1,0,0:0:0:0:
4,172,109816,5,0,0:0:0:0:
60,172,109816,1,0,0:0:0:0:
452,172,109816,1,0,0:0:0:0:
116,172,109816,1,0,0:0:0:0:
508,172,109816,1,0,0:0:0:0:
396,172,109816,1,0,0:0:0:0:
508,172,110086,5,0,0:0:0:0:
452,172,110086,1,0,0:0:0:0:
60,172,110086,1,0,0:0:0:0:
396,172,110086,1,0,0:0:0:0:
4,172,110086,1,0,0:0:0:0:
172,172,110086,2,0,L|220:256,1,70
116,172,110086,1,0,0:0:0:0:
340,172,110086,2,0,L|388:256,1,70
508,172,110109,5,0,0:0:0:0:
452,172,110109,1,0,0:0:0:0:
396,172,110109,1,0,0:0:0:0:
60,172,110109,1,0,0:0:0:0:
4,172,110109,1,0,0:0:0:0:
116,172,110109,1,0,0:0:0:0:
508,172,110131,5,0,0:0:0:0:
4,172,110131,1,0,0:0:0:0:
116,172,110131,1,0,0:0:0:0:
452,172,110131,1,0,0:0:0:0:
396,172,110131,1,0,0:0:0:0:
60,172,110131,1,0,0:0:0:0:
508,172,110154,5,0,0:0:0:0:
452,172,110154,1,0,0:0:0:0:
396,172,110154,1,0,0:0:0:0:
60,172,110154,1,0,0:0:0:0:
4,172,110154,1,0,0:0:0:0:
116,172,110154,1,0,0:0:0:0:
508,172,110176,5,0,0:0:0:0:
4,172,110176,1,0,0:0:0:0:
116,172,110176,1,0,0:0:0:0:
452,172,110176,1,0,0:0:0:0:
396,172,110176,1,0,0:0:0:0:
60,172,110176,1,0,0:0:0:0:
284,172,110446,1,0,0:0:0:0:
228,172,110446,1,0,0:0:0:0:
228,172,110469,1,0,0:0:0:0:
284,172,110469,1,0,0:0:0:0:
284,172,110491,1,0,0:0:0:0:
228,172,110491,1,0,0:0:0:0:
229,172,110514,1,0,0:0:0:0:
285,172,110514,1,0,0:0:0:0:
284,172,110536,1,0,0:0:0:0:
228,172,110536,1,0,0:0:0:0:
228,172,110559,1,0,0:0:0:0:
284,172,110559,1,0,0:0:0:0:
284,172,110582,1,0,0:0:0:0:
228,172,110582,1,0,0:0:0:0:
228,172,110604,1,0,0:0:0:0:
284,172,110604,1,0,0:0:0:0:
340,172,110627,1,0,0:0:0:0:
228,172,110627,1,0,0:0:0:0:
284,172,110627,1,0,0:0:0:0:
172,172,110627,1,0,0:0:0:0:
284,172,110649,1,0,0:0:0:0:
172,172,110649,1,0,0:0:0:0:
340,172,110649,1,0,0:0:0:0:
228,172,110649,1,0,0:0:0:0:
340,172,110672,1,0,0:0:0:0:
228,172,110672,1,0,0:0:0:0:
284,172,110672,1,0,0:0:0:0:
172,172,110672,1,0,0:0:0:0:
284,172,110694,1,0,0:0:0:0:
172,172,110694,1,0,0:0:0:0:
340,172,110694,1,0,0:0:0:0:
228,172,110694,1,0,0:0:0:0:
284,172,110717,1,0,0:0:0:0:
172,172,110717,1,0,0:0:0:0:
340,172,110717,1,0,0:0:0:0:
228,172,110717,1,0,0:0:0:0:
340,172,110739,1,0,0:0:0:0:
228,172,110739,1,0,0:0:0:0:
284,172,110739,1,0,0:0:0:0:
172,172,110739,1,0,0:0:0:0:
284,172,110762,1,0,0:0:0:0:
172,172,110762,1,0,0:0:0:0:
340,172,110762,1,0,0:0:0:0:
228,172,110762,1,0,0:0:0:0:
256,192,110784,12,0,110807,0:0:0:0:
256,192,110784,12,0,110807,0:0:0:0:
340,172,110784,5,0,0:0:0:0:
228,172,110784,1,0,0:0:0:0:
284,172,110784,1,0,0:0:0:0:
172,172,110784,1,0,0:0:0:0:
340,172,110807,1,0,0:0:0:0:
228,172,110807,1,0,0:0:0:0:
172,172,110807,1,0,0:0:0:0:
4,0,122699,5,0,0:0:0:0:
396,0,122699,1,0,0:0:0:0:
284,0,122699,1,0,0:0:0:0:
508,0,122699,1,0,0:0:0:0:
452,0,122699,1,0,0:0:0:0:
60,0,122699,1,0,0:0:0:0:
340,0,122699,1,0,0:0:0:0:
228,0,122699,1,0,0:0:0:0:
4,0,125582,5,0,0:0:0:0:
60,0,125582,1,0,0:0:0:0:
116,0,125582,1,0,0:0:0:0:
228,0,125582,1,0,0:0:0:0:
340,0,125582,1,0,0:0:0:0:
284,0,125582,1,0,0:0:0:0:
508,0,125582,1,0,0:0:0:0:
172,0,125582,1,0,0:0:0:0:
4,0,128464,5,0,0:0:0:0:
396,0,128464,1,0,0:0:0:0:
508,0,128464,1,0,0:0:0:0:
172,0,128464,1,0,0:0:0:0:
452,0,128464,1,0,0:0:0:0:
60,0,128464,1,0,0:0:0:0:
116,0,128464,1,0,0:0:0:0:
340,0,128464,1,0,0:0:0:0:
4,0,131347,5,0,0:0:0:0:
60,0,131347,1,0,0:0:0:0:
228,0,131347,1,0,0:0:0:0:
340,0,131347,1,0,0:0:0:0:
284,0,131347,1,0,0:0:0:0:
396,0,131347,1,0,0:0:0:0:
508,0,131347,1,0,0:0:0:0:
452,0,131347,1,0,0:0:0:0:
4,0,131978,5,0,0:0:0:0:
396,0,131978,1,0,0:0:0:0:
508,0,131978,1,0,0:0:0:0:
172,0,131978,1,0,0:0:0:0:
452,0,131978,1,0,0:0:0:0:
60,0,131978,1,0,0:0:0:0:
116,0,131978,1,0,0:0:0:0:
340,0,131978,1,0,0:0:0:0:
4,0,132789,5,0,0:0:0:0:
396,0,132789,1,0,0:0:0:0:
284,0,132789,1,0,0:0:0:0:
172,0,132789,1,0,0:0:0:0:
60,0,132789,1,0,0:0:0:0:
116,0,132789,1,0,0:0:0:0:
340,0,132789,1,0,0:0:0:0:
228,0,132789,1,0,0:0:0:0:
4,0,133509,5,0,0:0:0:0:
508,0,133509,1,0,0:0:0:0:
172,0,133509,1,0,0:0:0:0:
452,0,133509,1,0,0:0:0:0:
284,0,133509,1,0,0:0:0:0:
116,0,133509,1,0,0:0:0:0:
60,0,133509,1,0,0:0:0:0:
228,0,133509,1,0,0:0:0:0:
4,0,134230,5,0,0:0:0:0:
60,0,134230,1,0,0:0:0:0:
116,0,134230,1,0,0:0:0:0:
340,0,134230,1,0,0:0:0:0:
396,0,134230,1,0,0:0:0:0:
508,0,134230,1,0,0:0:0:0:
452,0,134230,1,0,0:0:0:0:
172,0,134230,1,0,0:0:0:0:
256,192,155852,12,0,157113,0:0:0:0:
4,0,157293,5,0,0:0:0:0:
508,0,157293,1,0,0:0:0:0:
172,0,157293,1,0,0:0:0:0:
452,0,157293,1,0,0:0:0:0:
60,0,157293,1,0,0:0:0:0:
116,0,157293,1,0,0:0:0:0:
228,0,157293,2,0,L|304:44,1,70
400,0,157293,2,0,L|476:44,1,70
508,0,157654,5,0,0:0:0:0:
60,0,157654,1,0,0:0:0:0:
340,0,157654,1,0,0:0:0:0:
452,0,157654,1,0,0:0:0:0:
396,0,157654,1,0,0:0:0:0:
112,0,157654,2,0,L|36:44,1,70
4,0,157654,1,0,0:0:0:0:
284,0,157654,2,0,L|208:44,1,70
4,56,158014,5,0,0:0:0:0:
396,56,158014,1,0,0:0:0:0:
508,56,158014,1,0,0:0:0:0:
452,56,158014,1,0,0:0:0:0:
60,56,158014,1,0,0:0:0:0:
116,56,158014,1,0,0:0:0:0:
340,56,158014,2,0,B|392:128|392:128|344:184,1,140
172,56,158014,2,0,B|120:128|120:128|168:184,1,140
256,116,158194,1,0,0:0:0:0:
256,192,158554,1,0,0:0:0:0:
312,192,158554,1,0,0:0:0:0:
200,192,158554,1,0,0:0:0:0:
4,0,158915,5,0,0:0:0:0:
508,0,158915,1,0,0:0:0:0:
172,0,158915,1,0,0:0:0:0:
452,0,158915,1,0,0:0:0:0:
60,0,158915,1,0,0:0:0:0:
116,0,158915,1,0,0:0:0:0:
228,0,158915,2,0,B|280:64|280:64|224:120,1,140
392,0,158915,2,0,B|444:64|444:64|388:120,1,140
396,0,159455,1,0,0:0:0:0:
284,0,159455,1,0,0:0:0:0:
508,0,159455,1,0,0:0:0:0:
452,0,159455,1,0,0:0:0:0:
340,0,159455,1,0,0:0:0:0:
228,0,159455,2,0,P|196:64|244:120,1,140
4,0,159816,1,0,0:0:0:0:
60,0,159816,1,0,0:0:0:0:
172,0,159816,1,0,0:0:0:0:
284,0,159816,2,0,P|316:64|268:120,1,140
116,0,159816,1,0,0:0:0:0:
228,0,159816,1,0,0:0:0:0:
4,0,160176,5,0,0:0:0:0:
508,0,160176,1,0,0:0:0:0:
60,0,160176,1,0,0:0:0:0:
452,0,160176,1,0,0:0:0:0:
172,0,160176,1,0,0:0:0:0:
116,0,160176,1,0,0:0:0:0:
400,0,160176,2,0,L|476:44,1,70
228,0,160176,2,0,L|304:44,1,70
508,0,160537,5,0,0:0:0:0:
112,0,160537,2,0,L|36:44,1,70
396,0,160537,1,0,0:0:0:0:
284,0,160537,2,0,L|208:44,1,70
4,0,160537,1,0,0:0:0:0:
60,0,160537,1,0,0:0:0:0:
452,0,160537,1,0,0:0:0:0:
340,0,160537,1,0,0:0:0:0:
4,56,160897,5,0,0:0:0:0:
396,56,160897,1,0,0:0:0:0:
60,56,160897,1,0,0:0:0:0:
452,56,160897,1,0,0:0:0:0:
508,56,160897,1,0,0:0:0:0:
116,56,160897,1,0,0:0:0:0:
172,56,160897,2,0,B|120:128|120:128|168:184,1,140
340,56,160897,2,0,B|392:128|392:128|344:184,1,140
256,116,161077,1,0,0:0:0:0:
256,192,161437,1,0,0:0:0:0:
312,192,161437,1,0,0:0:0:0:
200,192,161437,1,0,0:0:0:0:
4,0,161798,5,0,0:0:0:0:
116,0,161798,1,0,0:0:0:0:
60,0,161798,1,0,0:0:0:0:
392,0,161798,2,0,B|444:64|444:64|388:120,1,140
228,0,161798,2,0,B|280:64|280:64|224:120,1,140
508,0,161798,1,0,0:0:0:0:
452,0,161798,1,0,0:0:0:0:
172,0,161798,1,0,0:0:0:0:
396,0,162338,1,0,0:0:0:0:
284,0,162338,1,0,0:0:0:0:
508,0,162338,1,0,0:0:0:0:
452,0,162338,1,0,0:0:0:0:
340,0,162338,1,0,0:0:0:0:
228,0,162338,2,0,P|196:64|244:120,1,140
284,0,162699,2,0,P|316:64|268:120,1,140
116,0,162699,1,0,0:0:0:0:
228,0,162699,1,0,0:0:0:0:
4,0,162699,1,0,0:0:0:0:
60,0,162699,1,0,0:0:0:0:
172,0,162699,1,0,0:0:0:0:
256,188,163059,2,0,L|108:188,1,140
256,188,163059,2,0,L|404:188,1,140
0,188,163419,2,0,L|148:188,1,140
512,188,163419,2,0,L|364:188,1,140
256,188,163780,1,0,0:0:0:0:
256,188,163780,1,0,0:0:0:0:
208,188,163870,1,0,0:0:0:0:
304,188,163870,1,0,0:0:0:0:
160,188,163960,1,0,0:0:0:0:
352,188,163960,1,0,0:0:0:0:
112,188,164050,1,0,0:0:0:0:
400,188,164050,1,0,0:0:0:0:
64,188,164140,2,0,L|208:104,1,140
448,188,164140,2,0,L|304:104,1,140
0,120,164320,1,0,0:0:0:0:
52,120,164320,1,0,0:0:0:0:
460,120,164320,1,0,0:0:0:0:
512,120,164320,1,0,0:0:0:0:
192,192,164500,2,0,L|192:356,1,140
24,192,164500,2,0,L|24:356,1,140
80,192,164501,2,0,L|80:356,1,140
136,192,164501,2,0,L|136:356,1,140
248,192,164501,2,0,L|248:356,1,140
488,192,164861,2,0,L|488:356,1,140
320,192,164861,2,0,L|320:356,1,140
264,192,164862,2,0,L|264:356,1,140
376,192,164862,2,0,L|376:356,1,140
432,192,164862,2,0,L|432:356,1,140
256,192,165221,2,0,L|152:192,1,70
256,192,165221,2,0,L|360:192,1,70
28,192,165401,1,0,0:0:0:0:
84,192,165401,2,0,L|176:192,1,70
484,192,165401,1,0,0:0:0:0:
428,192,165401,2,0,L|336:192,1,70
256,192,165582,2,0,P|228:120|256:48,1,140
256,192,165582,2,0,P|284:120|256:48,1,140
256,188,165942,2,0,L|108:188,1,140
256,188,165942,2,0,L|404:188,1,140
512,188,166302,2,0,L|364:188,1,140
0,188,166302,2,0,L|148:188,1,140
256,188,166663,1,0,0:0:0:0:
256,188,166663,1,0,0:0:0:0:
304,188,166753,1,0,0:0:0:0:
208,188,166753,1,0,0:0:0:0:
160,188,166843,1,0,0:0:0:0:
352,188,166843,1,0,0:0:0:0:
400,188,166933,1,0,0:0:0:0:
112,188,166933,1,0,0:0:0:0:
64,188,167023,2,0,L|208:104,1,140
448,188,167023,2,0,L|304:104,1,140
512,120,167203,1,0,0:0:0:0:
460,120,167203,1,0,0:0:0:0:
52,120,167203,1,0,0:0:0:0:
0,120,167203,1,0,0:0:0:0:
488,192,167383,2,0,L|488:356,1,140
320,192,167383,2,0,L|320:356,1,140
264,192,167384,2,0,L|264:356,1,140
376,192,167384,2,0,L|376:356,1,140
432,192,167384,2,0,L|432:356,1,140
24,192,167744,2,0,L|24:356,1,140
192,192,167744,2,0,L|192:356,1,140
248,192,167745,2,0,L|248:356,1,140
136,192,167745,2,0,L|136:356,1,140
80,192,167745,2,0,L|80:356,1,140
256,192,168104,2,0,L|152:192,1,70
256,192,168104,2,0,L|360:192,1,70
484,192,168284,1,0,0:0:0:0:
428,192,168284,2,0,L|336:192,1,70
28,192,168284,1,0,0:0:0:0:
84,192,168284,2,0,L|176:192,1,70
256,192,168465,2,0,P|228:120|256:48,1,140
256,192,168465,2,0,P|284:120|256:48,1,140
4,0,168825,5,0,0:0:0:0:
116,0,168825,1,0,0:0:0:0:
228,0,168825,1,0,0:0:0:0:
60,0,168825,1,0,0:0:0:0:
172,0,168825,1,0,0:0:0:0:
508,0,169005,5,0,0:0:0:0:
396,0,169005,1,0,0:0:0:0:
284,0,169005,1,0,0:0:0:0:
452,0,169005,1,0,0:0:0:0:
340,0,169005,1,0,0:0:0:0:
4,0,169185,5,0,0:0:0:0:
116,0,169185,1,0,0:0:0:0:
172,0,169185,1,0,0:0:0:0:
228,0,169185,1,0,0:0:0:0:
60,0,169185,1,0,0:0:0:0:
508,0,169365,5,0,0:0:0:0:
452,0,169365,1,0,0:0:0:0:
284,0,169365,1,0,0:0:0:0:
340,0,169365,1,0,0:0:0:0:
396,0,169365,1,0,0:0:0:0:
4,0,169545,5,0,0:0:0:0:
60,0,169545,1,0,0:0:0:0:
228,0,169545,1,0,0:0:0:0:
116,0,169545,1,0,0:0:0:0:
172,0,169545,1,0,0:0:0:0:
508,0,169725,5,0,0:0:0:0:
396,0,169725,1,0,0:0:0:0:
340,0,169725,1,0,0:0:0:0:
452,0,169725,1,0,0:0:0:0:
284,0,169725,1,0,0:0:0:0:
4,0,169906,5,0,0:0:0:0:
116,0,169906,1,0,0:0:0:0:
172,0,169906,1,0,0:0:0:0:
228,0,169906,1,0,0:0:0:0:
60,0,169906,1,0,0:0:0:0:
508,0,170086,5,0,0:0:0:0:
452,0,170086,1,0,0:0:0:0:
284,0,170086,1,0,0:0:0:0:
340,0,170086,1,0,0:0:0:0:
396,0,170086,1,0,0:0:0:0:
4,0,170266,5,0,0:0:0:0:
116,0,170266,1,0,0:0:0:0:
228,0,170266,1,0,0:0:0:0:
60,0,170266,1,0,0:0:0:0:
172,0,170266,1,0,0:0:0:0:
508,0,170446,5,0,0:0:0:0:
340,0,170446,1,0,0:0:0:0:
452,0,170446,1,0,0:0:0:0:
284,0,170446,1,0,0:0:0:0:
396,0,170446,1,0,0:0:0:0:
4,0,170626,5,0,0:0:0:0:
228,0,170626,1,0,0:0:0:0:
116,0,170626,1,0,0:0:0:0:
60,0,170626,1,0,0:0:0:0:
172,0,170626,1,0,0:0:0:0:
508,0,170806,5,0,0:0:0:0:
284,0,170806,1,0,0:0:0:0:
340,0,170806,1,0,0:0:0:0:
396,0,170806,1,0,0:0:0:0:
452,0,170806,1,0,0:0:0:0:
4,0,170986,5,0,0:0:0:0:
60,0,170986,1,0,0:0:0:0:
228,0,170986,1,0,0:0:0:0:
172,0,170986,1,0,0:0:0:0:
116,0,170986,1,0,0:0:0:0:
508,0,171166,5,0,0:0:0:0:
396,0,171166,1,0,0:0:0:0:
284,0,171166,1,0,0:0:0:0:
340,0,171166,1,0,0:0:0:0:
452,0,171166,1,0,0:0:0:0:
4,0,171347,5,0,0:0:0:0:
60,0,171347,1,0,0:0:0:0:
228,0,171347,1,0,0:0:0:0:
116,0,171347,1,0,0:0:0:0:
172,0,171347,1,0,0:0:0:0:
508,0,171527,5,0,0:0:0:0:
396,0,171527,1,0,0:0:0:0:
452,0,171527,1,0,0:0:0:0:
340,0,171527,1,0,0:0:0:0:
284,0,171527,1,0,0:0:0:0:
4,0,171708,5,0,0:0:0:0:
172,0,171708,1,0,0:0:0:0:
60,0,171708,1,0,0:0:0:0:
116,0,171708,1,0,0:0:0:0:
228,0,171708,1,0,0:0:0:0:
508,0,171888,5,0,0:0:0:0:
396,0,171888,1,0,0:0:0:0:
284,0,171888,1,0,0:0:0:0:
340,0,171888,1,0,0:0:0:0:
452,0,171888,1,0,0:0:0:0:
4,0,172068,5,0,0:0:0:0:
172,0,172068,1,0,0:0:0:0:
60,0,172068,1,0,0:0:0:0:
228,0,172068,1,0,0:0:0:0:
116,0,172068,1,0,0:0:0:0:
508,0,172248,5,0,0:0:0:0:
452,0,172248,1,0,0:0:0:0:
396,0,172248,1,0,0:0:0:0:
284,0,172248,1,0,0:0:0:0:
340,0,172248,1,0,0:0:0:0:
4,0,172428,5,0,0:0:0:0:
116,0,172428,1,0,0:0:0:0:
172,0,172428,1,0,0:0:0:0:
60,0,172428,1,0,0:0:0:0:
228,0,172428,1,0,0:0:0:0:
508,0,172608,5,0,0:0:0:0:
452,0,172608,1,0,0:0:0:0:
340,0,172608,1,0,0:0:0:0:
396,0,172608,1,0,0:0:0:0:
284,0,172608,1,0,0:0:0:0:
4,0,172789,5,0,0:0:0:0:
172,0,172789,1,0,0:0:0:0:
116,0,172789,1,0,0:0:0:0:
60,0,172789,1,0,0:0:0:0:
228,0,172789,1,0,0:0:0:0:
508,0,172969,5,0,0:0:0:0:
284,0,172969,1,0,0:0:0:0:
340,0,172969,1,0,0:0:0:0:
396,0,172969,1,0,0:0:0:0:
452,0,172969,1,0,0:0:0:0:
4,0,173149,5,0,0:0:0:0:
116,0,173149,1,0,0:0:0:0:
228,0,173149,1,0,0:0:0:0:
60,0,173149,1,0,0:0:0:0:
172,0,173149,1,0,0:0:0:0:
508,0,173329,5,0,0:0:0:0:
340,0,173329,1,0,0:0:0:0:
452,0,173329,1,0,0:0:0:0:
284,0,173329,1,0,0:0:0:0:
396,0,173329,1,0,0:0:0:0:
4,0,173509,5,0,0:0:0:0:
228,0,173509,1,0,0:0:0:0:
116,0,173509,1,0,0:0:0:0:
60,0,173509,1,0,0:0:0:0:
172,0,173509,1,0,0:0:0:0:
508,0,173689,5,0,0:0:0:0:
284,0,173689,1,0,0:0:0:0:
340,0,173689,1,0,0:0:0:0:
396,0,173689,1,0,0:0:0:0:
452,0,173689,1,0,0:0:0:0:
4,0,173869,5,0,0:0:0:0:
60,0,173869,1,0,0:0:0:0:
228,0,173869,1,0,0:0:0:0:
172,0,173869,1,0,0:0:0:0:
116,0,173869,1,0,0:0:0:0:
508,0,174049,5,0,0:0:0:0:
396,0,174049,1,0,0:0:0:0:
284,0,174049,1,0,0:0:0:0:
340,0,174049,1,0,0:0:0:0:
452,0,174049,1,0,0:0:0:0:
4,0,174230,5,0,0:0:0:0:
60,0,174230,1,0,0:0:0:0:
228,0,174230,1,0,0:0:0:0:
116,0,174230,1,0,0:0:0:0:
172,0,174230,1,0,0:0:0:0:
508,0,174410,5,0,0:0:0:0:
396,0,174410,1,0,0:0:0:0:
452,0,174410,1,0,0:0:0:0:
340,0,174410,1,0,0:0:0:0:
284,0,174410,1,0,0:0:0:0:
396,0,174591,1,0,0:0:0:0:
284,0,174591,1,0,0:0:0:0:
508,0,174591,1,0,0:0:0:0:
172,0,174591,1,0,0:0:0:0:
452,0,174591,1,0,0:0:0:0:
116,0,174591,1,0,0:0:0:0:
340,0,174591,1,0,0:0:0:0:
228,0,174591,1,0,0:0:0:0:
116,0,174681,1,0,0:0:0:0:
452,0,174681,1,0,0:0:0:0:
228,0,174681,1,0,0:0:0:0:
340,0,174681,1,0,0:0:0:0:
284,0,174681,1,0,0:0:0:0:
396,0,174681,1,0,0:0:0:0:
172,0,174681,1,0,0:0:0:0:
508,0,174681,1,0,0:0:0:0:
396,0,174771,1,0,0:0:0:0:
284,0,174771,1,0,0:0:0:0:
508,0,174771,1,0,0:0:0:0:
172,0,174771,1,0,0:0:0:0:
452,0,174771,1,0,0:0:0:0:
116,0,174771,1,0,0:0:0:0:
340,0,174771,1,0,0:0:0:0:
228,0,174771,1,0,0:0:0:0:
116,0,174861,1,0,0:0:0:0:
452,0,174861,1,0,0:0:0:0:
228,0,174861,1,0,0:0:0:0:
340,0,174861,1,0,0:0:0:0:
284,0,174861,1,0,0:0:0:0:
396,0,174861,1,0,0:0:0:0:
172,0,174861,1,0,0:0:0:0:
508,0,174861,1,0,0:0:0:0:
4,44,174951,5,0,0:0:0:0:
60,44,174951,1,0,0:0:0:0:
228,44,174951,1,0,0:0:0:0:
340,44,174951,1,0,0:0:0:0:
284,44,174951,1,0,0:0:0:0:
396,44,174951,1,0,0:0:0:0:
508,44,174951,1,0,0:0:0:0:
452,44,174951,1,0,0:0:0:0:
4,44,175041,5,0,0:0:0:0:
396,44,175041,1,0,0:0:0:0:
284,44,175041,1,0,0:0:0:0:
452,44,175041,1,0,0:0:0:0:
508,44,175041,1,0,0:0:0:0:
60,44,175041,1,0,0:0:0:0:
340,44,175041,1,0,0:0:0:0:
228,44,175041,1,0,0:0:0:0:
4,44,175131,5,0,0:0:0:0:
60,44,175131,1,0,0:0:0:0:
228,44,175131,1,0,0:0:0:0:
340,44,175131,1,0,0:0:0:0:
284,44,175131,1,0,0:0:0:0:
396,44,175131,1,0,0:0:0:0:
508,44,175131,1,0,0:0:0:0:
452,44,175131,1,0,0:0:0:0:
4,44,175221,5,0,0:0:0:0:
396,44,175221,1,0,0:0:0:0:
284,44,175221,1,0,0:0:0:0:
452,44,175221,1,0,0:0:0:0:
508,44,175221,1,0,0:0:0:0:
60,44,175221,1,0,0:0:0:0:
340,44,175221,1,0,0:0:0:0:
228,44,175221,1,0,0:0:0:0:
4,80,175311,5,0,0:0:0:0:
396,80,175311,1,0,0:0:0:0:
508,80,175311,1,0,0:0:0:0:
172,80,175311,1,0,0:0:0:0:
452,80,175311,1,0,0:0:0:0:
60,80,175311,1,0,0:0:0:0:
116,80,175311,1,0,0:0:0:0:
340,80,175311,1,0,0:0:0:0:
4,80,175401,5,0,0:0:0:0:
60,80,175401,1,0,0:0:0:0:
452,80,175401,1,0,0:0:0:0:
340,80,175401,1,0,0:0:0:0:
116,80,175401,1,0,0:0:0:0:
396,80,175401,1,0,0:0:0:0:
172,80,175401,1,0,0:0:0:0:
508,80,175401,1,0,0:0:0:0:
4,80,175491,5,0,0:0:0:0:
396,80,175491,1,0,0:0:0:0:
508,80,175491,1,0,0:0:0:0:
172,80,175491,1,0,0:0:0:0:
452,80,175491,1,0,0:0:0:0:
60,80,175491,1,0,0:0:0:0:
116,80,175491,1,0,0:0:0:0:
340,80,175491,1,0,0:0:0:0:
4,80,175582,5,0,0:0:0:0:
60,80,175582,1,0,0:0:0:0:
452,80,175582,1,0,0:0:0:0:
340,80,175582,1,0,0:0:0:0:
116,80,175582,1,0,0:0:0:0:
396,80,175582,1,0,0:0:0:0:
172,80,175582,1,0,0:0:0:0:
508,80,175582,1,0,0:0:0:0:
4,128,175672,5,0,0:0:0:0:
284,128,175672,1,0,0:0:0:0:
508,128,175672,1,0,0:0:0:0:
172,128,175672,1,0,0:0:0:0:
452,128,175672,1,0,0:0:0:0:
60,128,175672,1,0,0:0:0:0:
116,128,175672,1,0,0:0:0:0:
228,128,175672,1,0,0:0:0:0:
4,128,175762,5,0,0:0:0:0:
60,128,175762,1,0,0:0:0:0:
452,128,175762,1,0,0:0:0:0:
228,128,175762,1,0,0:0:0:0:
116,128,175762,1,0,0:0:0:0:
284,128,175762,1,0,0:0:0:0:
172,128,175762,1,0,0:0:0:0:
508,128,175762,1,0,0:0:0:0:
4,128,175852,5,0,0:0:0:0:
284,128,175852,1,0,0:0:0:0:
508,128,175852,1,0,0:0:0:0:
172,128,175852,1,0,0:0:0:0:
452,128,175852,1,0,0:0:0:0:
60,128,175852,1,0,0:0:0:0:
116,128,175852,1,0,0:0:0:0:
228,128,175852,1,0,0:0:0:0:
4,128,175942,5,0,0:0:0:0:
60,128,175942,1,0,0:0:0:0:
452,128,175942,1,0,0:0:0:0:
228,128,175942,1,0,0:0:0:0:
116,128,175942,1,0,0:0:0:0:
284,128,175942,1,0,0:0:0:0:
172,128,175942,1,0,0:0:0:0:
508,128,175942,1,0,0:0:0:0:
4,180,176032,5,0,0:0:0:0:
60,180,176032,1,0,0:0:0:0:
116,180,176032,1,0,0:0:0:0:
228,180,176032,1,0,0:0:0:0:
340,180,176032,1,0,0:0:0:0:
284,180,176032,1,0,0:0:0:0:
396,180,176032,1,0,0:0:0:0:
172,180,176032,1,0,0:0:0:0:
4,180,176122,5,0,0:0:0:0:
284,180,176122,1,0,0:0:0:0:
340,180,176122,1,0,0:0:0:0:
172,180,176122,1,0,0:0:0:0:
396,180,176122,1,0,0:0:0:0:
60,180,176122,1,0,0:0:0:0:
228,180,176122,1,0,0:0:0:0:
116,180,176122,1,0,0:0:0:0:
4,180,176212,5,0,0:0:0:0:
60,180,176212,1,0,0:0:0:0:
116,180,176212,1,0,0:0:0:0:
228,180,176212,1,0,0:0:0:0:
340,180,176212,1,0,0:0:0:0:
284,180,176212,1,0,0:0:0:0:
396,180,176212,1,0,0:0:0:0:
172,180,176212,1,0,0:0:0:0:
4,180,176302,5,0,0:0:0:0:
284,180,176302,1,0,0:0:0:0:
340,180,176302,1,0,0:0:0:0:
172,180,176302,1,0,0:0:0:0:
396,180,176302,1,0,0:0:0:0:
60,180,176302,1,0,0:0:0:0:
228,180,176302,1,0,0:0:0:0:
116,180,176302,1,0,0:0:0:0:
4,228,176392,5,0,0:0:0:0:
284,228,176392,1,0,0:0:0:0:
508,228,176392,1,0,0:0:0:0:
172,228,176392,1,0,0:0:0:0:
452,228,176392,1,0,0:0:0:0:
60,228,176392,1,0,0:0:0:0:
116,228,176392,1,0,0:0:0:0:
228,228,176392,1,0,0:0:0:0:
4,228,176482,5,0,0:0:0:0:
60,228,176482,1,0,0:0:0:0:
452,228,176482,1,0,0:0:0:0:
228,228,176482,1,0,0:0:0:0:
116,228,176482,1,0,0:0:0:0:
284,228,176482,1,0,0:0:0:0:
172,228,176482,1,0,0:0:0:0:
508,228,176482,1,0,0:0:0:0:
4,228,176572,5,0,0:0:0:0:
284,228,176572,1,0,0:0:0:0:
508,228,176572,1,0,0:0:0:0:
172,228,176572,1,0,0:0:0:0:
452,228,176572,1,0,0:0:0:0:
60,228,176572,1,0,0:0:0:0:
116,228,176572,1,0,0:0:0:0:
228,228,176572,1,0,0:0:0:0:
4,228,176663,5,0,0:0:0:0:
60,228,176663,1,0,0:0:0:0:
452,228,176663,1,0,0:0:0:0:
228,228,176663,1,0,0:0:0:0:
116,228,176663,1,0,0:0:0:0:
284,228,176663,1,0,0:0:0:0:
172,228,176663,1,0,0:0:0:0:
508,228,176663,1,0,0:0:0:0:
4,272,176753,5,0,0:0:0:0:
396,272,176753,1,0,0:0:0:0:
508,272,176753,1,0,0:0:0:0:
172,272,176753,1,0,0:0:0:0:
452,272,176753,1,0,0:0:0:0:
60,272,176753,1,0,0:0:0:0:
116,272,176753,1,0,0:0:0:0:
340,272,176753,1,0,0:0:0:0:
4,272,176843,5,0,0:0:0:0:
60,272,176843,1,0,0:0:0:0:
452,272,176843,1,0,0:0:0:0:
340,272,176843,1,0,0:0:0:0:
116,272,176843,1,0,0:0:0:0:
396,272,176843,1,0,0:0:0:0:
172,272,176843,1,0,0:0:0:0:
508,272,176843,1,0,0:0:0:0:
4,272,176933,5,0,0:0:0:0:
396,272,176933,1,0,0:0:0:0:
508,272,176933,1,0,0:0:0:0:
172,272,176933,1,0,0:0:0:0:
452,272,176933,1,0,0:0:0:0:
60,272,176933,1,0,0:0:0:0:
116,272,176933,1,0,0:0:0:0:
340,272,176933,1,0,0:0:0:0:
4,272,177023,5,0,0:0:0:0:
60,272,177023,1,0,0:0:0:0:
452,272,177023,1,0,0:0:0:0:
340,272,177023,1,0,0:0:0:0:
116,272,177023,1,0,0:0:0:0:
396,272,177023,1,0,0:0:0:0:
172,272,177023,1,0,0:0:0:0:
508,272,177023,1,0,0:0:0:0:
4,320,177113,5,0,0:0:0:0:
60,320,177113,1,0,0:0:0:0:
228,320,177113,1,0,0:0:0:0:
340,320,177113,1,0,0:0:0:0:
284,320,177113,1,0,0:0:0:0:
396,320,177113,1,0,0:0:0:0:
508,320,177113,1,0,0:0:0:0:
452,320,177113,1,0,0:0:0:0:
4,320,177203,5,0,0:0:0:0:
396,320,177203,1,0,0:0:0:0:
284,320,177203,1,0,0:0:0:0:
452,320,177203,1,0,0:0:0:0:
508,320,177203,1,0,0:0:0:0:
60,320,177203,1,0,0:0:0:0:
340,320,177203,1,0,0:0:0:0:
228,320,177203,1,0,0:0:0:0:
4,0,177293,5,0,0:0:0:0:
396,0,177293,1,0,0:0:0:0:
284,0,177293,1,0,0:0:0:0:
508,0,177293,1,0,0:0:0:0:
452,0,177293,1,0,0:0:0:0:
60,0,177293,1,0,0:0:0:0:
116,0,177293,1,0,0:0:0:0:
340,0,177293,1,0,0:0:0:0:
4,48,177383,5,0,0:0:0:0:
60,48,177383,1,0,0:0:0:0:
116,48,177383,1,0,0:0:0:0:
340,48,177383,1,0,0:0:0:0:
396,48,177383,1,0,0:0:0:0:
508,48,177383,1,0,0:0:0:0:
452,48,177383,1,0,0:0:0:0:
172,48,177383,1,0,0:0:0:0:
4,0,177473,5,0,0:0:0:0:
396,0,177473,1,0,0:0:0:0:
284,0,177473,1,0,0:0:0:0:
508,0,177473,1,0,0:0:0:0:
452,0,177473,1,0,0:0:0:0:
60,0,177473,1,0,0:0:0:0:
116,0,177473,1,0,0:0:0:0:
340,0,177473,1,0,0:0:0:0:
4,0,177563,5,0,0:0:0:0:
60,0,177563,1,0,0:0:0:0:
452,0,177563,1,0,0:0:0:0:
340,0,177563,1,0,0:0:0:0:
116,0,177563,1,0,0:0:0:0:
396,0,177563,1,0,0:0:0:0:
508,0,177563,1,0,0:0:0:0:
284,0,177563,1,0,0:0:0:0:
4,48,177654,5,0,0:0:0:0:
60,48,177654,1,0,0:0:0:0:
116,48,177654,1,0,0:0:0:0:
228,48,177654,1,0,0:0:0:0:
396,48,177654,1,0,0:0:0:0:
508,48,177654,1,0,0:0:0:0:
452,48,177654,1,0,0:0:0:0:
172,48,177654,1,0,0:0:0:0:
4,48,177744,5,0,0:0:0:0:
508,48,177744,1,0,0:0:0:0:
396,48,177744,1,0,0:0:0:0:
172,48,177744,1,0,0:0:0:0:
452,48,177744,1,0,0:0:0:0:
60,48,177744,1,0,0:0:0:0:
228,48,177744,1,0,0:0:0:0:
116,48,177744,1,0,0:0:0:0:
4,0,177834,5,0,0:0:0:0:
508,0,177834,1,0,0:0:0:0:
116,0,177834,1,0,0:0:0:0:
396,0,177834,1,0,0:0:0:0:
284,0,177834,1,0,0:0:0:0:
340,0,177834,1,0,0:0:0:0:
60,0,177834,1,0,0:0:0:0:
452,0,177834,1,0,0:0:0:0:
4,0,177924,5,0,0:0:0:0:
284,0,177924,1,0,0:0:0:0:
508,0,177924,1,0,0:0:0:0:
396,0,177924,1,0,0:0:0:0:
116,0,177924,1,0,0:0:0:0:
340,0,177924,1,0,0:0:0:0:
60,0,177924,1,0,0:0:0:0:
452,0,177924,1,0,0:0:0:0:
4,48,178015,5,0,0:0:0:0:
116,48,178015,1,0,0:0:0:0:
60,48,178015,1,0,0:0:0:0:
452,48,178015,1,0,0:0:0:0:
508,48,178015,1,0,0:0:0:0:
396,48,178015,1,0,0:0:0:0:
228,48,178015,1,0,0:0:0:0:
172,48,178015,1,0,0:0:0:0:
4,48,178105,5,0,0:0:0:0:
60,48,178105,1,0,0:0:0:0:
116,48,178105,1,0,0:0:0:0:
172,48,178105,1,0,0:0:0:0:
228,48,178105,1,0,0:0:0:0:
396,48,178105,1,0,0:0:0:0:
452,48,178105,1,0,0:0:0:0:
508,48,178105,1,0,0:0:0:0:
4,0,178194,5,0,0:0:0:0:
340,0,178194,1,0,0:0:0:0:
452,0,178194,1,0,0:0:0:0:
60,0,178194,1,0,0:0:0:0:
116,0,178194,1,0,0:0:0:0:
508,0,178194,1,0,0:0:0:0:
284,0,178194,1,0,0:0:0:0:
396,0,178194,1,0,0:0:0:0:
4,0,178284,5,0,0:0:0:0:
340,0,178284,1,0,0:0:0:0:
452,0,178284,1,0,0:0:0:0:
60,0,178284,1,0,0:0:0:0:
508,0,178284,1,0,0:0:0:0:
284,0,178284,1,0,0:0:0:0:
116,0,178284,1,0,0:0:0:0:
396,0,178284,1,0,0:0:0:0:
4,48,178375,5,0,0:0:0:0:
396,48,178375,1,0,0:0:0:0:
172,48,178375,1,0,0:0:0:0:
228,48,178375,1,0,0:0:0:0:
60,48,178375,1,0,0:0:0:0:
116,48,178375,1,0,0:0:0:0:
508,48,178375,1,0,0:0:0:0:
452,48,178375,1,0,0:0:0:0:
4,48,178465,5,0,0:0:0:0:
396,48,178465,1,0,0:0:0:0:
508,48,178465,1,0,0:0:0:0:
452,48,178465,1,0,0:0:0:0:
116,48,178465,1,0,0:0:0:0:
60,48,178465,1,0,0:0:0:0:
228,48,178465,1,0,0:0:0:0:
172,48,178465,1,0,0:0:0:0:
4,0,178554,5,0,0:0:0:0:
508,0,178554,1,0,0:0:0:0:
116,0,178554,1,0,0:0:0:0:
396,0,178554,1,0,0:0:0:0:
284,0,178554,1,0,0:0:0:0:
340,0,178554,1,0,0:0:0:0:
60,0,178554,1,0,0:0:0:0:
452,0,178554,1,0,0:0:0:0:
4,0,178644,5,0,0:0:0:0:
284,0,178644,1,0,0:0:0:0:
508,0,178644,1,0,0:0:0:0:
396,0,178644,1,0,0:0:0:0:
116,0,178644,1,0,0:0:0:0:
340,0,178644,1,0,0:0:0:0:
60,0,178644,1,0,0:0:0:0:
452,0,178644,1,0,0:0:0:0:
4,48,178735,5,0,0:0:0:0:
116,48,178735,1,0,0:0:0:0:
60,48,178735,1,0,0:0:0:0:
452,48,178735,1,0,0:0:0:0:
508,48,178735,1,0,0:0:0:0:
396,48,178735,1,0,0:0:0:0:
228,48,178735,1,0,0:0:0:0:
172,48,178735,1,0,0:0:0:0:
4,48,178825,5,0,0:0:0:0:
60,48,178825,1,0,0:0:0:0:
116,48,178825,1,0,0:0:0:0:
172,48,178825,1,0,0:0:0:0:
228,48,178825,1,0,0:0:0:0:
396,48,178825,1,0,0:0:0:0:
452,48,178825,1,0,0:0:0:0:
508,48,178825,1,0,0:0:0:0:
256,192,179996,12,0,180086,0:0:0:0:
256,192,179996,12,0,180086,0:0:0:0:
256,192,179996,12,0,180086,0:0:0:0:
256,192,179996,12,0,180086,0:0:0:0:
256,192,179996,12,0,180086,0:0:0:0:
256,192,179996,12,0,180086,0:0:0:0:
256,192,179996,12,0,180086,0:0:0:0:
0,192,180355,5,0,0:0:0:0:
512,192,180355,5,0,0:0:0:0:
284,0,180355,5,0,0:0:0:0:
508,0,180355,1,0,0:0:0:0:
172,0,180355,1,0,0:0:0:0:
452,0,180355,1,0,0:0:0:0:
116,0,180355,1,0,0:0:0:0:
340,0,180355,1,0,0:0:0:0:
396,0,180355,1,0,0:0:0:0:
228,0,180355,1,0,0:0:0:0:
0,192,180400,1,0,0:0:0:0:
512,192,180400,1,0,0:0:0:0:
0,192,180445,1,0,0:0:0:0:
512,192,180445,1,0,0:0:0:0:
340,0,180445,1,0,0:0:0:0:
116,0,180445,1,0,0:0:0:0:
396,0,180445,1,0,0:0:0:0:
228,0,180445,1,0,0:0:0:0:
508,0,180445,1,0,0:0:0:0:
284,0,180445,1,0,0:0:0:0:
452,0,180445,1,0,0:0:0:0:
172,0,180445,1,0,0:0:0:0:
0,192,180490,1,0,0:0:0:0:
512,192,180490,1,0,0:0:0:0:
4,52,180535,5,0,0:0:0:0:
0,192,180535,1,0,0:0:0:0:
512,192,180535,1,0,0:0:0:0:
60,52,180535,1,0,0:0:0:0:
228,52,180535,1,0,0:0:0:0:
340,52,180535,1,0,0:0:0:0:
284,52,180535,1,0,0:0:0:0:
396,52,180535,1,0,0:0:0:0:
508,52,180535,1,0,0:0:0:0:
452,52,180535,1,0,0:0:0:0:
0,192,180580,1,0,0:0:0:0:
512,192,180580,1,0,0:0:0:0:
4,52,180625,5,0,0:0:0:0:
0,192,180625,1,0,0:0:0:0:
512,192,180625,1,0,0:0:0:0:
396,52,180625,1,0,0:0:0:0:
284,52,180625,1,0,0:0:0:0:
452,52,180625,1,0,0:0:0:0:
508,52,180625,1,0,0:0:0:0:
60,52,180625,1,0,0:0:0:0:
340,52,180625,1,0,0:0:0:0:
228,52,180625,1,0,0:0:0:0:
0,192,180670,1,0,0:0:0:0:
512,192,180670,1,0,0:0:0:0:
4,104,180715,5,0,0:0:0:0:
0,192,180715,1,0,0:0:0:0:
512,192,180715,1,0,0:0:0:0:
396,104,180715,1,0,0:0:0:0:
508,104,180715,1,0,0:0:0:0:
172,104,180715,1,0,0:0:0:0:
452,104,180715,1,0,0:0:0:0:
60,104,180715,1,0,0:0:0:0:
116,104,180715,1,0,0:0:0:0:
340,104,180715,1,0,0:0:0:0:
0,192,180760,1,0,0:0:0:0:
512,192,180760,1,0,0:0:0:0:
4,104,180805,5,0,0:0:0:0:
0,192,180805,1,0,0:0:0:0:
512,192,180805,1,0,0:0:0:0:
60,104,180805,1,0,0:0:0:0:
452,104,180805,1,0,0:0:0:0:
340,104,180805,1,0,0:0:0:0:
116,104,180805,1,0,0:0:0:0:
396,104,180805,1,0,0:0:0:0:
172,104,180805,1,0,0:0:0:0:
508,104,180805,1,0,0:0:0:0:
0,192,180850,1,0,0:0:0:0:
512,192,180850,1,0,0:0:0:0:
4,152,180895,5,0,0:0:0:0:
0,192,180895,1,0,0:0:0:0:
512,192,180895,1,0,0:0:0:0:
508,152,180895,1,0,0:0:0:0:
172,152,180895,1,0,0:0:0:0:
452,152,180895,1,0,0:0:0:0:
60,152,180895,1,0,0:0:0:0:
116,152,180895,1,0,0:0:0:0:
228,152,180895,1,0,0:0:0:0:
284,152,180895,1,0,0:0:0:0:
0,192,180940,1,0,0:0:0:0:
512,192,180940,1,0,0:0:0:0:
4,152,180985,5,0,0:0:0:0:
0,192,180985,1,0,0:0:0:0:
512,192,180985,1,0,0:0:0:0:
116,152,180985,1,0,0:0:0:0:
60,152,180985,1,0,0:0:0:0:
284,152,180985,1,0,0:0:0:0:
228,152,180985,1,0,0:0:0:0:
508,152,180985,1,0,0:0:0:0:
452,152,180985,1,0,0:0:0:0:
172,152,180985,1,0,0:0:0:0:
0,192,181030,1,0,0:0:0:0:
512,192,181030,1,0,0:0:0:0:
0,192,181075,5,0,0:0:0:0:
512,192,181075,5,0,0:0:0:0:
4,212,181075,5,0,0:0:0:0:
60,212,181075,1,0,0:0:0:0:
116,212,181075,1,0,0:0:0:0:
228,212,181075,1,0,0:0:0:0:
396,212,181075,1,0,0:0:0:0:
508,212,181075,1,0,0:0:0:0:
452,212,181075,1,0,0:0:0:0:
172,212,181075,1,0,0:0:0:0:
0,192,181120,1,0,0:0:0:0:
512,192,181120,1,0,0:0:0:0:
4,256,181165,5,0,0:0:0:0:
0,192,181165,1,0,0:0:0:0:
512,192,181165,1,0,0:0:0:0:
116,256,181165,1,0,0:0:0:0:
60,256,181165,1,0,0:0:0:0:
340,256,181165,1,0,0:0:0:0:
508,256,181165,1,0,0:0:0:0:
396,256,181165,1,0,0:0:0:0:
452,256,181165,1,0,0:0:0:0:
172,256,181165,1,0,0:0:0:0:
0,192,181210,1,0,0:0:0:0:
512,192,181210,1,0,0:0:0:0:
4,300,181255,5,0,0:0:0:0:
0,192,181255,1,0,0:0:0:0:
512,192,181255,1,0,0:0:0:0:
508,300,181255,1,0,0:0:0:0:
396,300,181255,1,0,0:0:0:0:
452,300,181255,1,0,0:0:0:0:
284,300,181255,1,0,0:0:0:0:
116,300,181255,1,0,0:0:0:0:
60,300,181255,1,0,0:0:0:0:
340,300,181255,1,0,0:0:0:0:
0,192,181300,1,0,0:0:0:0:
512,192,181300,1,0,0:0:0:0:
4,336,181345,5,0,0:0:0:0:
0,192,181345,1,0,0:0:0:0:
512,192,181345,1,0,0:0:0:0:
396,336,181345,1,0,0:0:0:0:
508,336,181345,1,0,0:0:0:0:
452,336,181345,1,0,0:0:0:0:
60,336,181345,1,0,0:0:0:0:
116,336,181345,1,0,0:0:0:0:
340,336,181345,1,0,0:0:0:0:
172,336,181345,1,0,0:0:0:0:
0,192,181390,1,0,0:0:0:0:
512,192,181390,1,0,0:0:0:0:
0,192,181435,1,0,0:0:0:0:
512,192,181435,1,0,0:0:0:0:
4,380,181436,5,0,0:0:0:0:
396,380,181436,1,0,0:0:0:0:
508,380,181436,1,0,0:0:0:0:
172,380,181436,1,0,0:0:0:0:
452,380,181436,1,0,0:0:0:0:
60,380,181436,1,0,0:0:0:0:
116,380,181436,1,0,0:0:0:0:
228,380,181436,1,0,0:0:0:0:
0,192,181480,1,0,0:0:0:0:
512,192,181480,1,0,0:0:0:0:
0,192,181525,1,0,0:0:0:0:
512,192,181525,1,0,0:0:0:0:
0,192,181570,1,0,0:0:0:0:
512,192,181570,1,0,0:0:0:0:
0,192,181615,1,0,0:0:0:0:
512,192,181615,1,0,0:0:0:0:
4,0,181616,5,0,0:0:0:0:
396,0,181616,1,0,0:0:0:0:
284,0,181616,1,0,0:0:0:0:
508,0,181616,1,0,0:0:0:0:
452,0,181616,1,0,0:0:0:0:
340,0,181616,1,0,0:0:0:0:
0,192,181660,1,0,0:0:0:0:
512,192,181660,1,0,0:0:0:0:
0,192,181705,1,0,0:0:0:0:
512,192,181705,1,0,0:0:0:0:
0,192,181750,1,0,0:0:0:0:
512,192,181750,1,0,0:0:0:0:
0,192,181796,5,0,0:0:0:0:
512,192,181796,5,0,0:0:0:0:
228,0,181796,5,0,0:0:0:0:
4,0,181796,1,0,0:0:0:0:
396,0,181796,1,0,0:0:0:0:
60,0,181796,1,0,0:0:0:0:
340,0,181796,1,0,0:0:0:0:
172,0,181796,1,0,0:0:0:0:
116,0,181796,1,0,0:0:0:0:
284,0,181796,1,0,0:0:0:0:
0,192,181841,1,0,0:0:0:0:
512,192,181841,1,0,0:0:0:0:
0,192,181886,1,0,0:0:0:0:
512,192,181886,1,0,0:0:0:0:
228,0,181886,1,0,0:0:0:0:
4,0,181886,1,0,0:0:0:0:
340,0,181886,1,0,0:0:0:0:
60,0,181886,1,0,0:0:0:0:
396,0,181886,1,0,0:0:0:0:
172,0,181886,1,0,0:0:0:0:
284,0,181886,1,0,0:0:0:0:
116,0,181886,1,0,0:0:0:0:
0,192,181931,1,0,0:0:0:0:
512,192,181931,1,0,0:0:0:0:
508,52,181976,5,0,0:0:0:0:
0,192,181976,1,0,0:0:0:0:
512,192,181976,1,0,0:0:0:0:
452,52,181976,1,0,0:0:0:0:
228,52,181976,1,0,0:0:0:0:
172,52,181976,1,0,0:0:0:0:
284,52,181976,1,0,0:0:0:0:
116,52,181976,1,0,0:0:0:0:
60,52,181976,1,0,0:0:0:0:
4,52,181976,1,0,0:0:0:0:
0,192,182021,1,0,0:0:0:0:
512,192,182021,1,0,0:0:0:0:
508,52,182066,5,0,0:0:0:0:
0,192,182066,1,0,0:0:0:0:
512,192,182066,1,0,0:0:0:0:
452,52,182066,1,0,0:0:0:0:
4,52,182066,1,0,0:0:0:0:
284,52,182066,1,0,0:0:0:0:
172,52,182066,1,0,0:0:0:0:
116,52,182066,1,0,0:0:0:0:
60,52,182066,1,0,0:0:0:0:
228,52,182066,1,0,0:0:0:0:
0,192,182111,1,0,0:0:0:0:
512,192,182111,1,0,0:0:0:0:
508,104,182156,5,0,0:0:0:0:
0,192,182156,1,0,0:0:0:0:
512,192,182156,1,0,0:0:0:0:
116,104,182156,1,0,0:0:0:0:
60,104,182156,1,0,0:0:0:0:
340,104,182156,1,0,0:0:0:0:
4,104,182156,1,0,0:0:0:0:
452,104,182156,1,0,0:0:0:0:
172,104,182156,1,0,0:0:0:0:
396,104,182156,1,0,0:0:0:0:
0,192,182201,1,0,0:0:0:0:
512,192,182201,1,0,0:0:0:0:
508,104,182246,5,0,0:0:0:0:
0,192,182246,1,0,0:0:0:0:
512,192,182246,1,0,0:0:0:0:
116,104,182246,1,0,0:0:0:0:
396,104,182246,1,0,0:0:0:0:
4,104,182246,1,0,0:0:0:0:
340,104,182246,1,0,0:0:0:0:
452,104,182246,1,0,0:0:0:0:
172,104,182246,1,0,0:0:0:0:
60,104,182246,1,0,0:0:0:0:
0,192,182291,1,0,0:0:0:0:
512,192,182291,1,0,0:0:0:0:
508,152,182336,5,0,0:0:0:0:
0,192,182336,1,0,0:0:0:0:
512,192,182336,1,0,0:0:0:0:
4,152,182336,1,0,0:0:0:0:
452,152,182336,1,0,0:0:0:0:
60,152,182336,1,0,0:0:0:0:
340,152,182336,1,0,0:0:0:0:
396,152,182336,1,0,0:0:0:0:
228,152,182336,1,0,0:0:0:0:
284,152,182336,1,0,0:0:0:0:
0,192,182381,1,0,0:0:0:0:
512,192,182381,1,0,0:0:0:0:
508,152,182426,5,0,0:0:0:0:
0,192,182426,1,0,0:0:0:0:
512,192,182426,1,0,0:0:0:0:
4,152,182426,1,0,0:0:0:0:
284,152,182426,1,0,0:0:0:0:
340,152,182426,1,0,0:0:0:0:
60,152,182426,1,0,0:0:0:0:
396,152,182426,1,0,0:0:0:0:
228,152,182426,1,0,0:0:0:0:
452,152,182426,1,0,0:0:0:0:
0,192,182471,1,0,0:0:0:0:
512,192,182471,1,0,0:0:0:0:
508,212,182516,5,0,0:0:0:0:
452,212,182516,1,0,0:0:0:0:
116,212,182516,1,0,0:0:0:0:
284,212,182516,1,0,0:0:0:0:
396,212,182516,1,0,0:0:0:0:
4,212,182516,1,0,0:0:0:0:
340,212,182516,1,0,0:0:0:0:
60,212,182516,1,0,0:0:0:0:
0,192,182517,5,0,0:0:0:0:
512,192,182517,5,0,0:0:0:0:
0,192,182562,1,0,0:0:0:0:
512,192,182562,1,0,0:0:0:0:
508,256,182606,5,0,0:0:0:0:
116,256,182606,1,0,0:0:0:0:
4,256,182606,1,0,0:0:0:0:
340,256,182606,1,0,0:0:0:0:
60,256,182606,1,0,0:0:0:0:
396,256,182606,1,0,0:0:0:0:
172,256,182606,1,0,0:0:0:0:
452,256,182606,1,0,0:0:0:0:
0,192,182607,1,0,0:0:0:0:
512,192,182607,1,0,0:0:0:0:
0,192,182652,1,0,0:0:0:0:
512,192,182652,1,0,0:0:0:0:
508,300,182696,5,0,0:0:0:0:
4,300,182696,1,0,0:0:0:0:
228,300,182696,1,0,0:0:0:0:
60,300,182696,1,0,0:0:0:0:
116,300,182696,1,0,0:0:0:0:
396,300,182696,1,0,0:0:0:0:
172,300,182696,1,0,0:0:0:0:
452,300,182696,1,0,0:0:0:0:
0,192,182697,1,0,0:0:0:0:
512,192,182697,1,0,0:0:0:0:
0,192,182742,1,0,0:0:0:0:
512,192,182742,1,0,0:0:0:0:
508,336,182786,5,0,0:0:0:0:
396,336,182786,1,0,0:0:0:0:
452,336,182786,1,0,0:0:0:0:
340,336,182786,1,0,0:0:0:0:
172,336,182786,1,0,0:0:0:0:
116,336,182786,1,0,0:0:0:0:
60,336,182786,1,0,0:0:0:0:
4,336,182786,1,0,0:0:0:0:
0,192,182787,1,0,0:0:0:0:
512,192,182787,1,0,0:0:0:0:
0,192,182832,1,0,0:0:0:0:
512,192,182832,1,0,0:0:0:0:
508,380,182877,5,0,0:0:0:0:
0,192,182877,1,0,0:0:0:0:
512,192,182877,1,0,0:0:0:0:
116,380,182877,1,0,0:0:0:0:
60,380,182877,1,0,0:0:0:0:
340,380,182877,1,0,0:0:0:0:
4,380,182877,1,0,0:0:0:0:
452,380,182877,1,0,0:0:0:0:
284,380,182877,1,0,0:0:0:0:
396,380,182877,1,0,0:0:0:0:
0,192,182922,1,0,0:0:0:0:
512,192,182922,1,0,0:0:0:0:
0,192,182967,1,0,0:0:0:0:
512,192,182967,1,0,0:0:0:0:
0,192,183012,1,0,0:0:0:0:
512,192,183012,1,0,0:0:0:0:
508,0,183057,5,0,0:0:0:0:
0,192,183057,1,0,0:0:0:0:
512,192,183057,1,0,0:0:0:0:
60,0,183057,1,0,0:0:0:0:
172,0,183057,1,0,0:0:0:0:
116,0,183057,1,0,0:0:0:0:
4,0,183057,1,0,0:0:0:0:
228,0,183057,1,0,0:0:0:0:
0,192,183102,1,0,0:0:0:0:
512,192,183102,1,0,0:0:0:0:
0,192,183147,1,0,0:0:0:0:
512,192,183147,1,0,0:0:0:0:
0,192,183192,1,0,0:0:0:0:
512,192,183192,1,0,0:0:0:0:
0,192,183237,5,0,0:0:0:0:
512,192,183237,5,0,0:0:0:0:
4,0,183237,5,0,0:0:0:0:
396,0,183237,1,0,0:0:0:0:
284,0,183237,1,0,0:0:0:0:
508,0,183237,1,0,0:0:0:0:
452,0,183237,1,0,0:0:0:0:
60,0,183237,1,0,0:0:0:0:
340,0,183237,1,0,0:0:0:0:
228,0,183237,1,0,0:0:0:0:
0,192,183282,1,0,0:0:0:0:
512,192,183282,1,0,0:0:0:0:
4,0,183327,5,0,0:0:0:0:
0,192,183327,1,0,0:0:0:0:
512,192,183327,1,0,0:0:0:0:
60,0,183327,1,0,0:0:0:0:
452,0,183327,1,0,0:0:0:0:
228,0,183327,1,0,0:0:0:0:
340,0,183327,1,0,0:0:0:0:
396,0,183327,1,0,0:0:0:0:
508,0,183327,1,0,0:0:0:0:
284,0,183327,1,0,0:0:0:0:
0,192,183372,1,0,0:0:0:0:
512,192,183372,1,0,0:0:0:0:
0,192,183417,1,0,0:0:0:0:
512,192,183417,1,0,0:0:0:0:
4,32,183418,5,0,0:0:0:0:
60,32,183418,1,0,0:0:0:0:
116,32,183418,1,0,0:0:0:0:
340,32,183418,1,0,0:0:0:0:
396,32,183418,1,0,0:0:0:0:
508,32,183418,1,0,0:0:0:0:
452,32,183418,1,0,0:0:0:0:
172,32,183418,1,0,0:0:0:0:
0,192,183462,1,0,0:0:0:0:
512,192,183462,1,0,0:0:0:0:
0,192,183507,1,0,0:0:0:0:
512,192,183507,1,0,0:0:0:0:
4,32,183508,5,0,0:0:0:0:
508,32,183508,1,0,0:0:0:0:
396,32,183508,1,0,0:0:0:0:
172,32,183508,1,0,0:0:0:0:
452,32,183508,1,0,0:0:0:0:
60,32,183508,1,0,0:0:0:0:
340,32,183508,1,0,0:0:0:0:
116,32,183508,1,0,0:0:0:0:
0,192,183552,1,0,0:0:0:0:
512,192,183552,1,0,0:0:0:0:
0,192,183597,1,0,0:0:0:0:
512,192,183597,1,0,0:0:0:0:
4,68,183598,5,0,0:0:0:0:
284,68,183598,1,0,0:0:0:0:
508,68,183598,1,0,0:0:0:0:
172,68,183598,1,0,0:0:0:0:
452,68,183598,1,0,0:0:0:0:
60,68,183598,1,0,0:0:0:0:
116,68,183598,1,0,0:0:0:0:
228,68,183598,1,0,0:0:0:0:
0,192,183642,1,0,0:0:0:0:
512,192,183642,1,0,0:0:0:0:
0,192,183687,1,0,0:0:0:0:
512,192,183687,1,0,0:0:0:0:
4,68,183688,5,0,0:0:0:0:
60,68,183688,1,0,0:0:0:0:
452,68,183688,1,0,0:0:0:0:
228,68,183688,1,0,0:0:0:0:
116,68,183688,1,0,0:0:0:0:
284,68,183688,1,0,0:0:0:0:
172,68,183688,1,0,0:0:0:0:
508,68,183688,1,0,0:0:0:0:
0,192,183732,1,0,0:0:0:0:
512,192,183732,1,0,0:0:0:0:
0,192,183777,1,0,0:0:0:0:
512,192,183777,1,0,0:0:0:0:
4,96,183778,5,0,0:0:0:0:
60,96,183778,1,0,0:0:0:0:
116,96,183778,1,0,0:0:0:0:
340,96,183778,1,0,0:0:0:0:
396,96,183778,1,0,0:0:0:0:
508,96,183778,1,0,0:0:0:0:
452,96,183778,1,0,0:0:0:0:
172,96,183778,1,0,0:0:0:0:
0,192,183822,1,0,0:0:0:0:
512,192,183822,1,0,0:0:0:0:
0,192,183867,1,0,0:0:0:0:
512,192,183867,1,0,0:0:0:0:
4,96,183868,5,0,0:0:0:0:
508,96,183868,1,0,0:0:0:0:
396,96,183868,1,0,0:0:0:0:
172,96,183868,1,0,0:0:0:0:
452,96,183868,1,0,0:0:0:0:
60,96,183868,1,0,0:0:0:0:
340,96,183868,1,0,0:0:0:0:
116,96,183868,1,0,0:0:0:0:
0,192,183912,1,0,0:0:0:0:
512,192,183912,1,0,0:0:0:0:
0,192,183958,5,0,0:0:0:0:
512,192,183958,5,0,0:0:0:0:
4,140,183958,5,0,0:0:0:0:
116,140,183958,1,0,0:0:0:0:
284,140,183958,1,0,0:0:0:0:
60,140,183958,1,0,0:0:0:0:
340,140,183958,1,0,0:0:0:0:
508,140,183958,1,0,0:0:0:0:
396,140,183958,1,0,0:0:0:0:
452,140,183958,1,0,0:0:0:0:
0,192,184003,1,0,0:0:0:0:
512,192,184003,1,0,0:0:0:0:
4,164,184048,5,0,0:0:0:0:
0,192,184048,1,0,0:0:0:0:
512,192,184048,1,0,0:0:0:0:
508,164,184048,1,0,0:0:0:0:
396,164,184048,1,0,0:0:0:0:
172,164,184048,1,0,0:0:0:0:
452,164,184048,1,0,0:0:0:0:
116,164,184048,1,0,0:0:0:0:
60,164,184048,1,0,0:0:0:0:
340,164,184048,1,0,0:0:0:0:
0,192,184093,1,0,0:0:0:0:
512,192,184093,1,0,0:0:0:0:
4,188,184138,5,0,0:0:0:0:
0,192,184138,1,0,0:0:0:0:
512,192,184138,1,0,0:0:0:0:
396,188,184138,1,0,0:0:0:0:
508,188,184138,1,0,0:0:0:0:
172,188,184138,1,0,0:0:0:0:
452,188,184138,1,0,0:0:0:0:
60,188,184138,1,0,0:0:0:0:
116,188,184138,1,0,0:0:0:0:
228,188,184138,1,0,0:0:0:0:
0,192,184183,1,0,0:0:0:0:
512,192,184183,1,0,0:0:0:0:
4,216,184228,5,0,0:0:0:0:
0,192,184228,1,0,0:0:0:0:
512,192,184228,1,0,0:0:0:0:
60,216,184228,1,0,0:0:0:0:
116,216,184228,1,0,0:0:0:0:
228,216,184228,1,0,0:0:0:0:
284,216,184228,1,0,0:0:0:0:
508,216,184228,1,0,0:0:0:0:
452,216,184228,1,0,0:0:0:0:
172,216,184228,1,0,0:0:0:0:
0,192,184273,1,0,0:0:0:0:
512,192,184273,1,0,0:0:0:0:
4,244,184318,5,0,0:0:0:0:
0,192,184318,1,0,0:0:0:0:
512,192,184318,1,0,0:0:0:0:
116,244,184318,1,0,0:0:0:0:
60,244,184318,1,0,0:0:0:0:
228,244,184318,1,0,0:0:0:0:
508,244,184318,1,0,0:0:0:0:
396,244,184318,1,0,0:0:0:0:
452,244,184318,1,0,0:0:0:0:
172,244,184318,1,0,0:0:0:0:
0,192,184363,1,0,0:0:0:0:
512,192,184363,1,0,0:0:0:0:
0,192,184408,1,0,0:0:0:0:
512,192,184408,1,0,0:0:0:0:
0,192,184453,1,0,0:0:0:0:
512,192,184453,1,0,0:0:0:0:
0,192,184498,1,0,0:0:0:0:
512,192,184498,1,0,0:0:0:0:
4,300,184499,5,0,0:0:0:0:
508,300,184499,1,0,0:0:0:0:
396,300,184499,1,0,0:0:0:0:
452,300,184499,1,0,0:0:0:0:
284,300,184499,1,0,0:0:0:0:
60,300,184499,1,0,0:0:0:0:
340,300,184499,1,0,0:0:0:0:
228,300,184499,1,0,0:0:0:0:
0,192,184543,1,0,0:0:0:0:
512,192,184543,1,0,0:0:0:0:
0,192,184588,1,0,0:0:0:0:
512,192,184588,1,0,0:0:0:0:
0,192,184633,1,0,0:0:0:0:
512,192,184633,1,0,0:0:0:0:
0,192,184679,5,0,0:0:0:0:
512,192,184679,5,0,0:0:0:0:
508,0,184679,5,0,0:0:0:0:
116,0,184679,1,0,0:0:0:0:
60,0,184679,1,0,0:0:0:0:
4,0,184679,1,0,0:0:0:0:
228,0,184679,1,0,0:0:0:0:
452,0,184679,1,0,0:0:0:0:
284,0,184679,1,0,0:0:0:0:
172,0,184679,1,0,0:0:0:0:
0,192,184724,1,0,0:0:0:0:
512,192,184724,1,0,0:0:0:0:
508,0,184769,5,0,0:0:0:0:
0,192,184769,1,0,0:0:0:0:
512,192,184769,1,0,0:0:0:0:
116,0,184769,1,0,0:0:0:0:
172,0,184769,1,0,0:0:0:0:
228,0,184769,1,0,0:0:0:0:
4,0,184769,1,0,0:0:0:0:
452,0,184769,1,0,0:0:0:0:
284,0,184769,1,0,0:0:0:0:
60,0,184769,1,0,0:0:0:0:
0,192,184814,1,0,0:0:0:0:
512,192,184814,1,0,0:0:0:0:
0,192,184859,1,0,0:0:0:0:
512,192,184859,1,0,0:0:0:0:
508,32,184860,5,0,0:0:0:0:
452,32,184860,1,0,0:0:0:0:
116,32,184860,1,0,0:0:0:0:
172,32,184860,1,0,0:0:0:0:
396,32,184860,1,0,0:0:0:0:
4,32,184860,1,0,0:0:0:0:
340,32,184860,1,0,0:0:0:0:
60,32,184860,1,0,0:0:0:0:
0,192,184904,1,0,0:0:0:0:
512,192,184904,1,0,0:0:0:0:
0,192,184949,1,0,0:0:0:0:
512,192,184949,1,0,0:0:0:0:
508,32,184950,5,0,0:0:0:0:
452,32,184950,1,0,0:0:0:0:
60,32,184950,1,0,0:0:0:0:
396,32,184950,1,0,0:0:0:0:
172,32,184950,1,0,0:0:0:0:
4,32,184950,1,0,0:0:0:0:
340,32,184950,1,0,0:0:0:0:
116,32,184950,1,0,0:0:0:0:
0,192,184994,1,0,0:0:0:0:
512,192,184994,1,0,0:0:0:0:
0,192,185039,1,0,0:0:0:0:
512,192,185039,1,0,0:0:0:0:
508,68,185040,5,0,0:0:0:0:
228,68,185040,1,0,0:0:0:0:
60,68,185040,1,0,0:0:0:0:
340,68,185040,1,0,0:0:0:0:
4,68,185040,1,0,0:0:0:0:
452,68,185040,1,0,0:0:0:0:
284,68,185040,1,0,0:0:0:0:
396,68,185040,1,0,0:0:0:0:
0,192,185084,1,0,0:0:0:0:
512,192,185084,1,0,0:0:0:0:
0,192,185129,1,0,0:0:0:0:
512,192,185129,1,0,0:0:0:0:
508,68,185130,5,0,0:0:0:0:
228,68,185130,1,0,0:0:0:0:
396,68,185130,1,0,0:0:0:0:
4,68,185130,1,0,0:0:0:0:
340,68,185130,1,0,0:0:0:0:
452,68,185130,1,0,0:0:0:0:
284,68,185130,1,0,0:0:0:0:
60,68,185130,1,0,0:0:0:0:
0,192,185174,1,0,0:0:0:0:
512,192,185174,1,0,0:0:0:0:
0,192,185219,1,0,0:0:0:0:
512,192,185219,1,0,0:0:0:0:
508,96,185220,5,0,0:0:0:0:
452,96,185220,1,0,0:0:0:0:
116,96,185220,1,0,0:0:0:0:
172,96,185220,1,0,0:0:0:0:
396,96,185220,1,0,0:0:0:0:
4,96,185220,1,0,0:0:0:0:
340,96,185220,1,0,0:0:0:0:
60,96,185220,1,0,0:0:0:0:
0,192,185264,1,0,0:0:0:0:
512,192,185264,1,0,0:0:0:0:
0,192,185309,1,0,0:0:0:0:
512,192,185309,1,0,0:0:0:0:
508,96,185310,5,0,0:0:0:0:
452,96,185310,1,0,0:0:0:0:
60,96,185310,1,0,0:0:0:0:
396,96,185310,1,0,0:0:0:0:
172,96,185310,1,0,0:0:0:0:
4,96,185310,1,0,0:0:0:0:
340,96,185310,1,0,0:0:0:0:
116,96,185310,1,0,0:0:0:0:
0,192,185354,1,0,0:0:0:0:
512,192,185354,1,0,0:0:0:0:
0,192,185399,5,0,0:0:0:0:
512,192,185399,5,0,0:0:0:0:
508,140,185400,5,0,0:0:0:0:
396,140,185400,1,0,0:0:0:0:
172,140,185400,1,0,0:0:0:0:
452,140,185400,1,0,0:0:0:0:
228,140,185400,1,0,0:0:0:0:
4,140,185400,1,0,0:0:0:0:
60,140,185400,1,0,0:0:0:0:
116,140,185400,1,0,0:0:0:0:
0,192,185444,1,0,0:0:0:0:
512,192,185444,1,0,0:0:0:0:
0,192,185489,1,0,0:0:0:0:
512,192,185489,1,0,0:0:0:0:
508,164,185490,5,0,0:0:0:0:
396,164,185490,1,0,0:0:0:0:
60,164,185490,1,0,0:0:0:0:
172,164,185490,1,0,0:0:0:0:
452,164,185490,1,0,0:0:0:0:
4,164,185490,1,0,0:0:0:0:
340,164,185490,1,0,0:0:0:0:
116,164,185490,1,0,0:0:0:0:
0,192,185534,1,0,0:0:0:0:
512,192,185534,1,0,0:0:0:0:
0,192,185579,1,0,0:0:0:0:
512,192,185579,1,0,0:0:0:0:
508,188,185580,5,0,0:0:0:0:
116,188,185580,1,0,0:0:0:0:
60,188,185580,1,0,0:0:0:0:
340,188,185580,1,0,0:0:0:0:
4,188,185580,1,0,0:0:0:0:
452,188,185580,1,0,0:0:0:0:
284,188,185580,1,0,0:0:0:0:
396,188,185580,1,0,0:0:0:0:
0,192,185624,1,0,0:0:0:0:
512,192,185624,1,0,0:0:0:0:
0,192,185669,1,0,0:0:0:0:
512,192,185669,1,0,0:0:0:0:
508,216,185670,5,0,0:0:0:0:
4,216,185670,1,0,0:0:0:0:
228,216,185670,1,0,0:0:0:0:
340,216,185670,1,0,0:0:0:0:
60,216,185670,1,0,0:0:0:0:
452,216,185670,1,0,0:0:0:0:
284,216,185670,1,0,0:0:0:0:
396,216,185670,1,0,0:0:0:0:
0,192,185714,1,0,0:0:0:0:
512,192,185714,1,0,0:0:0:0:
0,192,185759,1,0,0:0:0:0:
512,192,185759,1,0,0:0:0:0:
508,244,185760,5,0,0:0:0:0:
396,244,185760,1,0,0:0:0:0:
4,244,185760,1,0,0:0:0:0:
284,244,185760,1,0,0:0:0:0:
452,244,185760,1,0,0:0:0:0:
116,244,185760,1,0,0:0:0:0:
340,244,185760,1,0,0:0:0:0:
60,244,185760,1,0,0:0:0:0:
0,192,185804,1,0,0:0:0:0:
512,192,185804,1,0,0:0:0:0:
0,192,185849,1,0,0:0:0:0:
512,192,185849,1,0,0:0:0:0:
0,192,185894,1,0,0:0:0:0:
512,192,185894,1,0,0:0:0:0:
0,192,185939,1,0,0:0:0:0:
512,192,185939,1,0,0:0:0:0:
508,300,185941,5,0,0:0:0:0:
452,300,185941,1,0,0:0:0:0:
228,300,185941,1,0,0:0:0:0:
284,300,185941,1,0,0:0:0:0:
172,300,185941,1,0,0:0:0:0:
4,300,185941,1,0,0:0:0:0:
60,300,185941,1,0,0:0:0:0:
116,300,185941,1,0,0:0:0:0:
0,192,185984,1,0,0:0:0:0:
512,192,185984,1,0,0:0:0:0:
0,192,186029,1,0,0:0:0:0:
512,192,186029,1,0,0:0:0:0:
0,192,186074,1,0,0:0:0:0:
512,192,186074,1,0,0:0:0:0:
0,192,186120,5,0,0:0:0:0:
512,192,186120,5,0,0:0:0:0:
4,0,186120,5,0,0:0:0:0:
396,0,186120,1,0,0:0:0:0:
508,0,186120,1,0,0:0:0:0:
452,0,186120,1,0,0:0:0:0:
60,0,186120,1,0,0:0:0:0:
340,0,186120,1,0,0:0:0:0:
116,0,186120,2,0,L|116:84,1,70
284,0,186120,2,0,L|284:84,1,70
0,192,186165,1,0,0:0:0:0:
512,192,186165,1,0,0:0:0:0:
0,192,186210,1,0,0:0:0:0:
512,192,186210,1,0,0:0:0:0:
0,192,186255,1,0,0:0:0:0:
512,192,186255,1,0,0:0:0:0:
4,76,186300,5,0,0:0:0:0:
0,192,186300,1,0,0:0:0:0:
512,192,186300,1,0,0:0:0:0:
508,76,186300,1,0,0:0:0:0:
172,76,186300,1,0,0:0:0:0:
452,76,186300,1,0,0:0:0:0:
60,76,186300,1,0,0:0:0:0:
116,76,186300,1,0,0:0:0:0:
228,76,186300,2,0,L|228:168,1,70
396,76,186300,2,0,L|396:168,1,70
0,192,186345,1,0,0:0:0:0:
512,192,186345,1,0,0:0:0:0:
0,192,186390,1,0,0:0:0:0:
512,192,186390,1,0,0:0:0:0:
0,192,186435,1,0,0:0:0:0:
512,192,186435,1,0,0:0:0:0:
0,192,186480,1,0,0:0:0:0:
512,192,186480,1,0,0:0:0:0:
4,184,186481,5,0,0:0:0:0:
340,184,186481,2,0,L|340:272,1,70
60,184,186481,1,0,0:0:0:0:
116,184,186481,1,0,0:0:0:0:
228,184,186481,1,0,0:0:0:0:
284,184,186481,1,0,0:0:0:0:
172,184,186481,1,0,0:0:0:0:
508,192,186481,2,0,L|508:284,1,70
0,192,186525,1,0,0:0:0:0:
512,192,186525,1,0,0:0:0:0:
0,192,186570,1,0,0:0:0:0:
512,192,186570,1,0,0:0:0:0:
0,192,186615,1,0,0:0:0:0:
512,192,186615,1,0,0:0:0:0:
0,192,186660,1,0,0:0:0:0:
512,192,186660,1,0,0:0:0:0:
4,288,186661,5,0,0:0:0:0:
116,288,186661,1,0,0:0:0:0:
60,288,186661,1,0,0:0:0:0:
508,288,186661,1,0,0:0:0:0:
452,288,186661,1,0,0:0:0:0:
172,288,186661,1,0,0:0:0:0:
228,288,186661,2,0,L|228:368,1,70
396,288,186661,2,0,L|396:380,1,70
0,192,186705,1,0,0:0:0:0:
512,192,186705,1,0,0:0:0:0:
0,192,186750,1,0,0:0:0:0:
512,192,186750,1,0,0:0:0:0:
0,192,186795,1,0,0:0:0:0:
512,192,186795,1,0,0:0:0:0:
0,192,186841,5,0,0:0:0:0:
512,192,186841,5,0,0:0:0:0:
4,0,186841,5,0,0:0:0:0:
396,0,186841,1,0,0:0:0:0:
284,0,186841,1,0,0:0:0:0:
508,0,186841,1,0,0:0:0:0:
452,0,186841,1,0,0:0:0:0:
60,0,186841,1,0,0:0:0:0:
116,0,186841,1,0,0:0:0:0:
340,0,186841,1,0,0:0:0:0:
0,192,186886,1,0,0:0:0:0:
512,192,186886,1,0,0:0:0:0:
4,36,186931,5,0,0:0:0:0:
0,192,186931,1,0,0:0:0:0:
512,192,186931,1,0,0:0:0:0:
60,36,186931,1,0,0:0:0:0:
228,36,186931,1,0,0:0:0:0:
340,36,186931,1,0,0:0:0:0:
284,36,186931,1,0,0:0:0:0:
396,36,186931,1,0,0:0:0:0:
508,36,186931,1,0,0:0:0:0:
452,36,186931,1,0,0:0:0:0:
0,192,186976,1,0,0:0:0:0:
512,192,186976,1,0,0:0:0:0:
4,64,187021,5,0,0:0:0:0:
0,192,187021,1,0,0:0:0:0:
512,192,187021,1,0,0:0:0:0:
396,64,187021,1,0,0:0:0:0:
284,64,187021,1,0,0:0:0:0:
508,64,187021,1,0,0:0:0:0:
172,64,187021,1,0,0:0:0:0:
452,64,187021,1,0,0:0:0:0:
340,64,187021,1,0,0:0:0:0:
228,64,187021,1,0,0:0:0:0:
0,192,187066,1,0,0:0:0:0:
512,192,187066,1,0,0:0:0:0:
4,92,187111,5,0,0:0:0:0:
0,192,187111,1,0,0:0:0:0:
512,192,187111,1,0,0:0:0:0:
60,92,187111,1,0,0:0:0:0:
228,92,187111,1,0,0:0:0:0:
340,92,187111,1,0,0:0:0:0:
284,92,187111,1,0,0:0:0:0:
396,92,187111,1,0,0:0:0:0:
508,92,187111,1,0,0:0:0:0:
452,92,187111,1,0,0:0:0:0:
0,192,187156,1,0,0:0:0:0:
512,192,187156,1,0,0:0:0:0:
4,124,187201,5,0,0:0:0:0:
0,192,187201,1,0,0:0:0:0:
512,192,187201,1,0,0:0:0:0:
116,124,187201,1,0,0:0:0:0:
284,124,187201,1,0,0:0:0:0:
60,124,187201,1,0,0:0:0:0:
340,124,187201,1,0,0:0:0:0:
508,124,187201,1,0,0:0:0:0:
396,124,187201,1,0,0:0:0:0:
452,124,187201,1,0,0:0:0:0:
0,192,187246,1,0,0:0:0:0:
512,192,187246,1,0,0:0:0:0:
0,192,187291,1,0,0:0:0:0:
512,192,187291,1,0,0:0:0:0:
0,192,187336,1,0,0:0:0:0:
512,192,187336,1,0,0:0:0:0:
0,192,187381,1,0,0:0:0:0:
512,192,187381,1,0,0:0:0:0:
4,168,187382,5,0,0:0:0:0:
508,168,187382,1,0,0:0:0:0:
172,168,187382,1,0,0:0:0:0:
452,168,187382,1,0,0:0:0:0:
284,168,187382,1,0,0:0:0:0:
116,168,187382,1,0,0:0:0:0:
60,168,187382,1,0,0:0:0:0:
228,168,187382,1,0,0:0:0:0:
0,192,187426,1,0,0:0:0:0:
512,192,187426,1,0,0:0:0:0:
0,192,187471,1,0,0:0:0:0:
512,192,187471,1,0,0:0:0:0:
0,192,187516,1,0,0:0:0:0:
512,192,187516,1,0,0:0:0:0:
0,192,187561,5,0,0:0:0:0:
512,192,187561,5,0,0:0:0:0:
508,0,187562,5,0,0:0:0:0:
116,0,187562,1,0,0:0:0:0:
452,0,187562,1,0,0:0:0:0:
60,0,187562,1,0,0:0:0:0:
4,0,187562,1,0,0:0:0:0:
172,0,187562,1,0,0:0:0:0:
228,0,187562,2,0,L|228:84,1,70
396,0,187562,2,0,L|396:84,1,70
0,192,187606,1,0,0:0:0:0:
512,192,187606,1,0,0:0:0:0:
0,192,187651,1,0,0:0:0:0:
512,192,187651,1,0,0:0:0:0:
0,192,187696,1,0,0:0:0:0:
512,192,187696,1,0,0:0:0:0:
0,192,187741,1,0,0:0:0:0:
512,192,187741,1,0,0:0:0:0:
508,76,187742,5,0,0:0:0:0:
396,76,187742,1,0,0:0:0:0:
452,76,187742,1,0,0:0:0:0:
116,76,187742,2,0,L|116:168,1,70
284,76,187742,2,0,L|284:168,1,70
4,76,187742,1,0,0:0:0:0:
60,76,187742,1,0,0:0:0:0:
340,76,187742,1,0,0:0:0:0:
0,192,187786,1,0,0:0:0:0:
512,192,187786,1,0,0:0:0:0:
0,192,187831,1,0,0:0:0:0:
512,192,187831,1,0,0:0:0:0:
0,192,187876,1,0,0:0:0:0:
512,192,187876,1,0,0:0:0:0:
0,192,187921,1,0,0:0:0:0:
512,192,187921,1,0,0:0:0:0:
508,184,187923,5,0,0:0:0:0:
172,184,187923,2,0,L|172:272,1,70
284,184,187923,1,0,0:0:0:0:
396,184,187923,1,0,0:0:0:0:
452,184,187923,1,0,0:0:0:0:
228,184,187923,1,0,0:0:0:0:
4,192,187923,2,0,L|4:284,1,70
340,184,187923,1,0,0:0:0:0:
0,192,187966,1,0,0:0:0:0:
512,192,187966,1,0,0:0:0:0:
0,192,188011,1,0,0:0:0:0:
512,192,188011,1,0,0:0:0:0:
0,192,188056,1,0,0:0:0:0:
512,192,188056,1,0,0:0:0:0:
0,192,188101,1,0,0:0:0:0:
512,192,188101,1,0,0:0:0:0:
508,288,188103,5,0,0:0:0:0:
340,288,188103,1,0,0:0:0:0:
60,288,188103,1,0,0:0:0:0:
116,288,188103,2,0,L|116:380,1,70
284,288,188103,2,0,L|284:368,1,70
396,288,188103,1,0,0:0:0:0:
4,288,188103,1,0,0:0:0:0:
452,288,188103,1,0,0:0:0:0:
0,192,188146,1,0,0:0:0:0:
512,192,188146,1,0,0:0:0:0:
0,192,188191,1,0,0:0:0:0:
512,192,188191,1,0,0:0:0:0:
0,192,188236,1,0,0:0:0:0:
512,192,188236,1,0,0:0:0:0:
0,192,188282,5,0,0:0:0:0:
512,192,188282,5,0,0:0:0:0:
508,0,188283,5,0,0:0:0:0:
116,0,188283,1,0,0:0:0:0:
60,0,188283,1,0,0:0:0:0:
4,0,188283,1,0,0:0:0:0:
228,0,188283,1,0,0:0:0:0:
452,0,188283,1,0,0:0:0:0:
172,0,188283,1,0,0:0:0:0:
396,0,188283,1,0,0:0:0:0:
0,192,188327,1,0,0:0:0:0:
512,192,188327,1,0,0:0:0:0:
0,192,188372,1,0,0:0:0:0:
512,192,188372,1,0,0:0:0:0:
508,36,188373,5,0,0:0:0:0:
116,36,188373,1,0,0:0:0:0:
228,36,188373,1,0,0:0:0:0:
60,36,188373,1,0,0:0:0:0:
4,36,188373,1,0,0:0:0:0:
452,36,188373,1,0,0:0:0:0:
172,36,188373,1,0,0:0:0:0:
284,36,188373,1,0,0:0:0:0:
0,192,188417,1,0,0:0:0:0:
512,192,188417,1,0,0:0:0:0:
0,192,188462,1,0,0:0:0:0:
512,192,188462,1,0,0:0:0:0:
508,64,188463,5,0,0:0:0:0:
116,64,188463,1,0,0:0:0:0:
340,64,188463,1,0,0:0:0:0:
4,64,188463,1,0,0:0:0:0:
60,64,188463,1,0,0:0:0:0:
284,64,188463,1,0,0:0:0:0:
172,64,188463,1,0,0:0:0:0:
228,64,188463,1,0,0:0:0:0:
0,192,188507,1,0,0:0:0:0:
512,192,188507,1,0,0:0:0:0:
0,192,188552,1,0,0:0:0:0:
512,192,188552,1,0,0:0:0:0:
508,92,188553,5,0,0:0:0:0:
116,92,188553,1,0,0:0:0:0:
60,92,188553,1,0,0:0:0:0:
4,92,188553,1,0,0:0:0:0:
452,92,188553,1,0,0:0:0:0:
172,92,188553,1,0,0:0:0:0:
284,92,188553,1,0,0:0:0:0:
228,92,188553,1,0,0:0:0:0:
0,192,188597,1,0,0:0:0:0:
512,192,188597,1,0,0:0:0:0:
0,192,188642,1,0,0:0:0:0:
512,192,188642,1,0,0:0:0:0:
508,124,188643,5,0,0:0:0:0:
396,124,188643,1,0,0:0:0:0:
172,124,188643,1,0,0:0:0:0:
452,124,188643,1,0,0:0:0:0:
228,124,188643,1,0,0:0:0:0:
4,124,188643,1,0,0:0:0:0:
60,124,188643,1,0,0:0:0:0:
116,124,188643,1,0,0:0:0:0:
0,192,188687,1,0,0:0:0:0:
512,192,188687,1,0,0:0:0:0:
0,192,188732,1,0,0:0:0:0:
512,192,188732,1,0,0:0:0:0:
0,192,188777,1,0,0:0:0:0:
512,192,188777,1,0,0:0:0:0:
0,192,188822,1,0,0:0:0:0:
512,192,188822,1,0,0:0:0:0:
508,168,188824,5,0,0:0:0:0:
396,168,188824,1,0,0:0:0:0:
228,168,188824,1,0,0:0:0:0:
284,168,188824,1,0,0:0:0:0:
452,168,188824,1,0,0:0:0:0:
4,168,188824,1,0,0:0:0:0:
60,168,188824,1,0,0:0:0:0:
340,168,188824,1,0,0:0:0:0:
0,192,188867,1,0,0:0:0:0:
512,192,188867,1,0,0:0:0:0:
0,192,188912,1,0,0:0:0:0:
512,192,188912,1,0,0:0:0:0:
0,192,188957,1,0,0:0:0:0:
512,192,188957,1,0,0:0:0:0:
0,192,189003,5,0,0:0:0:0:
512,192,189003,5,0,0:0:0:0:
396,0,189003,1,0,0:0:0:0:
284,0,189003,1,0,0:0:0:0:
508,0,189003,1,0,0:0:0:0:
452,0,189003,1,0,0:0:0:0:
340,0,189003,1,0,0:0:0:0:
228,0,189003,1,0,0:0:0:0:
172,0,189003,2,0,L|172:88,1,70
4,0,189003,2,0,L|4:84,1,70
0,192,189048,1,0,0:0:0:0:
512,192,189048,1,0,0:0:0:0:
0,192,189093,1,0,0:0:0:0:
512,192,189093,1,0,0:0:0:0:
0,192,189138,1,0,0:0:0:0:
512,192,189138,1,0,0:0:0:0:
4,48,189183,5,0,0:0:0:0:
0,192,189183,1,0,0:0:0:0:
512,192,189183,1,0,0:0:0:0:
60,48,189183,1,0,0:0:0:0:
340,48,189183,1,0,0:0:0:0:
396,48,189183,1,0,0:0:0:0:
508,48,189183,1,0,0:0:0:0:
452,48,189183,1,0,0:0:0:0:
284,48,189183,2,0,L|284:120,1,70
116,48,189183,2,0,L|116:128,1,70
0,192,189228,1,0,0:0:0:0:
512,192,189228,1,0,0:0:0:0:
0,192,189273,1,0,0:0:0:0:
512,192,189273,1,0,0:0:0:0:
0,192,189318,1,0,0:0:0:0:
512,192,189318,1,0,0:0:0:0:
0,192,189363,1,0,0:0:0:0:
512,192,189363,1,0,0:0:0:0:
4,92,189364,5,0,0:0:0:0:
508,92,189364,1,0,0:0:0:0:
172,92,189364,1,0,0:0:0:0:
452,92,189364,1,0,0:0:0:0:
60,92,189364,1,0,0:0:0:0:
116,92,189364,1,0,0:0:0:0:
396,92,189364,2,0,L|396:172,1,70
228,92,189364,2,0,L|228:192,1,70
0,192,189408,1,0,0:0:0:0:
512,192,189408,1,0,0:0:0:0:
0,192,189453,1,0,0:0:0:0:
512,192,189453,1,0,0:0:0:0:
0,192,189498,1,0,0:0:0:0:
512,192,189498,1,0,0:0:0:0:
0,192,189543,1,0,0:0:0:0:
512,192,189543,1,0,0:0:0:0:
4,136,189544,5,0,0:0:0:0:
284,136,189544,1,0,0:0:0:0:
172,136,189544,1,0,0:0:0:0:
60,136,189544,1,0,0:0:0:0:
116,136,189544,1,0,0:0:0:0:
228,136,189544,1,0,0:0:0:0:
508,136,189544,2,0,L|508:220,1,70
340,136,189544,2,0,L|340:228,1,70
0,192,189588,1,0,0:0:0:0:
512,192,189588,1,0,0:0:0:0:
0,192,189633,1,0,0:0:0:0:
512,192,189633,1,0,0:0:0:0:
0,192,189678,1,0,0:0:0:0:
512,192,189678,1,0,0:0:0:0:
0,192,189723,5,0,0:0:0:0:
512,192,189723,5,0,0:0:0:0:
4,172,189724,5,0,0:0:0:0:
60,172,189724,1,0,0:0:0:0:
116,172,189724,1,0,0:0:0:0:
228,172,189724,1,0,0:0:0:0:
284,172,189724,1,0,0:0:0:0:
508,172,189724,1,0,0:0:0:0:
452,172,189724,1,0,0:0:0:0:
172,172,189724,1,0,0:0:0:0:
0,192,189768,1,0,0:0:0:0:
512,192,189768,1,0,0:0:0:0:
0,192,189813,1,0,0:0:0:0:
512,192,189813,1,0,0:0:0:0:
4,204,189814,5,0,0:0:0:0:
116,204,189814,1,0,0:0:0:0:
60,204,189814,1,0,0:0:0:0:
228,204,189814,1,0,0:0:0:0:
508,204,189814,1,0,0:0:0:0:
396,204,189814,1,0,0:0:0:0:
452,204,189814,1,0,0:0:0:0:
172,204,189814,1,0,0:0:0:0:
0,192,189858,1,0,0:0:0:0:
512,192,189858,1,0,0:0:0:0:
0,192,189903,1,0,0:0:0:0:
512,192,189903,1,0,0:0:0:0:
4,252,189904,5,0,0:0:0:0:
508,252,189904,1,0,0:0:0:0:
172,252,189904,1,0,0:0:0:0:
452,252,189904,1,0,0:0:0:0:
60,252,189904,1,0,0:0:0:0:
116,252,189904,1,0,0:0:0:0:
396,252,189904,1,0,0:0:0:0:
340,252,189904,1,0,0:0:0:0:
0,192,189948,1,0,0:0:0:0:
512,192,189948,1,0,0:0:0:0:
0,192,189993,1,0,0:0:0:0:
512,192,189993,1,0,0:0:0:0:
4,288,189994,5,0,0:0:0:0:
396,288,189994,1,0,0:0:0:0:
508,288,189994,1,0,0:0:0:0:
172,288,189994,1,0,0:0:0:0:
452,288,189994,1,0,0:0:0:0:
60,288,189994,1,0,0:0:0:0:
116,288,189994,1,0,0:0:0:0:
228,288,189994,1,0,0:0:0:0:
0,192,190038,1,0,0:0:0:0:
512,192,190038,1,0,0:0:0:0:
0,192,190083,1,0,0:0:0:0:
512,192,190083,1,0,0:0:0:0:
4,320,190084,5,0,0:0:0:0:
60,320,190084,1,0,0:0:0:0:
116,320,190084,1,0,0:0:0:0:
340,320,190084,1,0,0:0:0:0:
396,320,190084,1,0,0:0:0:0:
508,320,190084,1,0,0:0:0:0:
452,320,190084,1,0,0:0:0:0:
172,320,190084,1,0,0:0:0:0:
0,192,190128,1,0,0:0:0:0:
512,192,190128,1,0,0:0:0:0:
0,192,190173,1,0,0:0:0:0:
512,192,190173,1,0,0:0:0:0:
0,192,190218,1,0,0:0:0:0:
512,192,190218,1,0,0:0:0:0:
0,192,190263,1,0,0:0:0:0:
512,192,190263,1,0,0:0:0:0:
4,368,190264,5,0,0:0:0:0:
396,368,190264,1,0,0:0:0:0:
172,368,190264,1,0,0:0:0:0:
508,368,190264,1,0,0:0:0:0:
60,368,190264,1,0,0:0:0:0:
452,368,190264,1,0,0:0:0:0:
228,368,190264,1,0,0:0:0:0:
116,368,190264,1,0,0:0:0:0:
0,192,190308,1,0,0:0:0:0:
512,192,190308,1,0,0:0:0:0:
0,192,190353,1,0,0:0:0:0:
512,192,190353,1,0,0:0:0:0:
0,192,190398,1,0,0:0:0:0:
512,192,190398,1,0,0:0:0:0:
0,192,190444,5,0,0:0:0:0:
512,192,190444,5,0,0:0:0:0:
116,0,190445,1,0,0:0:0:0:
228,0,190445,1,0,0:0:0:0:
4,0,190445,1,0,0:0:0:0:
60,0,190445,1,0,0:0:0:0:
172,0,190445,1,0,0:0:0:0:
284,0,190445,1,0,0:0:0:0:
340,0,190445,2,0,L|340:88,1,70
508,0,190445,2,0,L|508:84,1,70
0,192,190489,1,0,0:0:0:0:
512,192,190489,1,0,0:0:0:0:
0,192,190534,1,0,0:0:0:0:
512,192,190534,1,0,0:0:0:0:
0,192,190579,1,0,0:0:0:0:
512,192,190579,1,0,0:0:0:0:
0,192,190624,1,0,0:0:0:0:
512,192,190624,1,0,0:0:0:0:
508,48,190625,5,0,0:0:0:0:
60,48,190625,1,0,0:0:0:0:
4,48,190625,1,0,0:0:0:0:
396,48,190625,2,0,L|396:128,1,70
228,48,190625,2,0,L|228:120,1,70
452,48,190625,1,0,0:0:0:0:
116,48,190625,1,0,0:0:0:0:
172,48,190625,1,0,0:0:0:0:
0,192,190669,1,0,0:0:0:0:
512,192,190669,1,0,0:0:0:0:
0,192,190714,1,0,0:0:0:0:
512,192,190714,1,0,0:0:0:0:
0,192,190759,1,0,0:0:0:0:
512,192,190759,1,0,0:0:0:0:
0,192,190804,1,0,0:0:0:0:
512,192,190804,1,0,0:0:0:0:
508,92,190806,5,0,0:0:0:0:
4,92,190806,1,0,0:0:0:0:
452,92,190806,1,0,0:0:0:0:
60,92,190806,1,0,0:0:0:0:
340,92,190806,1,0,0:0:0:0:
396,92,190806,1,0,0:0:0:0:
284,92,190806,2,0,L|284:192,1,70
116,92,190806,2,0,L|116:172,1,70
0,192,190849,1,0,0:0:0:0:
512,192,190849,1,0,0:0:0:0:
0,192,190894,1,0,0:0:0:0:
512,192,190894,1,0,0:0:0:0:
0,192,190939,1,0,0:0:0:0:
512,192,190939,1,0,0:0:0:0:
0,192,190984,1,0,0:0:0:0:
512,192,190984,1,0,0:0:0:0:
508,136,190986,5,0,0:0:0:0:
284,136,190986,1,0,0:0:0:0:
396,136,190986,1,0,0:0:0:0:
172,136,190986,2,0,L|172:228,1,70
4,136,190986,2,0,L|4:220,1,70
228,136,190986,1,0,0:0:0:0:
452,136,190986,1,0,0:0:0:0:
340,136,190986,1,0,0:0:0:0:
0,192,191029,1,0,0:0:0:0:
512,192,191029,1,0,0:0:0:0:
0,192,191074,1,0,0:0:0:0:
512,192,191074,1,0,0:0:0:0:
0,192,191119,1,0,0:0:0:0:
512,192,191119,1,0,0:0:0:0:
0,192,191165,5,0,0:0:0:0:
512,192,191165,5,0,0:0:0:0:
508,172,191166,5,0,0:0:0:0:
452,172,191166,1,0,0:0:0:0:
228,172,191166,1,0,0:0:0:0:
284,172,191166,1,0,0:0:0:0:
396,172,191166,1,0,0:0:0:0:
4,172,191166,1,0,0:0:0:0:
340,172,191166,1,0,0:0:0:0:
60,172,191166,1,0,0:0:0:0:
0,192,191195,1,0,0:0:0:0:
512,192,191195,1,0,0:0:0:0:
0,192,191225,1,0,0:0:0:0:
512,192,191225,1,0,0:0:0:0:
4,224,191255,5,0,0:0:0:0:
0,192,191255,1,0,0:0:0:0:
512,192,191255,1,0,0:0:0:0:
396,224,191255,1,0,0:0:0:0:
508,224,191255,1,0,0:0:0:0:
172,224,191255,1,0,0:0:0:0:
452,224,191255,1,0,0:0:0:0:
60,224,191255,1,0,0:0:0:0:
116,224,191255,1,0,0:0:0:0:
340,224,191255,1,0,0:0:0:0:
0,192,191285,1,0,0:0:0:0:
512,192,191285,1,0,0:0:0:0:
0,192,191315,1,0,0:0:0:0:
512,192,191315,1,0,0:0:0:0:
4,264,191345,5,0,0:0:0:0:
0,192,191345,1,0,0:0:0:0:
512,192,191345,1,0,0:0:0:0:
396,264,191345,1,0,0:0:0:0:
284,264,191345,1,0,0:0:0:0:
508,264,191345,1,0,0:0:0:0:
452,264,191345,1,0,0:0:0:0:
60,264,191345,1,0,0:0:0:0:
340,264,191345,1,0,0:0:0:0:
228,264,191345,1,0,0:0:0:0:
0,192,191368,1,0,0:0:0:0:
512,192,191368,1,0,0:0:0:0:
0,192,191391,1,0,0:0:0:0:
512,192,191391,1,0,0:0:0:0:
0,192,191413,1,0,0:0:0:0:
512,192,191413,1,0,0:0:0:0:
4,300,191436,5,0,0:0:0:0:
0,192,191436,1,0,0:0:0:0:
512,192,191436,1,0,0:0:0:0:
60,300,191436,1,0,0:0:0:0:
116,300,191436,1,0,0:0:0:0:
340,300,191436,1,0,0:0:0:0:
396,300,191436,1,0,0:0:0:0:
508,300,191436,1,0,0:0:0:0:
452,300,191436,1,0,0:0:0:0:
172,300,191436,1,0,0:0:0:0:
0,192,191458,1,0,0:0:0:0:
512,192,191458,1,0,0:0:0:0:
0,192,191481,1,0,0:0:0:0:
512,192,191481,1,0,0:0:0:0:
0,192,191503,1,0,0:0:0:0:
512,192,191503,1,0,0:0:0:0:
0,192,191526,1,0,0:0:0:0:
512,192,191526,1,0,0:0:0:0:
0,192,191885,5,0,0:0:0:0:
512,192,191886,5,0,0:0:0:0:
284,0,191886,5,0,0:0:0:0:
508,0,191886,1,0,0:0:0:0:
116,0,191886,1,0,0:0:0:0:
452,0,191886,1,0,0:0:0:0:
172,0,191886,1,0,0:0:0:0:
340,0,191886,1,0,0:0:0:0:
228,0,191886,1,0,0:0:0:0:
396,0,191886,1,0,0:0:0:0:
0,192,191930,1,0,0:0:0:0:
512,192,191931,1,0,0:0:0:0:
0,192,191975,1,0,0:0:0:0:
512,192,191976,1,0,0:0:0:0:
284,0,191976,1,0,0:0:0:0:
508,0,191976,1,0,0:0:0:0:
172,0,191976,1,0,0:0:0:0:
452,0,191976,1,0,0:0:0:0:
116,0,191976,1,0,0:0:0:0:
340,0,191976,1,0,0:0:0:0:
228,0,191976,1,0,0:0:0:0:
396,0,191976,1,0,0:0:0:0:
0,192,192020,1,0,0:0:0:0:
512,192,192021,1,0,0:0:0:0:
0,192,192065,1,0,0:0:0:0:
4,52,192066,5,0,0:0:0:0:
512,192,192066,1,0,0:0:0:0:
60,52,192066,1,0,0:0:0:0:
284,52,192066,1,0,0:0:0:0:
340,52,192066,1,0,0:0:0:0:
228,52,192066,1,0,0:0:0:0:
396,52,192066,1,0,0:0:0:0:
452,52,192066,1,0,0:0:0:0:
508,52,192066,1,0,0:0:0:0:
0,192,192110,1,0,0:0:0:0:
512,192,192111,1,0,0:0:0:0:
0,192,192155,1,0,0:0:0:0:
4,52,192156,5,0,0:0:0:0:
512,192,192156,1,0,0:0:0:0:
60,52,192156,1,0,0:0:0:0:
508,52,192156,1,0,0:0:0:0:
228,52,192156,1,0,0:0:0:0:
340,52,192156,1,0,0:0:0:0:
396,52,192156,1,0,0:0:0:0:
452,52,192156,1,0,0:0:0:0:
284,52,192156,1,0,0:0:0:0:
0,192,192200,1,0,0:0:0:0:
512,192,192201,1,0,0:0:0:0:
0,192,192245,1,0,0:0:0:0:
4,104,192246,5,0,0:0:0:0:
396,104,192246,1,0,0:0:0:0:
452,104,192246,1,0,0:0:0:0:
172,104,192246,1,0,0:0:0:0:
508,104,192246,1,0,0:0:0:0:
60,104,192246,1,0,0:0:0:0:
340,104,192246,1,0,0:0:0:0:
116,104,192246,1,0,0:0:0:0:
512,192,192247,1,0,0:0:0:0:
0,192,192290,1,0,0:0:0:0:
512,192,192292,1,0,0:0:0:0:
0,192,192335,1,0,0:0:0:0:
4,104,192336,5,0,0:0:0:0:
396,104,192336,1,0,0:0:0:0:
116,104,192336,1,0,0:0:0:0:
508,104,192336,1,0,0:0:0:0:
172,104,192336,1,0,0:0:0:0:
60,104,192336,1,0,0:0:0:0:
340,104,192336,1,0,0:0:0:0:
452,104,192336,1,0,0:0:0:0:
512,192,192337,1,0,0:0:0:0:
0,192,192380,1,0,0:0:0:0:
512,192,192382,1,0,0:0:0:0:
0,192,192425,1,0,0:0:0:0:
4,152,192426,5,0,0:0:0:0:
508,152,192426,1,0,0:0:0:0:
60,152,192426,1,0,0:0:0:0:
452,152,192426,1,0,0:0:0:0:
172,152,192426,1,0,0:0:0:0:
116,152,192426,1,0,0:0:0:0:
284,152,192426,1,0,0:0:0:0:
228,152,192426,1,0,0:0:0:0:
512,192,192427,1,0,0:0:0:0:
0,192,192470,1,0,0:0:0:0:
512,192,192472,1,0,0:0:0:0:
0,192,192515,1,0,0:0:0:0:
4,152,192516,5,0,0:0:0:0:
508,152,192516,1,0,0:0:0:0:
228,152,192516,1,0,0:0:0:0:
172,152,192516,1,0,0:0:0:0:
452,152,192516,1,0,0:0:0:0:
116,152,192516,1,0,0:0:0:0:
284,152,192516,1,0,0:0:0:0:
60,152,192516,1,0,0:0:0:0:
512,192,192517,1,0,0:0:0:0:
0,192,192560,1,0,0:0:0:0:
512,192,192562,1,0,0:0:0:0:
0,192,192606,5,0,0:0:0:0:
4,212,192606,5,0,0:0:0:0:
60,212,192606,1,0,0:0:0:0:
396,212,192606,1,0,0:0:0:0:
228,212,192606,1,0,0:0:0:0:
116,212,192606,1,0,0:0:0:0:
508,212,192606,1,0,0:0:0:0:
172,212,192606,1,0,0:0:0:0:
452,212,192606,1,0,0:0:0:0:
512,192,192607,5,0,0:0:0:0:
0,192,192651,1,0,0:0:0:0:
512,192,192652,1,0,0:0:0:0:
4,256,192696,5,0,0:0:0:0:
0,192,192696,1,0,0:0:0:0:
396,256,192696,1,0,0:0:0:0:
508,256,192696,1,0,0:0:0:0:
172,256,192696,1,0,0:0:0:0:
452,256,192696,1,0,0:0:0:0:
116,256,192696,1,0,0:0:0:0:
340,256,192696,1,0,0:0:0:0:
60,256,192696,1,0,0:0:0:0:
512,192,192697,1,0,0:0:0:0:
0,192,192741,1,0,0:0:0:0:
512,192,192742,1,0,0:0:0:0:
4,300,192786,5,0,0:0:0:0:
0,192,192786,1,0,0:0:0:0:
508,300,192786,1,0,0:0:0:0:
284,300,192786,1,0,0:0:0:0:
452,300,192786,1,0,0:0:0:0:
396,300,192786,1,0,0:0:0:0:
116,300,192786,1,0,0:0:0:0:
340,300,192786,1,0,0:0:0:0:
60,300,192786,1,0,0:0:0:0:
512,192,192787,1,0,0:0:0:0:
0,192,192831,1,0,0:0:0:0:
512,192,192832,1,0,0:0:0:0:
4,336,192876,5,0,0:0:0:0:
0,192,192876,1,0,0:0:0:0:
116,336,192876,1,0,0:0:0:0:
60,336,192876,1,0,0:0:0:0:
172,336,192876,1,0,0:0:0:0:
340,336,192876,1,0,0:0:0:0:
396,336,192876,1,0,0:0:0:0:
452,336,192876,1,0,0:0:0:0:
508,336,192876,1,0,0:0:0:0:
512,192,192877,1,0,0:0:0:0:
0,192,192921,1,0,0:0:0:0:
512,192,192922,1,0,0:0:0:0:
0,192,192966,1,0,0:0:0:0:
4,380,192967,5,0,0:0:0:0:
512,192,192967,1,0,0:0:0:0:
396,380,192967,1,0,0:0:0:0:
452,380,192967,1,0,0:0:0:0:
172,380,192967,1,0,0:0:0:0:
508,380,192967,1,0,0:0:0:0:
60,380,192967,1,0,0:0:0:0:
228,380,192967,1,0,0:0:0:0:
116,380,192967,1,0,0:0:0:0:
0,192,193011,1,0,0:0:0:0:
512,192,193012,1,0,0:0:0:0:
0,192,193056,1,0,0:0:0:0:
512,192,193057,1,0,0:0:0:0:
0,192,193101,1,0,0:0:0:0:
512,192,193102,1,0,0:0:0:0:
0,192,193146,1,0,0:0:0:0:
4,0,193147,5,0,0:0:0:0:
512,192,193147,1,0,0:0:0:0:
452,0,193147,1,0,0:0:0:0:
340,0,193147,1,0,0:0:0:0:
396,0,193147,1,0,0:0:0:0:
508,0,193147,1,0,0:0:0:0:
284,0,193147,1,0,0:0:0:0:
0,192,193191,1,0,0:0:0:0:
512,192,193192,1,0,0:0:0:0:
0,192,193236,1,0,0:0:0:0:
512,192,193238,1,0,0:0:0:0:
0,192,193281,1,0,0:0:0:0:
512,192,193283,1,0,0:0:0:0:
0,192,193327,5,0,0:0:0:0:
4,0,193327,1,0,0:0:0:0:
340,0,193327,1,0,0:0:0:0:
60,0,193327,1,0,0:0:0:0:
396,0,193327,1,0,0:0:0:0:
284,0,193327,1,0,0:0:0:0:
116,0,193327,1,0,0:0:0:0:
512,192,193328,5,0,0:0:0:0:
0,192,193372,1,0,0:0:0:0:
512,192,193373,1,0,0:0:0:0:
0,192,193417,1,0,0:0:0:0:
172,0,193417,1,0,0:0:0:0:
396,0,193417,1,0,0:0:0:0:
116,0,193417,1,0,0:0:0:0:
284,0,193417,1,0,0:0:0:0:
4,0,193417,1,0,0:0:0:0:
228,0,193417,1,0,0:0:0:0:
60,0,193417,1,0,0:0:0:0:
340,0,193417,1,0,0:0:0:0:
512,192,193418,1,0,0:0:0:0:
0,192,193462,1,0,0:0:0:0:
512,192,193463,1,0,0:0:0:0:
508,52,193507,5,0,0:0:0:0:
0,192,193507,1,0,0:0:0:0:
452,52,193507,1,0,0:0:0:0:
284,52,193507,1,0,0:0:0:0:
172,52,193507,1,0,0:0:0:0:
228,52,193507,1,0,0:0:0:0:
116,52,193507,1,0,0:0:0:0:
4,52,193507,1,0,0:0:0:0:
60,52,193507,1,0,0:0:0:0:
512,192,193508,1,0,0:0:0:0:
0,192,193552,1,0,0:0:0:0:
512,192,193553,1,0,0:0:0:0:
508,52,193597,5,0,0:0:0:0:
0,192,193597,1,0,0:0:0:0:
116,52,193597,1,0,0:0:0:0:
172,52,193597,1,0,0:0:0:0:
228,52,193597,1,0,0:0:0:0:
60,52,193597,1,0,0:0:0:0:
452,52,193597,1,0,0:0:0:0:
284,52,193597,1,0,0:0:0:0:
4,52,193597,1,0,0:0:0:0:
512,192,193598,1,0,0:0:0:0:
0,192,193642,1,0,0:0:0:0:
512,192,193643,1,0,0:0:0:0:
508,104,193687,5,0,0:0:0:0:
0,192,193687,1,0,0:0:0:0:
116,104,193687,1,0,0:0:0:0:
4,104,193687,1,0,0:0:0:0:
340,104,193687,1,0,0:0:0:0:
60,104,193687,1,0,0:0:0:0:
452,104,193687,1,0,0:0:0:0:
396,104,193687,1,0,0:0:0:0:
172,104,193687,1,0,0:0:0:0:
512,192,193688,1,0,0:0:0:0:
0,192,193732,1,0,0:0:0:0:
512,192,193733,1,0,0:0:0:0:
508,104,193777,5,0,0:0:0:0:
0,192,193777,1,0,0:0:0:0:
452,104,193777,1,0,0:0:0:0:
340,104,193777,1,0,0:0:0:0:
60,104,193777,1,0,0:0:0:0:
172,104,193777,1,0,0:0:0:0:
116,104,193777,1,0,0:0:0:0:
4,104,193777,1,0,0:0:0:0:
396,104,193777,1,0,0:0:0:0:
512,192,193778,1,0,0:0:0:0:
0,192,193822,1,0,0:0:0:0:
512,192,193823,1,0,0:0:0:0:
508,152,193867,5,0,0:0:0:0:
0,192,193867,1,0,0:0:0:0:
4,152,193867,1,0,0:0:0:0:
340,152,193867,1,0,0:0:0:0:
60,152,193867,1,0,0:0:0:0:
452,152,193867,1,0,0:0:0:0:
396,152,193867,1,0,0:0:0:0:
284,152,193867,1,0,0:0:0:0:
228,152,193867,1,0,0:0:0:0:
512,192,193868,1,0,0:0:0:0:
0,192,193912,1,0,0:0:0:0:
512,192,193913,1,0,0:0:0:0:
508,152,193957,5,0,0:0:0:0:
0,192,193957,1,0,0:0:0:0:
396,152,193957,1,0,0:0:0:0:
60,152,193957,1,0,0:0:0:0:
452,152,193957,1,0,0:0:0:0:
228,152,193957,1,0,0:0:0:0:
4,152,193957,1,0,0:0:0:0:
340,152,193957,1,0,0:0:0:0:
284,152,193957,1,0,0:0:0:0:
512,192,193958,1,0,0:0:0:0:
0,192,194002,1,0,0:0:0:0:
512,192,194003,1,0,0:0:0:0:
0,192,194047,5,0,0:0:0:0:
508,212,194047,5,0,0:0:0:0:
452,212,194047,1,0,0:0:0:0:
396,212,194047,1,0,0:0:0:0:
284,212,194047,1,0,0:0:0:0:
116,212,194047,1,0,0:0:0:0:
4,212,194047,1,0,0:0:0:0:
60,212,194047,1,0,0:0:0:0:
340,212,194047,1,0,0:0:0:0:
512,192,194048,5,0,0:0:0:0:
0,192,194092,1,0,0:0:0:0:
512,192,194093,1,0,0:0:0:0:
508,256,194137,5,0,0:0:0:0:
0,192,194137,1,0,0:0:0:0:
396,256,194137,1,0,0:0:0:0:
60,256,194137,1,0,0:0:0:0:
452,256,194137,1,0,0:0:0:0:
172,256,194137,1,0,0:0:0:0:
116,256,194137,1,0,0:0:0:0:
340,256,194137,1,0,0:0:0:0:
4,256,194137,1,0,0:0:0:0:
512,192,194138,1,0,0:0:0:0:
0,192,194182,1,0,0:0:0:0:
512,192,194183,1,0,0:0:0:0:
508,300,194227,5,0,0:0:0:0:
0,192,194227,1,0,0:0:0:0:
4,300,194227,1,0,0:0:0:0:
116,300,194227,1,0,0:0:0:0:
60,300,194227,1,0,0:0:0:0:
228,300,194227,1,0,0:0:0:0:
396,300,194227,1,0,0:0:0:0:
452,300,194227,1,0,0:0:0:0:
172,300,194227,1,0,0:0:0:0:
512,192,194229,1,0,0:0:0:0:
0,192,194272,1,0,0:0:0:0:
512,192,194274,1,0,0:0:0:0:
508,336,194317,5,0,0:0:0:0:
0,192,194317,1,0,0:0:0:0:
116,336,194317,1,0,0:0:0:0:
172,336,194317,1,0,0:0:0:0:
4,336,194317,1,0,0:0:0:0:
60,336,194317,1,0,0:0:0:0:
396,336,194317,1,0,0:0:0:0:
340,336,194317,1,0,0:0:0:0:
452,336,194317,1,0,0:0:0:0:
512,192,194319,1,0,0:0:0:0:
0,192,194362,1,0,0:0:0:0:
512,192,194364,1,0,0:0:0:0:
0,192,194407,1,0,0:0:0:0:
508,380,194408,5,0,0:0:0:0:
116,380,194408,1,0,0:0:0:0:
4,380,194408,1,0,0:0:0:0:
340,380,194408,1,0,0:0:0:0:
60,380,194408,1,0,0:0:0:0:
452,380,194408,1,0,0:0:0:0:
396,380,194408,1,0,0:0:0:0:
284,380,194408,1,0,0:0:0:0:
512,192,194409,1,0,0:0:0:0:
0,192,194452,1,0,0:0:0:0:
512,192,194454,1,0,0:0:0:0:
0,192,194497,1,0,0:0:0:0:
512,192,194499,1,0,0:0:0:0:
0,192,194542,1,0,0:0:0:0:
512,192,194544,1,0,0:0:0:0:
0,192,194587,1,0,0:0:0:0:
508,0,194588,5,0,0:0:0:0:
116,0,194588,1,0,0:0:0:0:
172,0,194588,1,0,0:0:0:0:
228,0,194588,1,0,0:0:0:0:
4,0,194588,1,0,0:0:0:0:
60,0,194588,1,0,0:0:0:0:
512,192,194589,1,0,0:0:0:0:
0,192,194632,1,0,0:0:0:0:
512,192,194634,1,0,0:0:0:0:
0,192,194677,1,0,0:0:0:0:
512,192,194679,1,0,0:0:0:0:
0,192,194722,1,0,0:0:0:0:
512,192,194724,1,0,0:0:0:0:
0,192,194768,5,0,0:0:0:0:
4,0,194768,5,0,0:0:0:0:
396,0,194768,1,0,0:0:0:0:
452,0,194768,1,0,0:0:0:0:
508,0,194768,1,0,0:0:0:0:
284,0,194768,1,0,0:0:0:0:
60,0,194768,1,0,0:0:0:0:
228,0,194768,1,0,0:0:0:0:
340,0,194768,1,0,0:0:0:0:
512,192,194769,5,0,0:0:0:0:
0,192,194813,1,0,0:0:0:0:
512,192,194814,1,0,0:0:0:0:
4,0,194858,5,0,0:0:0:0:
0,192,194858,1,0,0:0:0:0:
396,0,194858,1,0,0:0:0:0:
340,0,194858,1,0,0:0:0:0:
284,0,194858,1,0,0:0:0:0:
508,0,194858,1,0,0:0:0:0:
60,0,194858,1,0,0:0:0:0:
228,0,194858,1,0,0:0:0:0:
452,0,194858,1,0,0:0:0:0:
512,192,194859,1,0,0:0:0:0:
0,192,194903,1,0,0:0:0:0:
512,192,194904,1,0,0:0:0:0:
0,192,194948,1,0,0:0:0:0:
4,32,194949,5,0,0:0:0:0:
512,192,194949,1,0,0:0:0:0:
60,32,194949,1,0,0:0:0:0:
396,32,194949,1,0,0:0:0:0:
340,32,194949,1,0,0:0:0:0:
116,32,194949,1,0,0:0:0:0:
508,32,194949,1,0,0:0:0:0:
172,32,194949,1,0,0:0:0:0:
452,32,194949,1,0,0:0:0:0:
0,192,194993,1,0,0:0:0:0:
512,192,194994,1,0,0:0:0:0:
0,192,195038,1,0,0:0:0:0:
4,32,195039,5,0,0:0:0:0:
512,192,195039,1,0,0:0:0:0:
60,32,195039,1,0,0:0:0:0:
452,32,195039,1,0,0:0:0:0:
116,32,195039,1,0,0:0:0:0:
340,32,195039,1,0,0:0:0:0:
508,32,195039,1,0,0:0:0:0:
172,32,195039,1,0,0:0:0:0:
396,32,195039,1,0,0:0:0:0:
0,192,195083,1,0,0:0:0:0:
512,192,195084,1,0,0:0:0:0:
0,192,195128,1,0,0:0:0:0:
4,68,195129,5,0,0:0:0:0:
512,192,195129,1,0,0:0:0:0:
284,68,195129,1,0,0:0:0:0:
452,68,195129,1,0,0:0:0:0:
172,68,195129,1,0,0:0:0:0:
508,68,195129,1,0,0:0:0:0:
60,68,195129,1,0,0:0:0:0:
228,68,195129,1,0,0:0:0:0:
116,68,195129,1,0,0:0:0:0:
0,192,195173,1,0,0:0:0:0:
512,192,195174,1,0,0:0:0:0:
0,192,195218,1,0,0:0:0:0:
4,68,195219,5,0,0:0:0:0:
284,68,195219,1,0,0:0:0:0:
116,68,195219,1,0,0:0:0:0:
508,68,195219,1,0,0:0:0:0:
172,68,195219,1,0,0:0:0:0:
60,68,195219,1,0,0:0:0:0:
228,68,195219,1,0,0:0:0:0:
452,68,195219,1,0,0:0:0:0:
512,192,195220,1,0,0:0:0:0:
0,192,195263,1,0,0:0:0:0:
512,192,195265,1,0,0:0:0:0:
0,192,195308,1,0,0:0:0:0:
4,96,195309,5,0,0:0:0:0:
60,96,195309,1,0,0:0:0:0:
396,96,195309,1,0,0:0:0:0:
340,96,195309,1,0,0:0:0:0:
116,96,195309,1,0,0:0:0:0:
508,96,195309,1,0,0:0:0:0:
172,96,195309,1,0,0:0:0:0:
452,96,195309,1,0,0:0:0:0:
512,192,195310,1,0,0:0:0:0:
0,192,195353,1,0,0:0:0:0:
512,192,195355,1,0,0:0:0:0:
0,192,195398,1,0,0:0:0:0:
4,96,195399,5,0,0:0:0:0:
60,96,195399,1,0,0:0:0:0:
452,96,195399,1,0,0:0:0:0:
116,96,195399,1,0,0:0:0:0:
340,96,195399,1,0,0:0:0:0:
508,96,195399,1,0,0:0:0:0:
172,96,195399,1,0,0:0:0:0:
396,96,195399,1,0,0:0:0:0:
512,192,195400,1,0,0:0:0:0:
0,192,195443,1,0,0:0:0:0:
512,192,195445,1,0,0:0:0:0:
0,192,195489,5,0,0:0:0:0:
4,140,195489,5,0,0:0:0:0:
116,140,195489,1,0,0:0:0:0:
340,140,195489,1,0,0:0:0:0:
60,140,195489,1,0,0:0:0:0:
284,140,195489,1,0,0:0:0:0:
508,140,195489,1,0,0:0:0:0:
452,140,195489,1,0,0:0:0:0:
396,140,195489,1,0,0:0:0:0:
512,192,195490,5,0,0:0:0:0:
0,192,195534,1,0,0:0:0:0:
512,192,195535,1,0,0:0:0:0:
4,164,195579,5,0,0:0:0:0:
0,192,195579,1,0,0:0:0:0:
116,164,195579,1,0,0:0:0:0:
452,164,195579,1,0,0:0:0:0:
340,164,195579,1,0,0:0:0:0:
60,164,195579,1,0,0:0:0:0:
508,164,195579,1,0,0:0:0:0:
172,164,195579,1,0,0:0:0:0:
396,164,195579,1,0,0:0:0:0:
512,192,195580,1,0,0:0:0:0:
0,192,195624,1,0,0:0:0:0:
512,192,195625,1,0,0:0:0:0:
4,188,195669,5,0,0:0:0:0:
0,192,195669,1,0,0:0:0:0:
396,188,195669,1,0,0:0:0:0:
452,188,195669,1,0,0:0:0:0:
172,188,195669,1,0,0:0:0:0:
508,188,195669,1,0,0:0:0:0:
60,188,195669,1,0,0:0:0:0:
228,188,195669,1,0,0:0:0:0:
116,188,195669,1,0,0:0:0:0:
512,192,195670,1,0,0:0:0:0:
0,192,195714,1,0,0:0:0:0:
512,192,195715,1,0,0:0:0:0:
4,216,195759,5,0,0:0:0:0:
0,192,195759,1,0,0:0:0:0:
508,216,195759,1,0,0:0:0:0:
284,216,195759,1,0,0:0:0:0:
172,216,195759,1,0,0:0:0:0:
452,216,195759,1,0,0:0:0:0:
60,216,195759,1,0,0:0:0:0:
228,216,195759,1,0,0:0:0:0:
116,216,195759,1,0,0:0:0:0:
512,192,195760,1,0,0:0:0:0:
0,192,195804,1,0,0:0:0:0:
512,192,195805,1,0,0:0:0:0:
4,244,195849,5,0,0:0:0:0:
0,192,195849,1,0,0:0:0:0:
116,244,195849,1,0,0:0:0:0:
508,244,195849,1,0,0:0:0:0:
228,244,195849,1,0,0:0:0:0:
60,244,195849,1,0,0:0:0:0:
396,244,195849,1,0,0:0:0:0:
172,244,195849,1,0,0:0:0:0:
452,244,195849,1,0,0:0:0:0:
512,192,195850,1,0,0:0:0:0:
0,192,195894,1,0,0:0:0:0:
512,192,195895,1,0,0:0:0:0:
0,192,195939,1,0,0:0:0:0:
512,192,195940,1,0,0:0:0:0:
0,192,195984,1,0,0:0:0:0:
512,192,195985,1,0,0:0:0:0:
0,192,196029,1,0,0:0:0:0:
4,300,196030,5,0,0:0:0:0:
512,192,196030,1,0,0:0:0:0:
60,300,196030,1,0,0:0:0:0:
284,300,196030,1,0,0:0:0:0:
340,300,196030,1,0,0:0:0:0:
508,300,196030,1,0,0:0:0:0:
452,300,196030,1,0,0:0:0:0:
396,300,196030,1,0,0:0:0:0:
0,192,196074,1,0,0:0:0:0:
512,192,196075,1,0,0:0:0:0:
0,192,196119,1,0,0:0:0:0:
512,192,196120,1,0,0:0:0:0:
0,192,196164,1,0,0:0:0:0:
512,192,196165,1,0,0:0:0:0:
0,192,196209,5,0,0:0:0:0:
512,192,196210,5,0,0:0:0:0:
508,0,196210,5,0,0:0:0:0:
116,0,196210,1,0,0:0:0:0:
228,0,196210,1,0,0:0:0:0:
4,0,196210,1,0,0:0:0:0:
60,0,196210,1,0,0:0:0:0:
452,0,196210,1,0,0:0:0:0:
172,0,196210,1,0,0:0:0:0:
284,0,196210,1,0,0:0:0:0:
0,192,196254,1,0,0:0:0:0:
512,192,196256,1,0,0:0:0:0:
0,192,196299,1,0,0:0:0:0:
508,0,196300,5,0,0:0:0:0:
452,0,196300,1,0,0:0:0:0:
4,0,196300,1,0,0:0:0:0:
60,0,196300,1,0,0:0:0:0:
284,0,196300,1,0,0:0:0:0:
116,0,196300,1,0,0:0:0:0:
228,0,196300,1,0,0:0:0:0:
172,0,196300,1,0,0:0:0:0:
512,192,196301,1,0,0:0:0:0:
0,192,196344,1,0,0:0:0:0:
512,192,196346,1,0,0:0:0:0:
0,192,196389,1,0,0:0:0:0:
508,32,196391,5,0,0:0:0:0:
512,192,196391,1,0,0:0:0:0:
452,32,196391,1,0,0:0:0:0:
396,32,196391,1,0,0:0:0:0:
172,32,196391,1,0,0:0:0:0:
116,32,196391,1,0,0:0:0:0:
4,32,196391,1,0,0:0:0:0:
60,32,196391,1,0,0:0:0:0:
340,32,196391,1,0,0:0:0:0:
0,192,196434,1,0,0:0:0:0:
512,192,196436,1,0,0:0:0:0:
0,192,196479,1,0,0:0:0:0:
508,32,196481,5,0,0:0:0:0:
512,192,196481,1,0,0:0:0:0:
4,32,196481,1,0,0:0:0:0:
172,32,196481,1,0,0:0:0:0:
116,32,196481,1,0,0:0:0:0:
340,32,196481,1,0,0:0:0:0:
452,32,196481,1,0,0:0:0:0:
396,32,196481,1,0,0:0:0:0:
60,32,196481,1,0,0:0:0:0:
0,192,196524,1,0,0:0:0:0:
512,192,196526,1,0,0:0:0:0:
0,192,196569,1,0,0:0:0:0:
508,68,196571,5,0,0:0:0:0:
512,192,196571,1,0,0:0:0:0:
228,68,196571,1,0,0:0:0:0:
4,68,196571,1,0,0:0:0:0:
340,68,196571,1,0,0:0:0:0:
60,68,196571,1,0,0:0:0:0:
452,68,196571,1,0,0:0:0:0:
396,68,196571,1,0,0:0:0:0:
284,68,196571,1,0,0:0:0:0:
0,192,196614,1,0,0:0:0:0:
512,192,196616,1,0,0:0:0:0:
0,192,196659,1,0,0:0:0:0:
508,68,196661,5,0,0:0:0:0:
512,192,196661,1,0,0:0:0:0:
452,68,196661,1,0,0:0:0:0:
340,68,196661,1,0,0:0:0:0:
60,68,196661,1,0,0:0:0:0:
284,68,196661,1,0,0:0:0:0:
228,68,196661,1,0,0:0:0:0:
4,68,196661,1,0,0:0:0:0:
396,68,196661,1,0,0:0:0:0:
0,192,196704,1,0,0:0:0:0:
512,192,196706,1,0,0:0:0:0:
0,192,196749,1,0,0:0:0:0:
508,96,196751,5,0,0:0:0:0:
512,192,196751,1,0,0:0:0:0:
452,96,196751,1,0,0:0:0:0:
396,96,196751,1,0,0:0:0:0:
172,96,196751,1,0,0:0:0:0:
116,96,196751,1,0,0:0:0:0:
4,96,196751,1,0,0:0:0:0:
60,96,196751,1,0,0:0:0:0:
340,96,196751,1,0,0:0:0:0:
0,192,196794,1,0,0:0:0:0:
512,192,196796,1,0,0:0:0:0:
0,192,196839,1,0,0:0:0:0:
508,96,196841,5,0,0:0:0:0:
512,192,196841,1,0,0:0:0:0:
4,96,196841,1,0,0:0:0:0:
172,96,196841,1,0,0:0:0:0:
116,96,196841,1,0,0:0:0:0:
340,96,196841,1,0,0:0:0:0:
452,96,196841,1,0,0:0:0:0:
396,96,196841,1,0,0:0:0:0:
60,96,196841,1,0,0:0:0:0:
0,192,196884,1,0,0:0:0:0:
512,192,196886,1,0,0:0:0:0:
0,192,196930,5,0,0:0:0:0:
512,192,196931,5,0,0:0:0:0:
508,140,196931,5,0,0:0:0:0:
396,140,196931,1,0,0:0:0:0:
228,140,196931,1,0,0:0:0:0:
452,140,196931,1,0,0:0:0:0:
172,140,196931,1,0,0:0:0:0:
4,140,196931,1,0,0:0:0:0:
116,140,196931,1,0,0:0:0:0:
60,140,196931,1,0,0:0:0:0:
0,192,196975,1,0,0:0:0:0:
512,192,196976,1,0,0:0:0:0:
0,192,197020,1,0,0:0:0:0:
508,164,197021,5,0,0:0:0:0:
512,192,197021,1,0,0:0:0:0:
4,164,197021,1,0,0:0:0:0:
452,164,197021,1,0,0:0:0:0:
116,164,197021,1,0,0:0:0:0:
340,164,197021,1,0,0:0:0:0:
396,164,197021,1,0,0:0:0:0:
172,164,197021,1,0,0:0:0:0:
60,164,197021,1,0,0:0:0:0:
0,192,197065,1,0,0:0:0:0:
512,192,197066,1,0,0:0:0:0:
0,192,197110,1,0,0:0:0:0:
508,188,197111,5,0,0:0:0:0:
512,192,197111,1,0,0:0:0:0:
116,188,197111,1,0,0:0:0:0:
4,188,197111,1,0,0:0:0:0:
340,188,197111,1,0,0:0:0:0:
60,188,197111,1,0,0:0:0:0:
452,188,197111,1,0,0:0:0:0:
396,188,197111,1,0,0:0:0:0:
284,188,197111,1,0,0:0:0:0:
0,192,197155,1,0,0:0:0:0:
512,192,197156,1,0,0:0:0:0:
0,192,197200,1,0,0:0:0:0:
508,216,197201,5,0,0:0:0:0:
512,192,197201,1,0,0:0:0:0:
452,216,197201,1,0,0:0:0:0:
60,216,197201,1,0,0:0:0:0:
396,216,197201,1,0,0:0:0:0:
284,216,197201,1,0,0:0:0:0:
4,216,197201,1,0,0:0:0:0:
340,216,197201,1,0,0:0:0:0:
228,216,197201,1,0,0:0:0:0:
0,192,197245,1,0,0:0:0:0:
512,192,197247,1,0,0:0:0:0:
0,192,197290,1,0,0:0:0:0:
508,244,197291,5,0,0:0:0:0:
396,244,197291,1,0,0:0:0:0:
452,244,197291,1,0,0:0:0:0:
284,244,197291,1,0,0:0:0:0:
4,244,197291,1,0,0:0:0:0:
116,244,197291,1,0,0:0:0:0:
60,244,197291,1,0,0:0:0:0:
340,244,197291,1,0,0:0:0:0:
512,192,197292,1,0,0:0:0:0:
0,192,197335,1,0,0:0:0:0:
512,192,197337,1,0,0:0:0:0:
0,192,197380,1,0,0:0:0:0:
512,192,197382,1,0,0:0:0:0:
0,192,197425,1,0,0:0:0:0:
512,192,197427,1,0,0:0:0:0:
0,192,197470,1,0,0:0:0:0:
508,300,197472,5,0,0:0:0:0:
512,192,197472,1,0,0:0:0:0:
4,300,197472,1,0,0:0:0:0:
172,300,197472,1,0,0:0:0:0:
116,300,197472,1,0,0:0:0:0:
60,300,197472,1,0,0:0:0:0:
452,300,197472,1,0,0:0:0:0:
284,300,197472,1,0,0:0:0:0:
228,300,197472,1,0,0:0:0:0:
0,192,197515,1,0,0:0:0:0:
512,192,197517,1,0,0:0:0:0:
0,192,197560,1,0,0:0:0:0:
512,192,197562,1,0,0:0:0:0:
0,192,197605,1,0,0:0:0:0:
512,192,197607,1,0,0:0:0:0:
4,0,197651,5,0,0:0:0:0:
396,0,197651,1,0,0:0:0:0:
60,0,197651,1,0,0:0:0:0:
452,0,197651,1,0,0:0:0:0:
508,0,197651,1,0,0:0:0:0:
340,0,197651,1,0,0:0:0:0:
284,0,197651,2,0,L|284:84,1,70
116,0,197651,2,0,L|116:84,1,70
0,192,197652,5,0,0:0:0:0:
512,192,197652,5,0,0:0:0:0:
0,192,197697,1,0,0:0:0:0:
512,192,197697,1,0,0:0:0:0:
0,192,197742,1,0,0:0:0:0:
512,192,197742,1,0,0:0:0:0:
0,192,197787,1,0,0:0:0:0:
512,192,197787,1,0,0:0:0:0:
4,76,197831,5,0,0:0:0:0:
116,76,197831,1,0,0:0:0:0:
60,76,197831,1,0,0:0:0:0:
396,76,197831,2,0,L|396:168,1,70
228,76,197831,2,0,L|228:168,1,70
508,76,197831,1,0,0:0:0:0:
452,76,197831,1,0,0:0:0:0:
172,76,197831,1,0,0:0:0:0:
0,192,197832,1,0,0:0:0:0:
512,192,197832,1,0,0:0:0:0:
0,192,197877,1,0,0:0:0:0:
512,192,197877,1,0,0:0:0:0:
0,192,197922,1,0,0:0:0:0:
512,192,197922,1,0,0:0:0:0:
0,192,197967,1,0,0:0:0:0:
512,192,197967,1,0,0:0:0:0:
4,184,198012,5,0,0:0:0:0:
0,192,198012,1,0,0:0:0:0:
512,192,198012,1,0,0:0:0:0:
340,184,198012,2,0,L|340:272,1,70
228,184,198012,1,0,0:0:0:0:
116,184,198012,1,0,0:0:0:0:
60,184,198012,1,0,0:0:0:0:
284,184,198012,1,0,0:0:0:0:
508,192,198012,2,0,L|508:284,1,70
172,184,198012,1,0,0:0:0:0:
0,192,198057,1,0,0:0:0:0:
512,192,198057,1,0,0:0:0:0:
0,192,198102,1,0,0:0:0:0:
512,192,198102,1,0,0:0:0:0:
0,192,198147,1,0,0:0:0:0:
512,192,198147,1,0,0:0:0:0:
4,288,198192,5,0,0:0:0:0:
0,192,198192,1,0,0:0:0:0:
512,192,198192,1,0,0:0:0:0:
172,288,198192,1,0,0:0:0:0:
452,288,198192,1,0,0:0:0:0:
396,288,198192,2,0,L|396:380,1,70
228,288,198192,2,0,L|228:368,1,70
116,288,198192,1,0,0:0:0:0:
508,288,198192,1,0,0:0:0:0:
60,288,198192,1,0,0:0:0:0:
0,192,198237,1,0,0:0:0:0:
512,192,198238,1,0,0:0:0:0:
0,192,198282,1,0,0:0:0:0:
512,192,198283,1,0,0:0:0:0:
0,192,198327,1,0,0:0:0:0:
512,192,198328,1,0,0:0:0:0:
0,192,198372,5,0,0:0:0:0:
4,0,198372,5,0,0:0:0:0:
396,0,198372,1,0,0:0:0:0:
452,0,198372,1,0,0:0:0:0:
508,0,198372,1,0,0:0:0:0:
284,0,198372,1,0,0:0:0:0:
60,0,198372,1,0,0:0:0:0:
340,0,198372,1,0,0:0:0:0:
116,0,198372,1,0,0:0:0:0:
512,192,198373,5,0,0:0:0:0:
0,192,198417,1,0,0:0:0:0:
512,192,198418,1,0,0:0:0:0:
4,36,198462,5,0,0:0:0:0:
0,192,198462,1,0,0:0:0:0:
396,36,198462,1,0,0:0:0:0:
284,36,198462,1,0,0:0:0:0:
452,36,198462,1,0,0:0:0:0:
508,36,198462,1,0,0:0:0:0:
60,36,198462,1,0,0:0:0:0:
340,36,198462,1,0,0:0:0:0:
228,36,198462,1,0,0:0:0:0:
512,192,198463,1,0,0:0:0:0:
0,192,198507,1,0,0:0:0:0:
512,192,198508,1,0,0:0:0:0:
4,64,198552,5,0,0:0:0:0:
0,192,198552,1,0,0:0:0:0:
396,64,198552,1,0,0:0:0:0:
172,64,198552,1,0,0:0:0:0:
508,64,198552,1,0,0:0:0:0:
284,64,198552,1,0,0:0:0:0:
452,64,198552,1,0,0:0:0:0:
228,64,198552,1,0,0:0:0:0:
340,64,198552,1,0,0:0:0:0:
512,192,198553,1,0,0:0:0:0:
0,192,198597,1,0,0:0:0:0:
512,192,198598,1,0,0:0:0:0:
4,92,198642,5,0,0:0:0:0:
0,192,198642,1,0,0:0:0:0:
396,92,198642,1,0,0:0:0:0:
284,92,198642,1,0,0:0:0:0:
452,92,198642,1,0,0:0:0:0:
508,92,198642,1,0,0:0:0:0:
60,92,198642,1,0,0:0:0:0:
340,92,198642,1,0,0:0:0:0:
228,92,198642,1,0,0:0:0:0:
512,192,198643,1,0,0:0:0:0:
0,192,198687,1,0,0:0:0:0:
512,192,198688,1,0,0:0:0:0:
4,124,198732,5,0,0:0:0:0:
0,192,198732,1,0,0:0:0:0:
116,124,198732,1,0,0:0:0:0:
340,124,198732,1,0,0:0:0:0:
60,124,198732,1,0,0:0:0:0:
284,124,198732,1,0,0:0:0:0:
508,124,198732,1,0,0:0:0:0:
452,124,198732,1,0,0:0:0:0:
396,124,198732,1,0,0:0:0:0:
512,192,198733,1,0,0:0:0:0:
0,192,198777,1,0,0:0:0:0:
512,192,198778,1,0,0:0:0:0:
0,192,198822,1,0,0:0:0:0:
512,192,198823,1,0,0:0:0:0:
0,192,198867,1,0,0:0:0:0:
512,192,198868,1,0,0:0:0:0:
0,192,198912,1,0,0:0:0:0:
4,168,198913,5,0,0:0:0:0:
512,192,198913,1,0,0:0:0:0:
116,168,198913,1,0,0:0:0:0:
284,168,198913,1,0,0:0:0:0:
228,168,198913,1,0,0:0:0:0:
60,168,198913,1,0,0:0:0:0:
508,168,198913,1,0,0:0:0:0:
452,168,198913,1,0,0:0:0:0:
172,168,198913,1,0,0:0:0:0:
0,192,198957,1,0,0:0:0:0:
512,192,198958,1,0,0:0:0:0:
0,192,199002,1,0,0:0:0:0:
512,192,199003,1,0,0:0:0:0:
0,192,199047,1,0,0:0:0:0:
512,192,199048,1,0,0:0:0:0:
0,192,199093,5,0,0:0:0:0:
512,192,199093,5,0,0:0:0:0:
508,0,199093,5,0,0:0:0:0:
116,0,199093,1,0,0:0:0:0:
4,0,199093,1,0,0:0:0:0:
60,0,199093,1,0,0:0:0:0:
452,0,199093,1,0,0:0:0:0:
172,0,199093,1,0,0:0:0:0:
396,0,199093,2,0,L|396:84,1,70
228,0,199093,2,0,L|228:84,1,70
0,192,199138,1,0,0:0:0:0:
512,192,199138,1,0,0:0:0:0:
0,192,199183,1,0,0:0:0:0:
512,192,199183,1,0,0:0:0:0:
0,192,199228,1,0,0:0:0:0:
512,192,199229,1,0,0:0:0:0:
508,76,199273,5,0,0:0:0:0:
0,192,199273,1,0,0:0:0:0:
4,76,199273,1,0,0:0:0:0:
284,76,199273,2,0,L|284:168,1,70
340,76,199273,1,0,0:0:0:0:
60,76,199273,1,0,0:0:0:0:
396,76,199273,1,0,0:0:0:0:
116,76,199273,2,0,L|116:168,1,70
452,76,199273,1,0,0:0:0:0:
512,192,199274,1,0,0:0:0:0:
0,192,199318,1,0,0:0:0:0:
512,192,199319,1,0,0:0:0:0:
0,192,199363,1,0,0:0:0:0:
512,192,199364,1,0,0:0:0:0:
0,192,199408,1,0,0:0:0:0:
512,192,199409,1,0,0:0:0:0:
0,192,199453,1,0,0:0:0:0:
508,184,199454,5,0,0:0:0:0:
512,192,199454,1,0,0:0:0:0:
172,184,199454,2,0,L|172:272,1,70
452,184,199454,1,0,0:0:0:0:
396,184,199454,1,0,0:0:0:0:
284,184,199454,1,0,0:0:0:0:
228,184,199454,1,0,0:0:0:0:
340,184,199454,1,0,0:0:0:0:
4,192,199454,2,0,L|4:284,1,70
0,192,199498,1,0,0:0:0:0:
512,192,199499,1,0,0:0:0:0:
0,192,199543,1,0,0:0:0:0:
512,192,199544,1,0,0:0:0:0:
0,192,199588,1,0,0:0:0:0:
512,192,199589,1,0,0:0:0:0:
0,192,199633,1,0,0:0:0:0:
508,288,199634,5,0,0:0:0:0:
512,192,199634,1,0,0:0:0:0:
396,288,199634,1,0,0:0:0:0:
284,288,199634,2,0,L|284:368,1,70
452,288,199634,1,0,0:0:0:0:
4,288,199634,1,0,0:0:0:0:
340,288,199634,1,0,0:0:0:0:
116,288,199634,2,0,L|116:380,1,70
60,288,199634,1,0,0:0:0:0:
0,192,199678,1,0,0:0:0:0:
512,192,199679,1,0,0:0:0:0:
0,192,199723,1,0,0:0:0:0:
512,192,199724,1,0,0:0:0:0:
0,192,199768,1,0,0:0:0:0:
512,192,199769,1,0,0:0:0:0:
0,192,199814,5,0,0:0:0:0:
512,192,199814,5,0,0:0:0:0:
508,0,199814,5,0,0:0:0:0:
116,0,199814,1,0,0:0:0:0:
228,0,199814,1,0,0:0:0:0:
4,0,199814,1,0,0:0:0:0:
60,0,199814,1,0,0:0:0:0:
452,0,199814,1,0,0:0:0:0:
396,0,199814,1,0,0:0:0:0:
172,0,199814,1,0,0:0:0:0:
0,192,199859,1,0,0:0:0:0:
512,192,199859,1,0,0:0:0:0:
508,36,199904,5,0,0:0:0:0:
0,192,199904,1,0,0:0:0:0:
512,192,199904,1,0,0:0:0:0:
452,36,199904,1,0,0:0:0:0:
4,36,199904,1,0,0:0:0:0:
284,36,199904,1,0,0:0:0:0:
172,36,199904,1,0,0:0:0:0:
116,36,199904,1,0,0:0:0:0:
60,36,199904,1,0,0:0:0:0:
228,36,199904,1,0,0:0:0:0:
0,192,199949,1,0,0:0:0:0:
512,192,199949,1,0,0:0:0:0:
508,64,199994,5,0,0:0:0:0:
0,192,199994,1,0,0:0:0:0:
512,192,199994,1,0,0:0:0:0:
116,64,199994,1,0,0:0:0:0:
60,64,199994,1,0,0:0:0:0:
4,64,199994,1,0,0:0:0:0:
340,64,199994,1,0,0:0:0:0:
284,64,199994,1,0,0:0:0:0:
228,64,199994,1,0,0:0:0:0:
172,64,199994,1,0,0:0:0:0:
0,192,200039,1,0,0:0:0:0:
512,192,200039,1,0,0:0:0:0:
508,92,200084,5,0,0:0:0:0:
0,192,200084,1,0,0:0:0:0:
512,192,200084,1,0,0:0:0:0:
172,92,200084,1,0,0:0:0:0:
452,92,200084,1,0,0:0:0:0:
228,92,200084,1,0,0:0:0:0:
284,92,200084,1,0,0:0:0:0:
116,92,200084,1,0,0:0:0:0:
4,92,200084,1,0,0:0:0:0:
60,92,200084,1,0,0:0:0:0:
0,192,200129,1,0,0:0:0:0:
512,192,200129,1,0,0:0:0:0:
508,124,200174,5,0,0:0:0:0:
0,192,200174,1,0,0:0:0:0:
512,192,200174,1,0,0:0:0:0:
396,124,200174,1,0,0:0:0:0:
228,124,200174,1,0,0:0:0:0:
452,124,200174,1,0,0:0:0:0:
172,124,200174,1,0,0:0:0:0:
4,124,200174,1,0,0:0:0:0:
116,124,200174,1,0,0:0:0:0:
60,124,200174,1,0,0:0:0:0:
0,192,200219,1,0,0:0:0:0:
512,192,200220,1,0,0:0:0:0:
0,192,200264,1,0,0:0:0:0:
512,192,200265,1,0,0:0:0:0:
0,192,200309,1,0,0:0:0:0:
512,192,200310,1,0,0:0:0:0:
0,192,200354,1,0,0:0:0:0:
508,168,200355,5,0,0:0:0:0:
512,192,200355,1,0,0:0:0:0:
4,168,200355,1,0,0:0:0:0:
452,168,200355,1,0,0:0:0:0:
340,168,200355,1,0,0:0:0:0:
60,168,200355,1,0,0:0:0:0:
396,168,200355,1,0,0:0:0:0:
284,168,200355,1,0,0:0:0:0:
228,168,200355,1,0,0:0:0:0:
0,192,200399,1,0,0:0:0:0:
512,192,200400,1,0,0:0:0:0:
0,192,200444,1,0,0:0:0:0:
512,192,200445,1,0,0:0:0:0:
0,192,200489,1,0,0:0:0:0:
512,192,200490,1,0,0:0:0:0:
0,192,200534,5,0,0:0:0:0:
396,0,200534,1,0,0:0:0:0:
284,0,200534,1,0,0:0:0:0:
508,0,200534,1,0,0:0:0:0:
452,0,200534,1,0,0:0:0:0:
340,0,200534,1,0,0:0:0:0:
228,0,200534,1,0,0:0:0:0:
172,0,200534,2,0,L|172:88,1,70
4,0,200534,2,0,L|4:84,1,70
512,192,200535,5,0,0:0:0:0:
0,192,200579,1,0,0:0:0:0:
512,192,200580,1,0,0:0:0:0:
0,192,200624,1,0,0:0:0:0:
512,192,200625,1,0,0:0:0:0:
0,192,200669,1,0,0:0:0:0:
512,192,200670,1,0,0:0:0:0:
4,48,200714,5,0,0:0:0:0:
0,192,200714,1,0,0:0:0:0:
452,48,200714,1,0,0:0:0:0:
508,48,200714,1,0,0:0:0:0:
116,48,200714,2,0,L|116:128,1,70
284,48,200714,2,0,L|284:120,1,70
60,48,200714,1,0,0:0:0:0:
396,48,200714,1,0,0:0:0:0:
340,48,200714,1,0,0:0:0:0:
512,192,200715,1,0,0:0:0:0:
0,192,200759,1,0,0:0:0:0:
512,192,200760,1,0,0:0:0:0:
0,192,200804,1,0,0:0:0:0:
512,192,200805,1,0,0:0:0:0:
0,192,200849,1,0,0:0:0:0:
512,192,200850,1,0,0:0:0:0:
0,192,200894,1,0,0:0:0:0:
4,92,200895,5,0,0:0:0:0:
512,192,200895,1,0,0:0:0:0:
508,92,200895,1,0,0:0:0:0:
60,92,200895,1,0,0:0:0:0:
452,92,200895,1,0,0:0:0:0:
172,92,200895,1,0,0:0:0:0:
116,92,200895,1,0,0:0:0:0:
228,92,200895,2,0,L|228:192,1,70
396,92,200895,2,0,L|396:172,1,70
0,192,200939,1,0,0:0:0:0:
512,192,200940,1,0,0:0:0:0:
0,192,200984,1,0,0:0:0:0:
512,192,200985,1,0,0:0:0:0:
0,192,201029,1,0,0:0:0:0:
512,192,201030,1,0,0:0:0:0:
0,192,201074,1,0,0:0:0:0:
4,136,201075,5,0,0:0:0:0:
512,192,201075,1,0,0:0:0:0:
228,136,201075,1,0,0:0:0:0:
116,136,201075,1,0,0:0:0:0:
340,136,201075,2,0,L|340:228,1,70
508,136,201075,2,0,L|508:220,1,70
284,136,201075,1,0,0:0:0:0:
60,136,201075,1,0,0:0:0:0:
172,136,201075,1,0,0:0:0:0:
0,192,201119,1,0,0:0:0:0:
512,192,201120,1,0,0:0:0:0:
0,192,201164,1,0,0:0:0:0:
512,192,201165,1,0,0:0:0:0:
0,192,201209,1,0,0:0:0:0:
512,192,201210,1,0,0:0:0:0:
0,192,201255,5,0,0:0:0:0:
4,172,201255,5,0,0:0:0:0:
60,172,201255,1,0,0:0:0:0:
284,172,201255,1,0,0:0:0:0:
228,172,201255,1,0,0:0:0:0:
116,172,201255,1,0,0:0:0:0:
508,172,201255,1,0,0:0:0:0:
172,172,201255,1,0,0:0:0:0:
452,172,201255,1,0,0:0:0:0:
512,192,201256,5,0,0:0:0:0:
0,192,201300,1,0,0:0:0:0:
512,192,201301,1,0,0:0:0:0:
4,204,201345,5,0,0:0:0:0:
0,192,201345,1,0,0:0:0:0:
396,204,201345,1,0,0:0:0:0:
508,204,201345,1,0,0:0:0:0:
172,204,201345,1,0,0:0:0:0:
452,204,201345,1,0,0:0:0:0:
116,204,201345,1,0,0:0:0:0:
228,204,201345,1,0,0:0:0:0:
60,204,201345,1,0,0:0:0:0:
512,192,201346,1,0,0:0:0:0:
0,192,201390,1,0,0:0:0:0:
512,192,201391,1,0,0:0:0:0:
4,252,201435,5,0,0:0:0:0:
0,192,201435,1,0,0:0:0:0:
508,252,201435,1,0,0:0:0:0:
60,252,201435,1,0,0:0:0:0:
452,252,201435,1,0,0:0:0:0:
172,252,201435,1,0,0:0:0:0:
116,252,201435,1,0,0:0:0:0:
340,252,201435,1,0,0:0:0:0:
396,252,201435,1,0,0:0:0:0:
512,192,201436,1,0,0:0:0:0:
0,192,201480,1,0,0:0:0:0:
512,192,201481,1,0,0:0:0:0:
4,288,201525,5,0,0:0:0:0:
0,192,201525,1,0,0:0:0:0:
60,288,201525,1,0,0:0:0:0:
452,288,201525,1,0,0:0:0:0:
228,288,201525,1,0,0:0:0:0:
116,288,201525,1,0,0:0:0:0:
396,288,201525,1,0,0:0:0:0:
172,288,201525,1,0,0:0:0:0:
508,288,201525,1,0,0:0:0:0:
512,192,201526,1,0,0:0:0:0:
0,192,201570,1,0,0:0:0:0:
512,192,201571,1,0,0:0:0:0:
4,320,201615,5,0,0:0:0:0:
0,192,201615,1,0,0:0:0:0:
60,320,201615,1,0,0:0:0:0:
396,320,201615,1,0,0:0:0:0:
340,320,201615,1,0,0:0:0:0:
116,320,201615,1,0,0:0:0:0:
508,320,201615,1,0,0:0:0:0:
172,320,201615,1,0,0:0:0:0:
452,320,201615,1,0,0:0:0:0:
512,192,201616,1,0,0:0:0:0:
0,192,201660,1,0,0:0:0:0:
512,192,201661,1,0,0:0:0:0:
0,192,201705,1,0,0:0:0:0:
512,192,201706,1,0,0:0:0:0:
0,192,201750,1,0,0:0:0:0:
512,192,201751,1,0,0:0:0:0:
4,368,201795,5,0,0:0:0:0:
0,192,201795,1,0,0:0:0:0:
452,368,201795,1,0,0:0:0:0:
340,368,201795,1,0,0:0:0:0:
396,368,201795,1,0,0:0:0:0:
508,368,201795,1,0,0:0:0:0:
284,368,201795,1,0,0:0:0:0:
512,192,201796,1,0,0:0:0:0:
0,192,201840,1,0,0:0:0:0:
512,192,201841,1,0,0:0:0:0:
0,192,201885,1,0,0:0:0:0:
512,192,201886,1,0,0:0:0:0:
0,192,201930,1,0,0:0:0:0:
512,192,201931,1,0,0:0:0:0:
0,192,201976,5,0,0:0:0:0:
512,192,201976,5,0,0:0:0:0:
116,0,201976,1,0,0:0:0:0:
228,0,201976,1,0,0:0:0:0:
4,0,201976,1,0,0:0:0:0:
60,0,201976,1,0,0:0:0:0:
172,0,201976,1,0,0:0:0:0:
284,0,201976,1,0,0:0:0:0:
340,0,201976,2,0,L|340:88,1,70
508,0,201976,2,0,L|508:84,1,70
0,192,202021,1,0,0:0:0:0:
512,192,202021,1,0,0:0:0:0:
0,192,202066,1,0,0:0:0:0:
512,192,202066,1,0,0:0:0:0:
0,192,202111,1,0,0:0:0:0:
512,192,202111,1,0,0:0:0:0:
508,48,202156,5,0,0:0:0:0:
0,192,202156,1,0,0:0:0:0:
512,192,202156,1,0,0:0:0:0:
452,48,202156,1,0,0:0:0:0:
228,48,202156,2,0,L|228:120,1,70
172,48,202156,1,0,0:0:0:0:
116,48,202156,1,0,0:0:0:0:
60,48,202156,1,0,0:0:0:0:
396,48,202156,2,0,L|396:128,1,70
4,48,202156,1,0,0:0:0:0:
0,192,202201,1,0,0:0:0:0:
512,192,202201,1,0,0:0:0:0:
0,192,202246,1,0,0:0:0:0:
512,192,202247,1,0,0:0:0:0:
0,192,202291,1,0,0:0:0:0:
512,192,202292,1,0,0:0:0:0:
0,192,202336,1,0,0:0:0:0:
508,92,202337,5,0,0:0:0:0:
512,192,202337,1,0,0:0:0:0:
4,92,202337,1,0,0:0:0:0:
340,92,202337,1,0,0:0:0:0:
60,92,202337,1,0,0:0:0:0:
452,92,202337,1,0,0:0:0:0:
396,92,202337,1,0,0:0:0:0:
116,92,202337,2,0,L|116:172,1,70
284,92,202337,2,0,L|284:192,1,70
0,192,202381,1,0,0:0:0:0:
512,192,202382,1,0,0:0:0:0:
0,192,202426,1,0,0:0:0:0:
512,192,202427,1,0,0:0:0:0:
0,192,202471,1,0,0:0:0:0:
512,192,202472,1,0,0:0:0:0:
0,192,202516,1,0,0:0:0:0:
508,136,202517,5,0,0:0:0:0:
512,192,202517,1,0,0:0:0:0:
228,136,202517,1,0,0:0:0:0:
4,136,202517,2,0,L|4:220,1,70
340,136,202517,1,0,0:0:0:0:
452,136,202517,1,0,0:0:0:0:
284,136,202517,1,0,0:0:0:0:
172,136,202517,2,0,L|172:228,1,70
396,136,202517,1,0,0:0:0:0:
0,192,202561,1,0,0:0:0:0:
512,192,202562,1,0,0:0:0:0:
0,192,202606,1,0,0:0:0:0:
512,192,202607,1,0,0:0:0:0:
0,192,202651,1,0,0:0:0:0:
512,192,202652,1,0,0:0:0:0:
508,172,202697,5,0,0:0:0:0:
0,192,202697,1,0,0:0:0:0:
512,192,202697,1,0,0:0:0:0:
452,172,202697,1,0,0:0:0:0:
396,172,202697,1,0,0:0:0:0:
284,172,202697,1,0,0:0:0:0:
228,172,202697,1,0,0:0:0:0:
4,172,202697,1,0,0:0:0:0:
60,172,202697,1,0,0:0:0:0:
340,172,202697,1,0,0:0:0:0:
0,192,202719,1,0,0:0:0:0:
512,192,202719,1,0,0:0:0:0:
0,192,202742,1,0,0:0:0:0:
512,192,202742,1,0,0:0:0:0:
0,192,202764,1,0,0:0:0:0:
512,192,202765,1,0,0:0:0:0:
4,224,202786,5,0,0:0:0:0:
60,224,202786,1,0,0:0:0:0:
452,224,202786,1,0,0:0:0:0:
340,224,202786,1,0,0:0:0:0:
116,224,202786,1,0,0:0:0:0:
396,224,202786,1,0,0:0:0:0:
172,224,202786,1,0,0:0:0:0:
508,224,202786,1,0,0:0:0:0:
0,192,202787,1,0,0:0:0:0:
512,192,202787,1,0,0:0:0:0:
0,192,202809,1,0,0:0:0:0:
512,192,202810,1,0,0:0:0:0:
0,192,202832,1,0,0:0:0:0:
512,192,202832,1,0,0:0:0:0:
0,192,202854,1,0,0:0:0:0:
512,192,202855,1,0,0:0:0:0:
4,264,202876,5,0,0:0:0:0:
396,264,202876,1,0,0:0:0:0:
452,264,202876,1,0,0:0:0:0:
508,264,202876,1,0,0:0:0:0:
284,264,202876,1,0,0:0:0:0:
60,264,202876,1,0,0:0:0:0:
228,264,202876,1,0,0:0:0:0:
340,264,202876,1,0,0:0:0:0:
0,192,202877,1,0,0:0:0:0:
512,192,202877,1,0,0:0:0:0:
0,192,202888,1,0,0:0:0:0:
512,192,202888,1,0,0:0:0:0:
0,192,202900,1,0,0:0:0:0:
512,192,202900,1,0,0:0:0:0:
0,192,202911,1,0,0:0:0:0:
512,192,202911,1,0,0:0:0:0:
0,192,202922,1,0,0:0:0:0:
512,192,202922,1,0,0:0:0:0:
0,192,202933,1,0,0:0:0:0:
512,192,202933,1,0,0:0:0:0:
0,192,202945,1,0,0:0:0:0:
512,192,202945,1,0,0:0:0:0:
0,192,202956,1,0,0:0:0:0:
512,192,202956,1,0,0:0:0:0:
4,300,202967,5,0,0:0:0:0:
0,192,202967,1,0,0:0:0:0:
512,192,202967,1,0,0:0:0:0:
508,300,202967,1,0,0:0:0:0:
396,300,202967,1,0,0:0:0:0:
172,300,202967,1,0,0:0:0:0:
452,300,202967,1,0,0:0:0:0:
60,300,202967,1,0,0:0:0:0:
340,300,202967,1,0,0:0:0:0:
116,300,202967,1,0,0:0:0:0:
0,192,202978,1,0,0:0:0:0:
512,192,202979,1,0,0:0:0:0:
0,192,202990,1,0,0:0:0:0:
512,192,202990,1,0,0:0:0:0:
0,192,203001,1,0,0:0:0:0:
512,192,203001,1,0,0:0:0:0:
0,192,203012,1,0,0:0:0:0:
512,192,203012,1,0,0:0:0:0:
4,0,203418,5,0,0:0:0:0:
396,0,203418,1,0,0:0:0:0:
284,0,203418,1,0,0:0:0:0:
508,0,203418,1,0,0:0:0:0:
172,0,203418,1,0,0:0:0:0:
452,0,203418,1,0,0:0:0:0:
340,0,203418,1,0,0:0:0:0:
228,0,203418,1,0,0:0:0:0:
4,40,203778,5,0,0:0:0:0:
60,40,203778,1,0,0:0:0:0:
116,40,203778,1,0,0:0:0:0:
340,40,203778,1,0,0:0:0:0:
396,40,203778,1,0,0:0:0:0:
508,40,203778,1,0,0:0:0:0:
452,40,203778,1,0,0:0:0:0:
172,40,203778,1,0,0:0:0:0:
4,88,204138,5,0,0:0:0:0:
284,88,204138,1,0,0:0:0:0:
508,88,204138,1,0,0:0:0:0:
172,88,204138,1,0,0:0:0:0:
60,88,204138,1,0,0:0:0:0:
116,88,204138,1,0,0:0:0:0:
340,88,204138,1,0,0:0:0:0:
228,88,204138,1,0,0:0:0:0:
4,0,204679,5,0,0:0:0:0:
60,0,204679,1,0,0:0:0:0:
116,0,204679,1,0,0:0:0:0:
340,0,204679,1,0,0:0:0:0:
396,0,204679,1,0,0:0:0:0:
508,0,204679,1,0,0:0:0:0:
452,0,204679,1,0,0:0:0:0:
172,0,204679,1,0,0:0:0:0:
4,28,204769,5,0,0:0:0:0:
396,28,204769,1,0,0:0:0:0:
284,28,204769,1,0,0:0:0:0:
508,28,204769,1,0,0:0:0:0:
452,28,204769,1,0,0:0:0:0:
60,28,204769,1,0,0:0:0:0:
116,28,204769,1,0,0:0:0:0:
340,28,204769,1,0,0:0:0:0:
4,60,204859,5,0,0:0:0:0:
60,60,204859,1,0,0:0:0:0:
228,60,204859,1,0,0:0:0:0:
340,60,204859,1,0,0:0:0:0:
284,60,204859,1,0,0:0:0:0:
396,60,204859,1,0,0:0:0:0:
508,60,204859,1,0,0:0:0:0:
452,60,204859,1,0,0:0:0:0:
4,88,205219,5,0,0:0:0:0:
396,88,205219,1,0,0:0:0:0:
508,88,205219,1,0,0:0:0:0:
172,88,205219,1,0,0:0:0:0:
452,88,205219,1,0,0:0:0:0:
60,88,205219,1,0,0:0:0:0:
116,88,205219,1,0,0:0:0:0:
340,88,205219,1,0,0:0:0:0:
4,116,205580,5,0,0:0:0:0:
60,116,205580,1,0,0:0:0:0:
116,116,205580,1,0,0:0:0:0:
228,116,205580,1,0,0:0:0:0:
284,116,205580,1,0,0:0:0:0:
508,116,205580,1,0,0:0:0:0:
452,116,205580,1,0,0:0:0:0:
172,116,205580,1,0,0:0:0:0:
508,0,206120,5,0,0:0:0:0:
4,0,206120,1,0,0:0:0:0:
116,0,206120,1,0,0:0:0:0:
340,0,206120,1,0,0:0:0:0:
60,0,206120,1,0,0:0:0:0:
452,0,206120,1,0,0:0:0:0:
172,0,206120,1,0,0:0:0:0:
396,0,206120,1,0,0:0:0:0:
508,28,206210,5,0,0:0:0:0:
116,28,206210,1,0,0:0:0:0:
60,28,206210,1,0,0:0:0:0:
4,28,206210,1,0,0:0:0:0:
228,28,206210,1,0,0:0:0:0:
452,28,206210,1,0,0:0:0:0:
172,28,206210,1,0,0:0:0:0:
396,28,206210,1,0,0:0:0:0:
508,60,206300,5,0,0:0:0:0:
116,60,206300,1,0,0:0:0:0:
228,60,206300,1,0,0:0:0:0:
60,60,206300,1,0,0:0:0:0:
4,60,206300,1,0,0:0:0:0:
452,60,206300,1,0,0:0:0:0:
172,60,206300,1,0,0:0:0:0:
284,60,206300,1,0,0:0:0:0:
508,88,206660,5,0,0:0:0:0:
116,88,206660,1,0,0:0:0:0:
60,88,206660,1,0,0:0:0:0:
340,88,206660,1,0,0:0:0:0:
4,88,206660,1,0,0:0:0:0:
452,88,206660,1,0,0:0:0:0:
172,88,206660,1,0,0:0:0:0:
396,88,206660,1,0,0:0:0:0:
508,116,207021,5,0,0:0:0:0:
4,116,207021,1,0,0:0:0:0:
228,116,207021,1,0,0:0:0:0:
340,116,207021,1,0,0:0:0:0:
60,116,207021,1,0,0:0:0:0:
452,116,207021,1,0,0:0:0:0:
284,116,207021,1,0,0:0:0:0:
396,116,207021,1,0,0:0:0:0:
4,0,207562,5,0,0:0:0:0:
60,0,207562,1,0,0:0:0:0:
116,0,207562,1,0,0:0:0:0:
340,0,207562,1,0,0:0:0:0:
396,0,207562,1,0,0:0:0:0:
508,0,207562,1,0,0:0:0:0:
452,0,207562,1,0,0:0:0:0:
172,0,207562,1,0,0:0:0:0:
4,28,207652,5,0,0:0:0:0:
60,28,207652,1,0,0:0:0:0:
116,28,207652,1,0,0:0:0:0:
340,28,207652,1,0,0:0:0:0:
452,28,207652,1,0,0:0:0:0:
396,28,207652,1,0,0:0:0:0:
284,28,207652,1,0,0:0:0:0:
508,28,207652,1,0,0:0:0:0:
4,60,207742,5,0,0:0:0:0:
60,60,207742,1,0,0:0:0:0:
228,60,207742,1,0,0:0:0:0:
340,60,207742,1,0,0:0:0:0:
284,60,207742,1,0,0:0:0:0:
396,60,207742,1,0,0:0:0:0:
508,60,207742,1,0,0:0:0:0:
452,60,207742,1,0,0:0:0:0:
4,88,208102,5,0,0:0:0:0:
60,88,208102,1,0,0:0:0:0:
116,88,208102,1,0,0:0:0:0:
340,88,208102,1,0,0:0:0:0:
452,88,208102,1,0,0:0:0:0:
396,88,208102,1,0,0:0:0:0:
508,88,208102,1,0,0:0:0:0:
172,88,208102,1,0,0:0:0:0:
4,116,208463,5,0,0:0:0:0:
60,116,208463,1,0,0:0:0:0:
116,116,208463,1,0,0:0:0:0:
228,116,208463,1,0,0:0:0:0:
284,116,208463,1,0,0:0:0:0:
508,116,208463,1,0,0:0:0:0:
452,116,208463,1,0,0:0:0:0:
172,116,208463,1,0,0:0:0:0:
4,0,208823,5,0,0:0:0:0:
396,0,208823,1,0,0:0:0:0:
508,0,208823,1,0,0:0:0:0:
452,0,208823,1,0,0:0:0:0:
60,0,208823,1,0,0:0:0:0:
116,0,208823,1,0,0:0:0:0:
172,0,208823,2,0,L|172:84,1,70
340,0,208823,2,0,L|340:72,1,70
4,0,209183,5,0,0:0:0:0:
60,0,209183,1,0,0:0:0:0:
116,0,209183,1,0,0:0:0:0:
228,0,209183,1,0,0:0:0:0:
284,0,209183,1,0,0:0:0:0:
172,0,209183,1,0,0:0:0:0:
508,0,209544,5,0,0:0:0:0:
284,0,209544,1,0,0:0:0:0:
228,0,209544,1,0,0:0:0:0:
340,0,209544,1,0,0:0:0:0:
452,0,209544,1,0,0:0:0:0:
396,0,209544,1,0,0:0:0:0:
4,0,209904,5,0,0:0:0:0:
116,0,209904,1,0,0:0:0:0:
60,0,209904,1,0,0:0:0:0:
172,0,209904,1,0,0:0:0:0:
284,0,209904,1,0,0:0:0:0:
228,0,209904,1,0,0:0:0:0:
508,0,210265,5,0,0:0:0:0:
396,0,210265,1,0,0:0:0:0:
452,0,210265,1,0,0:0:0:0:
228,0,210265,1,0,0:0:0:0:
284,0,210265,1,0,0:0:0:0:
340,0,210265,1,0,0:0:0:0:
4,0,210625,5,0,0:0:0:0:
284,0,210625,1,0,0:0:0:0:
228,0,210625,1,0,0:0:0:0:
116,0,210625,1,0,0:0:0:0:
60,0,210625,1,0,0:0:0:0:
172,0,210625,1,0,0:0:0:0:
508,0,210986,5,0,0:0:0:0:
284,0,210986,1,0,0:0:0:0:
340,0,210986,1,0,0:0:0:0:
396,0,210986,1,0,0:0:0:0:
452,0,210986,1,0,0:0:0:0:
228,0,210986,1,0,0:0:0:0:
4,0,211345,5,0,0:0:0:0:
116,0,211345,1,0,0:0:0:0:
60,0,211345,1,0,0:0:0:0:
172,0,211345,1,0,0:0:0:0:
284,0,211345,1,0,0:0:0:0:
228,0,211345,1,0,0:0:0:0:
508,0,211706,5,0,0:0:0:0:
396,0,211706,1,0,0:0:0:0:
452,0,211706,1,0,0:0:0:0:
228,0,211706,1,0,0:0:0:0:
284,0,211706,1,0,0:0:0:0:
340,0,211706,1,0,0:0:0:0:
4,0,212066,5,0,0:0:0:0:
396,0,212066,1,0,0:0:0:0:
508,0,212066,1,0,0:0:0:0:
452,0,212066,1,0,0:0:0:0:
60,0,212066,1,0,0:0:0:0:
116,0,212066,1,0,0:0:0:0:
172,0,212066,2,0,P|40:216|204:380,1,490
340,0,212066,2,0,P|472:216|316:376,1,490
256,192,213508,12,0,214589,0:0:0:0:
256,192,214589,12,0,214679,0:0:0:0:
256,192,214589,12,0,214679,0:0:0:0:
256,192,214589,12,0,214679,0:0:0:0:
256,192,214589,12,0,214679,0:0:0:0:
256,192,214589,12,0,214679,0:0:0:0:
256,192,214589,12,0,214679,0:0:0:0:
512,192,214949,5,0,0:0:0:0:
284,0,214949,5,0,0:0:0:0:
0,192,214949,5,0,0:0:0:0:
116,0,214949,1,0,0:0:0:0:
228,0,214949,1,0,0:0:0:0:
508,0,214949,1,0,0:0:0:0:
452,0,214949,1,0,0:0:0:0:
172,0,214949,1,0,0:0:0:0:
396,0,214949,1,0,0:0:0:0:
340,0,214949,1,0,0:0:0:0:
512,192,214994,1,0,0:0:0:0:
0,192,214994,1,0,0:0:0:0:
0,192,215039,1,0,0:0:0:0:
512,192,215039,1,0,0:0:0:0:
340,0,215039,1,0,0:0:0:0:
116,0,215039,1,0,0:0:0:0:
396,0,215039,1,0,0:0:0:0:
228,0,215039,1,0,0:0:0:0:
508,0,215039,1,0,0:0:0:0:
284,0,215039,1,0,0:0:0:0:
452,0,215039,1,0,0:0:0:0:
172,0,215039,1,0,0:0:0:0:
512,192,215084,1,0,0:0:0:0:
0,192,215084,1,0,0:0:0:0:
4,52,215129,5,0,0:0:0:0:
512,192,215129,1,0,0:0:0:0:
340,52,215129,1,0,0:0:0:0:
0,192,215129,1,0,0:0:0:0:
60,52,215129,1,0,0:0:0:0:
228,52,215129,1,0,0:0:0:0:
396,52,215129,1,0,0:0:0:0:
284,52,215129,1,0,0:0:0:0:
508,52,215129,1,0,0:0:0:0:
452,52,215129,1,0,0:0:0:0:
512,192,215174,1,0,0:0:0:0:
0,192,215174,1,0,0:0:0:0:
4,52,215219,5,0,0:0:0:0:
512,192,215219,1,0,0:0:0:0:
452,52,215219,1,0,0:0:0:0:
0,192,215219,1,0,0:0:0:0:
396,52,215219,1,0,0:0:0:0:
284,52,215219,1,0,0:0:0:0:
60,52,215219,1,0,0:0:0:0:
508,52,215219,1,0,0:0:0:0:
340,52,215219,1,0,0:0:0:0:
228,52,215219,1,0,0:0:0:0:
512,192,215264,1,0,0:0:0:0:
0,192,215264,1,0,0:0:0:0:
4,104,215309,5,0,0:0:0:0:
512,192,215309,1,0,0:0:0:0:
172,104,215309,1,0,0:0:0:0:
0,192,215309,1,0,0:0:0:0:
396,104,215309,1,0,0:0:0:0:
508,104,215309,1,0,0:0:0:0:
60,104,215309,1,0,0:0:0:0:
452,104,215309,1,0,0:0:0:0:
116,104,215309,1,0,0:0:0:0:
340,104,215309,1,0,0:0:0:0:
512,192,215354,1,0,0:0:0:0:
0,192,215354,1,0,0:0:0:0:
4,104,215399,5,0,0:0:0:0:
512,192,215399,1,0,0:0:0:0:
340,104,215399,1,0,0:0:0:0:
0,192,215399,1,0,0:0:0:0:
60,104,215399,1,0,0:0:0:0:
452,104,215399,1,0,0:0:0:0:
396,104,215399,1,0,0:0:0:0:
116,104,215399,1,0,0:0:0:0:
172,104,215399,1,0,0:0:0:0:
508,104,215399,1,0,0:0:0:0:
512,192,215444,1,0,0:0:0:0:
0,192,215444,1,0,0:0:0:0:
4,152,215489,5,0,0:0:0:0:
512,192,215489,1,0,0:0:0:0:
452,152,215489,1,0,0:0:0:0:
0,192,215489,1,0,0:0:0:0:
508,152,215489,1,0,0:0:0:0:
172,152,215489,1,0,0:0:0:0:
116,152,215489,1,0,0:0:0:0:
60,152,215489,1,0,0:0:0:0:
228,152,215489,1,0,0:0:0:0:
284,152,215489,1,0,0:0:0:0:
512,192,215534,1,0,0:0:0:0:
0,192,215534,1,0,0:0:0:0:
4,152,215579,5,0,0:0:0:0:
512,192,215579,1,0,0:0:0:0:
284,152,215579,1,0,0:0:0:0:
0,192,215579,1,0,0:0:0:0:
116,152,215579,1,0,0:0:0:0:
60,152,215579,1,0,0:0:0:0:
508,152,215579,1,0,0:0:0:0:
228,152,215579,1,0,0:0:0:0:
452,152,215579,1,0,0:0:0:0:
172,152,215579,1,0,0:0:0:0:
512,192,215624,1,0,0:0:0:0:
0,192,215624,1,0,0:0:0:0:
512,192,215669,5,0,0:0:0:0:
4,212,215669,5,0,0:0:0:0:
0,192,215669,5,0,0:0:0:0:
396,212,215669,1,0,0:0:0:0:
172,212,215669,1,0,0:0:0:0:
60,212,215669,1,0,0:0:0:0:
228,212,215669,1,0,0:0:0:0:
116,212,215669,1,0,0:0:0:0:
452,212,215669,1,0,0:0:0:0:
508,212,215669,1,0,0:0:0:0:
512,192,215714,1,0,0:0:0:0:
0,192,215714,1,0,0:0:0:0:
4,256,215759,5,0,0:0:0:0:
512,192,215759,1,0,0:0:0:0:
340,256,215759,1,0,0:0:0:0:
0,192,215759,1,0,0:0:0:0:
116,256,215759,1,0,0:0:0:0:
60,256,215759,1,0,0:0:0:0:
396,256,215759,1,0,0:0:0:0:
508,256,215759,1,0,0:0:0:0:
452,256,215759,1,0,0:0:0:0:
172,256,215759,1,0,0:0:0:0:
512,192,215804,1,0,0:0:0:0:
0,192,215804,1,0,0:0:0:0:
4,300,215849,5,0,0:0:0:0:
512,192,215849,1,0,0:0:0:0:
452,300,215849,1,0,0:0:0:0:
0,192,215849,1,0,0:0:0:0:
508,300,215849,1,0,0:0:0:0:
396,300,215849,1,0,0:0:0:0:
116,300,215849,1,0,0:0:0:0:
284,300,215849,1,0,0:0:0:0:
60,300,215849,1,0,0:0:0:0:
340,300,215849,1,0,0:0:0:0:
512,192,215894,1,0,0:0:0:0:
0,192,215894,1,0,0:0:0:0:
4,336,215939,5,0,0:0:0:0:
512,192,215939,1,0,0:0:0:0:
452,336,215939,1,0,0:0:0:0:
0,192,215939,1,0,0:0:0:0:
396,336,215939,1,0,0:0:0:0:
508,336,215939,1,0,0:0:0:0:
116,336,215939,1,0,0:0:0:0:
60,336,215939,1,0,0:0:0:0:
340,336,215939,1,0,0:0:0:0:
172,336,215939,1,0,0:0:0:0:
512,192,215984,1,0,0:0:0:0:
0,192,215984,1,0,0:0:0:0:
0,192,216029,1,0,0:0:0:0:
512,192,216029,1,0,0:0:0:0:
4,380,216030,5,0,0:0:0:0:
396,380,216030,1,0,0:0:0:0:
452,380,216030,1,0,0:0:0:0:
172,380,216030,1,0,0:0:0:0:
508,380,216030,1,0,0:0:0:0:
60,380,216030,1,0,0:0:0:0:
228,380,216030,1,0,0:0:0:0:
116,380,216030,1,0,0:0:0:0:
512,192,216074,1,0,0:0:0:0:
0,192,216074,1,0,0:0:0:0:
0,192,216119,1,0,0:0:0:0:
512,192,216119,1,0,0:0:0:0:
512,192,216164,1,0,0:0:0:0:
0,192,216164,1,0,0:0:0:0:
0,192,216209,1,0,0:0:0:0:
512,192,216209,1,0,0:0:0:0:
4,0,216210,5,0,0:0:0:0:
396,0,216210,1,0,0:0:0:0:
508,0,216210,1,0,0:0:0:0:
284,0,216210,1,0,0:0:0:0:
452,0,216210,1,0,0:0:0:0:
340,0,216210,1,0,0:0:0:0:
512,192,216254,1,0,0:0:0:0:
0,192,216254,1,0,0:0:0:0:
0,192,216299,1,0,0:0:0:0:
512,192,216299,1,0,0:0:0:0:
512,192,216344,1,0,0:0:0:0:
0,192,216344,1,0,0:0:0:0:
512,192,216390,5,0,0:0:0:0:
228,0,216390,5,0,0:0:0:0:
0,192,216390,5,0,0:0:0:0:
340,0,216390,1,0,0:0:0:0:
284,0,216390,1,0,0:0:0:0:
4,0,216390,1,0,0:0:0:0:
60,0,216390,1,0,0:0:0:0:
396,0,216390,1,0,0:0:0:0:
116,0,216390,1,0,0:0:0:0:
172,0,216390,1,0,0:0:0:0:
512,192,216435,1,0,0:0:0:0:
0,192,216435,1,0,0:0:0:0:
0,192,216480,1,0,0:0:0:0:
512,192,216480,1,0,0:0:0:0:
228,0,216480,1,0,0:0:0:0:
4,0,216480,1,0,0:0:0:0:
340,0,216480,1,0,0:0:0:0:
60,0,216480,1,0,0:0:0:0:
396,0,216480,1,0,0:0:0:0:
172,0,216480,1,0,0:0:0:0:
284,0,216480,1,0,0:0:0:0:
116,0,216480,1,0,0:0:0:0:
0,192,216525,1,0,0:0:0:0:
512,192,216525,1,0,0:0:0:0:
508,52,216570,5,0,0:0:0:0:
284,52,216570,1,0,0:0:0:0:
172,52,216570,1,0,0:0:0:0:
116,52,216570,1,0,0:0:0:0:
4,52,216570,1,0,0:0:0:0:
60,52,216570,1,0,0:0:0:0:
0,192,216570,1,0,0:0:0:0:
512,192,216570,1,0,0:0:0:0:
228,52,216570,1,0,0:0:0:0:
452,52,216570,1,0,0:0:0:0:
0,192,216615,1,0,0:0:0:0:
512,192,216615,1,0,0:0:0:0:
508,52,216660,5,0,0:0:0:0:
172,52,216660,1,0,0:0:0:0:
284,52,216660,1,0,0:0:0:0:
116,52,216660,1,0,0:0:0:0:
228,52,216660,1,0,0:0:0:0:
60,52,216660,1,0,0:0:0:0:
0,192,216660,1,0,0:0:0:0:
512,192,216660,1,0,0:0:0:0:
4,52,216660,1,0,0:0:0:0:
452,52,216660,1,0,0:0:0:0:
0,192,216705,1,0,0:0:0:0:
512,192,216705,1,0,0:0:0:0:
508,104,216750,5,0,0:0:0:0:
4,104,216750,1,0,0:0:0:0:
340,104,216750,1,0,0:0:0:0:
452,104,216750,1,0,0:0:0:0:
396,104,216750,1,0,0:0:0:0:
172,104,216750,1,0,0:0:0:0:
0,192,216750,1,0,0:0:0:0:
512,192,216750,1,0,0:0:0:0:
60,104,216750,1,0,0:0:0:0:
116,104,216750,1,0,0:0:0:0:
0,192,216795,1,0,0:0:0:0:
512,192,216795,1,0,0:0:0:0:
508,104,216840,5,0,0:0:0:0:
512,192,216840,1,0,0:0:0:0:
4,104,216840,1,0,0:0:0:0:
0,192,216840,1,0,0:0:0:0:
116,104,216840,1,0,0:0:0:0:
396,104,216840,1,0,0:0:0:0:
452,104,216840,1,0,0:0:0:0:
340,104,216840,1,0,0:0:0:0:
172,104,216840,1,0,0:0:0:0:
60,104,216840,1,0,0:0:0:0:
512,192,216885,1,0,0:0:0:0:
0,192,216885,1,0,0:0:0:0:
508,152,216930,5,0,0:0:0:0:
512,192,216930,1,0,0:0:0:0:
60,152,216930,1,0,0:0:0:0:
0,192,216930,1,0,0:0:0:0:
4,152,216930,1,0,0:0:0:0:
452,152,216930,1,0,0:0:0:0:
396,152,216930,1,0,0:0:0:0:
340,152,216930,1,0,0:0:0:0:
228,152,216930,1,0,0:0:0:0:
284,152,216930,1,0,0:0:0:0:
512,192,216975,1,0,0:0:0:0:
0,192,216975,1,0,0:0:0:0:
508,152,217020,5,0,0:0:0:0:
512,192,217020,1,0,0:0:0:0:
340,152,217020,1,0,0:0:0:0:
0,192,217020,1,0,0:0:0:0:
4,152,217020,1,0,0:0:0:0:
284,152,217020,1,0,0:0:0:0:
396,152,217020,1,0,0:0:0:0:
60,152,217020,1,0,0:0:0:0:
228,152,217020,1,0,0:0:0:0:
452,152,217020,1,0,0:0:0:0:
0,192,217065,1,0,0:0:0:0:
512,192,217065,1,0,0:0:0:0:
508,212,217110,5,0,0:0:0:0:
4,212,217110,1,0,0:0:0:0:
396,212,217110,1,0,0:0:0:0:
60,212,217110,1,0,0:0:0:0:
340,212,217110,1,0,0:0:0:0:
452,212,217110,1,0,0:0:0:0:
284,212,217110,1,0,0:0:0:0:
116,212,217110,1,0,0:0:0:0:
512,192,217111,5,0,0:0:0:0:
0,192,217111,5,0,0:0:0:0:
0,192,217156,1,0,0:0:0:0:
512,192,217156,1,0,0:0:0:0:
508,256,217200,5,0,0:0:0:0:
396,256,217200,1,0,0:0:0:0:
60,256,217200,1,0,0:0:0:0:
452,256,217200,1,0,0:0:0:0:
172,256,217200,1,0,0:0:0:0:
116,256,217200,1,0,0:0:0:0:
340,256,217200,1,0,0:0:0:0:
4,256,217200,1,0,0:0:0:0:
512,192,217201,1,0,0:0:0:0:
0,192,217201,1,0,0:0:0:0:
512,192,217246,1,0,0:0:0:0:
0,192,217246,1,0,0:0:0:0:
508,300,217290,5,0,0:0:0:0:
4,300,217290,1,0,0:0:0:0:
116,300,217290,1,0,0:0:0:0:
60,300,217290,1,0,0:0:0:0:
228,300,217290,1,0,0:0:0:0:
396,300,217290,1,0,0:0:0:0:
452,300,217290,1,0,0:0:0:0:
172,300,217290,1,0,0:0:0:0:
0,192,217291,1,0,0:0:0:0:
512,192,217291,1,0,0:0:0:0:
512,192,217336,1,0,0:0:0:0:
0,192,217336,1,0,0:0:0:0:
508,336,217380,5,0,0:0:0:0:
396,336,217380,1,0,0:0:0:0:
172,336,217380,1,0,0:0:0:0:
340,336,217380,1,0,0:0:0:0:
452,336,217380,1,0,0:0:0:0:
116,336,217380,1,0,0:0:0:0:
4,336,217380,1,0,0:0:0:0:
60,336,217380,1,0,0:0:0:0:
0,192,217381,1,0,0:0:0:0:
512,192,217381,1,0,0:0:0:0:
512,192,217426,1,0,0:0:0:0:
0,192,217426,1,0,0:0:0:0:
508,380,217471,5,0,0:0:0:0:
4,380,217471,1,0,0:0:0:0:
340,380,217471,1,0,0:0:0:0:
452,380,217471,1,0,0:0:0:0:
396,380,217471,1,0,0:0:0:0:
284,380,217471,1,0,0:0:0:0:
0,192,217471,1,0,0:0:0:0:
512,192,217471,1,0,0:0:0:0:
60,380,217471,1,0,0:0:0:0:
116,380,217471,1,0,0:0:0:0:
0,192,217516,1,0,0:0:0:0:
512,192,217516,1,0,0:0:0:0:
512,192,217561,1,0,0:0:0:0:
0,192,217561,1,0,0:0:0:0:
0,192,217606,1,0,0:0:0:0:
512,192,217606,1,0,0:0:0:0:
508,0,217651,5,0,0:0:0:0:
512,192,217651,1,0,0:0:0:0:
0,192,217651,1,0,0:0:0:0:
60,0,217651,1,0,0:0:0:0:
116,0,217651,1,0,0:0:0:0:
172,0,217651,1,0,0:0:0:0:
4,0,217651,1,0,0:0:0:0:
228,0,217651,1,0,0:0:0:0:
512,192,217696,1,0,0:0:0:0:
0,192,217696,1,0,0:0:0:0:
0,192,217741,1,0,0:0:0:0:
512,192,217741,1,0,0:0:0:0:
0,192,217786,1,0,0:0:0:0:
512,192,217786,1,0,0:0:0:0:
512,192,217831,5,0,0:0:0:0:
0,192,217831,5,0,0:0:0:0:
4,0,217831,5,0,0:0:0:0:
452,0,217831,1,0,0:0:0:0:
508,0,217831,1,0,0:0:0:0:
60,0,217831,1,0,0:0:0:0:
228,0,217831,1,0,0:0:0:0:
340,0,217831,1,0,0:0:0:0:
284,0,217831,1,0,0:0:0:0:
396,0,217831,1,0,0:0:0:0:
0,192,217876,1,0,0:0:0:0:
512,192,217876,1,0,0:0:0:0:
4,0,217921,5,0,0:0:0:0:
512,192,217921,1,0,0:0:0:0:
228,0,217921,1,0,0:0:0:0:
0,192,217921,1,0,0:0:0:0:
60,0,217921,1,0,0:0:0:0:
452,0,217921,1,0,0:0:0:0:
396,0,217921,1,0,0:0:0:0:
340,0,217921,1,0,0:0:0:0:
508,0,217921,1,0,0:0:0:0:
284,0,217921,1,0,0:0:0:0:
512,192,217966,1,0,0:0:0:0:
0,192,217966,1,0,0:0:0:0:
0,192,218011,1,0,0:0:0:0:
512,192,218011,1,0,0:0:0:0:
4,32,218012,5,0,0:0:0:0:
60,32,218012,1,0,0:0:0:0:
396,32,218012,1,0,0:0:0:0:
340,32,218012,1,0,0:0:0:0:
116,32,218012,1,0,0:0:0:0:
508,32,218012,1,0,0:0:0:0:
172,32,218012,1,0,0:0:0:0:
452,32,218012,1,0,0:0:0:0:
0,192,218056,1,0,0:0:0:0:
512,192,218056,1,0,0:0:0:0:
512,192,218101,1,0,0:0:0:0:
0,192,218101,1,0,0:0:0:0:
4,32,218102,5,0,0:0:0:0:
60,32,218102,1,0,0:0:0:0:
452,32,218102,1,0,0:0:0:0:
116,32,218102,1,0,0:0:0:0:
340,32,218102,1,0,0:0:0:0:
508,32,218102,1,0,0:0:0:0:
172,32,218102,1,0,0:0:0:0:
396,32,218102,1,0,0:0:0:0:
0,192,218146,1,0,0:0:0:0:
512,192,218146,1,0,0:0:0:0:
0,192,218191,1,0,0:0:0:0:
512,192,218191,1,0,0:0:0:0:
4,68,218192,5,0,0:0:0:0:
284,68,218192,1,0,0:0:0:0:
452,68,218192,1,0,0:0:0:0:
172,68,218192,1,0,0:0:0:0:
508,68,218192,1,0,0:0:0:0:
60,68,218192,1,0,0:0:0:0:
228,68,218192,1,0,0:0:0:0:
116,68,218192,1,0,0:0:0:0:
512,192,218236,1,0,0:0:0:0:
0,192,218236,1,0,0:0:0:0:
0,192,218281,1,0,0:0:0:0:
512,192,218281,1,0,0:0:0:0:
4,68,218282,5,0,0:0:0:0:
60,68,218282,1,0,0:0:0:0:
116,68,218282,1,0,0:0:0:0:
228,68,218282,1,0,0:0:0:0:
452,68,218282,1,0,0:0:0:0:
284,68,218282,1,0,0:0:0:0:
508,68,218282,1,0,0:0:0:0:
172,68,218282,1,0,0:0:0:0:
0,192,218326,1,0,0:0:0:0:
512,192,218326,1,0,0:0:0:0:
512,192,218371,1,0,0:0:0:0:
0,192,218371,1,0,0:0:0:0:
4,96,218372,5,0,0:0:0:0:
508,96,218372,1,0,0:0:0:0:
396,96,218372,1,0,0:0:0:0:
172,96,218372,1,0,0:0:0:0:
452,96,218372,1,0,0:0:0:0:
60,96,218372,1,0,0:0:0:0:
340,96,218372,1,0,0:0:0:0:
116,96,218372,1,0,0:0:0:0:
0,192,218416,1,0,0:0:0:0:
512,192,218416,1,0,0:0:0:0:
0,192,218461,1,0,0:0:0:0:
512,192,218461,1,0,0:0:0:0:
4,96,218462,5,0,0:0:0:0:
508,96,218462,1,0,0:0:0:0:
452,96,218462,1,0,0:0:0:0:
172,96,218462,1,0,0:0:0:0:
396,96,218462,1,0,0:0:0:0:
60,96,218462,1,0,0:0:0:0:
116,96,218462,1,0,0:0:0:0:
340,96,218462,1,0,0:0:0:0:
512,192,218506,1,0,0:0:0:0:
0,192,218506,1,0,0:0:0:0:
512,192,218552,5,0,0:0:0:0:
4,140,218552,5,0,0:0:0:0:
0,192,218552,5,0,0:0:0:0:
340,140,218552,1,0,0:0:0:0:
452,140,218552,1,0,0:0:0:0:
116,140,218552,1,0,0:0:0:0:
60,140,218552,1,0,0:0:0:0:
284,140,218552,1,0,0:0:0:0:
396,140,218552,1,0,0:0:0:0:
508,140,218552,1,0,0:0:0:0:
0,192,218597,1,0,0:0:0:0:
512,192,218597,1,0,0:0:0:0:
4,164,218642,5,0,0:0:0:0:
452,164,218642,1,0,0:0:0:0:
172,164,218642,1,0,0:0:0:0:
116,164,218642,1,0,0:0:0:0:
340,164,218642,1,0,0:0:0:0:
60,164,218642,1,0,0:0:0:0:
0,192,218642,1,0,0:0:0:0:
512,192,218642,1,0,0:0:0:0:
396,164,218642,1,0,0:0:0:0:
508,164,218642,1,0,0:0:0:0:
0,192,218687,1,0,0:0:0:0:
512,192,218687,1,0,0:0:0:0:
4,188,218732,5,0,0:0:0:0:
512,192,218732,1,0,0:0:0:0:
172,188,218732,1,0,0:0:0:0:
0,192,218732,1,0,0:0:0:0:
396,188,218732,1,0,0:0:0:0:
508,188,218732,1,0,0:0:0:0:
60,188,218732,1,0,0:0:0:0:
452,188,218732,1,0,0:0:0:0:
116,188,218732,1,0,0:0:0:0:
228,188,218732,1,0,0:0:0:0:
512,192,218777,1,0,0:0:0:0:
0,192,218777,1,0,0:0:0:0:
4,216,218822,5,0,0:0:0:0:
512,192,218822,1,0,0:0:0:0:
228,216,218822,1,0,0:0:0:0:
0,192,218822,1,0,0:0:0:0:
60,216,218822,1,0,0:0:0:0:
116,216,218822,1,0,0:0:0:0:
508,216,218822,1,0,0:0:0:0:
284,216,218822,1,0,0:0:0:0:
452,216,218822,1,0,0:0:0:0:
172,216,218822,1,0,0:0:0:0:
0,192,218867,1,0,0:0:0:0:
512,192,218867,1,0,0:0:0:0:
4,244,218912,5,0,0:0:0:0:
508,244,218912,1,0,0:0:0:0:
228,244,218912,1,0,0:0:0:0:
396,244,218912,1,0,0:0:0:0:
172,244,218912,1,0,0:0:0:0:
452,244,218912,1,0,0:0:0:0:
0,192,218912,1,0,0:0:0:0:
512,192,218912,1,0,0:0:0:0:
60,244,218912,1,0,0:0:0:0:
116,244,218912,1,0,0:0:0:0:
512,192,218957,1,0,0:0:0:0:
0,192,218957,1,0,0:0:0:0:
0,192,219002,1,0,0:0:0:0:
512,192,219002,1,0,0:0:0:0:
0,192,219047,1,0,0:0:0:0:
512,192,219047,1,0,0:0:0:0:
512,192,219092,1,0,0:0:0:0:
0,192,219092,1,0,0:0:0:0:
4,300,219093,5,0,0:0:0:0:
60,300,219093,1,0,0:0:0:0:
284,300,219093,1,0,0:0:0:0:
228,300,219093,1,0,0:0:0:0:
340,300,219093,1,0,0:0:0:0:
508,300,219093,1,0,0:0:0:0:
452,300,219093,1,0,0:0:0:0:
396,300,219093,1,0,0:0:0:0:
0,192,219137,1,0,0:0:0:0:
512,192,219137,1,0,0:0:0:0:
0,192,219182,1,0,0:0:0:0:
512,192,219182,1,0,0:0:0:0:
512,192,219227,1,0,0:0:0:0:
0,192,219227,1,0,0:0:0:0:
512,192,219273,5,0,0:0:0:0:
508,0,219273,5,0,0:0:0:0:
0,192,219273,5,0,0:0:0:0:
228,0,219273,1,0,0:0:0:0:
172,0,219273,1,0,0:0:0:0:
116,0,219273,1,0,0:0:0:0:
4,0,219273,1,0,0:0:0:0:
60,0,219273,1,0,0:0:0:0:
284,0,219273,1,0,0:0:0:0:
452,0,219273,1,0,0:0:0:0:
0,192,219318,1,0,0:0:0:0:
512,192,219318,1,0,0:0:0:0:
508,0,219363,5,0,0:0:0:0:
4,0,219363,1,0,0:0:0:0:
228,0,219363,1,0,0:0:0:0:
452,0,219363,1,0,0:0:0:0:
60,0,219363,1,0,0:0:0:0:
284,0,219363,1,0,0:0:0:0:
0,192,219363,1,0,0:0:0:0:
512,192,219363,1,0,0:0:0:0:
172,0,219363,1,0,0:0:0:0:
116,0,219363,1,0,0:0:0:0:
512,192,219408,1,0,0:0:0:0:
0,192,219408,1,0,0:0:0:0:
0,192,219453,1,0,0:0:0:0:
512,192,219453,1,0,0:0:0:0:
508,32,219454,5,0,0:0:0:0:
452,32,219454,1,0,0:0:0:0:
396,32,219454,1,0,0:0:0:0:
172,32,219454,1,0,0:0:0:0:
116,32,219454,1,0,0:0:0:0:
4,32,219454,1,0,0:0:0:0:
60,32,219454,1,0,0:0:0:0:
340,32,219454,1,0,0:0:0:0:
0,192,219498,1,0,0:0:0:0:
512,192,219498,1,0,0:0:0:0:
512,192,219543,1,0,0:0:0:0:
0,192,219543,1,0,0:0:0:0:
508,32,219544,5,0,0:0:0:0:
4,32,219544,1,0,0:0:0:0:
172,32,219544,1,0,0:0:0:0:
116,32,219544,1,0,0:0:0:0:
340,32,219544,1,0,0:0:0:0:
452,32,219544,1,0,0:0:0:0:
396,32,219544,1,0,0:0:0:0:
60,32,219544,1,0,0:0:0:0:
512,192,219588,1,0,0:0:0:0:
0,192,219588,1,0,0:0:0:0:
0,192,219633,1,0,0:0:0:0:
512,192,219633,1,0,0:0:0:0:
508,68,219634,5,0,0:0:0:0:
228,68,219634,1,0,0:0:0:0:
4,68,219634,1,0,0:0:0:0:
340,68,219634,1,0,0:0:0:0:
60,68,219634,1,0,0:0:0:0:
452,68,219634,1,0,0:0:0:0:
396,68,219634,1,0,0:0:0:0:
284,68,219634,1,0,0:0:0:0:
512,192,219678,1,0,0:0:0:0:
0,192,219678,1,0,0:0:0:0:
512,192,219723,1,0,0:0:0:0:
0,192,219723,1,0,0:0:0:0:
508,68,219724,5,0,0:0:0:0:
452,68,219724,1,0,0:0:0:0:
340,68,219724,1,0,0:0:0:0:
60,68,219724,1,0,0:0:0:0:
284,68,219724,1,0,0:0:0:0:
228,68,219724,1,0,0:0:0:0:
4,68,219724,1,0,0:0:0:0:
396,68,219724,1,0,0:0:0:0:
0,192,219768,1,0,0:0:0:0:
512,192,219768,1,0,0:0:0:0:
0,192,219813,1,0,0:0:0:0:
512,192,219813,1,0,0:0:0:0:
508,96,219814,5,0,0:0:0:0:
452,96,219814,1,0,0:0:0:0:
396,96,219814,1,0,0:0:0:0:
172,96,219814,1,0,0:0:0:0:
116,96,219814,1,0,0:0:0:0:
4,96,219814,1,0,0:0:0:0:
60,96,219814,1,0,0:0:0:0:
340,96,219814,1,0,0:0:0:0:
512,192,219858,1,0,0:0:0:0:
0,192,219858,1,0,0:0:0:0:
512,192,219903,1,0,0:0:0:0:
0,192,219903,1,0,0:0:0:0:
508,96,219904,5,0,0:0:0:0:
4,96,219904,1,0,0:0:0:0:
172,96,219904,1,0,0:0:0:0:
116,96,219904,1,0,0:0:0:0:
340,96,219904,1,0,0:0:0:0:
452,96,219904,1,0,0:0:0:0:
396,96,219904,1,0,0:0:0:0:
60,96,219904,1,0,0:0:0:0:
0,192,219948,1,0,0:0:0:0:
512,192,219948,1,0,0:0:0:0:
0,192,219993,5,0,0:0:0:0:
512,192,219993,5,0,0:0:0:0:
508,140,219994,5,0,0:0:0:0:
396,140,219994,1,0,0:0:0:0:
228,140,219994,1,0,0:0:0:0:
452,140,219994,1,0,0:0:0:0:
172,140,219994,1,0,0:0:0:0:
4,140,219994,1,0,0:0:0:0:
116,140,219994,1,0,0:0:0:0:
60,140,219994,1,0,0:0:0:0:
512,192,220038,1,0,0:0:0:0:
0,192,220038,1,0,0:0:0:0:
512,192,220083,1,0,0:0:0:0:
0,192,220083,1,0,0:0:0:0:
508,164,220084,5,0,0:0:0:0:
4,164,220084,1,0,0:0:0:0:
452,164,220084,1,0,0:0:0:0:
116,164,220084,1,0,0:0:0:0:
340,164,220084,1,0,0:0:0:0:
396,164,220084,1,0,0:0:0:0:
172,164,220084,1,0,0:0:0:0:
60,164,220084,1,0,0:0:0:0:
0,192,220128,1,0,0:0:0:0:
512,192,220128,1,0,0:0:0:0:
0,192,220173,1,0,0:0:0:0:
512,192,220173,1,0,0:0:0:0:
508,188,220174,5,0,0:0:0:0:
116,188,220174,1,0,0:0:0:0:
4,188,220174,1,0,0:0:0:0:
340,188,220174,1,0,0:0:0:0:
60,188,220174,1,0,0:0:0:0:
452,188,220174,1,0,0:0:0:0:
396,188,220174,1,0,0:0:0:0:
284,188,220174,1,0,0:0:0:0:
512,192,220218,1,0,0:0:0:0:
0,192,220218,1,0,0:0:0:0:
512,192,220263,1,0,0:0:0:0:
0,192,220263,1,0,0:0:0:0:
508,216,220264,5,0,0:0:0:0:
452,216,220264,1,0,0:0:0:0:
60,216,220264,1,0,0:0:0:0:
396,216,220264,1,0,0:0:0:0:
284,216,220264,1,0,0:0:0:0:
4,216,220264,1,0,0:0:0:0:
340,216,220264,1,0,0:0:0:0:
228,216,220264,1,0,0:0:0:0:
0,192,220308,1,0,0:0:0:0:
512,192,220308,1,0,0:0:0:0:
0,192,220353,1,0,0:0:0:0:
512,192,220353,1,0,0:0:0:0:
508,244,220354,5,0,0:0:0:0:
396,244,220354,1,0,0:0:0:0:
452,244,220354,1,0,0:0:0:0:
284,244,220354,1,0,0:0:0:0:
4,244,220354,1,0,0:0:0:0:
116,244,220354,1,0,0:0:0:0:
60,244,220354,1,0,0:0:0:0:
340,244,220354,1,0,0:0:0:0:
512,192,220398,1,0,0:0:0:0:
0,192,220398,1,0,0:0:0:0:
512,192,220443,1,0,0:0:0:0:
0,192,220443,1,0,0:0:0:0:
0,192,220488,1,0,0:0:0:0:
512,192,220488,1,0,0:0:0:0:
228,0,220714,5,0,0:0:0:0:
0,192,220714,5,0,0:0:0:0:
512,192,220714,5,0,0:0:0:0:
172,0,220714,1,0,0:0:0:0:
116,0,220714,1,0,0:0:0:0:
284,0,220714,1,0,0:0:0:0:
4,0,220714,1,0,0:0:0:0:
340,0,220714,1,0,0:0:0:0:
60,0,220714,1,0,0:0:0:0:
512,192,220759,1,0,0:0:0:0:
0,192,220759,1,0,0:0:0:0:
4,0,220804,1,0,0:0:0:0:
284,0,220804,1,0,0:0:0:0:
228,0,220804,1,0,0:0:0:0:
340,0,220804,1,0,0:0:0:0:
60,0,220804,1,0,0:0:0:0:
0,192,220804,1,0,0:0:0:0:
512,192,220804,1,0,0:0:0:0:
172,0,220804,1,0,0:0:0:0:
116,0,220804,1,0,0:0:0:0:
512,192,220849,1,0,0:0:0:0:
0,192,220849,1,0,0:0:0:0:
508,52,220894,5,0,0:0:0:0:
116,52,220894,1,0,0:0:0:0:
228,52,220894,1,0,0:0:0:0:
60,52,220894,1,0,0:0:0:0:
4,52,220894,1,0,0:0:0:0:
172,52,220894,1,0,0:0:0:0:
0,192,220894,1,0,0:0:0:0:
512,192,220894,1,0,0:0:0:0:
284,52,220894,1,0,0:0:0:0:
452,52,220894,1,0,0:0:0:0:
512,192,220939,1,0,0:0:0:0:
0,192,220939,1,0,0:0:0:0:
508,52,220984,5,0,0:0:0:0:
452,52,220984,1,0,0:0:0:0:
4,52,220984,1,0,0:0:0:0:
284,52,220984,1,0,0:0:0:0:
172,52,220984,1,0,0:0:0:0:
60,52,220984,1,0,0:0:0:0:
0,192,220984,1,0,0:0:0:0:
512,192,220984,1,0,0:0:0:0:
228,52,220984,1,0,0:0:0:0:
116,52,220984,1,0,0:0:0:0:
512,192,221029,1,0,0:0:0:0:
0,192,221029,1,0,0:0:0:0:
508,104,221074,5,0,0:0:0:0:
452,104,221074,1,0,0:0:0:0:
60,104,221074,1,0,0:0:0:0:
172,104,221074,1,0,0:0:0:0:
396,104,221074,1,0,0:0:0:0:
340,104,221074,1,0,0:0:0:0:
0,192,221074,1,0,0:0:0:0:
512,192,221074,1,0,0:0:0:0:
4,104,221074,1,0,0:0:0:0:
116,104,221074,1,0,0:0:0:0:
512,192,221119,1,0,0:0:0:0:
0,192,221119,1,0,0:0:0:0:
508,104,221164,5,0,0:0:0:0:
116,104,221164,1,0,0:0:0:0:
396,104,221164,1,0,0:0:0:0:
4,104,221164,1,0,0:0:0:0:
340,104,221164,1,0,0:0:0:0:
172,104,221164,1,0,0:0:0:0:
0,192,221164,1,0,0:0:0:0:
512,192,221164,1,0,0:0:0:0:
60,104,221164,1,0,0:0:0:0:
452,104,221164,1,0,0:0:0:0:
512,192,221209,1,0,0:0:0:0:
0,192,221209,1,0,0:0:0:0:
508,152,221254,5,0,0:0:0:0:
396,152,221254,1,0,0:0:0:0:
452,152,221254,1,0,0:0:0:0:
228,152,221254,1,0,0:0:0:0:
284,152,221254,1,0,0:0:0:0:
60,152,221254,1,0,0:0:0:0:
0,192,221254,1,0,0:0:0:0:
512,192,221254,1,0,0:0:0:0:
340,152,221254,1,0,0:0:0:0:
4,152,221254,1,0,0:0:0:0:
512,192,221299,1,0,0:0:0:0:
0,192,221299,1,0,0:0:0:0:
508,152,221344,5,0,0:0:0:0:
4,152,221344,1,0,0:0:0:0:
284,152,221344,1,0,0:0:0:0:
340,152,221344,1,0,0:0:0:0:
60,152,221344,1,0,0:0:0:0:
228,152,221344,1,0,0:0:0:0:
0,192,221344,1,0,0:0:0:0:
512,192,221344,1,0,0:0:0:0:
452,152,221344,1,0,0:0:0:0:
396,152,221344,1,0,0:0:0:0:
512,192,221389,1,0,0:0:0:0:
0,192,221389,1,0,0:0:0:0:
508,212,221434,5,0,0:0:0:0:
0,192,221434,5,0,0:0:0:0:
512,192,221434,5,0,0:0:0:0:
4,212,221434,1,0,0:0:0:0:
60,212,221434,1,0,0:0:0:0:
340,212,221434,1,0,0:0:0:0:
116,212,221434,1,0,0:0:0:0:
452,212,221434,1,0,0:0:0:0:
396,212,221434,1,0,0:0:0:0:
284,212,221434,1,0,0:0:0:0:
512,192,221479,1,0,0:0:0:0:
0,192,221479,1,0,0:0:0:0:
508,256,221524,5,0,0:0:0:0:
116,256,221524,1,0,0:0:0:0:
4,256,221524,1,0,0:0:0:0:
340,256,221524,1,0,0:0:0:0:
60,256,221524,1,0,0:0:0:0:
172,256,221524,1,0,0:0:0:0:
0,192,221524,1,0,0:0:0:0:
512,192,221524,1,0,0:0:0:0:
452,256,221524,1,0,0:0:0:0:
396,256,221524,1,0,0:0:0:0:
512,192,221569,1,0,0:0:0:0:
0,192,221569,1,0,0:0:0:0:
508,300,221614,5,0,0:0:0:0:
396,300,221614,1,0,0:0:0:0:
228,300,221614,1,0,0:0:0:0:
172,300,221614,1,0,0:0:0:0:
452,300,221614,1,0,0:0:0:0:
60,300,221614,1,0,0:0:0:0:
0,192,221614,1,0,0:0:0:0:
512,192,221614,1,0,0:0:0:0:
116,300,221614,1,0,0:0:0:0:
4,300,221614,1,0,0:0:0:0:
512,192,221659,1,0,0:0:0:0:
0,192,221659,1,0,0:0:0:0:
508,336,221704,5,0,0:0:0:0:
396,336,221704,1,0,0:0:0:0:
452,336,221704,1,0,0:0:0:0:
340,336,221704,1,0,0:0:0:0:
172,336,221704,1,0,0:0:0:0:
60,336,221704,1,0,0:0:0:0:
0,192,221704,1,0,0:0:0:0:
512,192,221704,1,0,0:0:0:0:
4,336,221704,1,0,0:0:0:0:
116,336,221704,1,0,0:0:0:0:
512,192,221749,1,0,0:0:0:0:
0,192,221749,1,0,0:0:0:0:
0,192,221794,1,0,0:0:0:0:
512,192,221794,1,0,0:0:0:0:
508,380,221795,5,0,0:0:0:0:
452,380,221795,1,0,0:0:0:0:
396,380,221795,1,0,0:0:0:0:
284,380,221795,1,0,0:0:0:0:
60,380,221795,1,0,0:0:0:0:
116,380,221795,1,0,0:0:0:0:
4,380,221795,1,0,0:0:0:0:
340,380,221795,1,0,0:0:0:0:
512,192,221839,1,0,0:0:0:0:
0,192,221839,1,0,0:0:0:0:
0,192,221884,1,0,0:0:0:0:
512,192,221884,1,0,0:0:0:0:
512,192,221929,1,0,0:0:0:0:
0,192,221929,1,0,0:0:0:0:
0,192,221974,1,0,0:0:0:0:
512,192,221974,1,0,0:0:0:0:
508,0,221975,5,0,0:0:0:0:
60,0,221975,1,0,0:0:0:0:
172,0,221975,1,0,0:0:0:0:
116,0,221975,1,0,0:0:0:0:
228,0,221975,1,0,0:0:0:0:
4,0,221975,1,0,0:0:0:0:
512,192,222019,1,0,0:0:0:0:
0,192,222019,1,0,0:0:0:0:
0,192,222064,1,0,0:0:0:0:
512,192,222064,1,0,0:0:0:0:
512,192,222109,1,0,0:0:0:0:
0,192,222109,1,0,0:0:0:0:
284,0,222155,5,0,0:0:0:0:
0,192,222155,5,0,0:0:0:0:
512,192,222155,5,0,0:0:0:0:
340,0,222155,1,0,0:0:0:0:
396,0,222155,1,0,0:0:0:0:
228,0,222155,1,0,0:0:0:0:
172,0,222155,1,0,0:0:0:0:
508,0,222155,1,0,0:0:0:0:
116,0,222155,1,0,0:0:0:0:
452,0,222155,1,0,0:0:0:0:
512,192,222200,1,0,0:0:0:0:
0,192,222200,1,0,0:0:0:0:
116,0,222245,1,0,0:0:0:0:
452,0,222245,1,0,0:0:0:0:
340,0,222245,1,0,0:0:0:0:
396,0,222245,1,0,0:0:0:0:
228,0,222245,1,0,0:0:0:0:
0,192,222245,1,0,0:0:0:0:
512,192,222245,1,0,0:0:0:0:
284,0,222245,1,0,0:0:0:0:
172,0,222245,1,0,0:0:0:0:
508,0,222245,1,0,0:0:0:0:
0,192,222290,1,0,0:0:0:0:
512,192,222290,1,0,0:0:0:0:
4,52,222335,5,0,0:0:0:0:
512,192,222335,1,0,0:0:0:0:
0,192,222335,1,0,0:0:0:0:
60,52,222335,1,0,0:0:0:0:
284,52,222335,1,0,0:0:0:0:
340,52,222335,1,0,0:0:0:0:
228,52,222335,1,0,0:0:0:0:
396,52,222335,1,0,0:0:0:0:
452,52,222335,1,0,0:0:0:0:
508,52,222335,1,0,0:0:0:0:
0,192,222380,1,0,0:0:0:0:
512,192,222380,1,0,0:0:0:0:
4,52,222425,5,0,0:0:0:0:
512,192,222425,1,0,0:0:0:0:
0,192,222425,1,0,0:0:0:0:
60,52,222425,1,0,0:0:0:0:
508,52,222425,1,0,0:0:0:0:
228,52,222425,1,0,0:0:0:0:
340,52,222425,1,0,0:0:0:0:
396,52,222425,1,0,0:0:0:0:
452,52,222425,1,0,0:0:0:0:
284,52,222425,1,0,0:0:0:0:
0,192,222470,1,0,0:0:0:0:
512,192,222470,1,0,0:0:0:0:
4,104,222515,5,0,0:0:0:0:
512,192,222515,1,0,0:0:0:0:
0,192,222515,1,0,0:0:0:0:
396,104,222515,1,0,0:0:0:0:
452,104,222515,1,0,0:0:0:0:
172,104,222515,1,0,0:0:0:0:
508,104,222515,1,0,0:0:0:0:
60,104,222515,1,0,0:0:0:0:
340,104,222515,1,0,0:0:0:0:
116,104,222515,1,0,0:0:0:0:
0,192,222560,1,0,0:0:0:0:
512,192,222560,1,0,0:0:0:0:
4,104,222605,5,0,0:0:0:0:
60,104,222605,1,0,0:0:0:0:
172,104,222605,1,0,0:0:0:0:
452,104,222605,1,0,0:0:0:0:
340,104,222605,1,0,0:0:0:0:
508,104,222605,1,0,0:0:0:0:
0,192,222605,1,0,0:0:0:0:
512,192,222605,1,0,0:0:0:0:
116,104,222605,1,0,0:0:0:0:
396,104,222605,1,0,0:0:0:0:
512,192,222650,1,0,0:0:0:0:
0,192,222650,1,0,0:0:0:0:
4,152,222695,5,0,0:0:0:0:
116,152,222695,1,0,0:0:0:0:
172,152,222695,1,0,0:0:0:0:
228,152,222695,1,0,0:0:0:0:
284,152,222695,1,0,0:0:0:0:
452,152,222695,1,0,0:0:0:0:
0,192,222695,1,0,0:0:0:0:
512,192,222695,1,0,0:0:0:0:
60,152,222695,1,0,0:0:0:0:
508,152,222695,1,0,0:0:0:0:
512,192,222740,1,0,0:0:0:0:
0,192,222740,1,0,0:0:0:0:
4,152,222785,5,0,0:0:0:0:
116,152,222785,1,0,0:0:0:0:
452,152,222785,1,0,0:0:0:0:
60,152,222785,1,0,0:0:0:0:
284,152,222785,1,0,0:0:0:0:
172,152,222785,1,0,0:0:0:0:
0,192,222785,1,0,0:0:0:0:
512,192,222785,1,0,0:0:0:0:
228,152,222785,1,0,0:0:0:0:
508,152,222785,1,0,0:0:0:0:
0,192,222830,1,0,0:0:0:0:
512,192,222830,1,0,0:0:0:0:
4,212,222875,5,0,0:0:0:0:
60,212,222875,1,0,0:0:0:0:
396,212,222875,1,0,0:0:0:0:
228,212,222875,1,0,0:0:0:0:
116,212,222875,1,0,0:0:0:0:
508,212,222875,1,0,0:0:0:0:
172,212,222875,1,0,0:0:0:0:
452,212,222875,1,0,0:0:0:0:
512,192,222876,5,0,0:0:0:0:
0,192,222876,5,0,0:0:0:0:
0,192,222921,1,0,0:0:0:0:
512,192,222921,1,0,0:0:0:0:
4,256,222965,5,0,0:0:0:0:
396,256,222965,1,0,0:0:0:0:
508,256,222965,1,0,0:0:0:0:
172,256,222965,1,0,0:0:0:0:
452,256,222965,1,0,0:0:0:0:
116,256,222965,1,0,0:0:0:0:
340,256,222965,1,0,0:0:0:0:
60,256,222965,1,0,0:0:0:0:
512,192,222966,1,0,0:0:0:0:
0,192,222966,1,0,0:0:0:0:
512,192,223011,1,0,0:0:0:0:
0,192,223011,1,0,0:0:0:0:
4,300,223055,5,0,0:0:0:0:
116,300,223055,1,0,0:0:0:0:
340,300,223055,1,0,0:0:0:0:
60,300,223055,1,0,0:0:0:0:
396,300,223055,1,0,0:0:0:0:
508,300,223055,1,0,0:0:0:0:
284,300,223055,1,0,0:0:0:0:
452,300,223055,1,0,0:0:0:0:
0,192,223056,1,0,0:0:0:0:
512,192,223056,1,0,0:0:0:0:
512,192,223101,1,0,0:0:0:0:
0,192,223101,1,0,0:0:0:0:
4,336,223145,5,0,0:0:0:0:
396,336,223145,1,0,0:0:0:0:
452,336,223145,1,0,0:0:0:0:
508,336,223145,1,0,0:0:0:0:
340,336,223145,1,0,0:0:0:0:
116,336,223145,1,0,0:0:0:0:
60,336,223145,1,0,0:0:0:0:
172,336,223145,1,0,0:0:0:0:
0,192,223146,1,0,0:0:0:0:
512,192,223146,1,0,0:0:0:0:
512,192,223191,1,0,0:0:0:0:
0,192,223191,1,0,0:0:0:0:
4,380,223236,5,0,0:0:0:0:
512,192,223236,1,0,0:0:0:0:
0,192,223236,1,0,0:0:0:0:
396,380,223236,1,0,0:0:0:0:
452,380,223236,1,0,0:0:0:0:
172,380,223236,1,0,0:0:0:0:
508,380,223236,1,0,0:0:0:0:
60,380,223236,1,0,0:0:0:0:
228,380,223236,1,0,0:0:0:0:
116,380,223236,1,0,0:0:0:0:
0,192,223281,1,0,0:0:0:0:
512,192,223281,1,0,0:0:0:0:
512,192,223326,1,0,0:0:0:0:
0,192,223326,1,0,0:0:0:0:
0,192,223371,1,0,0:0:0:0:
512,192,223371,1,0,0:0:0:0:
4,0,223416,5,0,0:0:0:0:
396,0,223416,1,0,0:0:0:0:
340,0,223416,1,0,0:0:0:0:
284,0,223416,1,0,0:0:0:0:
508,0,223416,1,0,0:0:0:0:
0,192,223416,1,0,0:0:0:0:
512,192,223416,1,0,0:0:0:0:
452,0,223416,1,0,0:0:0:0:
512,192,223461,1,0,0:0:0:0:
0,192,223461,1,0,0:0:0:0:
0,192,223506,1,0,0:0:0:0:
512,192,223506,1,0,0:0:0:0:
0,192,223551,1,0,0:0:0:0:
512,192,223551,1,0,0:0:0:0:
512,192,223596,5,0,0:0:0:0:
0,192,223596,5,0,0:0:0:0:
508,0,223596,5,0,0:0:0:0:
116,0,223596,1,0,0:0:0:0:
228,0,223596,1,0,0:0:0:0:
4,0,223596,1,0,0:0:0:0:
60,0,223596,1,0,0:0:0:0:
452,0,223596,1,0,0:0:0:0:
172,0,223596,1,0,0:0:0:0:
284,0,223596,1,0,0:0:0:0:
0,192,223641,1,0,0:0:0:0:
512,192,223641,1,0,0:0:0:0:
508,0,223686,5,0,0:0:0:0:
116,0,223686,1,0,0:0:0:0:
172,0,223686,1,0,0:0:0:0:
228,0,223686,1,0,0:0:0:0:
4,0,223686,1,0,0:0:0:0:
284,0,223686,1,0,0:0:0:0:
0,192,223686,1,0,0:0:0:0:
512,192,223686,1,0,0:0:0:0:
60,0,223686,1,0,0:0:0:0:
452,0,223686,1,0,0:0:0:0:
512,192,223731,1,0,0:0:0:0:
0,192,223731,1,0,0:0:0:0:
0,192,223776,1,0,0:0:0:0:
512,192,223776,1,0,0:0:0:0:
508,32,223777,5,0,0:0:0:0:
4,32,223777,1,0,0:0:0:0:
60,32,223777,1,0,0:0:0:0:
340,32,223777,1,0,0:0:0:0:
116,32,223777,1,0,0:0:0:0:
452,32,223777,1,0,0:0:0:0:
396,32,223777,1,0,0:0:0:0:
172,32,223777,1,0,0:0:0:0:
0,192,223821,1,0,0:0:0:0:
512,192,223821,1,0,0:0:0:0:
512,192,223866,1,0,0:0:0:0:
0,192,223866,1,0,0:0:0:0:
508,32,223867,5,0,0:0:0:0:
4,32,223867,1,0,0:0:0:0:
116,32,223867,1,0,0:0:0:0:
340,32,223867,1,0,0:0:0:0:
60,32,223867,1,0,0:0:0:0:
452,32,223867,1,0,0:0:0:0:
172,32,223867,1,0,0:0:0:0:
396,32,223867,1,0,0:0:0:0:
0,192,223911,1,0,0:0:0:0:
512,192,223911,1,0,0:0:0:0:
0,192,223956,1,0,0:0:0:0:
512,192,223956,1,0,0:0:0:0:
508,68,223957,5,0,0:0:0:0:
452,68,223957,1,0,0:0:0:0:
396,68,223957,1,0,0:0:0:0:
284,68,223957,1,0,0:0:0:0:
60,68,223957,1,0,0:0:0:0:
228,68,223957,1,0,0:0:0:0:
4,68,223957,1,0,0:0:0:0:
340,68,223957,1,0,0:0:0:0:
512,192,224001,1,0,0:0:0:0:
0,192,224001,1,0,0:0:0:0:
0,192,224046,1,0,0:0:0:0:
512,192,224046,1,0,0:0:0:0:
508,68,224047,5,0,0:0:0:0:
228,68,224047,1,0,0:0:0:0:
340,68,224047,1,0,0:0:0:0:
4,68,224047,1,0,0:0:0:0:
396,68,224047,1,0,0:0:0:0:
452,68,224047,1,0,0:0:0:0:
60,68,224047,1,0,0:0:0:0:
284,68,224047,1,0,0:0:0:0:
0,192,224091,1,0,0:0:0:0:
512,192,224091,1,0,0:0:0:0:
512,192,224136,1,0,0:0:0:0:
0,192,224136,1,0,0:0:0:0:
508,96,224137,5,0,0:0:0:0:
452,96,224137,1,0,0:0:0:0:
396,96,224137,1,0,0:0:0:0:
172,96,224137,1,0,0:0:0:0:
116,96,224137,1,0,0:0:0:0:
4,96,224137,1,0,0:0:0:0:
60,96,224137,1,0,0:0:0:0:
340,96,224137,1,0,0:0:0:0:
0,192,224181,1,0,0:0:0:0:
512,192,224181,1,0,0:0:0:0:
0,192,224226,1,0,0:0:0:0:
512,192,224226,1,0,0:0:0:0:
508,96,224227,5,0,0:0:0:0:
452,96,224227,1,0,0:0:0:0:
172,96,224227,1,0,0:0:0:0:
396,96,224227,1,0,0:0:0:0:
60,96,224227,1,0,0:0:0:0:
4,96,224227,1,0,0:0:0:0:
116,96,224227,1,0,0:0:0:0:
340,96,224227,1,0,0:0:0:0:
512,192,224271,1,0,0:0:0:0:
0,192,224271,1,0,0:0:0:0:
508,140,224317,5,0,0:0:0:0:
0,192,224317,5,0,0:0:0:0:
512,192,224317,5,0,0:0:0:0:
4,140,224317,1,0,0:0:0:0:
116,140,224317,1,0,0:0:0:0:
60,140,224317,1,0,0:0:0:0:
172,140,224317,1,0,0:0:0:0:
396,140,224317,1,0,0:0:0:0:
228,140,224317,1,0,0:0:0:0:
452,140,224317,1,0,0:0:0:0:
0,192,224362,1,0,0:0:0:0:
512,192,224362,1,0,0:0:0:0:
508,164,224407,5,0,0:0:0:0:
512,192,224407,1,0,0:0:0:0:
0,192,224407,1,0,0:0:0:0:
4,164,224407,1,0,0:0:0:0:
116,164,224407,1,0,0:0:0:0:
340,164,224407,1,0,0:0:0:0:
60,164,224407,1,0,0:0:0:0:
396,164,224407,1,0,0:0:0:0:
452,164,224407,1,0,0:0:0:0:
172,164,224407,1,0,0:0:0:0:
0,192,224452,1,0,0:0:0:0:
512,192,224452,1,0,0:0:0:0:
508,188,224497,5,0,0:0:0:0:
452,188,224497,1,0,0:0:0:0:
60,188,224497,1,0,0:0:0:0:
284,188,224497,1,0,0:0:0:0:
396,188,224497,1,0,0:0:0:0:
340,188,224497,1,0,0:0:0:0:
0,192,224497,1,0,0:0:0:0:
512,192,224497,1,0,0:0:0:0:
4,188,224497,1,0,0:0:0:0:
116,188,224497,1,0,0:0:0:0:
512,192,224542,1,0,0:0:0:0:
0,192,224542,1,0,0:0:0:0:
508,216,224587,5,0,0:0:0:0:
4,216,224587,1,0,0:0:0:0:
228,216,224587,1,0,0:0:0:0:
340,216,224587,1,0,0:0:0:0:
60,216,224587,1,0,0:0:0:0:
284,216,224587,1,0,0:0:0:0:
0,192,224587,1,0,0:0:0:0:
512,192,224587,1,0,0:0:0:0:
396,216,224587,1,0,0:0:0:0:
452,216,224587,1,0,0:0:0:0:
0,192,224632,1,0,0:0:0:0:
512,192,224632,1,0,0:0:0:0:
508,244,224677,5,0,0:0:0:0:
512,192,224677,1,0,0:0:0:0:
0,192,224677,1,0,0:0:0:0:
396,244,224677,1,0,0:0:0:0:
452,244,224677,1,0,0:0:0:0:
284,244,224677,1,0,0:0:0:0:
4,244,224677,1,0,0:0:0:0:
116,244,224677,1,0,0:0:0:0:
60,244,224677,1,0,0:0:0:0:
340,244,224677,1,0,0:0:0:0:
512,192,224722,1,0,0:0:0:0:
0,192,224722,1,0,0:0:0:0:
0,192,224767,1,0,0:0:0:0:
512,192,224767,1,0,0:0:0:0:
0,192,224812,1,0,0:0:0:0:
512,192,224812,1,0,0:0:0:0:
512,192,224857,1,0,0:0:0:0:
0,192,224857,1,0,0:0:0:0:
508,300,224858,5,0,0:0:0:0:
4,300,224858,1,0,0:0:0:0:
116,300,224858,1,0,0:0:0:0:
60,300,224858,1,0,0:0:0:0:
228,300,224858,1,0,0:0:0:0:
452,300,224858,1,0,0:0:0:0:
172,300,224858,1,0,0:0:0:0:
284,300,224858,1,0,0:0:0:0:
0,192,224902,1,0,0:0:0:0:
512,192,224902,1,0,0:0:0:0:
0,192,224947,1,0,0:0:0:0:
512,192,224947,1,0,0:0:0:0:
512,192,224992,1,0,0:0:0:0:
0,192,224992,1,0,0:0:0:0:
4,0,225038,5,0,0:0:0:0:
0,192,225038,5,0,0:0:0:0:
512,192,225038,5,0,0:0:0:0:
60,0,225038,1,0,0:0:0:0:
228,0,225038,1,0,0:0:0:0:
340,0,225038,1,0,0:0:0:0:
284,0,225038,1,0,0:0:0:0:
396,0,225038,1,0,0:0:0:0:
452,0,225038,1,0,0:0:0:0:
508,0,225038,1,0,0:0:0:0:
0,192,225083,1,0,0:0:0:0:
512,192,225083,1,0,0:0:0:0:
4,0,225128,5,0,0:0:0:0:
512,192,225128,1,0,0:0:0:0:
0,192,225128,1,0,0:0:0:0:
396,0,225128,1,0,0:0:0:0:
340,0,225128,1,0,0:0:0:0:
284,0,225128,1,0,0:0:0:0:
508,0,225128,1,0,0:0:0:0:
60,0,225128,1,0,0:0:0:0:
228,0,225128,1,0,0:0:0:0:
452,0,225128,1,0,0:0:0:0:
512,192,225173,1,0,0:0:0:0:
0,192,225173,1,0,0:0:0:0:
0,192,225218,1,0,0:0:0:0:
512,192,225218,1,0,0:0:0:0:
4,32,225219,5,0,0:0:0:0:
508,32,225219,1,0,0:0:0:0:
172,32,225219,1,0,0:0:0:0:
452,32,225219,1,0,0:0:0:0:
116,32,225219,1,0,0:0:0:0:
60,32,225219,1,0,0:0:0:0:
396,32,225219,1,0,0:0:0:0:
340,32,225219,1,0,0:0:0:0:
0,192,225263,1,0,0:0:0:0:
512,192,225263,1,0,0:0:0:0:
512,192,225308,1,0,0:0:0:0:
0,192,225308,1,0,0:0:0:0:
4,32,225309,5,0,0:0:0:0:
60,32,225309,1,0,0:0:0:0:
452,32,225309,1,0,0:0:0:0:
116,32,225309,1,0,0:0:0:0:
340,32,225309,1,0,0:0:0:0:
508,32,225309,1,0,0:0:0:0:
172,32,225309,1,0,0:0:0:0:
396,32,225309,1,0,0:0:0:0:
512,192,225353,1,0,0:0:0:0:
0,192,225353,1,0,0:0:0:0:
0,192,225398,1,0,0:0:0:0:
512,192,225398,1,0,0:0:0:0:
4,68,225399,5,0,0:0:0:0:
60,68,225399,1,0,0:0:0:0:
228,68,225399,1,0,0:0:0:0:
116,68,225399,1,0,0:0:0:0:
508,68,225399,1,0,0:0:0:0:
284,68,225399,1,0,0:0:0:0:
452,68,225399,1,0,0:0:0:0:
172,68,225399,1,0,0:0:0:0:
512,192,225443,1,0,0:0:0:0:
0,192,225443,1,0,0:0:0:0:
512,192,225488,1,0,0:0:0:0:
0,192,225488,1,0,0:0:0:0:
4,68,225489,5,0,0:0:0:0:
284,68,225489,1,0,0:0:0:0:
116,68,225489,1,0,0:0:0:0:
508,68,225489,1,0,0:0:0:0:
172,68,225489,1,0,0:0:0:0:
60,68,225489,1,0,0:0:0:0:
228,68,225489,1,0,0:0:0:0:
452,68,225489,1,0,0:0:0:0:
0,192,225533,1,0,0:0:0:0:
512,192,225533,1,0,0:0:0:0:
0,192,225578,1,0,0:0:0:0:
512,192,225578,1,0,0:0:0:0:
4,96,225579,5,0,0:0:0:0:
508,96,225579,1,0,0:0:0:0:
172,96,225579,1,0,0:0:0:0:
452,96,225579,1,0,0:0:0:0:
116,96,225579,1,0,0:0:0:0:
60,96,225579,1,0,0:0:0:0:
396,96,225579,1,0,0:0:0:0:
340,96,225579,1,0,0:0:0:0:
512,192,225623,1,0,0:0:0:0:
0,192,225623,1,0,0:0:0:0:
512,192,225668,1,0,0:0:0:0:
0,192,225668,1,0,0:0:0:0:
4,96,225669,5,0,0:0:0:0:
60,96,225669,1,0,0:0:0:0:
452,96,225669,1,0,0:0:0:0:
116,96,225669,1,0,0:0:0:0:
340,96,225669,1,0,0:0:0:0:
508,96,225669,1,0,0:0:0:0:
172,96,225669,1,0,0:0:0:0:
396,96,225669,1,0,0:0:0:0:
0,192,225713,1,0,0:0:0:0:
512,192,225713,1,0,0:0:0:0:
0,192,225758,5,0,0:0:0:0:
512,192,225758,5,0,0:0:0:0:
4,140,225759,5,0,0:0:0:0:
508,140,225759,1,0,0:0:0:0:
452,140,225759,1,0,0:0:0:0:
396,140,225759,1,0,0:0:0:0:
284,140,225759,1,0,0:0:0:0:
116,140,225759,1,0,0:0:0:0:
340,140,225759,1,0,0:0:0:0:
60,140,225759,1,0,0:0:0:0:
512,192,225803,1,0,0:0:0:0:
0,192,225803,1,0,0:0:0:0:
512,192,225848,1,0,0:0:0:0:
0,192,225848,1,0,0:0:0:0:
4,164,225849,5,0,0:0:0:0:
116,164,225849,1,0,0:0:0:0:
452,164,225849,1,0,0:0:0:0:
340,164,225849,1,0,0:0:0:0:
60,164,225849,1,0,0:0:0:0:
508,164,225849,1,0,0:0:0:0:
172,164,225849,1,0,0:0:0:0:
396,164,225849,1,0,0:0:0:0:
0,192,225893,1,0,0:0:0:0:
512,192,225893,1,0,0:0:0:0:
0,192,225938,1,0,0:0:0:0:
512,192,225938,1,0,0:0:0:0:
4,188,225939,5,0,0:0:0:0:
60,188,225939,1,0,0:0:0:0:
228,188,225939,1,0,0:0:0:0:
116,188,225939,1,0,0:0:0:0:
508,188,225939,1,0,0:0:0:0:
396,188,225939,1,0,0:0:0:0:
452,188,225939,1,0,0:0:0:0:
172,188,225939,1,0,0:0:0:0:
512,192,225983,1,0,0:0:0:0:
0,192,225983,1,0,0:0:0:0:
512,192,226028,1,0,0:0:0:0:
0,192,226028,1,0,0:0:0:0:
4,216,226029,5,0,0:0:0:0:
508,216,226029,1,0,0:0:0:0:
284,216,226029,1,0,0:0:0:0:
172,216,226029,1,0,0:0:0:0:
452,216,226029,1,0,0:0:0:0:
60,216,226029,1,0,0:0:0:0:
228,216,226029,1,0,0:0:0:0:
116,216,226029,1,0,0:0:0:0:
0,192,226073,1,0,0:0:0:0:
512,192,226073,1,0,0:0:0:0:
0,192,226118,1,0,0:0:0:0:
512,192,226118,1,0,0:0:0:0:
4,244,226119,5,0,0:0:0:0:
396,244,226119,1,0,0:0:0:0:
172,244,226119,1,0,0:0:0:0:
452,244,226119,1,0,0:0:0:0:
60,244,226119,1,0,0:0:0:0:
116,244,226119,1,0,0:0:0:0:
508,244,226119,1,0,0:0:0:0:
228,244,226119,1,0,0:0:0:0:
256,196,226300,1,0,0:0:0:0:
4,0,226480,5,0,0:0:0:0:
396,0,226480,1,0,0:0:0:0:
284,0,226480,1,0,0:0:0:0:
508,0,226480,1,0,0:0:0:0:
452,0,226480,1,0,0:0:0:0:
60,0,226480,1,0,0:0:0:0:
116,0,226480,1,0,0:0:0:0:
340,0,226480,1,0,0:0:0:0:
4,16,226525,5,0,0:0:0:0:
60,16,226525,1,0,0:0:0:0:
104,16,226525,1,0,0:0:0:0:
340,16,226525,1,0,0:0:0:0:
268,16,226525,1,0,0:0:0:0:
396,16,226525,1,0,0:0:0:0:
508,16,226525,1,0,0:0:0:0:
452,16,226525,1,0,0:0:0:0:
4,36,226570,5,0,0:0:0:0:
396,36,226570,1,0,0:0:0:0:
256,36,226570,1,0,0:0:0:0:
508,36,226570,1,0,0:0:0:0:
452,36,226570,1,0,0:0:0:0:
60,36,226570,1,0,0:0:0:0:
84,36,226570,1,0,0:0:0:0:
340,36,226570,1,0,0:0:0:0:
4,56,226615,5,0,0:0:0:0:
72,56,226615,1,0,0:0:0:0:
248,56,226615,1,0,0:0:0:0:
340,56,226615,1,0,0:0:0:0:
284,56,226615,1,0,0:0:0:0:
396,56,226615,1,0,0:0:0:0:
508,56,226615,1,0,0:0:0:0:
452,56,226615,1,0,0:0:0:0:
4,80,226660,5,0,0:0:0:0:
396,80,226660,1,0,0:0:0:0:
284,80,226660,1,0,0:0:0:0:
508,80,226660,1,0,0:0:0:0:
452,80,226660,1,0,0:0:0:0:
72,76,226660,1,0,0:0:0:0:
340,80,226660,1,0,0:0:0:0:
240,80,226660,1,0,0:0:0:0:
4,136,226750,5,0,0:0:0:0:
60,136,226750,1,0,0:0:0:0:
116,136,226750,1,0,0:0:0:0:
340,136,226750,1,0,0:0:0:0:
396,136,226750,1,0,0:0:0:0:
508,136,226750,1,0,0:0:0:0:
452,136,226750,1,0,0:0:0:0:
172,136,226750,1,0,0:0:0:0:
4,160,226840,5,0,0:0:0:0:
116,160,226840,1,0,0:0:0:0:
60,160,226840,1,0,0:0:0:0:
228,156,226840,1,0,0:0:0:0:
508,160,226840,1,0,0:0:0:0:
396,160,226840,1,0,0:0:0:0:
452,160,226840,1,0,0:0:0:0:
172,156,226840,1,0,0:0:0:0:
4,184,226885,5,0,0:0:0:0:
408,188,226885,1,0,0:0:0:0:
508,184,226885,1,0,0:0:0:0:
172,184,226885,1,0,0:0:0:0:
452,184,226885,1,0,0:0:0:0:
60,184,226885,1,0,0:0:0:0:
116,184,226885,1,0,0:0:0:0:
244,184,226885,1,0,0:0:0:0:
4,212,226930,5,0,0:0:0:0:
424,216,226930,1,0,0:0:0:0:
508,212,226930,1,0,0:0:0:0:
172,212,226930,1,0,0:0:0:0:
452,212,226930,1,0,0:0:0:0:
60,212,226930,1,0,0:0:0:0:
116,212,226930,1,0,0:0:0:0:
256,212,226930,1,0,0:0:0:0:
4,248,226976,5,0,0:0:0:0:
60,248,226976,1,0,0:0:0:0:
116,248,226976,1,0,0:0:0:0:
228,248,226976,1,0,0:0:0:0:
272,248,226976,1,0,0:0:0:0:
508,248,226976,1,0,0:0:0:0:
440,248,226976,1,0,0:0:0:0:
172,248,226976,1,0,0:0:0:0:
4,280,227021,5,0,0:0:0:0:
276,280,227021,1,0,0:0:0:0:
508,280,227021,1,0,0:0:0:0:
172,280,227021,1,0,0:0:0:0:
444,280,227021,1,0,0:0:0:0:
60,280,227021,1,0,0:0:0:0:
116,280,227021,1,0,0:0:0:0:
228,280,227021,1,0,0:0:0:0:
4,16,227111,5,0,0:0:0:0:
60,16,227111,1,0,0:0:0:0:
116,16,227111,1,0,0:0:0:0:
340,16,227111,1,0,0:0:0:0:
396,16,227111,1,0,0:0:0:0:
508,16,227111,1,0,0:0:0:0:
452,16,227111,1,0,0:0:0:0:
172,16,227111,1,0,0:0:0:0:
4,72,227201,5,0,0:0:0:0:
396,72,227201,1,0,0:0:0:0:
284,72,227201,1,0,0:0:0:0:
508,72,227201,1,0,0:0:0:0:
452,72,227201,1,0,0:0:0:0:
60,72,227201,1,0,0:0:0:0:
116,72,227201,1,0,0:0:0:0:
340,72,227201,1,0,0:0:0:0:
4,96,227246,5,0,0:0:0:0:
396,96,227246,1,0,0:0:0:0:
268,96,227246,1,0,0:0:0:0:
508,96,227246,1,0,0:0:0:0:
452,96,227246,1,0,0:0:0:0:
60,96,227246,1,0,0:0:0:0:
104,96,227246,1,0,0:0:0:0:
340,96,227246,1,0,0:0:0:0:
4,120,227291,5,0,0:0:0:0:
60,120,227291,1,0,0:0:0:0:
116,120,227291,1,0,0:0:0:0:
340,120,227291,1,0,0:0:0:0:
284,120,227291,1,0,0:0:0:0:
396,120,227291,1,0,0:0:0:0:
508,120,227291,1,0,0:0:0:0:
452,120,227291,1,0,0:0:0:0:
4,164,227381,5,0,0:0:0:0:
396,164,227381,1,0,0:0:0:0:
508,164,227381,1,0,0:0:0:0:
172,164,227381,1,0,0:0:0:0:
452,164,227381,1,0,0:0:0:0:
60,164,227381,1,0,0:0:0:0:
116,164,227381,1,0,0:0:0:0:
228,164,227381,1,0,0:0:0:0:
4,180,227426,5,0,0:0:0:0:
60,180,227426,1,0,0:0:0:0:
116,180,227426,1,0,0:0:0:0:
240,180,227426,1,0,0:0:0:0:
408,180,227426,1,0,0:0:0:0:
508,180,227426,1,0,0:0:0:0:
452,180,227426,1,0,0:0:0:0:
172,180,227426,1,0,0:0:0:0:
4,212,227471,5,0,0:0:0:0:
508,212,227471,1,0,0:0:0:0:
172,212,227471,1,0,0:0:0:0:
452,212,227471,1,0,0:0:0:0:
60,212,227471,1,0,0:0:0:0:
116,212,227471,1,0,0:0:0:0:
228,212,227471,1,0,0:0:0:0:
396,212,227471,1,0,0:0:0:0:
4,0,227561,5,0,0:0:0:0:
396,0,227561,1,0,0:0:0:0:
508,0,227561,1,0,0:0:0:0:
172,0,227561,1,0,0:0:0:0:
452,0,227561,1,0,0:0:0:0:
60,0,227561,1,0,0:0:0:0:
116,0,227561,1,0,0:0:0:0:
340,0,227561,1,0,0:0:0:0:
4,28,227651,5,0,0:0:0:0:
60,28,227651,1,0,0:0:0:0:
228,28,227651,1,0,0:0:0:0:
340,28,227651,1,0,0:0:0:0:
284,28,227651,1,0,0:0:0:0:
396,28,227651,1,0,0:0:0:0:
508,28,227651,1,0,0:0:0:0:
452,28,227651,1,0,0:0:0:0:
4,48,227696,5,0,0:0:0:0:
396,48,227696,1,0,0:0:0:0:
284,48,227696,1,0,0:0:0:0:
508,48,227696,1,0,0:0:0:0:
452,48,227696,1,0,0:0:0:0:
48,48,227696,1,0,0:0:0:0:
340,48,227696,1,0,0:0:0:0:
216,48,227696,1,0,0:0:0:0:
4,72,227741,5,0,0:0:0:0:
396,72,227741,1,0,0:0:0:0:
284,72,227741,1,0,0:0:0:0:
508,72,227741,1,0,0:0:0:0:
452,72,227741,1,0,0:0:0:0:
44,72,227741,1,0,0:0:0:0:
340,72,227741,1,0,0:0:0:0:
208,72,227741,1,0,0:0:0:0:
4,100,227786,5,0,0:0:0:0:
44,100,227786,1,0,0:0:0:0:
208,100,227786,1,0,0:0:0:0:
340,100,227786,1,0,0:0:0:0:
284,100,227786,1,0,0:0:0:0:
396,100,227786,1,0,0:0:0:0:
508,100,227786,1,0,0:0:0:0:
452,100,227786,1,0,0:0:0:0:
4,128,227831,5,0,0:0:0:0:
396,128,227831,1,0,0:0:0:0:
284,128,227831,1,0,0:0:0:0:
508,128,227831,1,0,0:0:0:0:
452,128,227831,1,0,0:0:0:0:
48,128,227831,1,0,0:0:0:0:
340,128,227831,1,0,0:0:0:0:
224,128,227831,1,0,0:0:0:0:
4,164,227876,5,0,0:0:0:0:
60,164,227876,1,0,0:0:0:0:
244,160,227876,1,0,0:0:0:0:
340,164,227876,1,0,0:0:0:0:
284,164,227876,1,0,0:0:0:0:
396,164,227876,1,0,0:0:0:0:
508,164,227876,1,0,0:0:0:0:
452,164,227876,1,0,0:0:0:0:
4,208,227921,5,0,0:0:0:0:
116,208,227921,1,0,0:0:0:0:
284,208,227921,1,0,0:0:0:0:
60,208,227921,1,0,0:0:0:0:
340,208,227921,1,0,0:0:0:0:
508,208,227921,1,0,0:0:0:0:
396,208,227921,1,0,0:0:0:0:
452,208,227921,1,0,0:0:0:0:
4,208,227967,5,0,0:0:0:0:
508,208,227967,1,0,0:0:0:0:
340,208,227967,1,0,0:0:0:0:
452,208,227967,1,0,0:0:0:0:
396,208,227967,1,0,0:0:0:0:
116,208,227967,1,0,0:0:0:0:
60,208,227967,1,0,0:0:0:0:
284,208,227967,1,0,0:0:0:0:
4,208,228012,5,0,0:0:0:0:
116,208,228012,1,0,0:0:0:0:
284,208,228012,1,0,0:0:0:0:
60,208,228012,1,0,0:0:0:0:
340,208,228012,1,0,0:0:0:0:
508,208,228012,1,0,0:0:0:0:
396,208,228012,1,0,0:0:0:0:
452,208,228012,1,0,0:0:0:0:
4,208,228057,5,0,0:0:0:0:
508,208,228057,1,0,0:0:0:0:
340,208,228057,1,0,0:0:0:0:
452,208,228057,1,0,0:0:0:0:
396,208,228057,1,0,0:0:0:0:
116,208,228057,1,0,0:0:0:0:
60,208,228057,1,0,0:0:0:0:
284,208,228057,1,0,0:0:0:0:
4,248,228102,5,0,0:0:0:0:
396,248,228102,1,0,0:0:0:0:
508,248,228102,1,0,0:0:0:0:
172,248,228102,1,0,0:0:0:0:
452,248,228102,1,0,0:0:0:0:
60,248,228102,1,0,0:0:0:0:
116,248,228102,1,0,0:0:0:0:
340,248,228102,1,0,0:0:0:0:
4,276,228132,5,0,0:0:0:0:
60,276,228132,1,0,0:0:0:0:
116,276,228132,1,0,0:0:0:0:
352,276,228132,1,0,0:0:0:0:
396,276,228132,1,0,0:0:0:0:
508,276,228132,1,0,0:0:0:0:
452,276,228132,1,0,0:0:0:0:
184,276,228132,1,0,0:0:0:0:
4,300,228162,5,0,0:0:0:0:
60,300,228162,1,0,0:0:0:0:
116,300,228162,1,0,0:0:0:0:
364,300,228162,1,0,0:0:0:0:
396,300,228162,1,0,0:0:0:0:
508,300,228162,1,0,0:0:0:0:
452,300,228162,1,0,0:0:0:0:
192,300,228162,1,0,0:0:0:0:
4,324,228192,5,0,0:0:0:0:
508,324,228192,1,0,0:0:0:0:
384,324,228192,1,0,0:0:0:0:
200,324,228192,1,0,0:0:0:0:
452,324,228192,1,0,0:0:0:0:
116,324,228192,1,0,0:0:0:0:
60,324,228192,1,0,0:0:0:0:
4,344,228222,5,0,0:0:0:0:
116,344,228222,1,0,0:0:0:0:
60,344,228222,1,0,0:0:0:0:
204,344,228222,1,0,0:0:0:0:
508,344,228222,1,0,0:0:0:0:
384,344,228222,1,0,0:0:0:0:
452,344,228222,1,0,0:0:0:0:
4,364,228252,5,0,0:0:0:0:
116,364,228252,1,0,0:0:0:0:
60,364,228252,1,0,0:0:0:0:
204,368,228252,1,0,0:0:0:0:
508,364,228252,1,0,0:0:0:0:
384,364,228252,1,0,0:0:0:0:
452,364,228252,1,0,0:0:0:0:
4,0,228282,5,0,0:0:0:0:
396,0,228282,1,0,0:0:0:0:
508,0,228282,1,0,0:0:0:0:
172,0,228282,1,0,0:0:0:0:
452,0,228282,1,0,0:0:0:0:
60,0,228282,1,0,0:0:0:0:
116,0,228282,1,0,0:0:0:0:
228,0,228282,1,0,0:0:0:0:
4,36,228372,5,0,0:0:0:0:
60,36,228372,1,0,0:0:0:0:
116,36,228372,1,0,0:0:0:0:
340,36,228372,1,0,0:0:0:0:
284,36,228372,1,0,0:0:0:0:
396,36,228372,1,0,0:0:0:0:
508,36,228372,1,0,0:0:0:0:
452,36,228372,1,0,0:0:0:0:
4,64,228417,5,0,0:0:0:0:
396,64,228417,1,0,0:0:0:0:
272,64,228417,1,0,0:0:0:0:
508,64,228417,1,0,0:0:0:0:
452,64,228417,1,0,0:0:0:0:
60,64,228417,1,0,0:0:0:0:
104,64,228417,1,0,0:0:0:0:
340,64,228417,1,0,0:0:0:0:
4,84,228462,5,0,0:0:0:0:
508,84,228462,1,0,0:0:0:0:
396,84,228462,1,0,0:0:0:0:
452,84,228462,1,0,0:0:0:0:
260,84,228462,1,0,0:0:0:0:
100,80,228462,1,0,0:0:0:0:
60,84,228462,1,0,0:0:0:0:
340,84,228462,1,0,0:0:0:0:
4,104,228507,5,0,0:0:0:0:
96,104,228507,1,0,0:0:0:0:
256,104,228507,1,0,0:0:0:0:
60,104,228507,1,0,0:0:0:0:
340,104,228507,1,0,0:0:0:0:
508,104,228507,1,0,0:0:0:0:
396,104,228507,1,0,0:0:0:0:
452,104,228507,1,0,0:0:0:0:
4,128,228552,5,0,0:0:0:0:
508,128,228552,1,0,0:0:0:0:
396,128,228552,1,0,0:0:0:0:
452,128,228552,1,0,0:0:0:0:
260,128,228552,1,0,0:0:0:0:
104,128,228552,1,0,0:0:0:0:
60,128,228552,1,0,0:0:0:0:
340,128,228552,1,0,0:0:0:0:
4,156,228642,5,0,0:0:0:0:
116,156,228642,1,0,0:0:0:0:
60,156,228642,1,0,0:0:0:0:
340,156,228642,1,0,0:0:0:0:
508,156,228642,1,0,0:0:0:0:
396,156,228642,1,0,0:0:0:0:
452,156,228642,1,0,0:0:0:0:
172,156,228642,1,0,0:0:0:0:
4,184,228687,5,0,0:0:0:0:
508,184,228687,1,0,0:0:0:0:
396,184,228687,1,0,0:0:0:0:
184,184,228687,1,0,0:0:0:0:
452,184,228687,1,0,0:0:0:0:
116,184,228687,1,0,0:0:0:0:
60,184,228687,1,0,0:0:0:0:
352,184,228687,1,0,0:0:0:0:
4,212,228732,5,0,0:0:0:0:
508,212,228732,1,0,0:0:0:0:
200,212,228732,1,0,0:0:0:0:
452,212,228732,1,0,0:0:0:0:
60,212,228732,1,0,0:0:0:0:
116,212,228732,1,0,0:0:0:0:
368,212,228732,1,0,0:0:0:0:
4,252,228822,5,0,0:0:0:0:
60,252,228822,1,0,0:0:0:0:
116,252,228822,1,0,0:0:0:0:
228,252,228822,1,0,0:0:0:0:
396,252,228822,1,0,0:0:0:0:
508,252,228822,1,0,0:0:0:0:
452,252,228822,1,0,0:0:0:0:
172,252,228822,1,0,0:0:0:0:
4,288,228867,5,0,0:0:0:0:
116,288,228867,1,0,0:0:0:0:
60,288,228867,1,0,0:0:0:0:
244,288,228867,1,0,0:0:0:0:
508,288,228867,1,0,0:0:0:0:
408,288,228867,1,0,0:0:0:0:
452,288,228867,1,0,0:0:0:0:
172,288,228867,1,0,0:0:0:0:
4,332,228912,5,0,0:0:0:0:
508,332,228912,1,0,0:0:0:0:
172,332,228912,1,0,0:0:0:0:
436,332,228912,1,0,0:0:0:0:
272,332,228912,1,0,0:0:0:0:
116,332,228912,1,0,0:0:0:0:
60,332,228912,1,0,0:0:0:0:
228,332,228912,1,0,0:0:0:0:
4,0,229003,5,0,0:0:0:0:
396,0,229003,1,0,0:0:0:0:
508,0,229003,1,0,0:0:0:0:
172,0,229003,1,0,0:0:0:0:
452,0,229003,1,0,0:0:0:0:
60,0,229003,1,0,0:0:0:0:
116,0,229003,1,0,0:0:0:0:
340,0,229003,1,0,0:0:0:0:
4,24,229048,5,0,0:0:0:0:
60,24,229048,1,0,0:0:0:0:
116,24,229048,1,0,0:0:0:0:
396,24,229048,1,0,0:0:0:0:
508,24,229048,1,0,0:0:0:0:
452,24,229048,1,0,0:0:0:0:
4,60,229093,5,0,0:0:0:0:
256,56,229093,1,0,0:0:0:0:
508,60,229093,1,0,0:0:0:0:
452,60,229093,1,0,0:0:0:0:
60,60,229093,1,0,0:0:0:0:
4,92,229138,5,0,0:0:0:0:
60,92,229138,1,0,0:0:0:0:
228,92,229138,1,0,0:0:0:0:
284,92,229138,1,0,0:0:0:0:
508,92,229138,1,0,0:0:0:0:
452,92,229138,1,0,0:0:0:0:
4,124,229183,5,0,0:0:0:0:
304,120,229183,1,0,0:0:0:0:
508,124,229183,1,0,0:0:0:0:
208,124,229183,1,0,0:0:0:0:
256,124,229183,1,0,0:0:0:0:
4,160,229228,5,0,0:0:0:0:
228,160,229228,1,0,0:0:0:0:
340,160,229228,1,0,0:0:0:0:
284,160,229228,1,0,0:0:0:0:
508,160,229228,1,0,0:0:0:0:
172,160,229228,1,0,0:0:0:0:
508,0,229363,5,0,0:0:0:0:
116,0,229363,1,0,0:0:0:0:
60,0,229363,1,0,0:0:0:0:
4,0,229363,1,0,0:0:0:0:
228,0,229363,1,0,0:0:0:0:
452,0,229363,1,0,0:0:0:0:
172,0,229363,1,0,0:0:0:0:
396,0,229363,1,0,0:0:0:0:
508,16,229408,5,0,0:0:0:0:
116,16,229408,1,0,0:0:0:0:
244,16,229408,1,0,0:0:0:0:
60,16,229408,1,0,0:0:0:0:
4,16,229408,1,0,0:0:0:0:
452,16,229408,1,0,0:0:0:0:
172,16,229408,1,0,0:0:0:0:
408,16,229408,1,0,0:0:0:0:
508,36,229453,5,0,0:0:0:0:
116,36,229453,1,0,0:0:0:0:
60,36,229453,1,0,0:0:0:0:
4,36,229453,1,0,0:0:0:0:
256,36,229453,1,0,0:0:0:0:
452,36,229453,1,0,0:0:0:0:
172,36,229453,1,0,0:0:0:0:
428,36,229453,1,0,0:0:0:0:
508,56,229498,5,0,0:0:0:0:
116,56,229498,1,0,0:0:0:0:
228,56,229498,1,0,0:0:0:0:
60,56,229498,1,0,0:0:0:0:
4,56,229498,1,0,0:0:0:0:
440,56,229498,1,0,0:0:0:0:
172,56,229498,1,0,0:0:0:0:
264,56,229498,1,0,0:0:0:0:
508,80,229543,5,0,0:0:0:0:
116,80,229543,1,0,0:0:0:0:
60,80,229543,1,0,0:0:0:0:
4,80,229543,1,0,0:0:0:0:
228,80,229543,1,0,0:0:0:0:
440,76,229543,1,0,0:0:0:0:
272,80,229543,1,0,0:0:0:0:
172,80,229543,1,0,0:0:0:0:
508,136,229633,5,0,0:0:0:0:
4,136,229633,1,0,0:0:0:0:
116,136,229633,1,0,0:0:0:0:
340,136,229633,1,0,0:0:0:0:
60,136,229633,1,0,0:0:0:0:
452,136,229633,1,0,0:0:0:0:
172,136,229633,1,0,0:0:0:0:
396,136,229633,1,0,0:0:0:0:
508,160,229723,5,0,0:0:0:0:
396,160,229723,1,0,0:0:0:0:
4,160,229723,1,0,0:0:0:0:
284,156,229723,1,0,0:0:0:0:
452,160,229723,1,0,0:0:0:0:
116,160,229723,1,0,0:0:0:0:
340,156,229723,1,0,0:0:0:0:
60,160,229723,1,0,0:0:0:0:
508,184,229768,5,0,0:0:0:0:
452,184,229768,1,0,0:0:0:0:
60,184,229768,1,0,0:0:0:0:
268,184,229768,1,0,0:0:0:0:
396,184,229768,1,0,0:0:0:0:
104,188,229768,1,0,0:0:0:0:
340,184,229768,1,0,0:0:0:0:
4,184,229768,1,0,0:0:0:0:
508,212,229813,5,0,0:0:0:0:
88,216,229813,1,0,0:0:0:0:
60,212,229813,1,0,0:0:0:0:
340,212,229813,1,0,0:0:0:0:
4,212,229813,1,0,0:0:0:0:
452,212,229813,1,0,0:0:0:0:
256,212,229813,1,0,0:0:0:0:
396,212,229813,1,0,0:0:0:0:
508,248,229859,5,0,0:0:0:0:
4,248,229859,1,0,0:0:0:0:
240,248,229859,1,0,0:0:0:0:
340,248,229859,1,0,0:0:0:0:
72,248,229859,1,0,0:0:0:0:
452,248,229859,1,0,0:0:0:0:
284,248,229859,1,0,0:0:0:0:
396,248,229859,1,0,0:0:0:0:
508,280,229904,5,0,0:0:0:0:
236,280,229904,1,0,0:0:0:0:
68,280,229904,1,0,0:0:0:0:
340,280,229904,1,0,0:0:0:0:
4,280,229904,1,0,0:0:0:0:
452,280,229904,1,0,0:0:0:0:
284,280,229904,1,0,0:0:0:0:
396,280,229904,1,0,0:0:0:0:
508,16,229994,5,0,0:0:0:0:
4,16,229994,1,0,0:0:0:0:
116,16,229994,1,0,0:0:0:0:
340,16,229994,1,0,0:0:0:0:
60,16,229994,1,0,0:0:0:0:
452,16,229994,1,0,0:0:0:0:
172,16,229994,1,0,0:0:0:0:
396,16,229994,1,0,0:0:0:0:
508,72,230084,5,0,0:0:0:0:
116,72,230084,1,0,0:0:0:0:
60,72,230084,1,0,0:0:0:0:
4,72,230084,1,0,0:0:0:0:
228,72,230084,1,0,0:0:0:0:
452,72,230084,1,0,0:0:0:0:
172,72,230084,1,0,0:0:0:0:
396,72,230084,1,0,0:0:0:0:
508,96,230129,5,0,0:0:0:0:
452,96,230129,1,0,0:0:0:0:
60,96,230129,1,0,0:0:0:0:
172,96,230129,1,0,0:0:0:0:
408,96,230129,1,0,0:0:0:0:
116,96,230129,1,0,0:0:0:0:
4,96,230129,1,0,0:0:0:0:
244,96,230129,1,0,0:0:0:0:
508,120,230174,5,0,0:0:0:0:
452,120,230174,1,0,0:0:0:0:
228,120,230174,1,0,0:0:0:0:
172,120,230174,1,0,0:0:0:0:
396,120,230174,1,0,0:0:0:0:
116,120,230174,1,0,0:0:0:0:
60,120,230174,1,0,0:0:0:0:
4,120,230174,1,0,0:0:0:0:
508,164,230264,5,0,0:0:0:0:
452,164,230264,1,0,0:0:0:0:
60,164,230264,1,0,0:0:0:0:
284,164,230264,1,0,0:0:0:0:
396,164,230264,1,0,0:0:0:0:
116,164,230264,1,0,0:0:0:0:
340,164,230264,1,0,0:0:0:0:
4,164,230264,1,0,0:0:0:0:
508,180,230309,5,0,0:0:0:0:
452,180,230309,1,0,0:0:0:0:
104,180,230309,1,0,0:0:0:0:
272,180,230309,1,0,0:0:0:0:
396,180,230309,1,0,0:0:0:0:
4,180,230309,1,0,0:0:0:0:
340,180,230309,1,0,0:0:0:0:
60,180,230309,1,0,0:0:0:0:
508,212,230354,5,0,0:0:0:0:
396,212,230354,1,0,0:0:0:0:
452,212,230354,1,0,0:0:0:0:
116,212,230354,1,0,0:0:0:0:
284,212,230354,1,0,0:0:0:0:
4,212,230354,1,0,0:0:0:0:
60,212,230354,1,0,0:0:0:0:
340,212,230354,1,0,0:0:0:0:
508,0,230444,5,0,0:0:0:0:
116,0,230444,1,0,0:0:0:0:
60,0,230444,1,0,0:0:0:0:
340,0,230444,1,0,0:0:0:0:
4,0,230444,1,0,0:0:0:0:
452,0,230444,1,0,0:0:0:0:
172,0,230444,1,0,0:0:0:0:
396,0,230444,1,0,0:0:0:0:
508,28,230534,5,0,0:0:0:0:
116,28,230534,1,0,0:0:0:0:
228,28,230534,1,0,0:0:0:0:
60,28,230534,1,0,0:0:0:0:
4,28,230534,1,0,0:0:0:0:
452,28,230534,1,0,0:0:0:0:
172,28,230534,1,0,0:0:0:0:
284,28,230534,1,0,0:0:0:0:
508,48,230579,5,0,0:0:0:0:
116,48,230579,1,0,0:0:0:0:
60,48,230579,1,0,0:0:0:0:
4,48,230579,1,0,0:0:0:0:
228,48,230579,1,0,0:0:0:0:
464,48,230579,1,0,0:0:0:0:
296,48,230579,1,0,0:0:0:0:
172,48,230579,1,0,0:0:0:0:
508,72,230624,5,0,0:0:0:0:
116,72,230624,1,0,0:0:0:0:
60,72,230624,1,0,0:0:0:0:
4,72,230624,1,0,0:0:0:0:
228,72,230624,1,0,0:0:0:0:
468,72,230624,1,0,0:0:0:0:
304,72,230624,1,0,0:0:0:0:
172,72,230624,1,0,0:0:0:0:
508,100,230669,5,0,0:0:0:0:
116,100,230669,1,0,0:0:0:0:
228,100,230669,1,0,0:0:0:0:
60,100,230669,1,0,0:0:0:0:
4,100,230669,1,0,0:0:0:0:
468,100,230669,1,0,0:0:0:0:
172,100,230669,1,0,0:0:0:0:
304,100,230669,1,0,0:0:0:0:
508,128,230714,5,0,0:0:0:0:
116,128,230714,1,0,0:0:0:0:
60,128,230714,1,0,0:0:0:0:
4,128,230714,1,0,0:0:0:0:
228,128,230714,1,0,0:0:0:0:
464,128,230714,1,0,0:0:0:0:
288,128,230714,1,0,0:0:0:0:
172,128,230714,1,0,0:0:0:0:
508,164,230759,5,0,0:0:0:0:
116,164,230759,1,0,0:0:0:0:
228,164,230759,1,0,0:0:0:0:
60,164,230759,1,0,0:0:0:0:
4,164,230759,1,0,0:0:0:0:
452,164,230759,1,0,0:0:0:0:
172,164,230759,1,0,0:0:0:0:
268,160,230759,1,0,0:0:0:0:
508,208,230804,5,0,0:0:0:0:
396,208,230804,1,0,0:0:0:0:
172,208,230804,1,0,0:0:0:0:
452,208,230804,1,0,0:0:0:0:
228,208,230804,1,0,0:0:0:0:
4,208,230804,1,0,0:0:0:0:
60,208,230804,1,0,0:0:0:0:
116,208,230804,1,0,0:0:0:0:
508,208,230850,5,0,0:0:0:0:
4,208,230850,1,0,0:0:0:0:
116,208,230850,1,0,0:0:0:0:
60,208,230850,1,0,0:0:0:0:
172,208,230850,1,0,0:0:0:0:
396,208,230850,1,0,0:0:0:0:
228,208,230850,1,0,0:0:0:0:
452,208,230850,1,0,0:0:0:0:
508,208,230895,5,0,0:0:0:0:
4,208,230895,1,0,0:0:0:0:
172,208,230895,1,0,0:0:0:0:
60,208,230895,1,0,0:0:0:0:
116,208,230895,1,0,0:0:0:0:
396,208,230895,1,0,0:0:0:0:
452,208,230895,1,0,0:0:0:0:
228,208,230895,1,0,0:0:0:0:
508,208,230940,5,0,0:0:0:0:
4,208,230940,1,0,0:0:0:0:
116,208,230940,1,0,0:0:0:0:
60,208,230940,1,0,0:0:0:0:
172,208,230940,1,0,0:0:0:0:
396,208,230940,1,0,0:0:0:0:
228,208,230940,1,0,0:0:0:0:
452,208,230940,1,0,0:0:0:0:
508,248,230985,5,0,0:0:0:0:
116,248,230985,1,0,0:0:0:0:
60,248,230985,1,0,0:0:0:0:
340,248,230985,1,0,0:0:0:0:
4,248,230985,1,0,0:0:0:0:
452,248,230985,1,0,0:0:0:0:
172,248,230985,1,0,0:0:0:0:
396,248,230985,1,0,0:0:0:0:
508,276,231015,5,0,0:0:0:0:
4,276,231015,1,0,0:0:0:0:
116,276,231015,1,0,0:0:0:0:
328,276,231015,1,0,0:0:0:0:
60,276,231015,1,0,0:0:0:0:
452,276,231015,1,0,0:0:0:0:
160,276,231015,1,0,0:0:0:0:
396,276,231015,1,0,0:0:0:0:
508,300,231045,5,0,0:0:0:0:
4,300,231045,1,0,0:0:0:0:
116,300,231045,1,0,0:0:0:0:
320,300,231045,1,0,0:0:0:0:
60,300,231045,1,0,0:0:0:0:
452,300,231045,1,0,0:0:0:0:
148,300,231045,1,0,0:0:0:0:
396,300,231045,1,0,0:0:0:0:
508,324,231075,5,0,0:0:0:0:
4,324,231075,1,0,0:0:0:0:
128,324,231075,1,0,0:0:0:0:
312,324,231075,1,0,0:0:0:0:
452,324,231075,1,0,0:0:0:0:
60,324,231075,1,0,0:0:0:0:
396,324,231075,1,0,0:0:0:0:
508,344,231105,5,0,0:0:0:0:
396,344,231105,1,0,0:0:0:0:
452,344,231105,1,0,0:0:0:0:
308,344,231105,1,0,0:0:0:0:
60,344,231105,1,0,0:0:0:0:
4,344,231105,1,0,0:0:0:0:
128,344,231105,1,0,0:0:0:0:
508,364,231135,5,0,0:0:0:0:
4,364,231135,1,0,0:0:0:0:
128,364,231135,1,0,0:0:0:0:
60,364,231135,1,0,0:0:0:0:
308,368,231135,1,0,0:0:0:0:
396,364,231135,1,0,0:0:0:0:
452,364,231135,1,0,0:0:0:0:
508,0,231165,5,0,0:0:0:0:
452,0,231165,1,0,0:0:0:0:
60,0,231165,1,0,0:0:0:0:
284,0,231165,1,0,0:0:0:0:
396,0,231165,1,0,0:0:0:0:
116,0,231165,1,0,0:0:0:0:
340,0,231165,1,0,0:0:0:0:
4,0,231165,1,0,0:0:0:0:
508,36,231255,5,0,0:0:0:0:
452,36,231255,1,0,0:0:0:0:
228,36,231255,1,0,0:0:0:0:
172,36,231255,1,0,0:0:0:0:
396,36,231255,1,0,0:0:0:0:
116,36,231255,1,0,0:0:0:0:
60,36,231255,1,0,0:0:0:0:
4,36,231255,1,0,0:0:0:0:
508,64,231300,5,0,0:0:0:0:
116,64,231300,1,0,0:0:0:0:
60,64,231300,1,0,0:0:0:0:
4,64,231300,1,0,0:0:0:0:
240,64,231300,1,0,0:0:0:0:
452,64,231300,1,0,0:0:0:0:
172,64,231300,1,0,0:0:0:0:
408,64,231300,1,0,0:0:0:0:
508,84,231345,5,0,0:0:0:0:
412,80,231345,1,0,0:0:0:0:
252,84,231345,1,0,0:0:0:0:
172,84,231345,1,0,0:0:0:0:
452,84,231345,1,0,0:0:0:0:
4,84,231345,1,0,0:0:0:0:
60,84,231345,1,0,0:0:0:0:
116,84,231345,1,0,0:0:0:0:
508,104,231390,5,0,0:0:0:0:
416,104,231390,1,0,0:0:0:0:
172,104,231390,1,0,0:0:0:0:
452,104,231390,1,0,0:0:0:0:
256,104,231390,1,0,0:0:0:0:
4,104,231390,1,0,0:0:0:0:
60,104,231390,1,0,0:0:0:0:
116,104,231390,1,0,0:0:0:0:
508,128,231435,5,0,0:0:0:0:
4,128,231435,1,0,0:0:0:0:
252,128,231435,1,0,0:0:0:0:
60,128,231435,1,0,0:0:0:0:
116,128,231435,1,0,0:0:0:0:
408,128,231435,1,0,0:0:0:0:
172,128,231435,1,0,0:0:0:0:
452,128,231435,1,0,0:0:0:0:
508,156,231525,5,0,0:0:0:0:
116,156,231525,1,0,0:0:0:0:
4,156,231525,1,0,0:0:0:0:
340,156,231525,1,0,0:0:0:0:
60,156,231525,1,0,0:0:0:0:
396,156,231525,1,0,0:0:0:0:
172,156,231525,1,0,0:0:0:0:
452,156,231525,1,0,0:0:0:0:
508,184,231570,5,0,0:0:0:0:
4,184,231570,1,0,0:0:0:0:
60,184,231570,1,0,0:0:0:0:
328,184,231570,1,0,0:0:0:0:
116,184,231570,1,0,0:0:0:0:
396,184,231570,1,0,0:0:0:0:
160,184,231570,1,0,0:0:0:0:
452,184,231570,1,0,0:0:0:0:
508,212,231615,5,0,0:0:0:0:
452,212,231615,1,0,0:0:0:0:
396,212,231615,1,0,0:0:0:0:
144,212,231615,1,0,0:0:0:0:
60,212,231615,1,0,0:0:0:0:
4,212,231615,1,0,0:0:0:0:
312,212,231615,1,0,0:0:0:0:
508,252,231705,5,0,0:0:0:0:
452,252,231705,1,0,0:0:0:0:
116,252,231705,1,0,0:0:0:0:
284,252,231705,1,0,0:0:0:0:
396,252,231705,1,0,0:0:0:0:
4,252,231705,1,0,0:0:0:0:
340,252,231705,1,0,0:0:0:0:
60,252,231705,1,0,0:0:0:0:
508,288,231750,5,0,0:0:0:0:
104,288,231750,1,0,0:0:0:0:
4,288,231750,1,0,0:0:0:0:
340,288,231750,1,0,0:0:0:0:
60,288,231750,1,0,0:0:0:0:
396,288,231750,1,0,0:0:0:0:
268,288,231750,1,0,0:0:0:0:
452,288,231750,1,0,0:0:0:0:
508,332,231795,5,0,0:0:0:0:
396,332,231795,1,0,0:0:0:0:
240,332,231795,1,0,0:0:0:0:
284,332,231795,1,0,0:0:0:0:
452,332,231795,1,0,0:0:0:0:
4,332,231795,1,0,0:0:0:0:
76,332,231795,1,0,0:0:0:0:
340,332,231795,1,0,0:0:0:0:
4,0,231885,5,0,0:0:0:0:
396,0,231885,1,0,0:0:0:0:
508,0,231885,1,0,0:0:0:0:
172,0,231885,1,0,0:0:0:0:
452,0,231885,1,0,0:0:0:0:
60,0,231885,1,0,0:0:0:0:
116,0,231885,1,0,0:0:0:0:
340,0,231885,1,0,0:0:0:0:
4,0,231908,5,0,0:0:0:0:
60,0,231908,1,0,0:0:0:0:
452,0,231908,1,0,0:0:0:0:
340,0,231908,1,0,0:0:0:0:
116,0,231908,1,0,0:0:0:0:
396,0,231908,1,0,0:0:0:0:
172,0,231908,1,0,0:0:0:0:
508,0,231908,1,0,0:0:0:0:
4,0,231930,5,0,0:0:0:0:
396,0,231930,1,0,0:0:0:0:
508,0,231930,1,0,0:0:0:0:
172,0,231930,1,0,0:0:0:0:
452,0,231930,1,0,0:0:0:0:
60,0,231930,1,0,0:0:0:0:
116,0,231930,1,0,0:0:0:0:
340,0,231930,1,0,0:0:0:0:
4,0,231953,5,0,0:0:0:0:
60,0,231953,1,0,0:0:0:0:
452,0,231953,1,0,0:0:0:0:
340,0,231953,1,0,0:0:0:0:
116,0,231953,1,0,0:0:0:0:
396,0,231953,1,0,0:0:0:0:
172,0,231953,1,0,0:0:0:0:
508,0,231953,1,0,0:0:0:0:
4,0,231976,5,0,0:0:0:0:
396,0,231976,1,0,0:0:0:0:
508,0,231976,1,0,0:0:0:0:
172,0,231976,1,0,0:0:0:0:
452,0,231976,1,0,0:0:0:0:
60,0,231976,1,0,0:0:0:0:
116,0,231976,1,0,0:0:0:0:
340,0,231976,1,0,0:0:0:0:
4,0,231998,5,0,0:0:0:0:
60,0,231998,1,0,0:0:0:0:
452,0,231998,1,0,0:0:0:0:
340,0,231998,1,0,0:0:0:0:
116,0,231998,1,0,0:0:0:0:
396,0,231998,1,0,0:0:0:0:
172,0,231998,1,0,0:0:0:0:
508,0,231998,1,0,0:0:0:0:
4,0,232021,5,0,0:0:0:0:
396,0,232021,1,0,0:0:0:0:
508,0,232021,1,0,0:0:0:0:
172,0,232021,1,0,0:0:0:0:
452,0,232021,1,0,0:0:0:0:
60,0,232021,1,0,0:0:0:0:
116,0,232021,1,0,0:0:0:0:
340,0,232021,1,0,0:0:0:0:
4,0,232043,5,0,0:0:0:0:
60,0,232043,1,0,0:0:0:0:
452,0,232043,1,0,0:0:0:0:
340,0,232043,1,0,0:0:0:0:
116,0,232043,1,0,0:0:0:0:
396,0,232043,1,0,0:0:0:0:
172,0,232043,1,0,0:0:0:0:
508,0,232043,1,0,0:0:0:0:
4,0,232066,5,0,0:0:0:0:
396,0,232066,1,0,0:0:0:0:
508,0,232066,1,0,0:0:0:0:
172,0,232066,1,0,0:0:0:0:
452,0,232066,1,0,0:0:0:0:
60,0,232066,1,0,0:0:0:0:
116,0,232066,1,0,0:0:0:0:
340,0,232066,1,0,0:0:0:0:
4,0,232088,5,0,0:0:0:0:
60,0,232088,1,0,0:0:0:0:
452,0,232088,1,0,0:0:0:0:
340,0,232088,1,0,0:0:0:0:
116,0,232088,1,0,0:0:0:0:
396,0,232088,1,0,0:0:0:0:
172,0,232088,1,0,0:0:0:0:
508,0,232088,1,0,0:0:0:0:
4,0,232111,5,0,0:0:0:0:
396,0,232111,1,0,0:0:0:0:
508,0,232111,1,0,0:0:0:0:
172,0,232111,1,0,0:0:0:0:
452,0,232111,1,0,0:0:0:0:
60,0,232111,1,0,0:0:0:0:
116,0,232111,1,0,0:0:0:0:
340,0,232111,1,0,0:0:0:0:
4,0,232133,5,0,0:0:0:0:
60,0,232133,1,0,0:0:0:0:
452,0,232133,1,0,0:0:0:0:
340,0,232133,1,0,0:0:0:0:
116,0,232133,1,0,0:0:0:0:
396,0,232133,1,0,0:0:0:0:
172,0,232133,1,0,0:0:0:0:
508,0,232133,1,0,0:0:0:0:
4,0,232156,5,0,0:0:0:0:
396,0,232156,1,0,0:0:0:0:
508,0,232156,1,0,0:0:0:0:
172,0,232156,1,0,0:0:0:0:
452,0,232156,1,0,0:0:0:0:
60,0,232156,1,0,0:0:0:0:
116,0,232156,1,0,0:0:0:0:
340,0,232156,1,0,0:0:0:0:
256,192,232246,2,0,L|104:192,1,140
256,192,232246,2,0,L|408:192,1,140
0,192,232606,2,0,L|148:192,1,140
512,192,232606,2,0,L|364:192,1,140
256,192,232967,1,0,0:0:0:0:
256,192,232967,1,0,0:0:0:0:
208,192,233057,1,0,0:0:0:0:
304,192,233057,1,0,0:0:0:0:
160,192,233147,1,0,0:0:0:0:
352,192,233147,1,0,0:0:0:0:
112,192,233237,1,0,0:0:0:0:
400,192,233237,1,0,0:0:0:0:
0,192,233327,2,0,L|168:192,1,140
512,192,233327,2,0,L|344:192,1,140
144,192,233867,1,0,0:0:0:0:
368,192,233867,1,0,0:0:0:0:
256,192,233867,1,0,0:0:0:0:
200,192,233867,1,0,0:0:0:0:
312,192,233867,1,0,0:0:0:0:
88,192,234048,2,0,P|32:132|56:124,1,140
424,192,234048,2,0,P|480:132|456:124,1,140
32,131,234408,2,0,L|128:132,1,70
479,131,234408,2,0,L|384:132,1,70
102,131,234588,2,0,L|188:132,1,70
409,131,234588,2,0,L|324:132,1,70
256,132,234768,2,0,P|196:192|236:220,1,140
256,132,234768,2,0,P|316:192|276:220,1,140
28,192,235309,1,0,0:0:0:0:
84,192,235309,1,0,0:0:0:0:
140,192,235309,1,0,0:0:0:0:
372,192,235309,1,0,0:0:0:0:
428,192,235309,1,0,0:0:0:0:
484,192,235309,1,0,0:0:0:0:
256,192,235489,2,0,L|256:364,1,140
312,192,235489,2,0,L|312:364,1,140
200,192,235489,2,0,L|200:364,1,140
484,192,235849,2,0,L|392:192,1,70
28,192,235849,2,0,L|120:192,1,70
416,192,236029,2,0,L|328:192,1,70
96,192,236030,2,0,L|184:192,1,70
256,192,236210,2,0,L|256:344,1,140
4,0,236750,5,0,0:0:0:0:
396,0,236750,1,0,0:0:0:0:
508,0,236750,1,0,0:0:0:0:
172,0,236750,1,0,0:0:0:0:
452,0,236750,1,0,0:0:0:0:
60,0,236750,1,0,0:0:0:0:
116,0,236750,1,0,0:0:0:0:
340,0,236750,1,0,0:0:0:0:
4,20,236930,5,0,0:0:0:0:
60,20,236930,1,0,0:0:0:0:
116,20,236930,1,0,0:0:0:0:
228,20,236930,1,0,0:0:0:0:
284,20,236930,1,0,0:0:0:0:
508,20,236930,1,0,0:0:0:0:
452,20,236930,1,0,0:0:0:0:
172,20,236930,1,0,0:0:0:0:
4,40,237111,5,0,0:0:0:0:
396,40,237111,1,0,0:0:0:0:
508,40,237111,1,0,0:0:0:0:
172,40,237111,1,0,0:0:0:0:
452,40,237111,1,0,0:0:0:0:
60,40,237111,1,0,0:0:0:0:
116,40,237111,1,0,0:0:0:0:
340,40,237111,1,0,0:0:0:0:
4,64,237291,5,0,0:0:0:0:
60,64,237291,1,0,0:0:0:0:
228,64,237291,1,0,0:0:0:0:
340,64,237291,1,0,0:0:0:0:
284,64,237291,1,0,0:0:0:0:
396,64,237291,1,0,0:0:0:0:
508,64,237291,1,0,0:0:0:0:
452,64,237291,1,0,0:0:0:0:
4,84,237336,5,0,0:0:0:0:
396,84,237336,1,0,0:0:0:0:
284,84,237336,1,0,0:0:0:0:
508,84,237336,1,0,0:0:0:0:
452,84,237336,1,0,0:0:0:0:
52,84,237336,1,0,0:0:0:0:
340,84,237336,1,0,0:0:0:0:
216,84,237336,1,0,0:0:0:0:
4,108,237381,5,0,0:0:0:0:
396,108,237381,1,0,0:0:0:0:
284,108,237381,1,0,0:0:0:0:
508,108,237381,1,0,0:0:0:0:
452,108,237381,1,0,0:0:0:0:
44,108,237381,1,0,0:0:0:0:
340,108,237381,1,0,0:0:0:0:
200,108,237381,1,0,0:0:0:0:
36,136,237426,1,0,0:0:0:0:
188,140,237426,1,0,0:0:0:0:
340,136,237426,1,0,0:0:0:0:
284,136,237426,1,0,0:0:0:0:
396,136,237426,1,0,0:0:0:0:
508,136,237426,1,0,0:0:0:0:
452,136,237426,1,0,0:0:0:0:
32,172,237471,5,0,0:0:0:0:
396,176,237471,1,0,0:0:0:0:
284,176,237471,1,0,0:0:0:0:
508,176,237471,1,0,0:0:0:0:
184,176,237471,1,0,0:0:0:0:
452,176,237471,1,0,0:0:0:0:
340,176,237471,1,0,0:0:0:0:
228,176,237471,1,0,0:0:0:0:
4,208,237516,5,0,0:0:0:0:
36,208,237516,1,0,0:0:0:0:
192,208,237516,1,0,0:0:0:0:
340,208,237516,1,0,0:0:0:0:
284,208,237516,1,0,0:0:0:0:
396,208,237516,1,0,0:0:0:0:
508,208,237516,1,0,0:0:0:0:
452,208,237516,1,0,0:0:0:0:
4,228,237561,5,0,0:0:0:0:
284,228,237561,1,0,0:0:0:0:
56,232,237561,1,0,0:0:0:0:
216,228,237561,1,0,0:0:0:0:
340,228,237561,1,0,0:0:0:0:
508,228,237561,1,0,0:0:0:0:
396,228,237561,1,0,0:0:0:0:
452,228,237561,1,0,0:0:0:0:
32,268,237606,5,0,0:0:0:0:
508,264,237606,1,0,0:0:0:0:
396,264,237606,1,0,0:0:0:0:
452,264,237606,1,0,0:0:0:0:
80,264,237606,1,0,0:0:0:0:
340,264,237606,1,0,0:0:0:0:
248,260,237606,1,0,0:0:0:0:
4,292,237651,5,0,0:0:0:0:
116,292,237651,2,0,P|176:224|152:204,1,140
396,292,237651,1,0,0:0:0:0:
508,292,237651,1,0,0:0:0:0:
452,292,237651,1,0,0:0:0:0:
60,292,237651,1,0,0:0:0:0:
284,292,237651,2,0,P|344:224|320:204,1,140
256,192,238012,12,0,245939,0:0:0:0:
