osu file format v14

[General]
AudioFilename: audio.mp3
AudioLeadIn: 0
PreviewTime: 30639
Countdown: 1
SampleSet: None
StackLeniency: 0.4
Mode: 0
LetterboxInBreaks: 0
WidescreenStoryboard: 1

[Editor]
Bookmarks: 17514,25014,30639,32514,39222,39984,46752,47484,48920,49271,52670,53021,54545,55014,56420,56771,60170,60521,62045,62514,64154,64389,66264,67670,70014,70951,71889,72562,73764,75609,88060,103764,118764,130014,131889,133764,140560,141264,147826,148764,155326,156029,160014,163060,163764,171264,175014,178764,186264,192826,193764
DistanceSpacing: 0.9
BeatDivisor: 4
GridSize: 4
TimelineZoom: 5.500002

[Metadata]
Title:Kumo No Kireme {ft. Kourin.}
TitleUnicode:Kumo No Kireme {ft. Kourin.}
Artist:Kobaryo
ArtistUnicode:Kobaryo
Creator:xTheFirstNoobx
Version:Fatigue [Lv.16]
Source:
Tags:
BeatmapID:1126812
BeatmapSetID:505521

[Difficulty]
HPDrainRate:6
CircleSize:3.5
OverallDifficulty:6.5
ApproachRate:9.4
SliderMultiplier:2
SliderTickRate:1

[Events]
//Background and Video events
0,0,"bg.jpg",0,0
//Break Periods
2,67870,73224
2,75839,88194
//Storyboard Layer 0 (Background)
//Storyboard Layer 1 (Fail)
//Storyboard Layer 2 (Pass)
//Storyboard Layer 3 (Foreground)
//Storyboard Sound Samples

[TimingPoints]
2514,234.375,4,3,1,100,1,0
17514,-200,4,3,1,100,0,0
28764,-133.333333333333,4,3,1,100,0,0
32514,-100,4,3,1,100,0,1
39222,-83.3333333333333,4,3,1,100,0,1
40014,-100,4,3,1,100,0,1
46752,-83.3333333333333,4,3,1,100,0,1
47514,-111.111111111111,4,3,1,100,0,1
62514,-100,4,3,1,100,0,0
64389,-100,4,3,1,100,0,1
66264,-100,4,3,1,100,0,0
68139,-100,4,3,1,100,0,1
75639,-100,4,3,1,100,0,0
133764,-83.3333333333333,4,3,1,100,0,1
163764,-100,4,3,1,100,0,0

[HitObjects]
90,84,2514,5,0,0:0:0:0:
340,282,4389,5,0,0:0:0:0:
92,244,6264,5,0,0:0:0:0:
298,62,8139,5,0,0:0:0:0:
210,228,9076,5,0,0:0:0:0:
462,150,10014,5,0,0:0:0:0:
125,104,11889,5,0,0:0:0:0:
331,255,12826,5,0,0:0:0:0:
72,340,13764,5,0,0:0:0:0:
256,192,15639,12,0,17279,0:0:0:0:
140,120,17514,6,4,L|256:96,1,100,0|0,0:0|0:0,0:0:0:0:
387,194,17982,2,0,L|271:218,1,100
188,314,18451,2,0,P|147:278|123:215,1,100
257,198,18920,2,0,L|359:217,1,100
202,55,19389,6,0,P|161:101|107:125,1,100
63,215,19857,2,0,P|96:242|159:254,1,100
273,208,20326,2,0,P|323:200|382:224,1,100
453,288,20795,2,0,P|463:235|457:176,1,100
379,97,21264,6,0,P|358:157|328:202,1,100
322,196,21732,2,0,P|261:172|208:185,1,100
261,249,22201,2,0,P|236:309|209:345,1,100
65,281,22670,2,0,L|172:267,1,100
99,57,23139,6,0,L|134:168,1,100
222,200,23607,2,0,B|294:193|294:193|319:175,1,100
401,111,24076,2,0,B|356:86|356:86|292:86,1,100
322,208,24545,2,0,B|317:262|317:262|280:300,1,100
40,64,25014,5,0,0:0:0:0:
80,96,25248,1,0,0:0:0:0:
120,128,25482,1,0,0:0:0:0:
160,160,25717,1,0,0:0:0:0:
296,192,25951,5,0,0:0:0:0:
256,224,26185,1,0,0:0:0:0:
216,256,26419,1,0,0:0:0:0:
176,288,26654,1,0,0:0:0:0:
56,324,26889,5,0,0:0:0:0:
120,248,27123,1,0,0:0:0:0:
176,328,27357,1,0,0:0:0:0:
240,248,27592,1,0,0:0:0:0:
304,328,27826,5,0,0:0:0:0:
360,248,28060,1,0,0:0:0:0:
416,328,28295,1,0,0:0:0:0:
480,248,28529,1,0,0:0:0:0:
336,72,28764,6,0,L|352:152,3,75.0000028610231
280,192,29232,6,0,L|272:288,3,75.0000028610231
184,272,29701,6,0,L|121:344,3,75.0000028610231
112,208,30170,6,0,L|146:141,3,75.0000028610231,0|0|0|0,0:3|0:3|0:3|0:3,0:3:0:0:
256,192,30639,5,0,0:0:0:0:
352,120,32514,6,0,P|304:88|240:88,1,100
280,163,32748,2,0,P|248:219|199:237,1,100
201,155,32982,1,0,0:0:0:0:
121,170,33099,2,0,L|77:202,2,50
121,280,33334,6,0,B|85:299|85:299|23:289,1,100
220,309,33568,2,0,B|277:295|277:295|317:299,1,100
404,252,33803,2,0,L|418:306,2,50
367,86,34037,1,0,0:0:0:0:
448,148,34154,5,0,0:0:0:0:
413,183,34212,1,0,0:0:0:0:
365,194,34271,1,0,0:0:0:0:
319,177,34329,1,0,0:0:0:0:
289,132,34389,6,0,P|239:119|183:131,1,100
61,159,34623,2,0,P|122:174|167:158,1,100
275,57,34857,1,0,0:0:0:0:
275,216,34974,2,0,L|275:289,2,50
430,124,35209,6,0,P|376:91|326:86,1,100
111,105,35443,2,0,P|151:147|213:151,1,100
365,207,35678,2,0,L|365:257,2,50
254,91,35912,1,0,0:0:0:0:
148,183,36029,2,0,L|121:211,7,25
290,222,36264,6,0,P|305:263|296:330,1,100
117,306,36498,2,0,P|159:280|208:274,1,100
382,321,36732,1,0,0:0:0:0:
461,160,36849,2,0,L|485:108,2,50
311,177,37084,6,0,B|274:187|274:187|243:161|215:162|215:162|182:183,1,100
141,311,37318,2,0,P|185:284|210:213,1,100
213,81,37553,2,0,L|212:24,2,50
127,227,37787,1,0,0:0:0:0:
281,297,37904,1,0,0:0:0:0:
371,128,38021,1,0,0:0:0:0:
371,128,38080,1,0,0:0:0:0:
371,128,38139,6,0,P|304:102|271:102,1,100
144,206,38373,2,0,P|173:206|232:149,1,100
255,6,38607,1,0,0:0:0:0:
316,185,38724,1,0,0:0:0:0:
316,224,38783,1,0,0:0:0:0:
316,264,38842,2,0,B|277:297|277:297|213:313,1,100
88,259,39076,1,0,0:0:0:0:
180,96,39222,6,0,B|264:84|264:84|328:108,1,149.999995422363
432,140,39398,2,0,P|396:184|312:216,1,119.999996337891
268,176,39545,2,0,B|288:116|244:52|244:52|188:120,1,209.999993591309
144,176,39779,2,0,L|119:209,7,29.9999990844727
215,236,40014,6,0,P|280:258|324:241,1,100
392,149,40248,2,0,P|343:138|295:149,1,100
255,345,40482,1,0,0:0:0:0:
100,217,40599,2,0,L|100:160,2,50
101,333,40834,6,0,P|154:318|185:272,1,100
193,84,41068,2,0,B|193:127|193:127|251:167,1,100
441,162,41303,2,0,L|498:162,2,50
306,281,41537,1,0,0:0:0:0:
267,153,41654,1,0,0:0:0:0:
224,128,41712,1,0,0:0:0:0:
174,127,41771,1,0,0:0:0:0:
131,151,41829,1,0,0:0:0:0:
106,196,41889,6,0,P|101:261|148:318,1,100
258,335,42123,1,0,0:0:0:0:
392,278,42240,2,0,P|410:232|402:184,1,100
336,48,42474,2,0,L|320:102,2,50
323,218,42709,6,0,B|271:218|271:218|232:155,1,100
205,80,42943,2,0,P|178:79|99:122,1,100
96,313,43178,1,0,0:0:0:0:
96,313,43236,1,0,0:0:0:0:
96,313,43295,2,0,L|96:201,1,100
97,63,43529,2,0,L|97:19,7,25
194,68,43764,6,0,P|173:133|114:167,1,100
0,294,43998,2,0,P|63:279|126:305,1,100
233,345,44232,1,0,0:0:0:0:
233,165,44349,2,0,L|234:113,2,50
233,345,44584,6,0,P|292:343|334:327,1,100
330,180,44818,2,0,P|285:217|281:284,1,100
356,358,45053,1,0,0:0:0:0:
404,350,45111,1,0,0:0:0:0:
442,317,45170,2,0,L|443:215,1,100
441,67,45404,1,0,0:0:0:0:
85,134,45639,6,0,P|101:190|175:223,1,100
270,151,45873,2,0,P|209:132|156:149,1,100
102,303,46107,1,0,0:0:0:0:
270,255,46224,2,0,L|271:203,2,50
433,305,46459,1,0,0:0:0:0:
433,155,46576,2,0,L|434:46,1,100
385,44,46752,6,0,B|294:73|294:73|223:142,1,179.999994506836
165,253,46986,2,0,P|239:281|308:258,1,119.999996337891
377,125,47162,2,0,L|377:204,1,59.9999981689454
377,275,47279,2,0,L|377:315,7,29.9999990844727
377,185,47514,6,0,B|321:169|321:169|261:181,1,89.9999972534181
164,300,47748,2,0,P|252:268|272:244,1,89.9999972534181
289,175,47982,1,0,0:0:0:0:
204,88,48099,1,0,0:0:0:0:
88,152,48217,2,0,P|144:188|188:188,1,89.9999972534181
376,188,48451,6,0,P|376:116|352:80,1,89.9999972534181
248,44,48685,1,0,0:0:0:0:
136,112,48803,1,0,0:0:0:0:
192,232,48920,6,0,P|232:184|236:136,1,89.9999972534181
256,64,49154,6,0,P|275:109|308:136,1,89.9999972534181
420,148,49389,5,0,0:0:0:0:
420,248,49506,2,0,L|420:296,2,44.999998626709
420,148,49740,1,0,0:0:0:0:
308,176,49857,6,0,P|248:216|200:224,1,89.9999972534181
112,224,50092,1,0,0:0:0:0:
60,120,50209,1,0,0:0:0:0:
148,44,50326,2,0,P|156:104|192:152,1,89.9999972534181
288,152,50560,1,0,0:0:0:0:
396,104,50678,1,0,0:0:0:0:
292,64,50795,6,0,P|284:116|292:164,1,89.9999972534181
420,184,51029,2,0,P|368:176|296:188,1,89.9999972534181
196,188,51264,1,0,0:0:0:0:
156,204,51322,1,0,0:0:0:0:
124,236,51381,1,0,0:0:0:0:
108,276,51439,1,0,0:0:0:0:
112,320,51498,6,0,P|176:312|232:328,1,89.9999972534181
336,328,51732,2,0,P|352:272|340:224,1,89.9999972534181
284,144,51967,1,0,0:0:0:0:
180,196,52084,1,0,0:0:0:0:
268,272,52201,2,0,P|328:292|384:272,1,89.9999972534181
436,208,52435,1,0,0:0:0:0:
368,112,52553,1,0,0:0:0:0:
284,192,52670,6,0,P|208:224|160:216,1,89.9999972534181
108,152,52904,6,0,P|145:128|189:119,1,89.9999972534181
368,112,53139,6,0,L|422:35,1,89.9999972534181
278,104,53373,2,0,L|317:189,1,89.9999972534181
330,30,53607,1,0,0:0:0:0:
188,95,53724,1,0,0:0:0:0:
315,185,53842,2,0,L|408:193,1,89.9999972534181
303,66,54076,5,0,0:0:0:0:
225,177,54193,2,0,L|198:213,2,44.999998626709
278,104,54428,1,0,0:0:0:0:
253,336,54545,6,0,L|235:296,1,44.999998626709
118,322,54662,2,0,L|145:286,1,44.999998626709
63,198,54779,2,0,L|108:203,1,44.999998626709
224,176,54896,2,0,L|198:213,1,44.999998626709
253,335,55014,6,0,P|328:290|408:328,1,179.999994506836
446,243,55365,1,0,0:0:0:0:
397,167,55482,2,0,L|348:91,1,89.9999972534181
319,215,55717,2,0,L|277:295,1,89.9999972534181
145,197,55951,6,0,P|187:183|231:191,1,89.9999972534181
193,274,56185,1,0,0:0:0:0:
54,200,56303,1,0,0:0:0:0:
47,119,56420,6,0,L|41:29,1,89.9999972534181
61,278,56654,6,0,L|67:368,1,89.9999972534181
145,197,56889,6,0,P|187:183|231:191,1,89.9999972534181
271,211,57064,1,0,0:0:0:0:
311,231,57123,2,0,P|320:187|349:153,1,89.9999972534181
358,307,57357,2,0,P|311:318|265:315,1,89.9999972534181
88,332,57592,1,0,2:0:0:0:
20,271,57709,1,0,2:0:0:0:
145,197,57826,6,0,L|165:285,1,89.9999972534181,0|0,2:0|2:0,2:0:0:0:
55,187,58060,2,0,L|7:109,1,89.9999972534181,0|0,2:0|2:0,2:0:0:0:
113,118,58295,1,0,0:0:0:0:
145,197,58412,1,0,0:0:0:0:
211,143,58529,1,0,0:0:0:0:
260,272,58646,1,0,0:0:0:0:
283,190,58764,6,0,L|283:143,3,44.999998626709
377,130,58998,6,0,P|384:198|346:249,1,134.999995880127
321,336,59232,1,0,0:0:0:0:
85,267,59349,1,0,0:0:0:0:
173,246,59467,2,0,L|259:271,1,89.9999972534181
238,183,59701,6,0,L|263:96,1,89.9999972534181
200,30,59935,1,0,0:0:0:0:
131,127,60053,1,0,0:0:0:0:
349,74,60170,6,0,L|412:140,1,89.9999972534181
387,226,60404,6,0,L|324:160,1,89.9999972534181
349,74,60639,5,0,0:0:0:0:
436,53,60756,1,0,0:0:0:0:
473,204,60873,2,0,L|411:139,1,89.9999972534181
174,116,61107,2,0,L|262:95,1,89.9999972534181
145,203,61342,1,0,0:0:0:0:
84,137,61459,1,0,0:0:0:0:
111,50,61576,5,0,0:0:0:0:
236,181,61693,1,0,0:0:0:0:
236,181,61752,1,0,0:0:0:0:
236,181,61810,2,0,L|257:268,1,89.9999972534181
408,232,62045,2,0,L|495:211,1,89.9999972534181
389,99,62279,2,0,L|300:117,1,89.9999972534181
256,192,62514,12,0,64154,0:0:0:0:
256,192,66264,12,0,67670,0:0:0:0:
256,192,73764,12,0,75639,0:0:0:0:
75,82,88764,5,0,0:0:0:0:
431,172,90639,5,0,0:0:0:0:
260,348,92514,5,0,0:0:0:0:
342,60,94389,5,0,0:0:0:0:
85,228,95326,5,0,0:0:0:0:
359,329,96264,5,0,0:0:0:0:
222,96,98139,5,0,0:0:0:0:
454,200,99076,5,0,0:0:0:0:
130,304,100014,5,0,0:0:0:0:
256,192,100248,12,0,103295,0:0:0:0:
