osu file format v14

[General]
AudioFilename: Kobaryo - Kumo No Kireme.mp3
AudioLeadIn: 0
PreviewTime: 30571
Countdown: 0
SampleSet: Normal
StackLeniency: 0.7
Mode: 1
LetterboxInBreaks: 0
WidescreenStoryboard: 0

[Editor]
DistanceSpacing: 1
BeatDivisor: 4
GridSize: 32
TimelineZoom: 2.799999

[Metadata]
Title:Kumo No Kireme [feat. Kourin.]
TitleUnicode:Kumo No Kireme [feat. 紅燐。]
Artist:Kobaryo
ArtistUnicode:Kobaryo
Creator:Sayaka-
Version:Oni
Source:
Tags:psycho filth records chaotic solutions speedcore backfire xtrem3x
BeatmapID:812296
BeatmapSetID:370678

[Difficulty]
HPDrainRate:6
CircleSize:5
OverallDifficulty:6
ApproachRate:5
SliderMultiplier:1.4
SliderTickRate:1

[Events]
//Background and Video events
0,0,"Kobaryo bkg.jpg",0,50
//Break Periods
//Storyboard Layer 0 (Background)
//Storyboard Layer 1 (Fail)
//Storyboard Layer 2 (Pass)
//Storyboard Layer 3 (Foreground)
//Storyboard Sound Samples

[TimingPoints]
2446,234.375,4,1,0,100,1,0
2446,-133.333333333333,4,1,0,100,0,0
32446,-100,4,1,0,100,0,1
47446,-100,4,1,0,100,0,0
75512,-111.111111111111,4,1,0,100,0,0
77387,-125,4,1,0,100,0,0
79262,-142.857142857143,4,1,0,100,0,0
80199,-166.666666666667,4,1,0,100,0,0
81137,-200,4,1,0,100,0,0
103637,-133.333333333333,4,1,0,100,0,0
118637,-125,4,1,0,100,0,0
126137,-115.384615384615,4,1,0,100,0,0
129887,-107.142857142857,4,1,0,100,0,0
133696,-100,4,1,0,100,0,1
163696,-100,4,1,0,100,0,0

[HitObjects]
256,192,2446,5,4,0:0:0:0:
256,192,4321,1,8,0:0:0:0:
256,192,6196,1,0,0:0:0:0:
256,192,8071,1,8,0:0:0:0:
256,192,9008,1,8,0:0:0:0:
256,192,9946,1,0,0:0:0:0:
256,192,11821,1,8,0:0:0:0:
256,192,12758,1,8,0:0:0:0:
256,192,13696,1,0,0:0:0:0:
256,192,15571,1,8,0:0:0:0:
256,192,17446,1,12,0:0:0:0:
256,192,17914,1,8,0:0:0:0:
256,192,18383,1,8,0:0:0:0:
256,192,18852,1,8,0:0:0:0:
256,192,19321,1,8,0:0:0:0:
256,192,19789,1,8,0:0:0:0:
256,192,20258,1,8,0:0:0:0:
256,192,20727,1,8,0:0:0:0:
256,192,21196,1,8,0:0:0:0:
256,192,21664,1,8,0:0:0:0:
256,192,22133,1,8,0:0:0:0:
256,192,22602,1,8,0:0:0:0:
256,192,23071,1,8,0:0:0:0:
256,192,23539,1,8,0:0:0:0:
256,192,24008,1,8,0:0:0:0:
256,192,24477,1,8,0:0:0:0:
256,192,24946,1,8,0:0:0:0:
256,192,25180,1,8,0:0:0:0:
256,192,25414,1,8,0:0:0:0:
256,192,25649,1,8,0:0:0:0:
256,192,25883,1,8,0:0:0:0:
256,192,26117,1,8,0:0:0:0:
256,192,26352,1,8,0:0:0:0:
256,192,26586,1,8,0:0:0:0:
256,192,26821,1,8,0:0:0:0:
256,192,27055,1,8,0:0:0:0:
256,192,27289,1,8,0:0:0:0:
256,192,27524,1,8,0:0:0:0:
256,192,27758,1,8,0:0:0:0:
256,192,27992,1,8,0:0:0:0:
256,192,28227,1,8,0:0:0:0:
256,192,28461,1,8,0:0:0:0:
256,192,28696,1,8,0:0:0:0:
256,192,28813,1,8,0:0:0:0:
256,192,28930,1,8,0:0:0:0:
256,192,29047,1,8,0:0:0:0:
256,192,29164,1,8,0:0:0:0:
256,192,29281,1,8,0:0:0:0:
256,192,29399,1,8,0:0:0:0:
256,192,29516,1,8,0:0:0:0:
256,192,29633,1,8,0:0:0:0:
256,192,29750,1,8,0:0:0:0:
256,192,29867,1,8,0:0:0:0:
256,192,29985,1,8,0:0:0:0:
256,192,30102,1,8,0:0:0:0:
256,192,30219,1,8,0:0:0:0:
256,192,30336,1,8,0:0:0:0:
256,192,30453,1,8,0:0:0:0:
256,192,32446,1,4,0:0:0:0:
256,192,32563,1,0,0:0:0:0:
256,192,32680,1,8,0:0:0:0:
256,192,32797,1,0,0:0:0:0:
256,192,32914,1,0,0:0:0:0:
256,192,33031,1,8,0:0:0:0:
256,192,33090,1,8,0:0:0:0:
256,192,33149,1,0,0:0:0:0:
256,192,33266,1,8,0:0:0:0:
256,192,33500,1,8,0:0:0:0:
256,192,33617,1,0,0:0:0:0:
256,192,33735,1,8,0:0:0:0:
256,192,33793,1,8,0:0:0:0:
256,192,33852,1,8,0:0:0:0:
256,192,33969,1,0,0:0:0:0:
256,192,34086,1,8,0:0:0:0:
256,192,34145,1,8,0:0:0:0:
256,192,34203,1,8,0:0:0:0:
256,192,34321,1,0,0:0:0:0:
256,192,34438,1,0,0:0:0:0:
256,192,34555,1,8,0:0:0:0:
256,192,34672,1,0,0:0:0:0:
256,192,34789,1,0,0:0:0:0:
256,192,34906,1,8,0:0:0:0:
256,192,34965,1,8,0:0:0:0:
256,192,35024,1,0,0:0:0:0:
256,192,35141,1,8,0:0:0:0:
256,192,35375,1,8,0:0:0:0:
256,192,35492,1,0,0:0:0:0:
256,192,35610,1,8,0:0:0:0:
256,192,35668,1,0,0:0:0:0:
256,192,35727,1,8,0:0:0:0:
256,192,35844,1,0,0:0:0:0:
256,192,35961,1,8,0:0:0:0:
256,192,36020,1,8,0:0:0:0:
256,192,36078,1,8,0:0:0:0:
256,192,36196,1,0,0:0:0:0:
256,192,36313,1,0,0:0:0:0:
256,192,36430,1,8,0:0:0:0:
256,192,36547,1,0,0:0:0:0:
256,192,36664,1,0,0:0:0:0:
256,192,36781,1,8,0:0:0:0:
256,192,36840,1,8,0:0:0:0:
256,192,36899,1,0,0:0:0:0:
256,192,37016,1,8,0:0:0:0:
256,192,37250,1,8,0:0:0:0:
256,192,37367,1,0,0:0:0:0:
256,192,37485,1,8,0:0:0:0:
256,192,37543,1,8,0:0:0:0:
256,192,37602,1,0,0:0:0:0:
256,192,37719,1,0,0:0:0:0:
256,192,37836,1,8,0:0:0:0:
256,192,37953,1,8,0:0:0:0:
256,192,38071,1,0,0:0:0:0:
256,192,38188,1,0,0:0:0:0:
256,192,38305,1,8,0:0:0:0:
256,192,38422,1,0,0:0:0:0:
256,192,38539,1,0,0:0:0:0:
256,192,38656,1,8,0:0:0:0:
256,192,38715,1,8,0:0:0:0:
256,192,38774,1,0,0:0:0:0:
256,192,38891,1,8,0:0:0:0:
256,192,39008,1,4,0:0:0:0:
256,192,39184,1,4,0:0:0:0:
256,192,39360,1,12,0:0:0:0:
256,192,39535,1,12,0:0:0:0:
256,192,39711,1,8,0:0:0:0:
256,192,39770,1,8,0:0:0:0:
256,192,39828,1,8,0:0:0:0:
256,192,39946,1,4,0:0:0:0:
256,192,40063,1,0,0:0:0:0:
256,192,40180,1,8,0:0:0:0:
256,192,40297,1,0,0:0:0:0:
256,192,40414,1,0,0:0:0:0:
256,192,40531,1,8,0:0:0:0:
256,192,40590,1,8,0:0:0:0:
256,192,40649,1,0,0:0:0:0:
256,192,40766,1,8,0:0:0:0:
256,192,41000,1,8,0:0:0:0:
256,192,41117,1,0,0:0:0:0:
256,192,41235,1,8,0:0:0:0:
256,192,41293,1,0,0:0:0:0:
256,192,41352,1,8,0:0:0:0:
256,192,41469,1,0,0:0:0:0:
256,192,41586,1,8,0:0:0:0:
256,192,41703,1,8,0:0:0:0:
256,192,41821,1,0,0:0:0:0:
256,192,41938,1,0,0:0:0:0:
256,192,42055,1,8,0:0:0:0:
256,192,42172,1,0,0:0:0:0:
256,192,42289,1,0,0:0:0:0:
256,192,42406,1,8,0:0:0:0:
256,192,42465,1,8,0:0:0:0:
256,192,42524,1,0,0:0:0:0:
256,192,42641,1,8,0:0:0:0:
256,192,42875,1,8,0:0:0:0:
256,192,42992,1,0,0:0:0:0:
256,192,43110,1,8,0:0:0:0:
256,192,43168,1,0,0:0:0:0:
256,192,43227,1,8,0:0:0:0:
256,192,43344,1,0,0:0:0:0:
256,192,43461,1,8,0:0:0:0:
256,192,43520,1,8,0:0:0:0:
256,192,43578,1,8,0:0:0:0:
256,192,43696,1,0,0:0:0:0:
256,192,43813,1,0,0:0:0:0:
256,192,43930,1,8,0:0:0:0:
256,192,44047,1,0,0:0:0:0:
256,192,44164,1,0,0:0:0:0:
256,192,44281,1,8,0:0:0:0:
256,192,44340,1,8,0:0:0:0:
256,192,44399,1,0,0:0:0:0:
256,192,44516,1,8,0:0:0:0:
256,192,44750,1,8,0:0:0:0:
256,192,44867,1,0,0:0:0:0:
256,192,44985,1,8,0:0:0:0:
256,192,45043,1,0,0:0:0:0:
256,192,45102,1,8,0:0:0:0:
256,192,45219,1,0,0:0:0:0:
256,192,45336,1,8,0:0:0:0:
256,192,45571,1,0,0:0:0:0:
256,192,45688,1,0,0:0:0:0:
256,192,45805,1,8,0:0:0:0:
256,192,45922,1,0,0:0:0:0:
256,192,46039,1,0,0:0:0:0:
256,192,46156,1,8,0:0:0:0:
256,192,46215,1,8,0:0:0:0:
256,192,46274,1,0,0:0:0:0:
256,192,46391,1,8,0:0:0:0:
256,192,46508,1,4,0:0:0:0:
256,192,46684,1,12,0:0:0:0:
256,192,46860,1,4,0:0:0:0:
256,192,47035,1,12,0:0:0:0:
256,192,47211,1,8,0:0:0:0:
256,192,47270,1,8,0:0:0:0:
256,192,47328,1,8,0:0:0:0:
256,192,47446,1,4,0:0:0:0:
256,192,47680,1,0,0:0:0:0:
256,192,47914,1,8,0:0:0:0:
256,192,48149,1,0,0:0:0:0:
256,192,48383,1,0,0:0:0:0:
256,192,48617,1,0,0:0:0:0:
256,192,48852,1,8,0:0:0:0:
256,192,49086,1,0,0:0:0:0:
256,192,49321,1,8,0:0:0:0:
256,192,49438,1,8,0:0:0:0:
256,192,49496,1,8,0:0:0:0:
256,192,49555,1,0,0:0:0:0:
256,192,49789,1,8,0:0:0:0:
256,192,50024,1,0,0:0:0:0:
256,192,50258,1,0,0:0:0:0:
256,192,50492,1,0,0:0:0:0:
256,192,50727,1,8,0:0:0:0:
256,192,50961,1,0,0:0:0:0:
256,192,51078,1,0,0:0:0:0:
256,192,51196,1,8,0:0:0:0:
256,192,51254,1,8,0:0:0:0:
256,192,51313,1,8,0:0:0:0:
256,192,51371,1,8,0:0:0:0:
256,192,51430,1,0,0:0:0:0:
256,192,51664,1,8,0:0:0:0:
256,192,51899,1,0,0:0:0:0:
256,192,52133,1,0,0:0:0:0:
256,192,52367,1,0,0:0:0:0:
256,192,52602,1,8,0:0:0:0:
256,192,52836,1,0,0:0:0:0:
256,192,53071,1,0,0:0:0:0:
256,192,53305,1,0,0:0:0:0:
256,192,53539,1,8,0:0:0:0:
256,192,53774,1,0,0:0:0:0:
256,192,54008,1,8,0:0:0:0:
256,192,54125,1,8,0:0:0:0:
256,192,54184,1,8,0:0:0:0:
256,192,54242,1,0,0:0:0:0:
256,192,54360,1,0,0:0:0:0:
256,192,54477,1,8,0:0:0:0:
256,192,54594,1,8,0:0:0:0:
256,192,54711,1,8,0:0:0:0:
256,192,54828,1,8,0:0:0:0:
256,192,54946,1,4,0:0:0:0:
256,192,55180,1,0,0:0:0:0:
256,192,55414,1,8,0:0:0:0:
256,192,55649,1,0,0:0:0:0:
256,192,55883,1,0,0:0:0:0:
256,192,56117,1,0,0:0:0:0:
256,192,56352,1,8,0:0:0:0:
256,192,56586,1,0,0:0:0:0:
256,192,56821,1,8,0:0:0:0:
256,192,56938,1,8,0:0:0:0:
256,192,56996,1,8,0:0:0:0:
256,192,57055,1,0,0:0:0:0:
256,192,57289,1,8,0:0:0:0:
256,192,57524,1,0,0:0:0:0:
256,192,57758,1,0,0:0:0:0:
256,192,57992,1,0,0:0:0:0:
256,192,58227,1,8,0:0:0:0:
256,192,58461,1,0,0:0:0:0:
256,192,58578,1,0,0:0:0:0:
256,192,58696,1,8,0:0:0:0:
256,192,58754,1,8,0:0:0:0:
256,192,58813,1,8,0:0:0:0:
256,192,58871,1,0,0:0:0:0:
256,192,58930,1,0,0:0:0:0:
256,192,59164,1,8,0:0:0:0:
256,192,59399,1,0,0:0:0:0:
256,192,59633,1,0,0:0:0:0:
256,192,59867,1,0,0:0:0:0:
256,192,60102,1,8,0:0:0:0:
256,192,60336,1,0,0:0:0:0:
256,192,60571,1,0,0:0:0:0:
256,192,60805,1,0,0:0:0:0:
256,192,61039,1,8,0:0:0:0:
256,192,61274,1,0,0:0:0:0:
256,192,61391,1,0,0:0:0:0:
256,192,61508,1,8,0:0:0:0:
256,192,61625,1,8,0:0:0:0:
256,192,61684,1,8,0:0:0:0:
256,192,61742,1,0,0:0:0:0:
256,192,61860,1,8,0:0:0:0:
256,192,61977,1,8,0:0:0:0:
256,192,62094,1,8,0:0:0:0:
256,192,62211,1,0,0:0:0:0:
256,192,62328,1,0,0:0:0:0:
256,192,62446,1,4,0:0:0:0:
256,192,64086,1,8,0:0:0:0:
256,192,64145,1,8,0:0:0:0:
256,192,64203,1,8,0:0:0:0:
256,192,64321,1,4,0:0:0:0:
256,192,64438,1,0,0:0:0:0:
256,192,64555,1,8,0:0:0:0:
256,192,64672,1,0,0:0:0:0:
256,192,64789,1,0,0:0:0:0:
256,192,64906,1,8,0:0:0:0:
256,192,65024,1,0,0:0:0:0:
256,192,65141,1,8,0:0:0:0:
256,192,65375,1,8,0:0:0:0:
256,192,65492,1,0,0:0:0:0:
256,192,65610,1,8,0:0:0:0:
256,192,65727,1,8,0:0:0:0:
256,192,65844,1,0,0:0:0:0:
256,192,65961,1,8,0:0:0:0:
256,192,66020,1,0,0:0:0:0:
256,192,66078,1,8,0:0:0:0:
256,192,66196,1,4,0:0:0:0:
256,192,67602,1,8,0:0:0:0:
256,192,67836,1,0,0:0:0:0:
256,192,68071,1,4,0:0:0:0:
256,192,68188,1,0,0:0:0:0:
256,192,68246,1,0,0:0:0:0:
256,192,68305,1,8,0:0:0:0:
256,192,68422,1,0,0:0:0:0:
256,192,68539,1,0,0:0:0:0:
256,192,68656,1,8,0:0:0:0:
256,192,68774,1,0,0:0:0:0:
256,192,68891,1,8,0:0:0:0:
256,192,69125,1,8,0:0:0:0:
256,192,69242,1,0,0:0:0:0:
256,192,69360,1,8,0:0:0:0:
256,192,69477,1,0,0:0:0:0:
256,192,69535,1,8,0:0:0:0:
256,192,69594,1,0,0:0:0:0:
256,192,69711,1,8,0:0:0:0:
256,192,69770,1,8,0:0:0:0:
256,192,69828,1,8,0:0:0:0:
256,192,69887,1,8,0:0:0:0:
256,192,69946,1,0,0:0:0:0:
256,192,70180,1,8,0:0:0:0:
256,192,70414,1,0,0:0:0:0:
256,192,70531,1,8,0:0:0:0:
256,192,70766,1,0,0:0:0:0:
256,192,71000,1,8,0:0:0:0:
256,192,71117,1,0,0:0:0:0:
256,192,71235,1,8,0:0:0:0:
256,192,71352,1,8,0:0:0:0:
256,192,71586,1,0,0:0:0:0:
256,192,71645,1,0,0:0:0:0:
256,192,71703,1,8,0:0:0:0:
256,192,71821,1,0,0:0:0:0:
256,192,72055,1,8,0:0:0:0:
256,192,72289,1,0,0:0:0:0:
256,192,72406,1,8,0:0:0:0:
256,192,72641,1,0,0:0:0:0:
256,192,72875,1,8,0:0:0:0:
256,192,72992,1,0,0:0:0:0:
256,192,73110,1,8,0:0:0:0:
256,192,73227,1,8,0:0:0:0:
256,192,73344,1,0,0:0:0:0:
256,192,73461,1,8,0:0:0:0:
256,192,73520,1,0,0:0:0:0:
256,192,73578,1,8,0:0:0:0:
256,192,73696,1,4,0:0:0:0:
256,192,75571,1,8,0:0:0:0:
256,192,77446,1,0,0:0:0:0:
256,192,79321,1,8,0:0:0:0:
256,192,80258,1,8,0:0:0:0:
256,192,81196,1,0,0:0:0:0:
256,192,83071,1,8,0:0:0:0:
256,192,84008,1,0,0:0:0:0:
256,192,84946,1,8,0:0:0:0:
256,192,86821,1,0,0:0:0:0:
256,192,88696,1,0,0:0:0:0:
256,192,90571,1,8,0:0:0:0:
256,192,92446,1,8,0:0:0:0:
256,192,94321,1,8,0:0:0:0:
256,192,95258,1,8,0:0:0:0:
256,192,96196,1,0,0:0:0:0:
256,192,98071,1,8,0:0:0:0:
256,192,99008,1,0,0:0:0:0:
256,192,99946,1,8,0:0:0:0:
256,192,101821,1,0,0:0:0:0:
256,192,103696,1,4,0:0:0:0:
256,192,104047,1,8,0:0:0:0:
256,192,104164,1,0,0:0:0:0:
256,192,104399,1,8,0:0:0:0:
256,192,104516,1,8,0:0:0:0:
256,192,104633,1,0,0:0:0:0:
256,192,104985,1,8,0:0:0:0:
256,192,105102,1,0,0:0:0:0:
256,192,105336,1,8,0:0:0:0:
256,192,105453,1,8,0:0:0:0:
256,192,105571,1,0,0:0:0:0:
256,192,105805,1,8,0:0:0:0:
256,192,106039,1,0,0:0:0:0:
256,192,106156,1,0,0:0:0:0:
256,192,106274,1,8,0:0:0:0:
256,192,106508,1,0,0:0:0:0:
256,192,106742,1,8,0:0:0:0:
256,192,106860,1,8,0:0:0:0:
256,192,106977,1,0,0:0:0:0:
256,192,107094,1,0,0:0:0:0:
256,192,107211,1,8,0:0:0:0:
256,192,107446,1,0,0:0:0:0:
256,192,107797,1,8,0:0:0:0:
256,192,107914,1,0,0:0:0:0:
256,192,108149,1,8,0:0:0:0:
256,192,108266,1,8,0:0:0:0:
256,192,108383,1,0,0:0:0:0:
256,192,108735,1,8,0:0:0:0:
256,192,108852,1,0,0:0:0:0:
256,192,109086,1,8,0:0:0:0:
256,192,109203,1,8,0:0:0:0:
256,192,109321,1,0,0:0:0:0:
256,192,109555,1,8,0:0:0:0:
256,192,109789,1,0,0:0:0:0:
256,192,109906,1,0,0:0:0:0:
256,192,110024,1,8,0:0:0:0:
256,192,110258,1,0,0:0:0:0:
256,192,110492,1,8,0:0:0:0:
256,192,110610,1,8,0:0:0:0:
256,192,110727,1,0,0:0:0:0:
256,192,110844,1,0,0:0:0:0:
256,192,110961,1,8,0:0:0:0:
256,192,111196,1,0,0:0:0:0:
256,192,111547,1,8,0:0:0:0:
256,192,111664,1,0,0:0:0:0:
256,192,111899,1,8,0:0:0:0:
256,192,112016,1,8,0:0:0:0:
256,192,112133,1,0,0:0:0:0:
256,192,112485,1,8,0:0:0:0:
256,192,112602,1,0,0:0:0:0:
256,192,112836,1,8,0:0:0:0:
256,192,112953,1,8,0:0:0:0:
256,192,113071,1,0,0:0:0:0:
256,192,113305,1,8,0:0:0:0:
256,192,113539,1,0,0:0:0:0:
256,192,113656,1,0,0:0:0:0:
256,192,113774,1,8,0:0:0:0:
256,192,114008,1,0,0:0:0:0:
256,192,114242,1,8,0:0:0:0:
256,192,114360,1,8,0:0:0:0:
256,192,114477,1,0,0:0:0:0:
256,192,114594,1,0,0:0:0:0:
256,192,114711,1,8,0:0:0:0:
256,192,114946,1,0,0:0:0:0:
256,192,115297,1,8,0:0:0:0:
256,192,115414,1,0,0:0:0:0:
256,192,115649,1,8,0:0:0:0:
256,192,115766,1,8,0:0:0:0:
256,192,115883,1,0,0:0:0:0:
256,192,116235,1,8,0:0:0:0:
256,192,116352,1,0,0:0:0:0:
256,192,116586,1,8,0:0:0:0:
256,192,116703,1,8,0:0:0:0:
256,192,116821,1,0,0:0:0:0:
256,192,117055,1,8,0:0:0:0:
256,192,117289,1,0,0:0:0:0:
256,192,117406,1,0,0:0:0:0:
256,192,117524,1,8,0:0:0:0:
256,192,117758,1,0,0:0:0:0:
256,192,117992,1,8,0:0:0:0:
256,192,118110,1,8,0:0:0:0:
256,192,118227,1,0,0:0:0:0:
256,192,118344,1,0,0:0:0:0:
256,192,118461,1,8,0:0:0:0:
256,192,118696,1,12,0:0:0:0:
256,192,119164,1,8,0:0:0:0:
256,192,119633,1,8,0:0:0:0:
256,192,120102,1,8,0:0:0:0:
256,192,120571,1,8,0:0:0:0:
256,192,121039,1,8,0:0:0:0:
256,192,121508,1,8,0:0:0:0:
256,192,121977,1,8,0:0:0:0:
256,192,122446,1,8,0:0:0:0:
256,192,122914,1,8,0:0:0:0:
256,192,123383,1,8,0:0:0:0:
256,192,123852,1,8,0:0:0:0:
256,192,124321,1,8,0:0:0:0:
256,192,124789,1,8,0:0:0:0:
256,192,125258,1,8,0:0:0:0:
256,192,125727,1,8,0:0:0:0:
256,192,126196,1,8,0:0:0:0:
256,192,126430,1,8,0:0:0:0:
256,192,126664,1,8,0:0:0:0:
256,192,126899,1,8,0:0:0:0:
256,192,127133,1,8,0:0:0:0:
256,192,127367,1,8,0:0:0:0:
256,192,127602,1,8,0:0:0:0:
256,192,127836,1,8,0:0:0:0:
256,192,128071,1,8,0:0:0:0:
256,192,128305,1,8,0:0:0:0:
256,192,128539,1,8,0:0:0:0:
256,192,128774,1,8,0:0:0:0:
256,192,129008,1,8,0:0:0:0:
256,192,129242,1,8,0:0:0:0:
256,192,129477,1,8,0:0:0:0:
256,192,129711,1,8,0:0:0:0:
256,192,129946,1,8,0:0:0:0:
256,192,130063,1,8,0:0:0:0:
256,192,130180,1,8,0:0:0:0:
256,192,130297,1,8,0:0:0:0:
256,192,130414,1,8,0:0:0:0:
256,192,130531,1,8,0:0:0:0:
256,192,130649,1,8,0:0:0:0:
256,192,130766,1,8,0:0:0:0:
256,192,130883,1,8,0:0:0:0:
256,192,131000,1,8,0:0:0:0:
256,192,131117,1,8,0:0:0:0:
256,192,131235,1,8,0:0:0:0:
256,192,131352,1,8,0:0:0:0:
256,192,131469,1,8,0:0:0:0:
256,192,131586,1,8,0:0:0:0:
256,192,131703,1,8,0:0:0:0:
256,192,133696,1,4,0:0:0:0:
256,192,133813,1,0,0:0:0:0:
256,192,133930,1,8,0:0:0:0:
256,192,134047,1,0,0:0:0:0:
256,192,134164,1,0,0:0:0:0:
256,192,134281,1,8,0:0:0:0:
256,192,134340,1,8,0:0:0:0:
256,192,134399,1,0,0:0:0:0:
256,192,134516,1,8,0:0:0:0:
256,192,134750,1,8,0:0:0:0:
256,192,134867,1,0,0:0:0:0:
256,192,134985,1,8,0:0:0:0:
256,192,135043,1,8,0:0:0:0:
256,192,135102,1,8,0:0:0:0:
256,192,135219,1,0,0:0:0:0:
256,192,135336,1,8,0:0:0:0:
256,192,135395,1,8,0:0:0:0:
256,192,135453,1,8,0:0:0:0:
256,192,135571,1,0,0:0:0:0:
256,192,135688,1,0,0:0:0:0:
256,192,135805,1,8,0:0:0:0:
256,192,135922,1,0,0:0:0:0:
256,192,136039,1,0,0:0:0:0:
256,192,136156,1,8,0:0:0:0:
256,192,136215,1,8,0:0:0:0:
256,192,136274,1,0,0:0:0:0:
256,192,136391,1,8,0:0:0:0:
256,192,136625,1,8,0:0:0:0:
256,192,136742,1,0,0:0:0:0:
256,192,136860,1,8,0:0:0:0:
256,192,136918,1,0,0:0:0:0:
256,192,136977,1,8,0:0:0:0:
256,192,137094,1,0,0:0:0:0:
256,192,137211,1,8,0:0:0:0:
256,192,137270,1,8,0:0:0:0:
256,192,137328,1,8,0:0:0:0:
256,192,137446,1,0,0:0:0:0:
256,192,137563,1,0,0:0:0:0:
256,192,137680,1,8,0:0:0:0:
256,192,137797,1,0,0:0:0:0:
256,192,137914,1,0,0:0:0:0:
256,192,138031,1,8,0:0:0:0:
256,192,138090,1,8,0:0:0:0:
256,192,138149,1,0,0:0:0:0:
256,192,138266,1,8,0:0:0:0:
256,192,138500,1,8,0:0:0:0:
256,192,138617,1,0,0:0:0:0:
256,192,138735,1,8,0:0:0:0:
256,192,138793,1,8,0:0:0:0:
256,192,138852,1,0,0:0:0:0:
256,192,138969,1,0,0:0:0:0:
256,192,139086,1,8,0:0:0:0:
256,192,139203,1,0,0:0:0:0:
256,192,139262,1,0,0:0:0:0:
256,192,139321,1,0,0:0:0:0:
256,192,139438,1,0,0:0:0:0:
256,192,139555,1,8,0:0:0:0:
256,192,139672,1,0,0:0:0:0:
256,192,139789,1,0,0:0:0:0:
256,192,139906,1,8,0:0:0:0:
256,192,139965,1,8,0:0:0:0:
256,192,140024,1,0,0:0:0:0:
256,192,140141,1,8,0:0:0:0:
256,192,140258,1,4,0:0:0:0:
256,192,140434,1,4,0:0:0:0:
256,192,140610,1,12,0:0:0:0:
256,192,140785,1,12,0:0:0:0:
256,192,140961,1,8,0:0:0:0:
256,192,141020,1,8,0:0:0:0:
256,192,141078,1,8,0:0:0:0:
256,192,141196,1,4,0:0:0:0:
256,192,141313,1,0,0:0:0:0:
256,192,141430,1,8,0:0:0:0:
256,192,141547,1,0,0:0:0:0:
256,192,141664,1,0,0:0:0:0:
256,192,141781,1,8,0:0:0:0:
256,192,141840,1,8,0:0:0:0:
256,192,141899,1,0,0:0:0:0:
256,192,142016,1,8,0:0:0:0:
256,192,142250,1,8,0:0:0:0:
256,192,142367,1,0,0:0:0:0:
256,192,142485,1,8,0:0:0:0:
256,192,142543,1,0,0:0:0:0:
256,192,142602,1,8,0:0:0:0:
256,192,142719,1,0,0:0:0:0:
256,192,142836,1,8,0:0:0:0:
256,192,142953,1,8,0:0:0:0:
256,192,143071,1,0,0:0:0:0:
256,192,143188,1,0,0:0:0:0:
256,192,143305,1,8,0:0:0:0:
256,192,143422,1,0,0:0:0:0:
256,192,143539,1,0,0:0:0:0:
256,192,143656,1,8,0:0:0:0:
256,192,143715,1,8,0:0:0:0:
256,192,143774,1,0,0:0:0:0:
256,192,143891,1,8,0:0:0:0:
256,192,144125,1,8,0:0:0:0:
256,192,144242,1,0,0:0:0:0:
256,192,144360,1,8,0:0:0:0:
256,192,144418,1,0,0:0:0:0:
256,192,144477,1,8,0:0:0:0:
256,192,144594,1,0,0:0:0:0:
256,192,144711,1,8,0:0:0:0:
256,192,144770,1,8,0:0:0:0:
256,192,144828,1,8,0:0:0:0:
256,192,144946,1,0,0:0:0:0:
256,192,145063,1,0,0:0:0:0:
256,192,145180,1,8,0:0:0:0:
256,192,145297,1,0,0:0:0:0:
256,192,145414,1,0,0:0:0:0:
256,192,145531,1,8,0:0:0:0:
256,192,145590,1,8,0:0:0:0:
256,192,145649,1,0,0:0:0:0:
256,192,145766,1,8,0:0:0:0:
256,192,146000,1,8,0:0:0:0:
256,192,146117,1,0,0:0:0:0:
256,192,146235,1,8,0:0:0:0:
256,192,146293,1,0,0:0:0:0:
256,192,146352,1,8,0:0:0:0:
256,192,146469,1,0,0:0:0:0:
256,192,146586,1,8,0:0:0:0:
256,192,146821,1,0,0:0:0:0:
256,192,146938,1,0,0:0:0:0:
256,192,147055,1,8,0:0:0:0:
256,192,147172,1,0,0:0:0:0:
256,192,147289,1,0,0:0:0:0:
256,192,147406,1,8,0:0:0:0:
256,192,147465,1,8,0:0:0:0:
256,192,147524,1,0,0:0:0:0:
256,192,147641,1,8,0:0:0:0:
256,192,147758,1,4,0:0:0:0:
256,192,147934,1,12,0:0:0:0:
256,192,148110,1,4,0:0:0:0:
256,192,148285,1,12,0:0:0:0:
256,192,148461,1,8,0:0:0:0:
256,192,148520,1,8,0:0:0:0:
256,192,148578,1,8,0:0:0:0:
256,192,148696,1,4,0:0:0:0:
256,192,148813,1,0,0:0:0:0:
256,192,148871,1,0,0:0:0:0:
256,192,148930,1,8,0:0:0:0:
256,192,149047,1,0,0:0:0:0:
256,192,149164,1,0,0:0:0:0:
256,192,149281,1,8,0:0:0:0:
256,192,149399,1,0,0:0:0:0:
256,192,149516,1,8,0:0:0:0:
256,192,149750,1,8,0:0:0:0:
256,192,149867,1,0,0:0:0:0:
256,192,149985,1,8,0:0:0:0:
256,192,150043,1,8,0:0:0:0:
256,192,150102,1,0,0:0:0:0:
256,192,150219,1,0,0:0:0:0:
256,192,150336,1,8,0:0:0:0:
256,192,150453,1,0,0:0:0:0:
256,192,150512,1,0,0:0:0:0:
256,192,150571,1,0,0:0:0:0:
256,192,150688,1,0,0:0:0:0:
256,192,150805,1,8,0:0:0:0:
256,192,150922,1,0,0:0:0:0:
256,192,151039,1,0,0:0:0:0:
256,192,151156,1,8,0:0:0:0:
256,192,151274,1,0,0:0:0:0:
256,192,151391,1,8,0:0:0:0:
256,192,151625,1,8,0:0:0:0:
256,192,151742,1,0,0:0:0:0:
256,192,151860,1,8,0:0:0:0:
256,192,151918,1,8,0:0:0:0:
256,192,151977,1,0,0:0:0:0:
256,192,152094,1,0,0:0:0:0:
256,192,152211,1,8,0:0:0:0:
256,192,152270,1,8,0:0:0:0:
256,192,152328,1,8,0:0:0:0:
256,192,152446,1,0,0:0:0:0:
256,192,152563,1,0,0:0:0:0:
256,192,152680,1,8,0:0:0:0:
256,192,152797,1,0,0:0:0:0:
256,192,152914,1,0,0:0:0:0:
256,192,153031,1,8,0:0:0:0:
256,192,153149,1,0,0:0:0:0:
256,192,153266,1,8,0:0:0:0:
256,192,153500,1,8,0:0:0:0:
256,192,153617,1,0,0:0:0:0:
256,192,153735,1,8,0:0:0:0:
256,192,153793,1,8,0:0:0:0:
256,192,153852,1,0,0:0:0:0:
256,192,153969,1,0,0:0:0:0:
256,192,154086,1,8,0:0:0:0:
256,192,154203,1,8,0:0:0:0:
256,192,154321,1,0,0:0:0:0:
256,192,154438,1,0,0:0:0:0:
256,192,154555,1,8,0:0:0:0:
256,192,154672,1,0,0:0:0:0:
256,192,154789,1,0,0:0:0:0:
256,192,154906,1,8,0:0:0:0:
256,192,154965,1,0,0:0:0:0:
256,192,155024,1,8,0:0:0:0:
256,192,155141,1,8,0:0:0:0:
256,192,155258,1,4,0:0:0:0:
256,192,155434,1,4,0:0:0:0:
256,192,155610,1,12,0:0:0:0:
256,192,155785,1,12,0:0:0:0:
256,192,155961,1,8,0:0:0:0:
256,192,156020,1,8,0:0:0:0:
256,192,156078,1,8,0:0:0:0:
256,192,156196,1,4,0:0:0:0:
256,192,156313,1,0,0:0:0:0:
256,192,156430,1,8,0:0:0:0:
256,192,156547,1,0,0:0:0:0:
256,192,156664,1,0,0:0:0:0:
256,192,156781,1,8,0:0:0:0:
256,192,156840,1,8,0:0:0:0:
256,192,156899,1,0,0:0:0:0:
256,192,157016,1,8,0:0:0:0:
256,192,157250,1,8,0:0:0:0:
256,192,157367,1,0,0:0:0:0:
256,192,157485,1,8,0:0:0:0:
256,192,157543,1,8,0:0:0:0:
256,192,157602,1,0,0:0:0:0:
256,192,157719,1,0,0:0:0:0:
256,192,157836,1,8,0:0:0:0:
256,192,157953,1,8,0:0:0:0:
256,192,158071,1,0,0:0:0:0:
256,192,158188,1,0,0:0:0:0:
256,192,158305,1,8,0:0:0:0:
256,192,158422,1,0,0:0:0:0:
256,192,158539,1,0,0:0:0:0:
256,192,158656,1,8,0:0:0:0:
256,192,158715,1,0,0:0:0:0:
256,192,158774,1,8,0:0:0:0:
256,192,158891,1,8,0:0:0:0:
256,192,159125,1,0,0:0:0:0:
256,192,159242,1,8,0:0:0:0:
256,192,159360,1,8,0:0:0:0:
256,192,159418,1,8,0:0:0:0:
256,192,159477,1,0,0:0:0:0:
256,192,159594,1,0,0:0:0:0:
256,192,159711,1,8,0:0:0:0:
256,192,159770,1,8,0:0:0:0:
256,192,159828,1,8,0:0:0:0:
256,192,159946,1,0,0:0:0:0:
256,192,160180,1,8,0:0:0:0:
256,192,160414,1,0,0:0:0:0:
256,192,160531,1,8,0:0:0:0:
256,192,160649,1,0,0:0:0:0:
256,192,160766,1,8,0:0:0:0:
256,192,161000,1,0,0:0:0:0:
256,192,161117,1,8,0:0:0:0:
256,192,161235,1,8,0:0:0:0:
256,192,161352,1,0,0:0:0:0:
256,192,161469,1,0,0:0:0:0:
256,192,161528,1,0,0:0:0:0:
256,192,161586,1,8,0:0:0:0:
256,192,161703,1,8,0:0:0:0:
256,192,161762,1,0,0:0:0:0:
256,192,161821,1,8,0:0:0:0:
256,192,161938,1,0,0:0:0:0:
256,192,162055,1,8,0:0:0:0:
256,192,162172,1,0,0:0:0:0:
256,192,162289,1,0,0:0:0:0:
256,192,162406,1,8,0:0:0:0:
256,192,162524,1,0,0:0:0:0:
256,192,162641,1,8,0:0:0:0:
256,192,162758,1,0,0:0:0:0:
256,192,162992,1,8,0:0:0:0:
256,192,163110,1,8,0:0:0:0:
256,192,163227,1,0,0:0:0:0:
256,192,163344,1,0,0:0:0:0:
256,192,163461,1,8,0:0:0:0:
256,192,163520,1,8,0:0:0:0:
256,192,163578,1,8,0:0:0:0:
256,192,163696,1,4,0:0:0:0:
256,192,164047,1,4,0:0:0:0:
256,192,164399,1,12,0:0:0:0:
256,192,164750,1,12,0:0:0:0:
256,192,165102,1,4,0:0:0:0:
256,192,165688,1,12,0:0:0:0:
256,192,166039,1,12,0:0:0:0:
256,192,166391,1,4,0:0:0:0:
256,192,166742,1,4,0:0:0:0:
256,192,166977,1,12,0:0:0:0:
256,192,167094,1,12,0:0:0:0:
256,192,167211,1,0,0:0:0:0:
256,192,167270,1,8,0:0:0:0:
256,192,167328,1,0,0:0:0:0:
256,192,167446,1,4,0:0:0:0:
256,192,167797,1,4,0:0:0:0:
256,192,168149,1,12,0:0:0:0:
256,192,168500,1,12,0:0:0:0:
256,192,168852,1,4,0:0:0:0:
256,192,169438,1,12,0:0:0:0:
256,192,169789,1,12,0:0:0:0:
256,192,170141,1,4,0:0:0:0:
256,192,170492,1,4,0:0:0:0:
256,192,170727,1,12,0:0:0:0:
256,192,170844,1,12,0:0:0:0:
256,192,170961,1,0,0:0:0:0:
256,192,171020,1,8,0:0:0:0:
256,192,171078,1,0,0:0:0:0:
256,192,171196,1,4,0:0:0:0:
256,192,171313,1,0,0:0:0:0:
256,192,171547,1,8,0:0:0:0:
256,192,171664,1,8,0:0:0:0:
256,192,171899,1,0,0:0:0:0:
256,192,172016,1,0,0:0:0:0:
256,192,172250,1,8,0:0:0:0:
256,192,172367,1,8,0:0:0:0:
256,192,172602,1,0,0:0:0:0:
256,192,172719,1,0,0:0:0:0:
256,192,172836,1,8,0:0:0:0:
256,192,172895,1,8,0:0:0:0:
256,192,172953,1,8,0:0:0:0:
256,192,173012,1,8,0:0:0:0:
256,192,173071,1,8,0:0:0:0:
256,192,173188,1,0,0:0:0:0:
256,192,173305,1,0,0:0:0:0:
256,192,173539,1,8,0:0:0:0:
256,192,173656,1,8,0:0:0:0:
256,192,173891,1,0,0:0:0:0:
256,192,174008,1,0,0:0:0:0:
256,192,174242,1,8,0:0:0:0:
256,192,174477,1,8,0:0:0:0:
256,192,174594,1,8,0:0:0:0:
256,192,174711,1,8,0:0:0:0:
256,192,174770,1,8,0:0:0:0:
256,192,174828,1,8,0:0:0:0:
256,192,174946,1,0,0:0:0:0:
256,192,175063,1,0,0:0:0:0:
256,192,175297,1,0,0:0:0:0:
256,192,175414,1,0,0:0:0:0:
256,192,175649,1,0,0:0:0:0:
256,192,175766,1,0,0:0:0:0:
256,192,176000,1,8,0:0:0:0:
256,192,176117,1,0,0:0:0:0:
256,192,176352,1,8,0:0:0:0:
256,192,176469,1,0,0:0:0:0:
256,192,176586,1,0,0:0:0:0:
256,192,176703,1,8,0:0:0:0:
256,192,176762,1,8,0:0:0:0:
256,192,176821,1,0,0:0:0:0:
256,192,176938,1,0,0:0:0:0:
256,192,177055,1,8,0:0:0:0:
256,192,177289,1,0,0:0:0:0:
256,192,177406,1,8,0:0:0:0:
256,192,177641,1,0,0:0:0:0:
256,192,177758,1,8,0:0:0:0:
256,192,177992,1,0,0:0:0:0:
256,192,178110,1,0,0:0:0:0:
256,192,178227,1,8,0:0:0:0:
256,192,178285,1,8,0:0:0:0:
256,192,178344,1,0,0:0:0:0:
256,192,178403,1,0,0:0:0:0:
256,192,178461,1,8,0:0:0:0:
256,192,178578,1,8,0:0:0:0:
256,192,178696,1,4,0:0:0:0:
256,192,178813,1,0,0:0:0:0:
256,192,178930,1,8,0:0:0:0:
256,192,179164,1,8,0:0:0:0:
256,192,179281,1,8,0:0:0:0:
256,192,179399,1,0,0:0:0:0:
256,192,179516,1,8,0:0:0:0:
256,192,179633,1,8,0:0:0:0:
256,192,179867,1,0,0:0:0:0:
256,192,179985,1,8,0:0:0:0:
256,192,180102,1,8,0:0:0:0:
256,192,180219,1,0,0:0:0:0:
256,192,180336,1,0,0:0:0:0:
256,192,180571,1,8,0:0:0:0:
256,192,180688,1,8,0:0:0:0:
256,192,180746,1,8,0:0:0:0:
256,192,180805,1,0,0:0:0:0:
256,192,180922,1,8,0:0:0:0:
256,192,181039,1,8,0:0:0:0:
256,192,181156,1,0,0:0:0:0:
256,192,181274,1,8,0:0:0:0:
256,192,181391,1,8,0:0:0:0:
256,192,181508,1,8,0:0:0:0:
256,192,181742,1,0,0:0:0:0:
256,192,181860,1,8,0:0:0:0:
256,192,181977,1,8,0:0:0:0:
256,192,182094,1,0,0:0:0:0:
256,192,182211,1,8,0:0:0:0:
256,192,182270,1,8,0:0:0:0:
256,192,182328,1,8,0:0:0:0:
256,192,182387,1,8,0:0:0:0:
256,192,182446,1,8,0:0:0:0:
256,192,182563,1,0,0:0:0:0:
256,192,182680,1,0,0:0:0:0:
256,192,182797,1,0,0:0:0:0:
256,192,182914,1,8,0:0:0:0:
256,192,183149,1,0,0:0:0:0:
256,192,183266,1,0,0:0:0:0:
256,192,183383,1,8,0:0:0:0:
256,192,183617,1,0,0:0:0:0:
256,192,183735,1,8,0:0:0:0:
256,192,183852,1,8,0:0:0:0:
256,192,183969,1,0,0:0:0:0:
256,192,184086,1,0,0:0:0:0:
256,192,184321,1,8,0:0:0:0:
256,192,184438,1,0,0:0:0:0:
256,192,184555,1,0,0:0:0:0:
256,192,184672,1,8,0:0:0:0:
256,192,184789,1,8,0:0:0:0:
256,192,184906,1,8,0:0:0:0:
256,192,185024,1,0,0:0:0:0:
256,192,185258,1,0,0:0:0:0:
256,192,185317,1,0,0:0:0:0:
256,192,185375,1,0,0:0:0:0:
256,192,185434,1,0,0:0:0:0:
256,192,185492,1,8,0:0:0:0:
256,192,185610,1,0,0:0:0:0:
256,192,185727,1,8,0:0:0:0:
256,192,185844,1,8,0:0:0:0:
256,192,185961,1,0,0:0:0:0:
256,192,186078,1,0,0:0:0:0:
256,192,186196,1,12,0:0:0:0:
256,192,186430,1,0,0:0:0:0:
256,192,186664,1,8,0:0:0:0:
256,192,186899,1,0,0:0:0:0:
256,192,187133,1,8,0:0:0:0:
256,192,187367,1,0,0:0:0:0:
256,192,187602,1,8,0:0:0:0:
256,192,187836,1,0,0:0:0:0:
256,192,188071,1,8,0:0:0:0:
256,192,188188,1,8,0:0:0:0:
256,192,188246,1,8,0:0:0:0:
256,192,188305,1,0,0:0:0:0:
256,192,188539,1,8,0:0:0:0:
256,192,188774,1,0,0:0:0:0:
256,192,189008,1,8,0:0:0:0:
256,192,189125,1,0,0:0:0:0:
256,192,189242,1,0,0:0:0:0:
256,192,189360,1,8,0:0:0:0:
256,192,189477,1,8,0:0:0:0:
256,192,189711,1,8,0:0:0:0:
256,192,189828,1,8,0:0:0:0:
256,192,189946,1,0,0:0:0:0:
256,192,190063,1,8,0:0:0:0:
256,192,190121,1,8,0:0:0:0:
256,192,190180,1,0,0:0:0:0:
256,192,190414,1,8,0:0:0:0:
256,192,190649,1,0,0:0:0:0:
256,192,190883,1,8,0:0:0:0:
256,192,191117,1,0,0:0:0:0:
256,192,191352,1,8,0:0:0:0:
256,192,191586,1,0,0:0:0:0:
256,192,191821,1,8,0:0:0:0:
256,192,192055,1,0,0:0:0:0:
256,192,192289,1,8,0:0:0:0:
256,192,192524,1,0,0:0:0:0:
256,192,192758,1,8,0:0:0:0:
256,192,192875,1,8,0:0:0:0:
256,192,192934,1,8,0:0:0:0:
256,192,192992,1,0,0:0:0:0:
256,192,193110,1,8,0:0:0:0:
256,192,193227,1,0,0:0:0:0:
256,192,193344,1,0,0:0:0:0:
256,192,193461,1,8,0:0:0:0:
256,192,193578,1,8,0:0:0:0:
256,192,193696,1,4,0:0:0:0:
256,192,193813,12,0,201196,0:0:0:0:
