osu file format v14

[General]
AudioFilename: Kobaryo - Kumo No Kireme [feat. ].mp3
AudioLeadIn: 0
PreviewTime: 131821
Countdown: 0
SampleSet: Soft
StackLeniency: 0.7
Mode: 3
LetterboxInBreaks: 0
SpecialStyle: 0
WidescreenStoryboard: 1

[Editor]
DistanceSpacing: 1
BeatDivisor: 4
GridSize: 8
TimelineZoom: 2

[Metadata]
Title:Kumo No Kireme [feat. kourin.]
TitleUnicode:Kumo No Kireme [feat. 紅燐。]
Artist:Kobaryo
ArtistUnicode:Kobaryo
Creator:Quick Draw
Version:MX
Source:Chaotic Solutions
Tags:psycho filth records chaotic solutions speedcore
BeatmapID:624725
BeatmapSetID:271493

[Difficulty]
HPDrainRate:8
CircleSize:4
OverallDifficulty:8
ApproachRate:5
SliderMultiplier:1.4
SliderTickRate:1

[Events]
//Background and Video events
0,0,"Kobaryo bkg.jpg",0,0
//Break Periods
//Storyboard Layer 0 (Background)
//Storyboard Layer 1 (Fail)
//Storyboard Layer 2 (Pass)
//Storyboard Layer 3 (Foreground)
//Storyboard Sound Samples

[TimingPoints]
2446,234.375,4,2,0,20,1,0
17446,-100,4,2,0,25,0,0
24946,-100,4,2,0,30,0,0
28696,-100,4,2,0,35,0,0
32446,-100,4,3,1,30,0,1
47446,-100,4,3,1,25,0,0
62446,-100,4,2,0,20,0,0
64086,-100,4,3,1,30,0,0
66196,-100,4,2,0,20,0,0
67602,-100,4,3,1,30,0,0
73696,-100,4,2,0,20,0,0
103696,-100,4,2,0,25,0,0
126196,-100,4,2,0,30,0,0
129946,-100,4,2,0,35,0,0
133696,-100,4,3,1,30,0,1
163696,-100,4,3,1,25,0,0

[HitObjects]
448,192,2446,5,0,0:0:0:30:normal-hitwhistle.wav
64,192,2446,1,0,0:0:0:30:normal-hitwhistle.wav
192,192,2563,1,2,0:0:0:0:
320,192,2680,1,2,0:0:0:0:
64,192,2797,1,2,0:0:0:0:
448,192,2914,1,2,0:0:0:0:
320,192,3031,1,2,0:0:0:0:
64,192,3149,1,2,0:0:0:0:
192,192,3266,1,2,0:0:0:0:
448,192,3383,1,2,0:0:0:0:
64,192,3500,1,2,0:0:0:0:
320,192,3617,1,2,0:0:0:0:
448,192,3735,1,2,0:0:0:0:
192,192,3852,1,2,0:0:0:0:
320,192,3969,1,2,0:0:0:0:
448,192,4086,1,2,0:0:0:0:
192,192,4203,1,2,0:0:0:0:
64,192,4321,1,0,0:0:0:30:normal-hitwhistle2.wav
448,192,4321,1,0,0:0:0:30:normal-hitwhistle2.wav
192,192,4438,1,2,0:0:0:0:
320,192,4555,1,2,0:0:0:0:
64,192,4672,1,2,0:0:0:0:
448,192,4789,1,2,0:0:0:0:
192,192,4906,1,2,0:0:0:0:
320,192,5024,1,2,0:0:0:0:
64,192,5141,1,2,0:0:0:0:
448,192,5258,1,2,0:0:0:0:
192,192,5375,1,2,0:0:0:0:
320,192,5492,1,2,0:0:0:0:
448,192,5610,1,2,0:0:0:0:
64,192,5727,1,2,0:0:0:0:
192,192,5844,1,2,0:0:0:0:
448,192,5961,1,2,0:0:0:0:
320,192,6078,1,2,0:0:0:0:
64,192,6196,1,0,0:0:0:30:normal-hitwhistle2.wav
448,192,6196,1,0,0:0:0:30:normal-hitwhistle3.wav
192,192,6313,1,2,0:0:0:0:
320,192,6430,1,2,0:0:0:0:
64,192,6547,1,2,0:0:0:0:
448,192,6664,1,2,0:0:0:0:
320,192,6781,1,2,0:0:0:0:
192,192,6899,1,2,0:0:0:0:
320,192,7016,1,2,0:0:0:0:
448,192,7133,1,2,0:0:0:0:
64,192,7250,1,2,0:0:0:0:
192,192,7367,1,2,0:0:0:0:
320,192,7485,1,2,0:0:0:0:
64,192,7602,1,2,0:0:0:0:
192,192,7719,1,2,0:0:0:0:
448,192,7836,1,2,0:0:0:0:
320,192,7953,1,2,0:0:0:0:
64,192,8071,1,0,0:0:0:30:normal-hitwhistle3.wav
192,192,8071,1,0,0:0:0:30:normal-hitwhistle3.wav
448,192,8188,1,2,0:0:0:0:
320,192,8305,1,2,0:0:0:0:
192,192,8422,1,2,0:0:0:0:
64,192,8539,1,2,0:0:0:0:
320,192,8656,1,2,0:0:0:0:
64,192,8774,1,2,0:0:0:0:
192,192,8891,1,2,0:0:0:0:
448,192,9008,1,0,0:0:0:30:normal-hitwhistle4.wav
320,192,9008,1,0,0:0:0:30:normal-hitwhistle4.wav
64,192,9125,1,2,0:0:0:0:
320,192,9242,1,2,0:0:0:0:
448,192,9360,1,2,0:0:0:0:
64,192,9477,1,2,0:0:0:0:
192,192,9594,1,2,0:0:0:0:
448,192,9711,1,2,0:0:0:0:
320,192,9828,1,2,0:0:0:0:
64,192,9946,1,0,0:0:0:30:normal-hitwhistle3.wav
448,192,9946,1,0,0:0:0:30:normal-hitwhistle3.wav
192,192,10063,1,2,0:0:0:0:
320,192,10180,1,2,0:0:0:0:
448,192,10297,1,2,0:0:0:0:
64,192,10414,1,2,0:0:0:0:
320,192,10531,1,2,0:0:0:0:
64,192,10649,1,2,0:0:0:0:
192,192,10766,1,2,0:0:0:0:
320,192,10883,1,2,0:0:0:0:
64,192,11000,1,2,0:0:0:0:
192,192,11117,1,2,0:0:0:0:
448,192,11235,1,2,0:0:0:0:
64,192,11352,1,2,0:0:0:0:
448,192,11469,1,2,0:0:0:0:
320,192,11586,1,2,0:0:0:0:
192,192,11703,1,2,0:0:0:0:
64,192,11821,1,0,0:0:0:30:normal-hitwhistle5.wav
448,192,11821,1,0,0:0:0:30:normal-hitwhistle5.wav
192,192,11938,1,2,0:0:0:0:
320,192,12055,1,2,0:0:0:0:
64,192,12172,1,2,0:0:0:0:
448,192,12289,1,2,0:0:0:0:
320,192,12406,1,2,0:0:0:0:
192,192,12524,1,2,0:0:0:0:
64,192,12641,1,2,0:0:0:0:
448,192,12758,1,0,0:0:0:30:normal-hitwhistle6.wav
320,192,12758,1,0,0:0:0:30:normal-hitwhistle6.wav
64,192,12875,1,2,0:0:0:0:
192,192,12992,1,2,0:0:0:0:
448,192,13110,1,2,0:0:0:0:
64,192,13227,1,2,0:0:0:0:
320,192,13344,1,2,0:0:0:0:
448,192,13461,1,2,0:0:0:0:
192,192,13578,1,2,0:0:0:0:
64,192,13696,1,0,0:0:0:30:normal-hitwhistle3.wav
448,192,13696,1,0,0:0:0:30:normal-hitwhistle3.wav
192,192,13813,1,2,0:0:0:0:
320,192,13930,1,2,0:0:0:0:
64,192,14047,1,2,0:0:0:0:
448,192,14164,1,2,0:0:0:0:
320,192,14281,1,2,0:0:0:0:
192,192,14399,1,2,0:0:0:0:
64,192,14516,1,2,0:0:0:0:
320,192,14633,1,2,0:0:0:0:
64,192,14750,1,2,0:0:0:0:
192,192,14867,1,2,0:0:0:0:
320,192,14985,1,2,0:0:0:0:
64,192,15102,1,2,0:0:0:0:
448,192,15219,1,2,0:0:0:0:
320,192,15336,1,2,0:0:0:0:
192,192,15453,1,2,0:0:0:0:
64,192,15571,1,0,0:0:0:30:normal-hitwhistle3.wav
448,192,15571,1,0,0:0:0:30:normal-hitwhistle3.wav
192,192,15688,1,2,0:0:0:0:
320,192,15805,1,2,0:0:0:0:
64,192,15922,1,2,0:0:0:0:
448,192,16039,1,2,0:0:0:0:
320,192,16156,1,2,0:0:0:0:
64,192,16274,1,2,0:0:0:0:
192,192,16391,1,2,0:0:0:0:
448,192,16508,1,2,0:0:0:0:
192,192,16625,1,2,0:0:0:0:
320,192,16742,1,2,0:0:0:0:
448,192,16860,1,2,0:0:0:0:
64,192,16977,1,2,0:0:0:0:
192,192,17094,1,2,0:0:0:0:
320,192,17211,1,2,0:0:0:0:
192,192,17328,1,2,0:0:0:0:
64,192,17446,1,10,0:0:0:0:
448,192,17446,1,8,0:0:0:0:
192,192,17563,1,2,0:0:0:0:
320,192,17680,1,2,0:0:0:0:
64,192,17797,1,2,0:0:0:0:
448,192,17914,1,8,0:0:0:0:
192,192,17914,1,10,0:0:0:0:
320,192,18031,1,2,0:0:0:0:
64,192,18149,1,2,0:0:0:0:
192,192,18266,1,2,0:0:0:0:
448,192,18383,1,8,0:0:0:0:
320,192,18383,1,10,0:0:0:0:
64,192,18500,1,2,0:0:0:0:
320,192,18617,1,2,0:0:0:0:
448,192,18735,1,2,0:0:0:0:
192,192,18852,1,10,0:0:0:0:
64,192,18852,1,8,0:0:0:0:
320,192,18969,1,2,0:0:0:0:
448,192,19086,1,2,0:0:0:0:
192,192,19203,1,2,0:0:0:0:
448,192,19321,1,8,0:0:0:0:
64,192,19321,1,10,0:0:0:0:
192,192,19438,1,2,0:0:0:0:
320,192,19555,1,2,0:0:0:0:
64,192,19672,1,2,0:0:0:0:
448,192,19789,1,8,0:0:0:0:
320,192,19789,1,10,0:0:0:0:
192,192,19906,1,2,0:0:0:0:
320,192,20024,1,2,0:0:0:0:
64,192,20141,1,2,0:0:0:0:
448,192,20258,1,8,0:0:0:0:
320,192,20258,1,10,0:0:0:0:
192,192,20375,1,2,0:0:0:0:
320,192,20492,1,2,0:0:0:0:
448,192,20610,1,2,0:0:0:0:
64,192,20727,1,8,0:0:0:0:
192,192,20727,1,10,0:0:0:0:
320,192,20844,1,2,0:0:0:0:
192,192,20961,1,2,0:0:0:0:
320,192,21078,1,2,0:0:0:0:
448,192,21196,1,8,0:0:0:0:
64,192,21196,1,10,0:0:0:0:
192,192,21313,1,2,0:0:0:0:
320,192,21430,1,2,0:0:0:0:
64,192,21547,1,2,0:0:0:0:
448,192,21664,1,8,0:0:0:0:
192,192,21664,1,10,0:0:0:0:
320,192,21781,1,2,0:0:0:0:
64,192,21899,1,2,0:0:0:0:
192,192,22016,1,2,0:0:0:0:
448,192,22133,1,8,0:0:0:0:
320,192,22133,1,10,0:0:0:0:
64,192,22250,1,2,0:0:0:0:
320,192,22367,1,2,0:0:0:0:
448,192,22485,1,2,0:0:0:0:
192,192,22602,1,10,0:0:0:0:
64,192,22602,1,8,0:0:0:0:
320,192,22719,1,2,0:0:0:0:
448,192,22836,1,2,0:0:0:0:
192,192,22953,1,2,0:0:0:0:
64,192,23071,1,10,0:0:0:0:
448,192,23071,1,8,0:0:0:0:
192,192,23188,1,2,0:0:0:0:
320,192,23305,1,2,0:0:0:0:
64,192,23422,1,2,0:0:0:0:
448,192,23539,1,8,0:0:0:0:
320,192,23539,1,10,0:0:0:0:
192,192,23656,1,2,0:0:0:0:
320,192,23774,1,2,0:0:0:0:
64,192,23891,1,2,0:0:0:0:
448,192,24008,1,8,0:0:0:0:
320,192,24008,1,10,0:0:0:0:
192,192,24125,1,2,0:0:0:0:
64,192,24242,1,2,0:0:0:0:
448,192,24360,1,2,0:0:0:0:
64,192,24477,1,8,0:0:0:0:
320,192,24477,1,10,0:0:0:0:
192,192,24594,1,2,0:0:0:0:
448,192,24711,1,2,0:0:0:0:
320,192,24828,1,2,0:0:0:0:
448,192,24946,1,8,0:0:0:0:
64,192,24946,1,10,0:0:0:0:
192,192,25063,1,2,0:0:0:0:
320,192,25180,1,10,0:0:0:0:
448,192,25180,1,8,0:0:0:0:
192,192,25297,1,2,0:0:0:0:
448,192,25414,1,10,0:0:0:0:
64,192,25414,1,8,0:0:0:0:
320,192,25531,1,2,0:0:0:0:
192,192,25649,1,10,0:0:0:0:
448,192,25649,1,8,0:0:0:0:
64,192,25766,1,2,0:0:0:0:
448,192,25883,1,8,0:0:0:0:
320,192,25883,1,10,0:0:0:0:
192,192,26000,1,2,0:0:0:0:
448,192,26117,1,8,0:0:0:0:
64,192,26117,1,10,0:0:0:0:
320,192,26235,1,2,0:0:0:0:
64,192,26352,1,8,0:0:0:0:
192,192,26352,1,10,0:0:0:0:
448,192,26469,1,2,0:0:0:0:
64,192,26586,1,8,0:0:0:0:
320,192,26586,1,10,0:0:0:0:
192,192,26703,1,2,0:0:0:0:
448,192,26821,1,8,0:0:0:0:
320,192,26821,1,10,0:0:0:0:
64,192,26938,1,2,0:0:0:0:
320,192,27055,1,10,0:0:0:0:
192,192,27055,1,8,0:0:0:0:
448,192,27172,1,2,0:0:0:0:
320,192,27289,1,10,0:0:0:0:
64,192,27289,1,8,0:0:0:0:
192,192,27406,1,2,0:0:0:0:
448,192,27524,1,8,0:0:0:0:
320,192,27524,1,10,0:0:0:0:
64,192,27641,1,2,0:0:0:0:
192,192,27758,1,8,0:0:0:0:
320,192,27758,1,10,0:0:0:0:
448,192,27875,1,2,0:0:0:0:
64,192,27992,1,8,0:0:0:0:
320,192,27992,1,10,0:0:0:0:
192,192,28110,1,2,0:0:0:0:
64,192,28227,1,8,0:0:0:0:
448,192,28227,1,10,0:0:0:0:
320,192,28344,1,2,0:0:0:0:
448,192,28461,1,8,0:0:0:0:
192,192,28461,1,10,0:0:0:0:
64,192,28578,1,2,0:0:0:0:
448,192,28696,1,8,0:0:0:0:
320,192,28813,1,8,0:0:0:0:
192,192,28930,1,8,0:0:0:0:
64,192,29047,1,8,0:0:0:0:
448,192,29164,1,8,0:0:0:0:
192,192,29281,1,8,0:0:0:0:
448,192,29399,1,8,0:0:0:0:
64,192,29516,1,8,0:0:0:0:
320,192,29633,1,8,0:0:0:0:
448,192,29750,1,8,0:0:0:0:
64,192,29867,1,8,0:0:0:0:
448,192,29985,1,8,0:0:0:0:
192,192,30102,1,8,0:0:0:0:
448,192,30219,1,8,0:0:0:0:
320,192,30336,1,8,0:0:0:0:
64,192,30453,1,8,0:0:0:0:
448,192,32446,1,0,0:0:0:0:
320,192,32446,1,0,0:0:0:0:
192,192,32563,1,0,0:0:0:0:
64,192,32680,1,0,0:0:0:0:
320,192,32680,1,0,0:0:0:0:
448,192,32797,1,0,0:0:0:0:
64,192,32914,1,0,0:0:0:0:
192,192,32914,1,0,0:0:0:0:
448,192,33031,1,8,0:0:0:0:
320,192,33090,1,8,0:0:0:0:
192,192,33149,1,8,0:0:0:0:
64,192,33149,1,0,0:0:0:0:
320,192,33266,1,0,0:0:0:0:
64,192,33383,1,0,0:0:0:0:
448,192,33383,1,0,0:0:0:0:
192,192,33500,1,0,0:0:0:0:
64,192,33617,1,0,0:0:0:0:
320,192,33617,1,0,0:0:0:0:
448,192,33735,1,8,0:0:0:0:
320,192,33793,1,8,0:0:0:0:
192,192,33852,1,8,0:0:0:0:
64,192,33852,1,0,0:0:0:0:
320,192,33969,1,0,0:0:0:0:
192,192,34086,1,0,0:0:0:0:
64,192,34086,1,0,0:0:0:0:
320,192,34145,1,8,0:0:0:0:
448,192,34203,1,8,0:0:0:0:
192,192,34262,1,8,0:0:0:0:
64,192,34321,1,8,0:0:0:0:
320,192,34321,1,0,0:0:0:0:
448,192,34379,1,8,0:0:0:0:
192,192,34438,1,8,0:0:0:0:
320,192,34555,1,0,0:0:0:0:
448,192,34555,1,0,0:0:0:0:
64,192,34672,1,0,0:0:0:0:
320,192,34789,1,0,0:0:0:0:
64,192,34906,1,8,0:0:0:0:
192,192,34965,1,8,0:0:0:0:
448,192,35024,1,0,0:0:0:0:
320,192,35024,1,8,0:0:0:0:
192,192,35141,1,0,0:0:0:0:
64,192,35258,1,0,0:0:0:0:
320,192,35258,1,0,0:0:0:0:
448,192,35375,1,0,0:0:0:0:
192,192,35492,1,0,0:0:0:0:
64,192,35492,1,0,0:0:0:0:
448,192,35610,1,8,0:0:0:0:
320,192,35668,1,8,0:0:0:0:
64,192,35727,1,0,0:0:0:0:
192,192,35727,1,8,0:0:0:0:
320,192,35844,1,8,0:0:0:0:
448,192,35844,1,0,0:0:0:0:
192,192,35903,1,8,0:0:0:0:
64,192,35961,1,8,0:0:0:0:
448,192,36020,1,8,0:0:0:0:
320,192,36078,1,8,0:0:0:0:
192,192,36137,1,8,0:0:0:0:
64,192,36196,1,8,0:0:0:0:
448,192,36196,1,0,0:0:0:0:
192,192,36313,1,0,0:0:0:0:
64,192,36430,1,0,0:0:0:0:
320,192,36430,1,0,0:0:0:0:
192,192,36547,1,0,0:0:0:0:
448,192,36664,1,0,0:0:0:0:
64,192,36664,1,0,0:0:0:0:
320,192,36781,1,8,0:0:0:0:
192,192,36840,1,8,0:0:0:0:
448,192,36899,1,0,0:0:0:0:
64,192,36899,1,8,0:0:0:0:
320,192,37016,1,0,0:0:0:0:
64,192,37133,1,0,0:0:0:0:
448,192,37133,1,0,0:0:0:0:
192,192,37250,1,0,0:0:0:0:
448,192,37367,1,0,0:0:0:0:
64,192,37367,1,0,0:0:0:0:
192,192,37485,1,8,0:0:0:0:
320,192,37543,1,8,0:0:0:0:
448,192,37602,1,8,0:0:0:0:
64,192,37602,1,0,0:0:0:0:
192,192,37719,1,0,0:0:0:0:
448,192,37836,1,0,0:0:0:0:
320,192,37836,1,0,0:0:0:0:
192,192,37953,1,8,0:0:0:0:
320,192,38012,1,8,0:0:0:0:
64,192,38071,1,0,0:0:0:0:
448,192,38071,1,8,0:0:0:0:
320,192,38188,1,0,0:0:0:0:
448,192,38305,1,0,0:0:0:0:
192,192,38305,1,0,0:0:0:0:
64,192,38422,1,0,0:0:0:0:
320,192,38539,1,0,0:0:0:0:
192,192,38539,1,0,0:0:0:0:
448,192,38656,1,8,0:0:0:0:
320,192,38715,1,8,0:0:0:0:
192,192,38774,1,8,0:0:0:0:
64,192,38774,1,0,0:0:0:0:
320,192,38891,1,0,0:0:0:0:
448,192,38891,1,0,0:0:0:0:
64,192,39008,1,4,0:0:0:0:
192,192,39008,1,4,0:0:0:0:
320,192,39184,1,4,0:0:0:0:
448,192,39184,1,4,0:0:0:0:
192,192,39360,1,4,0:0:0:0:
448,192,39360,1,4,0:0:0:0:
320,192,39535,1,4,0:0:0:0:
64,192,39535,1,4,0:0:0:0:
64,192,39711,1,12,0:0:0:0:
448,192,39711,1,4,0:0:0:0:
192,192,39770,1,8,0:0:0:0:
320,192,39828,1,8,0:0:0:0:
448,192,39887,1,8,0:0:0:0:
192,192,39946,1,8,0:0:0:0:
64,192,39946,1,0,0:0:0:0:
448,192,40063,1,0,0:0:0:0:
192,192,40180,1,0,0:0:0:0:
64,192,40180,1,0,0:0:0:0:
320,192,40297,1,0,0:0:0:0:
448,192,40414,1,0,0:0:0:0:
192,192,40414,1,0,0:0:0:0:
64,192,40531,1,8,0:0:0:0:
192,192,40590,1,8,0:0:0:0:
320,192,40649,1,8,0:0:0:0:
448,192,40649,1,0,0:0:0:0:
192,192,40766,1,0,0:0:0:0:
448,192,40883,1,0,0:0:0:0:
64,192,40883,1,0,0:0:0:0:
192,192,41000,1,0,0:0:0:0:
320,192,41117,1,0,0:0:0:0:
448,192,41117,1,0,0:0:0:0:
192,192,41235,1,8,0:0:0:0:
320,192,41293,1,8,0:0:0:0:
64,192,41352,1,8,0:0:0:0:
448,192,41352,1,0,0:0:0:0:
192,192,41469,1,0,0:0:0:0:
64,192,41586,1,0,0:0:0:0:
320,192,41586,1,8,0:0:0:0:
448,192,41645,1,8,0:0:0:0:
192,192,41703,1,8,0:0:0:0:
320,192,41762,1,8,0:0:0:0:
64,192,41821,1,0,0:0:0:0:
448,192,41821,1,8,0:0:0:0:
192,192,41938,1,0,0:0:0:0:
448,192,42055,1,0,0:0:0:0:
320,192,42055,1,0,0:0:0:0:
192,192,42172,1,0,0:0:0:0:
64,192,42289,1,0,0:0:0:0:
320,192,42289,1,0,0:0:0:0:
448,192,42406,1,8,0:0:0:0:
320,192,42465,1,8,0:0:0:0:
64,192,42524,1,0,0:0:0:0:
192,192,42524,1,8,0:0:0:0:
448,192,42641,1,0,0:0:0:0:
320,192,42758,1,0,0:0:0:0:
192,192,42758,1,0,0:0:0:0:
64,192,42875,1,0,0:0:0:0:
448,192,42992,1,0,0:0:0:0:
192,192,42992,1,0,0:0:0:0:
320,192,43110,1,8,0:0:0:0:
192,192,43168,1,8,0:0:0:0:
64,192,43227,1,8,0:0:0:0:
448,192,43227,1,0,0:0:0:0:
192,192,43344,1,8,0:0:0:0:
320,192,43403,1,8,0:0:0:0:
448,192,43461,1,0,0:0:0:0:
64,192,43461,1,8,0:0:0:0:
192,192,43520,1,8,0:0:0:0:
320,192,43578,1,8,0:0:0:0:
448,192,43637,1,8,0:0:0:0:
192,192,43696,1,0,0:0:0:0:
64,192,43696,1,8,0:0:0:0:
320,192,43813,1,0,0:0:0:0:
448,192,43930,1,0,0:0:0:0:
64,192,43930,1,0,0:0:0:0:
192,192,44047,1,0,0:0:0:0:
64,192,44164,1,0,0:0:0:0:
320,192,44164,1,0,0:0:0:0:
448,192,44281,1,8,0:0:0:0:
320,192,44340,1,8,0:0:0:0:
64,192,44399,1,0,0:0:0:0:
192,192,44399,1,8,0:0:0:0:
448,192,44516,1,0,0:0:0:0:
320,192,44633,1,0,0:0:0:0:
192,192,44633,1,0,0:0:0:0:
64,192,44750,1,0,0:0:0:0:
448,192,44867,1,0,0:0:0:0:
320,192,44867,1,0,0:0:0:0:
64,192,44985,1,8,0:0:0:0:
192,192,45043,1,8,0:0:0:0:
320,192,45102,1,8,0:0:0:0:
448,192,45102,1,0,0:0:0:0:
64,192,45219,1,0,0:0:0:0:
320,192,45336,1,0,0:0:0:0:
192,192,45336,1,0,0:0:0:0:
192,192,45571,1,0,0:0:0:0:
64,192,45571,1,0,0:0:0:0:
320,192,45688,1,0,0:0:0:0:
448,192,45805,1,0,0:0:0:0:
192,192,45805,1,0,0:0:0:0:
64,192,45922,1,0,0:0:0:0:
448,192,46039,1,0,0:0:0:0:
320,192,46039,1,0,0:0:0:0:
64,192,46156,1,8,0:0:0:0:
192,192,46215,1,8,0:0:0:0:
320,192,46274,1,8,0:0:0:0:
448,192,46274,1,0,0:0:0:0:
192,192,46391,1,0,0:0:0:0:
64,192,46391,1,0,0:0:0:0:
448,192,46508,1,4,0:0:0:0:
320,192,46508,1,4,0:0:0:0:
192,192,46684,1,4,0:0:0:0:
64,192,46684,1,4,0:0:0:0:
64,192,46860,1,4,0:0:0:0:
320,192,46860,1,4,0:0:0:0:
448,192,47035,1,4,0:0:0:0:
192,192,47035,1,4,0:0:0:0:
64,192,47211,1,8,0:0:0:0:
448,192,47211,1,0,0:0:0:0:
192,192,47270,1,8,0:0:0:0:
320,192,47328,1,8,0:0:0:0:
448,192,47387,1,8,0:0:0:0:
64,192,47446,1,0,0:0:0:0:
192,192,47446,1,0,0:0:0:0:
448,192,47680,1,0,0:0:0:0:
192,192,47680,1,0,0:0:0:0:
320,192,47680,1,0,0:0:0:0:
64,192,47914,1,0,0:0:0:0:
192,192,47914,1,0,0:0:0:0:
448,192,47914,1,0,0:0:0:0:
448,192,48149,1,0,0:0:0:0:
64,192,48149,1,0,0:0:0:0:
320,192,48149,1,0,0:0:0:0:
448,192,48383,1,0,0:0:0:0:
320,192,48383,1,0,0:0:0:0:
192,192,48383,1,0,0:0:0:0:
64,192,48617,1,0,0:0:0:0:
192,192,48617,1,0,0:0:0:0:
320,192,48617,1,0,0:0:0:0:
192,192,48735,1,8,0:0:0:0:
448,192,48852,1,0,0:0:0:0:
320,192,48852,1,0,0:0:0:0:
64,192,48852,1,0,0:0:0:0:
64,192,49086,1,0,0:0:0:0:
192,192,49086,1,0,0:0:0:0:
448,192,49086,1,0,0:0:0:0:
448,192,49321,1,0,0:0:0:0:
192,192,49321,1,0,0:0:0:0:
320,192,49321,1,0,0:0:0:0:
64,192,49438,1,8,0:0:0:0:
192,192,49496,1,8,0:0:0:0:
64,192,49555,1,8,0:0:0:0:
448,192,49555,1,0,0:0:0:0:
320,192,49555,1,0,0:0:0:0:
448,192,49789,1,0,0:0:0:0:
320,192,49789,1,0,0:0:0:0:
192,192,49789,1,0,0:0:0:0:
64,192,50024,1,0,0:0:0:0:
192,192,50024,1,0,0:0:0:0:
320,192,50024,1,0,0:0:0:0:
448,192,50258,1,0,0:0:0:0:
320,192,50258,1,0,0:0:0:0:
64,192,50258,1,0,0:0:0:0:
64,192,50492,1,0,0:0:0:0:
192,192,50492,1,0,0:0:0:0:
448,192,50492,1,0,0:0:0:0:
192,192,50610,1,8,0:0:0:0:
448,192,50727,1,0,0:0:0:0:
320,192,50727,1,0,0:0:0:0:
64,192,50727,1,0,0:0:0:0:
448,192,50844,1,0,0:0:0:0:
448,192,50961,1,0,0:0:0:0:
64,192,50961,1,0,0:0:0:0:
192,192,50961,1,0,0:0:0:0:
64,192,51078,1,0,0:0:0:0:
64,192,51196,1,0,0:0:0:0:
192,192,51196,1,0,0:0:0:0:
320,192,51196,1,8,0:0:0:0:
448,192,51254,1,8,0:0:0:0:
320,192,51313,1,8,0:0:0:0:
192,192,51371,1,8,0:0:0:0:
64,192,51430,1,8,0:0:0:0:
448,192,51430,1,0,0:0:0:0:
320,192,51430,1,0,0:0:0:0:
448,192,51664,1,0,0:0:0:0:
320,192,51664,1,0,0:0:0:0:
64,192,51664,1,0,0:0:0:0:
64,192,51899,1,0,0:0:0:0:
192,192,51899,1,0,0:0:0:0:
448,192,51899,1,0,0:0:0:0:
448,192,52133,1,0,0:0:0:0:
320,192,52133,1,0,0:0:0:0:
192,192,52133,1,0,0:0:0:0:
64,192,52367,1,0,0:0:0:0:
192,192,52367,1,0,0:0:0:0:
320,192,52367,1,0,0:0:0:0:
192,192,52485,1,8,0:0:0:0:
448,192,52602,1,0,0:0:0:0:
320,192,52602,1,0,0:0:0:0:
64,192,52602,1,0,0:0:0:0:
64,192,52836,1,0,0:0:0:0:
192,192,52836,1,0,0:0:0:0:
448,192,52836,1,0,0:0:0:0:
448,192,53071,1,0,0:0:0:0:
192,192,53071,1,0,0:0:0:0:
320,192,53071,1,0,0:0:0:0:
192,192,53305,1,0,0:0:0:0:
64,192,53305,1,0,0:0:0:0:
320,192,53305,1,0,0:0:0:0:
448,192,53539,1,0,0:0:0:0:
320,192,53539,1,0,0:0:0:0:
192,192,53539,1,0,0:0:0:0:
448,192,53774,1,0,0:0:0:0:
320,192,53774,1,0,0:0:0:0:
64,192,53774,1,0,0:0:0:0:
64,192,54008,1,0,0:0:0:0:
192,192,54008,1,0,0:0:0:0:
448,192,54008,1,0,0:0:0:0:
320,192,54125,1,8,0:0:0:0:
192,192,54184,1,8,0:0:0:0:
448,192,54242,1,0,0:0:0:0:
320,192,54242,1,0,0:0:0:0:
64,192,54242,1,8,0:0:0:0:
192,192,54360,1,0,0:0:0:0:
320,192,54360,1,0,0:0:0:0:
448,192,54477,1,12,0:0:0:0:
320,192,54477,1,12,0:0:0:0:
64,192,54477,128,0,54946:0:0:0:0:
448,192,54594,1,12,0:0:0:0:
320,192,54594,1,12,0:0:0:0:
320,192,54711,1,12,0:0:0:0:
448,192,54711,1,12,0:0:0:0:
448,192,54828,1,12,0:0:0:0:
320,192,54828,1,12,0:0:0:0:
192,192,54946,1,0,0:0:0:0:
320,192,54946,1,0,0:0:0:0:
448,192,54946,1,0,0:0:0:0:
320,192,55180,1,0,0:0:0:0:
448,192,55180,1,0,0:0:0:0:
192,192,55180,1,0,0:0:0:0:
448,192,55414,1,0,0:0:0:0:
320,192,55414,1,0,0:0:0:0:
64,192,55414,1,0,0:0:0:0:
64,192,55649,1,0,0:0:0:0:
192,192,55649,1,0,0:0:0:0:
448,192,55649,1,0,0:0:0:0:
448,192,55883,1,0,0:0:0:0:
320,192,55883,1,0,0:0:0:0:
64,192,55883,1,0,0:0:0:0:
64,192,56117,1,0,0:0:0:0:
192,192,56117,1,0,0:0:0:0:
320,192,56117,1,0,0:0:0:0:
448,192,56235,1,8,0:0:0:0:
448,192,56352,1,0,0:0:0:0:
320,192,56352,1,0,0:0:0:0:
192,192,56352,1,0,0:0:0:0:
64,192,56586,1,0,0:0:0:0:
192,192,56586,1,0,0:0:0:0:
448,192,56586,1,0,0:0:0:0:
448,192,56821,1,0,0:0:0:0:
320,192,56821,1,0,0:0:0:0:
64,192,56821,1,0,0:0:0:0:
192,192,56938,1,8,0:0:0:0:
320,192,56996,1,8,0:0:0:0:
64,192,57055,1,0,0:0:0:0:
192,192,57055,1,0,0:0:0:0:
448,192,57055,1,8,0:0:0:0:
448,192,57289,1,0,0:0:0:0:
320,192,57289,1,0,0:0:0:0:
192,192,57289,1,0,0:0:0:0:
64,192,57524,1,0,0:0:0:0:
192,192,57524,1,0,0:0:0:0:
320,192,57524,1,0,0:0:0:0:
448,192,57758,1,0,0:0:0:0:
320,192,57758,1,0,0:0:0:0:
192,192,57758,1,0,0:0:0:0:
64,192,57992,1,0,0:0:0:0:
192,192,57992,1,0,0:0:0:0:
448,192,57992,1,0,0:0:0:0:
64,192,58110,1,8,0:0:0:0:
448,192,58227,1,0,0:0:0:0:
320,192,58227,1,0,0:0:0:0:
192,192,58227,1,0,0:0:0:0:
448,192,58344,1,8,0:0:0:0:
64,192,58461,1,0,0:0:0:0:
192,192,58461,1,0,0:0:0:0:
320,192,58461,1,0,0:0:0:0:
64,192,58578,1,8,0:0:0:0:
448,192,58696,1,0,0:0:0:0:
320,192,58696,1,0,0:0:0:0:
64,192,58696,1,0,0:0:0:0:
192,192,58754,1,8,0:0:0:0:
320,192,58813,1,8,0:0:0:0:
192,192,58871,1,8,0:0:0:0:
448,192,58930,1,0,0:0:0:0:
64,192,58930,1,0,0:0:0:0:
320,192,58930,1,0,0:0:0:0:
64,192,59164,1,0,0:0:0:0:
192,192,59164,1,0,0:0:0:0:
448,192,59164,1,0,0:0:0:0:
448,192,59399,1,0,0:0:0:0:
320,192,59399,1,0,0:0:0:0:
192,192,59399,1,0,0:0:0:0:
64,192,59633,1,0,0:0:0:0:
192,192,59633,1,0,0:0:0:0:
320,192,59633,1,0,0:0:0:0:
448,192,59867,1,0,0:0:0:0:
320,192,59867,1,0,0:0:0:0:
64,192,59867,1,0,0:0:0:0:
192,192,59985,1,8,0:0:0:0:
64,192,60102,1,0,0:0:0:0:
192,192,60102,1,0,0:0:0:0:
448,192,60102,1,0,0:0:0:0:
448,192,60336,1,0,0:0:0:0:
320,192,60336,1,0,0:0:0:0:
192,192,60336,1,0,0:0:0:0:
320,192,60571,1,0,0:0:0:0:
192,192,60571,1,0,0:0:0:0:
64,192,60571,1,0,0:0:0:0:
64,192,60805,1,0,0:0:0:0:
192,192,60805,1,0,0:0:0:0:
448,192,60805,1,0,0:0:0:0:
448,192,61039,1,0,0:0:0:0:
320,192,61039,1,0,0:0:0:0:
64,192,61039,1,0,0:0:0:0:
64,192,61274,1,0,0:0:0:0:
192,192,61274,1,0,0:0:0:0:
448,192,61274,1,0,0:0:0:0:
320,192,61391,1,8,0:0:0:0:
448,192,61508,1,0,0:0:0:0:
320,192,61508,1,0,0:0:0:0:
192,192,61508,1,0,0:0:0:0:
64,192,61625,1,8,0:0:0:0:
192,192,61684,1,8,0:0:0:0:
64,192,61742,1,8,0:0:0:0:
320,192,61742,1,0,0:0:0:0:
448,192,61742,1,0,0:0:0:0:
448,192,61860,1,0,0:0:0:0:
320,192,61977,1,12,0:0:0:0:
64,192,61977,128,4,62446:0:0:0:0:
320,192,62094,1,12,0:0:0:0:
320,192,62211,1,12,0:0:0:0:
320,192,62328,1,12,0:0:0:0:
320,192,62446,1,2,0:0:0:0:
192,192,62446,1,2,0:0:0:0:
448,192,62563,1,2,0:0:0:0:
192,192,62680,1,2,0:0:0:0:
64,192,62797,1,2,0:0:0:0:
448,192,62914,1,2,0:0:0:0:
192,192,63031,1,2,0:0:0:0:
64,192,63149,1,2,0:0:0:0:
320,192,63266,1,2,0:0:0:0:
448,192,63383,1,2,0:0:0:0:
192,192,63500,1,2,0:0:0:0:
64,192,63617,1,2,0:0:0:0:
448,192,63735,1,2,0:0:0:0:
320,192,63852,1,2,0:0:0:0:
448,192,63969,1,2,0:0:0:0:
64,192,64086,1,8,0:0:0:0:
192,192,64145,1,8,0:0:0:0:
320,192,64203,1,8,0:0:0:0:
448,192,64262,1,8,0:0:0:0:
192,192,64321,1,0,0:0:0:0:
64,192,64321,1,0,0:0:0:0:
320,192,64438,1,0,0:0:0:0:
192,192,64555,1,0,0:0:0:0:
448,192,64555,1,0,0:0:0:0:
64,192,64672,1,0,0:0:0:0:
320,192,64789,1,0,0:0:0:0:
448,192,64789,1,0,0:0:0:0:
192,192,64906,1,0,0:0:0:0:
448,192,65024,1,0,0:0:0:0:
64,192,65024,1,0,0:0:0:0:
320,192,65141,1,0,0:0:0:0:
192,192,65258,1,0,0:0:0:0:
64,192,65258,1,0,0:0:0:0:
320,192,65375,1,0,0:0:0:0:
448,192,65492,1,0,0:0:0:0:
64,192,65492,1,0,0:0:0:0:
192,192,65610,1,0,0:0:0:0:
320,192,65727,1,0,0:0:0:0:
448,192,65727,1,0,0:0:0:0:
64,192,65844,1,0,0:0:0:0:
192,192,65961,1,0,0:0:0:0:
320,192,65961,1,8,0:0:0:0:
448,192,66020,1,8,0:0:0:0:
320,192,66078,1,8,0:0:0:0:
192,192,66137,1,8,0:0:0:0:
64,192,66196,1,2,0:0:0:0:
448,192,66196,1,2,0:0:0:0:
320,192,66313,1,2,0:0:0:0:
192,192,66430,1,2,0:0:0:0:
64,192,66547,1,2,0:0:0:0:
448,192,66664,1,2,0:0:0:0:
192,192,66781,1,2,0:0:0:0:
64,192,66899,1,2,0:0:0:0:
320,192,67016,1,2,0:0:0:0:
448,192,67133,1,2,0:0:0:0:
64,192,67250,1,2,0:0:0:0:
192,192,67367,1,2,0:0:0:0:
448,192,67485,1,2,0:0:0:0:
320,192,67602,128,8,67836:0:0:0:0:
192,192,67836,128,8,68071:0:0:0:0:
448,192,68071,1,0,0:0:0:0:
64,192,68071,1,0,0:0:0:0:
320,192,68188,1,8,0:0:0:0:
192,192,68246,1,8,0:0:0:0:
448,192,68305,1,0,0:0:0:0:
320,192,68305,1,8,0:0:0:0:
64,192,68422,1,0,0:0:0:0:
320,192,68539,1,8,0:0:0:0:
448,192,68539,1,0,0:0:0:0:
192,192,68598,1,8,0:0:0:0:
64,192,68656,1,8,0:0:0:0:
448,192,68774,1,0,0:0:0:0:
320,192,68774,1,0,0:0:0:0:
64,192,68891,128,8,69008:1:0:0:0:
320,192,69008,1,0,0:0:0:0:
448,192,69008,1,0,0:0:0:0:
192,192,69125,1,8,0:0:0:0:
320,192,69184,1,8,0:0:0:0:
448,192,69242,1,8,0:0:0:0:
64,192,69242,1,0,0:0:0:0:
192,192,69360,1,0,0:0:0:0:
320,192,69477,1,8,0:0:0:0:
448,192,69477,1,0,0:0:0:0:
192,192,69535,1,8,0:0:0:0:
64,192,69594,1,8,0:0:0:0:
448,192,69711,1,0,0:0:0:0:
192,192,69711,1,8,0:0:0:0:
320,192,69770,1,8,0:0:0:0:
64,192,69828,128,8,69946:1:0:0:0:
448,192,69946,1,8,0:0:0:0:
320,192,70004,1,8,0:0:0:0:
64,192,70063,1,8,0:0:0:0:
192,192,70121,1,8,0:0:0:0:
448,192,70180,1,8,0:0:0:0:
320,192,70238,1,8,0:0:0:0:
192,192,70297,1,8,0:0:0:0:
64,192,70356,1,8,0:0:0:0:
320,192,70414,1,8,0:0:0:0:
448,192,70473,1,8,0:0:0:0:
64,192,70531,1,8,0:0:0:0:
192,192,70590,1,8,0:0:0:0:
320,192,70649,1,8,0:0:0:0:
448,192,70707,1,8,0:0:0:0:
64,192,70766,1,8,0:0:0:0:
192,192,70824,1,8,0:0:0:0:
320,192,70883,128,8,71586:1:0:0:0:
448,192,71586,128,8,71821:1:0:0:0:
192,192,71821,1,8,0:0:0:0:
64,192,71821,1,0,0:0:0:0:
320,192,71879,1,8,0:0:0:0:
448,192,71938,1,8,0:0:0:0:
192,192,71996,1,8,0:0:0:0:
448,192,72055,1,0,0:0:0:0:
320,192,72055,1,8,0:0:0:0:
64,192,72055,128,8,72289:1:0:0:0:
448,192,72289,1,8,0:0:0:0:
320,192,72348,1,8,0:0:0:0:
192,192,72406,1,8,0:0:0:0:
64,192,72465,1,8,0:0:0:0:
448,192,72524,128,8,72641:1:0:0:0:
320,192,72641,1,8,0:0:0:0:
192,192,72699,1,8,0:0:0:0:
64,192,72758,128,8,72875:1:0:0:0:
448,192,72875,128,8,72992:1:0:0:0:
320,192,72992,1,8,0:0:0:0:
192,192,73051,1,8,0:0:0:0:
64,192,73110,128,8,73168:1:0:0:0:
448,192,73168,128,8,73227:1:0:0:0:
320,192,73227,1,8,0:0:0:0:
192,192,73285,1,8,0:0:0:0:
64,192,73344,128,8,73403:1:0:0:0:
448,192,73403,128,8,73461:1:0:0:0:
192,192,73461,128,8,73578:1:0:0:0:
320,192,73578,128,8,73696:1:0:0:0:
64,192,73696,1,0,0:0:0:30:normal-hitwhistle.wav
448,192,73696,1,0,0:0:0:30:normal-hitwhistle.wav
192,192,73696,128,4,75571:1:0:0:0:
448,192,75571,128,0,77446:0:0:0:0:
320,192,75571,1,0,0:0:0:30:normal-hitwhistle2.wav
64,192,75571,1,0,0:0:0:30:normal-hitwhistle2.wav
64,192,77446,128,0,80258:0:0:0:0:
320,192,77446,1,0,0:0:0:30:normal-hitwhistle2.wav
192,192,77446,1,0,0:0:0:30:normal-hitwhistle2.wav
448,192,79321,1,0,0:0:0:30:normal-hitwhistle2.wav
192,192,79321,1,0,0:0:0:30:normal-hitwhistle.wav
192,192,80258,128,0,81196:0:0:0:0:
320,192,80258,1,0,0:0:0:30:normal-hitwhistle5.wav
448,192,80258,1,0,0:0:0:30:normal-hitwhistle2.wav
320,192,81196,128,0,83071:0:0:0:0:
448,192,81196,1,0,0:0:0:30:normal-hitwhistle.wav
64,192,81196,1,0,0:0:0:20:normal-hitwhistle.wav
448,192,83071,128,0,84008:0:0:0:0:
192,192,83071,1,0,0:0:0:30:normal-hitwhistle2.wav
64,192,83071,1,0,0:0:0:30:normal-hitwhistle2.wav
192,192,84008,128,0,84946:0:0:0:0:
320,192,84008,1,0,0:0:0:30:normal-hitwhistle7.wav
64,192,84008,1,0,0:0:0:30:normal-hitwhistle7.wav
64,192,84946,128,0,86821:0:0:0:0:
320,192,84946,1,0,0:0:0:30:normal-hitwhistle2.wav
448,192,84946,1,0,0:0:0:30:normal-hitwhistle2.wav
320,192,86821,128,0,88696:0:0:0:0:
448,192,86821,1,0,0:0:0:30:normal-hitwhistle2.wav
192,192,86821,1,0,0:0:0:30:normal-hitwhistle.wav
64,192,88696,1,0,0:0:0:30:normal-hitwhistle.wav
192,192,88696,1,2,0:0:0:30:normal-hitwhistle.wav
448,192,88813,1,2,0:0:0:0:
320,192,88930,1,2,0:0:0:0:
64,192,89047,1,2,0:0:0:0:
448,192,89164,1,2,0:0:0:0:
320,192,89281,1,2,0:0:0:0:
192,192,89399,1,2,0:0:0:0:
320,192,89516,1,2,0:0:0:0:
448,192,89633,1,2,0:0:0:0:
64,192,89750,1,2,0:0:0:0:
192,192,89867,1,2,0:0:0:0:
448,192,89985,1,2,0:0:0:0:
320,192,90102,1,2,0:0:0:0:
448,192,90219,1,2,0:0:0:0:
320,192,90336,1,2,0:0:0:0:
192,192,90453,1,2,0:0:0:0:
320,192,90571,1,2,0:0:0:30:normal-hitwhistle2.wav
64,192,90571,1,0,0:0:0:30:normal-hitwhistle2.wav
448,192,90688,1,2,0:0:0:0:
192,192,90805,1,2,0:0:0:0:
64,192,90922,1,2,0:0:0:0:
448,192,91039,1,2,0:0:0:0:
320,192,91156,1,2,0:0:0:0:
192,192,91274,1,2,0:0:0:0:
320,192,91391,1,2,0:0:0:0:
448,192,91508,1,2,0:0:0:0:
64,192,91625,1,2,0:0:0:0:
192,192,91742,1,2,0:0:0:0:
448,192,91860,1,2,0:0:0:0:
64,192,91977,1,2,0:0:0:0:
192,192,92094,1,2,0:0:0:0:
448,192,92211,1,2,0:0:0:0:
320,192,92328,1,2,0:0:0:0:
192,192,92446,1,2,0:0:0:30:normal-hitwhistle3.wav
64,192,92446,1,0,0:0:0:30:normal-hitwhistle3.wav
448,192,92563,1,2,0:0:0:0:
320,192,92680,1,2,0:0:0:0:
64,192,92797,1,2,0:0:0:0:
448,192,92914,1,2,0:0:0:0:
320,192,93031,1,2,0:0:0:0:
192,192,93149,1,2,0:0:0:0:
320,192,93266,1,2,0:0:0:0:
448,192,93383,1,2,0:0:0:0:
64,192,93500,1,2,0:0:0:0:
192,192,93617,1,2,0:0:0:0:
448,192,93735,1,2,0:0:0:0:
64,192,93852,1,2,0:0:0:0:
192,192,93969,1,2,0:0:0:0:
448,192,94086,1,2,0:0:0:0:
320,192,94203,1,2,0:0:0:0:
192,192,94321,1,2,0:0:0:30:normal-hitwhistle3.wav
64,192,94321,1,0,0:0:0:30:normal-hitwhistle3.wav
448,192,94438,1,2,0:0:0:0:
320,192,94555,1,2,0:0:0:0:
64,192,94672,1,2,0:0:0:0:
448,192,94789,1,2,0:0:0:0:
320,192,94906,1,2,0:0:0:0:
192,192,95024,1,2,0:0:0:0:
320,192,95141,1,2,0:0:0:0:
64,192,95258,1,0,0:0:0:30:normal-hitwhistle4.wav
448,192,95258,1,2,0:0:0:30:normal-hitwhistle4.wav
192,192,95375,1,2,0:0:0:0:
320,192,95492,1,2,0:0:0:0:
448,192,95610,1,2,0:0:0:0:
64,192,95727,1,2,0:0:0:0:
192,192,95844,1,2,0:0:0:0:
320,192,95961,1,2,0:0:0:0:
192,192,96078,1,2,0:0:0:0:
320,192,96196,1,2,0:0:0:30:normal-hitwhistle3.wav
64,192,96196,1,0,0:0:0:30:normal-hitwhistle3.wav
448,192,96313,1,2,0:0:0:0:
320,192,96430,1,2,0:0:0:0:
64,192,96547,1,2,0:0:0:0:
448,192,96664,1,2,0:0:0:0:
320,192,96781,1,2,0:0:0:0:
192,192,96899,1,2,0:0:0:0:
320,192,97016,1,2,0:0:0:0:
448,192,97133,1,2,0:0:0:0:
64,192,97250,1,2,0:0:0:0:
192,192,97367,1,2,0:0:0:0:
448,192,97485,1,2,0:0:0:0:
320,192,97602,1,2,0:0:0:0:
448,192,97719,1,2,0:0:0:0:
320,192,97836,1,2,0:0:0:0:
192,192,97953,1,2,0:0:0:0:
448,192,98071,1,2,0:0:0:30:normal-hitwhistle5.wav
64,192,98071,1,0,0:0:0:30:normal-hitwhistle5.wav
320,192,98188,1,2,0:0:0:0:
192,192,98305,1,2,0:0:0:0:
64,192,98422,1,2,0:0:0:0:
448,192,98539,1,2,0:0:0:0:
320,192,98656,1,2,0:0:0:0:
192,192,98774,1,2,0:0:0:0:
320,192,98891,1,2,0:0:0:0:
64,192,99008,1,0,0:0:0:30:normal-hitwhistle6.wav
448,192,99008,1,2,0:0:0:30:normal-hitwhistle6.wav
192,192,99125,1,2,0:0:0:0:
320,192,99242,1,2,0:0:0:0:
448,192,99360,1,2,0:0:0:0:
64,192,99477,1,2,0:0:0:0:
192,192,99594,1,2,0:0:0:0:
448,192,99711,1,2,0:0:0:0:
320,192,99828,1,2,0:0:0:0:
64,192,99946,1,0,0:0:0:30:normal-hitwhistle3.wav
192,192,99946,1,2,0:0:0:30:normal-hitwhistle3.wav
448,192,100063,1,2,0:0:0:0:
320,192,100180,1,2,0:0:0:0:
64,192,100297,1,2,0:0:0:0:
448,192,100414,1,2,0:0:0:0:
320,192,100531,1,2,0:0:0:0:
192,192,100649,1,2,0:0:0:0:
320,192,100766,1,2,0:0:0:0:
448,192,100883,1,2,0:0:0:0:
64,192,101000,1,2,0:0:0:0:
192,192,101117,1,2,0:0:0:0:
448,192,101235,1,2,0:0:0:0:
64,192,101352,1,2,0:0:0:0:
320,192,101469,1,2,0:0:0:0:
448,192,101586,1,2,0:0:0:0:
320,192,101703,1,2,0:0:0:0:
192,192,101821,1,2,0:0:0:30:normal-hitwhistle3.wav
64,192,101821,1,0,0:0:0:30:normal-hitwhistle3.wav
448,192,101938,1,2,0:0:0:0:
320,192,102055,1,2,0:0:0:0:
64,192,102172,1,2,0:0:0:0:
448,192,102289,1,2,0:0:0:0:
320,192,102406,1,2,0:0:0:0:
192,192,102524,1,2,0:0:0:0:
320,192,102641,1,2,0:0:0:0:
448,192,102758,1,2,0:0:0:0:
64,192,102875,1,2,0:0:0:0:
192,192,102992,1,2,0:0:0:0:
448,192,103110,1,2,0:0:0:0:
192,192,103696,1,2,3:0:0:0:
320,192,103696,1,2,3:0:0:0:
448,192,103696,1,2,3:0:0:0:
64,192,103813,1,2,0:0:0:0:
448,192,103930,1,2,0:0:0:0:
320,192,104047,1,2,0:0:0:0:
192,192,104164,1,2,3:0:0:0:
64,192,104164,1,2,3:0:0:0:
448,192,104281,1,2,0:0:0:0:
320,192,104399,1,2,0:0:0:0:
192,192,104516,1,2,0:0:0:0:
448,192,104633,1,2,3:0:0:0:
64,192,104633,1,2,3:0:0:0:
192,192,104750,1,2,0:0:0:0:
320,192,104867,1,2,0:0:0:0:
64,192,104985,1,2,0:0:0:0:
448,192,105102,1,2,3:0:0:0:
192,192,105102,1,2,3:0:0:0:
320,192,105219,1,2,0:0:0:0:
64,192,105336,1,2,0:0:0:0:
448,192,105453,1,2,0:0:0:0:
192,192,105571,1,2,3:0:0:0:
320,192,105571,1,2,3:0:0:0:
64,192,105688,1,2,0:0:0:0:
448,192,105805,1,2,0:0:0:0:
192,192,105922,1,2,0:0:0:0:
64,192,106039,1,2,3:0:0:0:
320,192,106039,1,2,3:0:0:0:
448,192,106156,1,2,0:0:0:0:
192,192,106274,1,2,0:0:0:0:
320,192,106391,1,2,0:0:0:0:
448,192,106508,1,2,3:0:0:0:
64,192,106508,1,2,3:0:0:0:
192,192,106625,1,2,0:0:0:0:
320,192,106742,1,2,0:0:0:0:
64,192,106860,1,2,0:0:0:0:
448,192,106977,1,2,3:0:0:0:
192,192,106977,1,2,3:0:0:0:
64,192,107094,1,2,0:0:0:0:
320,192,107211,1,2,0:0:0:0:
448,192,107328,1,2,0:0:0:0:
192,192,107446,1,2,3:0:0:0:
64,192,107446,1,2,3:0:0:0:
320,192,107563,1,2,0:0:0:0:
448,192,107680,1,2,0:0:0:0:
64,192,107797,1,2,0:0:0:0:
192,192,107914,1,2,3:0:0:0:
320,192,107914,1,2,3:0:0:0:
448,192,108031,1,2,0:0:0:0:
64,192,108149,1,2,0:0:0:0:
192,192,108266,1,2,0:0:0:0:
320,192,108383,1,2,3:0:0:0:
448,192,108383,1,2,3:0:0:0:
64,192,108500,1,2,0:0:0:0:
192,192,108617,1,2,0:0:0:0:
320,192,108735,1,2,0:0:0:0:
448,192,108852,1,2,3:0:0:0:
64,192,108852,1,2,3:0:0:0:
192,192,108969,1,2,0:0:0:0:
320,192,109086,1,2,0:0:0:0:
448,192,109203,1,2,0:0:0:0:
192,192,109321,1,2,3:0:0:0:
64,192,109321,1,2,3:0:0:0:
320,192,109438,1,2,0:0:0:0:
448,192,109555,1,2,0:0:0:0:
64,192,109672,1,2,0:0:0:0:
320,192,109789,1,2,3:0:0:0:
192,192,109789,1,2,3:0:0:0:
64,192,109906,1,2,0:0:0:0:
448,192,110024,1,2,0:0:0:0:
192,192,110141,1,2,0:0:0:0:
320,192,110258,1,2,3:0:0:0:
64,192,110258,1,2,3:0:0:0:
448,192,110375,1,2,0:0:0:0:
192,192,110492,1,2,0:0:0:0:
64,192,110610,1,2,0:0:0:0:
448,192,110727,1,2,3:0:0:0:
320,192,110727,1,2,3:0:0:0:
192,192,110844,1,2,0:0:0:0:
64,192,110961,1,2,0:0:0:0:
320,192,111078,1,2,0:0:0:0:
448,192,111196,1,2,3:0:0:0:
192,192,111196,1,2,3:0:0:0:
320,192,111313,1,2,0:0:0:0:
64,192,111430,1,2,0:0:0:0:
448,192,111547,1,2,0:0:0:0:
192,192,111664,1,2,3:0:0:0:
320,192,111664,1,2,3:0:0:0:
64,192,111781,1,2,0:0:0:0:
448,192,111899,1,2,0:0:0:0:
192,192,112016,1,2,0:0:0:0:
320,192,112133,1,2,3:0:0:0:
64,192,112133,1,2,3:0:0:0:
448,192,112250,1,2,0:0:0:0:
192,192,112367,1,2,0:0:0:0:
64,192,112485,1,2,0:0:0:0:
448,192,112602,1,2,3:0:0:0:
320,192,112602,1,2,3:0:0:0:
192,192,112719,1,2,0:0:0:0:
64,192,112836,1,2,0:0:0:0:
448,192,112953,1,2,0:0:0:0:
192,192,113071,1,2,3:0:0:0:
320,192,113071,1,2,3:0:0:0:
64,192,113188,1,2,0:0:0:0:
448,192,113305,1,2,0:0:0:0:
320,192,113422,1,2,0:0:0:0:
64,192,113539,1,2,3:0:0:0:
192,192,113539,1,2,3:0:0:0:
448,192,113656,1,2,0:0:0:0:
64,192,113774,1,2,0:0:0:0:
192,192,113891,1,2,0:0:0:0:
448,192,114008,1,2,3:0:0:0:
64,192,114008,1,2,3:0:0:0:
320,192,114125,1,2,0:0:0:0:
192,192,114242,1,2,0:0:0:0:
64,192,114360,1,2,0:0:0:0:
320,192,114477,1,2,3:0:0:0:
448,192,114477,1,2,3:0:0:0:
192,192,114594,1,2,0:0:0:0:
64,192,114711,1,2,0:0:0:0:
448,192,114828,1,2,0:0:0:0:
320,192,114946,1,2,3:0:0:0:
192,192,114946,1,2,3:0:0:0:
64,192,115063,1,2,0:0:0:0:
448,192,115180,1,2,0:0:0:0:
192,192,115297,1,2,0:0:0:0:
320,192,115414,1,2,3:0:0:0:
64,192,115414,1,2,3:0:0:0:
448,192,115531,1,2,0:0:0:0:
192,192,115649,1,2,0:0:0:0:
64,192,115766,1,2,0:0:0:0:
448,192,115883,1,2,3:0:0:0:
320,192,115883,1,2,3:0:0:0:
192,192,116000,1,2,0:0:0:0:
64,192,116117,1,2,0:0:0:0:
320,192,116235,1,2,0:0:0:0:
448,192,116352,1,2,3:0:0:0:
192,192,116352,1,2,3:0:0:0:
64,192,116469,1,2,0:0:0:0:
320,192,116586,1,2,0:0:0:0:
448,192,116703,1,2,0:0:0:0:
64,192,116821,1,2,3:0:0:0:
192,192,116821,1,2,3:0:0:0:
320,192,116938,1,2,0:0:0:0:
448,192,117055,1,2,0:0:0:0:
192,192,117172,1,2,0:0:0:0:
320,192,117289,1,2,3:0:0:0:
64,192,117289,1,2,3:0:0:0:
448,192,117406,1,2,0:0:0:0:
192,192,117524,1,2,0:0:0:0:
320,192,117641,1,2,0:0:0:0:
448,192,117758,1,2,3:0:0:0:
64,192,117758,1,2,3:0:0:0:
192,192,117875,1,2,0:0:0:0:
320,192,117992,1,2,0:0:0:0:
64,192,118110,1,2,0:0:0:0:
448,192,118227,1,2,3:0:0:0:
192,192,118227,1,2,3:0:0:0:
320,192,118344,1,2,0:0:0:0:
64,192,118461,1,2,0:0:0:0:
448,192,118578,1,2,0:0:0:0:
320,192,118696,1,4,0:0:0:0:
192,192,118696,1,4,0:0:0:0:
448,192,119047,1,2,0:0:0:0:
320,192,119164,1,8,0:0:0:0:
64,192,119164,1,8,0:0:0:0:
192,192,119399,1,2,0:0:0:0:
448,192,119633,1,8,0:0:0:0:
320,192,119633,1,8,0:0:0:0:
64,192,119750,1,2,0:0:0:0:
192,192,119985,1,2,0:0:0:0:
448,192,120102,1,8,0:0:0:0:
64,192,120102,1,8,0:0:0:0:
320,192,120336,1,2,0:0:0:0:
192,192,120453,1,2,0:0:0:0:
64,192,120571,1,8,0:0:0:0:
320,192,120571,1,8,0:0:0:0:
448,192,120688,1,2,0:0:0:0:
192,192,120805,1,2,0:0:0:0:
320,192,120922,1,2,0:0:0:0:
64,192,121039,1,8,0:0:0:0:
448,192,121039,1,8,0:0:0:0:
192,192,121156,1,2,0:0:0:0:
320,192,121274,1,2,0:0:0:0:
192,192,121508,1,8,0:0:0:0:
448,192,121508,1,8,0:0:0:0:
64,192,121625,1,2,0:0:0:0:
192,192,121860,1,2,0:0:0:0:
320,192,121977,1,8,0:0:0:0:
448,192,121977,1,8,0:0:0:0:
192,192,122211,1,2,0:0:0:0:
64,192,122328,1,2,0:0:0:0:
320,192,122446,1,8,0:0:0:0:
192,192,122446,1,8,0:0:0:0:
448,192,122563,1,2,0:0:0:0:
64,192,122680,1,2,0:0:0:0:
192,192,122797,1,2,0:0:0:0:
448,192,122914,1,8,0:0:0:0:
64,192,122914,1,8,0:0:0:0:
320,192,123031,1,2,0:0:0:0:
448,192,123149,1,2,0:0:0:0:
320,192,123383,1,8,0:0:0:0:
192,192,123383,1,8,0:0:0:0:
64,192,123500,1,2,0:0:0:0:
320,192,123735,1,2,0:0:0:0:
448,192,123852,1,8,0:0:0:0:
64,192,123852,1,8,0:0:0:0:
192,192,124086,1,2,0:0:0:0:
320,192,124203,1,2,0:0:0:0:
448,192,124321,1,8,0:0:0:0:
192,192,124321,1,8,0:0:0:0:
64,192,124438,1,2,0:0:0:0:
320,192,124555,1,2,0:0:0:0:
192,192,124672,1,2,0:0:0:0:
448,192,124789,1,8,0:0:0:0:
64,192,124789,1,8,0:0:0:0:
320,192,124906,1,2,0:0:0:0:
192,192,125024,1,2,0:0:0:0:
448,192,125258,1,8,0:0:0:0:
320,192,125258,1,8,0:0:0:0:
192,192,125375,1,2,0:0:0:0:
64,192,125610,1,2,0:0:0:0:
192,192,125727,1,8,0:0:0:0:
320,192,125727,1,8,0:0:0:0:
448,192,125961,1,2,0:0:0:0:
320,192,126078,1,2,0:0:0:0:
192,192,126196,1,8,0:0:0:0:
64,192,126196,1,8,0:0:0:0:
320,192,126313,1,0,0:0:0:0:
448,192,126430,1,8,0:0:0:0:
64,192,126430,1,8,0:0:0:0:
192,192,126547,1,0,0:0:0:0:
320,192,126664,1,8,0:0:0:0:
64,192,126664,1,8,0:0:0:0:
192,192,126781,1,0,0:0:0:0:
448,192,126899,1,8,0:0:0:0:
64,192,126899,1,8,0:0:0:0:
320,192,127016,1,0,0:0:0:0:
64,192,127133,1,8,0:0:0:0:
448,192,127133,1,8,0:0:0:0:
320,192,127250,1,0,0:0:0:0:
192,192,127367,1,8,0:0:0:0:
448,192,127367,1,8,0:0:0:0:
64,192,127485,1,0,0:0:0:0:
320,192,127602,1,8,0:0:0:0:
192,192,127602,1,8,0:0:0:0:
448,192,127719,1,0,0:0:0:0:
192,192,127836,1,8,0:0:0:0:
64,192,127836,1,8,0:0:0:0:
320,192,127953,1,0,0:0:0:0:
448,192,128071,1,8,0:0:0:0:
192,192,128071,1,8,0:0:0:0:
320,192,128188,1,0,0:0:0:0:
448,192,128305,1,8,0:0:0:0:
64,192,128305,1,8,0:0:0:0:
192,192,128422,1,0,0:0:0:0:
320,192,128539,1,8,0:0:0:0:
448,192,128539,1,8,0:0:0:0:
192,192,128656,1,0,0:0:0:0:
64,192,128774,1,8,0:0:0:0:
448,192,128774,1,8,0:0:0:0:
320,192,128891,1,0,0:0:0:0:
192,192,129008,1,8,0:0:0:0:
448,192,129008,1,8,0:0:0:0:
64,192,129125,1,0,0:0:0:0:
320,192,129242,1,8,0:0:0:0:
448,192,129242,1,8,0:0:0:0:
192,192,129360,1,0,0:0:0:0:
64,192,129477,1,8,0:0:0:0:
320,192,129477,1,8,0:0:0:0:
192,192,129594,1,0,0:0:0:0:
448,192,129711,1,8,0:0:0:0:
64,192,129711,1,8,0:0:0:0:
320,192,129828,1,0,0:0:0:0:
64,192,129946,1,8,0:0:0:0:
192,192,129946,1,8,0:0:0:0:
320,192,130063,1,8,0:0:0:0:
448,192,130063,1,8,0:0:0:0:
192,192,130180,1,8,0:0:0:0:
64,192,130180,1,8,0:0:0:0:
320,192,130297,1,8,0:0:0:0:
448,192,130297,1,8,0:0:0:0:
448,192,130414,1,8,0:0:0:0:
64,192,130414,1,8,0:0:0:0:
320,192,130531,1,8,0:0:0:0:
192,192,130531,1,8,0:0:0:0:
64,192,130649,1,8,0:0:0:0:
448,192,130649,1,8,0:0:0:0:
320,192,130766,1,8,0:0:0:0:
192,192,130766,1,8,0:0:0:0:
64,192,130883,1,8,0:0:0:0:
192,192,130942,1,8,0:0:0:0:
320,192,131000,1,8,0:0:0:0:
448,192,131059,1,8,0:0:0:0:
64,192,131117,1,8,0:0:0:0:
192,192,131176,1,8,0:0:0:0:
320,192,131235,1,8,0:0:0:0:
448,192,131293,1,8,0:0:0:0:
64,192,131352,1,8,0:0:0:0:
192,192,131410,1,8,0:0:0:0:
448,192,131469,1,8,0:0:0:0:
320,192,131528,1,8,0:0:0:0:
64,192,131586,1,8,0:0:0:0:
192,192,131645,1,8,0:0:0:0:
448,192,131703,1,8,0:0:0:0:
320,192,131762,1,8,0:0:0:0:
192,192,131821,1,0,0:0:0:0:
64,192,131821,1,0,0:0:0:0:
448,192,133696,1,0,0:0:0:0:
64,192,133696,1,0,0:0:0:0:
320,192,133813,1,0,0:0:0:0:
192,192,133930,1,0,0:0:0:0:
64,192,133930,1,0,0:0:0:0:
448,192,134047,1,0,0:0:0:0:
320,192,134164,1,0,0:0:0:0:
192,192,134164,1,0,0:0:0:0:
64,192,134281,1,8,0:0:0:0:
192,192,134340,1,8,0:0:0:0:
448,192,134399,1,0,0:0:0:0:
320,192,134399,1,8,0:0:0:0:
192,192,134516,1,0,0:0:0:0:
448,192,134633,1,0,0:0:0:0:
64,192,134633,1,0,0:0:0:0:
320,192,134750,1,0,0:0:0:0:
192,192,134867,1,0,0:0:0:0:
64,192,134867,1,0,0:0:0:0:
448,192,134985,1,8,0:0:0:0:
320,192,135043,1,8,0:0:0:0:
192,192,135102,1,0,0:0:0:0:
64,192,135102,1,8,0:0:0:0:
320,192,135219,1,0,0:0:0:0:
448,192,135336,1,8,0:0:0:0:
320,192,135395,1,8,0:0:0:0:
192,192,135453,1,8,0:0:0:0:
64,192,135512,1,8,0:0:0:0:
448,192,135571,1,0,0:0:0:0:
320,192,135571,1,8,0:0:0:0:
192,192,135629,1,8,0:0:0:0:
64,192,135688,1,8,0:0:0:0:
320,192,135805,1,0,0:0:0:0:
192,192,135805,1,0,0:0:0:0:
448,192,135922,1,0,0:0:0:0:
320,192,136039,1,0,0:0:0:0:
192,192,136039,1,0,0:0:0:0:
448,192,136156,1,8,0:0:0:0:
192,192,136215,1,8,0:0:0:0:
64,192,136274,1,8,0:0:0:0:
320,192,136274,1,0,0:0:0:0:
192,192,136391,1,0,0:0:0:0:
448,192,136508,1,0,0:0:0:0:
320,192,136508,1,0,0:0:0:0:
64,192,136625,1,0,0:0:0:0:
320,192,136742,1,0,0:0:0:0:
192,192,136742,1,0,0:0:0:0:
448,192,136860,1,8,0:0:0:0:
192,192,136918,1,8,0:0:0:0:
64,192,136977,1,8,0:0:0:0:
320,192,136977,1,0,0:0:0:0:
192,192,137094,1,8,0:0:0:0:
320,192,137153,1,8,0:0:0:0:
64,192,137211,1,8,0:0:0:0:
448,192,137211,128,8,137446:1:0:0:0:
320,192,137446,1,0,0:0:0:0:
192,192,137446,1,0,0:0:0:0:
64,192,137563,1,0,0:0:0:0:
320,192,137680,1,0,0:0:0:0:
448,192,137680,1,0,0:0:0:0:
192,192,137797,1,0,0:0:0:0:
64,192,137914,1,0,0:0:0:0:
320,192,137914,1,0,0:0:0:0:
192,192,138031,1,8,0:0:0:0:
64,192,138090,1,8,0:0:0:0:
320,192,138149,1,8,0:0:0:0:
448,192,138149,1,0,0:0:0:0:
192,192,138266,1,0,0:0:0:0:
448,192,138383,1,0,0:0:0:0:
64,192,138383,1,0,0:0:0:0:
320,192,138500,1,0,0:0:0:0:
192,192,138617,1,0,0:0:0:0:
64,192,138617,1,0,0:0:0:0:
448,192,138735,1,8,0:0:0:0:
320,192,138793,1,8,0:0:0:0:
192,192,138852,1,8,0:0:0:0:
64,192,138852,1,0,0:0:0:0:
320,192,138969,1,0,0:0:0:0:
64,192,139086,1,0,0:0:0:0:
448,192,139086,1,0,0:0:0:0:
192,192,139203,1,8,0:0:0:0:
64,192,139262,1,8,0:0:0:0:
448,192,139321,1,0,0:0:0:0:
320,192,139321,1,8,0:0:0:0:
192,192,139438,1,0,0:0:0:0:
320,192,139555,1,0,0:0:0:0:
64,192,139555,1,0,0:0:0:0:
448,192,139672,1,0,0:0:0:0:
64,192,139789,1,0,0:0:0:0:
192,192,139789,1,0,0:0:0:0:
448,192,139906,1,8,0:0:0:0:
320,192,139965,1,8,0:0:0:0:
64,192,140024,1,8,0:0:0:0:
192,192,140024,1,0,0:0:0:0:
320,192,140141,1,0,0:0:0:0:
448,192,140258,1,8,0:0:0:0:
64,192,140258,1,0,0:0:0:0:
320,192,140317,1,8,0:0:0:0:
192,192,140375,1,8,0:0:0:0:
448,192,140434,128,8,140610:1:0:0:0:
64,192,140610,1,8,0:0:0:0:
192,192,140668,1,8,0:0:0:0:
320,192,140727,1,8,0:0:0:0:
64,192,140785,128,8,140961:1:0:0:0:
320,192,141020,128,8,141196:1:0:0:0:
448,192,141196,1,0,0:0:0:0:
64,192,141196,1,0,0:0:0:0:
320,192,141313,1,0,0:0:0:0:
64,192,141430,1,0,0:0:0:0:
192,192,141430,1,0,0:0:0:0:
320,192,141547,1,0,0:0:0:0:
448,192,141664,1,0,0:0:0:0:
192,192,141664,1,0,0:0:0:0:
64,192,141781,1,8,0:0:0:0:
192,192,141840,1,8,0:0:0:0:
320,192,141899,1,8,0:0:0:0:
448,192,141899,1,0,0:0:0:0:
192,192,142016,1,0,0:0:0:0:
320,192,142133,1,0,0:0:0:0:
64,192,142133,1,0,0:0:0:0:
192,192,142250,1,0,0:0:0:0:
448,192,142367,1,0,0:0:0:0:
320,192,142367,1,0,0:0:0:0:
64,192,142485,1,8,0:0:0:0:
320,192,142543,1,8,0:0:0:0:
448,192,142602,1,8,0:0:0:0:
192,192,142602,1,0,0:0:0:0:
320,192,142719,1,0,0:0:0:0:
64,192,142836,1,0,0:0:0:0:
192,192,142836,1,8,0:0:0:0:
320,192,142895,1,8,0:0:0:0:
448,192,142953,1,8,0:0:0:0:
320,192,143012,1,8,0:0:0:0:
192,192,143071,1,8,0:0:0:0:
64,192,143071,1,0,0:0:0:0:
320,192,143188,1,0,0:0:0:0:
192,192,143305,1,0,0:0:0:0:
448,192,143305,1,0,0:0:0:0:
320,192,143422,1,0,0:0:0:0:
64,192,143539,1,0,0:0:0:0:
448,192,143539,1,0,0:0:0:0:
192,192,143656,1,8,0:0:0:0:
64,192,143715,1,8,0:0:0:0:
320,192,143774,1,8,0:0:0:0:
448,192,143774,1,0,0:0:0:0:
64,192,143891,1,0,0:0:0:0:
320,192,144008,1,0,0:0:0:0:
192,192,144008,1,0,0:0:0:0:
448,192,144125,1,0,0:0:0:0:
64,192,144242,1,0,0:0:0:0:
320,192,144242,1,0,0:0:0:0:
192,192,144360,1,8,0:0:0:0:
64,192,144418,1,8,0:0:0:0:
448,192,144477,1,0,0:0:0:0:
320,192,144477,1,8,0:0:0:0:
64,192,144594,1,8,0:0:0:0:
448,192,144653,1,8,0:0:0:0:
320,192,144711,1,8,0:0:0:0:
192,192,144711,128,8,144946:1:0:0:0:
64,192,144946,1,0,0:0:0:0:
320,192,144946,1,0,0:0:0:0:
192,192,145063,1,0,0:0:0:0:
448,192,145180,1,0,0:0:0:0:
64,192,145180,1,0,0:0:0:0:
320,192,145297,1,0,0:0:0:0:
448,192,145414,1,0,0:0:0:0:
192,192,145414,1,0,0:0:0:0:
64,192,145531,1,8,0:0:0:0:
448,192,145590,1,8,0:0:0:0:
192,192,145649,1,0,0:0:0:0:
320,192,145649,1,8,0:0:0:0:
448,192,145766,1,0,0:0:0:0:
320,192,145883,1,0,0:0:0:0:
64,192,145883,1,0,0:0:0:0:
192,192,146000,1,0,0:0:0:0:
448,192,146117,1,0,0:0:0:0:
320,192,146117,1,0,0:0:0:0:
64,192,146235,1,8,0:0:0:0:
448,192,146293,1,8,0:0:0:0:
320,192,146352,1,8,0:0:0:0:
192,192,146352,1,0,0:0:0:0:
448,192,146469,1,0,0:0:0:0:
320,192,146586,1,0,0:0:0:0:
64,192,146586,1,0,0:0:0:0:
448,192,146821,1,0,0:0:0:0:
64,192,146821,1,0,0:0:0:0:
320,192,146938,1,0,0:0:0:0:
192,192,147055,1,0,0:0:0:0:
448,192,147055,1,0,0:0:0:0:
64,192,147172,1,0,0:0:0:0:
192,192,147289,1,0,0:0:0:0:
320,192,147289,1,0,0:0:0:0:
448,192,147406,1,8,0:0:0:0:
320,192,147465,1,8,0:0:0:0:
64,192,147524,1,0,0:0:0:0:
192,192,147524,1,8,0:0:0:0:
320,192,147641,1,0,0:0:0:0:
448,192,147758,1,4,0:0:0:0:
64,192,147758,1,4,0:0:0:0:
448,192,147934,1,4,0:0:0:0:
64,192,147934,1,4,0:0:0:0:
448,192,148110,1,4,0:0:0:0:
64,192,148110,1,4,0:0:0:0:
64,192,148285,1,4,0:0:0:0:
448,192,148285,1,4,0:0:0:0:
192,192,148461,128,0,148696:0:0:0:0:
64,192,148696,1,8,0:0:0:0:
448,192,148696,1,0,0:0:0:0:
320,192,148754,1,8,0:0:0:0:
192,192,148813,1,8,0:0:0:0:
64,192,148871,1,8,0:0:0:0:
448,192,148930,1,8,0:0:0:0:
320,192,148930,1,0,0:0:0:0:
192,192,149047,1,0,0:0:0:0:
448,192,149164,1,0,0:0:0:0:
64,192,149164,1,0,0:0:0:0:
320,192,149281,1,8,0:0:0:0:
192,192,149340,1,8,0:0:0:0:
64,192,149399,1,8,0:0:0:0:
448,192,149399,1,0,0:0:0:0:
192,192,149516,1,0,0:0:0:0:
320,192,149633,1,0,0:0:0:0:
448,192,149633,1,0,0:0:0:0:
64,192,149750,1,0,0:0:0:0:
320,192,149867,1,0,0:0:0:0:
192,192,149867,1,0,0:0:0:0:
448,192,149985,1,8,0:0:0:0:
192,192,150043,1,8,0:0:0:0:
64,192,150102,1,8,0:0:0:0:
320,192,150102,1,0,0:0:0:0:
192,192,150219,1,0,0:0:0:0:
448,192,150336,1,0,0:0:0:0:
320,192,150336,1,0,0:0:0:0:
64,192,150453,1,8,0:0:0:0:
448,192,150512,1,8,0:0:0:0:
320,192,150571,1,8,0:0:0:0:
192,192,150571,1,0,0:0:0:0:
448,192,150688,1,0,0:0:0:0:
64,192,150805,1,0,0:0:0:0:
192,192,150805,1,0,0:0:0:0:
320,192,150922,1,0,0:0:0:0:
64,192,151039,1,0,0:0:0:0:
448,192,151039,1,0,0:0:0:0:
320,192,151156,1,8,0:0:0:0:
448,192,151215,1,8,0:0:0:0:
192,192,151274,1,8,0:0:0:0:
64,192,151274,1,0,0:0:0:0:
448,192,151391,1,0,0:0:0:0:
320,192,151508,1,0,0:0:0:0:
192,192,151508,1,0,0:0:0:0:
64,192,151625,1,0,0:0:0:0:
448,192,151742,1,0,0:0:0:0:
192,192,151742,1,0,0:0:0:0:
320,192,151860,1,8,0:0:0:0:
192,192,151918,1,8,0:0:0:0:
64,192,151977,1,8,0:0:0:0:
320,192,151977,1,0,0:0:0:0:
448,192,152094,1,8,0:0:0:0:
64,192,152153,1,8,0:0:0:0:
192,192,152211,1,8,0:0:0:0:
320,192,152211,128,8,152446:1:0:0:0:
448,192,152446,1,0,0:0:0:0:
192,192,152446,1,8,0:0:0:0:
64,192,152504,1,8,0:0:0:0:
320,192,152563,1,8,0:0:0:0:
192,192,152621,1,8,0:0:0:0:
448,192,152680,1,8,0:0:0:0:
320,192,152738,1,8,0:0:0:0:
64,192,152797,1,8,0:0:0:0:
192,192,152856,1,8,0:0:0:0:
320,192,152914,1,0,0:0:0:0:
448,192,152914,1,8,0:0:0:0:
64,192,153031,1,8,0:0:0:0:
320,192,153090,1,8,0:0:0:0:
448,192,153149,1,8,0:0:0:0:
192,192,153149,1,0,0:0:0:0:
320,192,153266,1,0,0:0:0:0:
64,192,153383,1,0,0:0:0:0:
192,192,153383,1,0,0:0:0:0:
448,192,153500,1,0,0:0:0:0:
320,192,153617,1,0,0:0:0:0:
192,192,153617,1,0,0:0:0:0:
64,192,153735,1,8,0:0:0:0:
320,192,153793,1,8,0:0:0:0:
448,192,153852,1,8,0:0:0:0:
192,192,153852,1,0,0:0:0:0:
320,192,153969,1,0,0:0:0:0:
64,192,154086,1,0,0:0:0:0:
448,192,154086,1,0,0:0:0:0:
192,192,154203,1,0,0:0:0:0:
448,192,154321,1,0,0:0:0:0:
320,192,154321,1,8,0:0:0:0:
192,192,154379,1,8,0:0:0:0:
64,192,154438,1,8,0:0:0:0:
320,192,154555,1,0,0:0:0:0:
192,192,154555,1,0,0:0:0:0:
448,192,154672,1,0,0:0:0:0:
64,192,154789,1,0,0:0:0:0:
320,192,154789,1,0,0:0:0:0:
192,192,154906,1,8,0:0:0:0:
64,192,154965,1,8,0:0:0:0:
320,192,155024,1,8,0:0:0:0:
448,192,155024,1,0,0:0:0:0:
192,192,155141,1,0,0:0:0:0:
448,192,155258,1,8,0:0:0:0:
64,192,155258,1,0,0:0:0:0:
320,192,155317,1,8,0:0:0:0:
192,192,155375,1,8,0:0:0:0:
64,192,155434,1,8,0:0:0:0:
448,192,155434,1,0,0:0:0:0:
320,192,155492,1,8,0:0:0:0:
64,192,155551,1,8,0:0:0:0:
448,192,155610,1,8,0:0:0:0:
192,192,155610,1,0,0:0:0:0:
320,192,155668,1,8,0:0:0:0:
64,192,155727,1,8,0:0:0:0:
192,192,155785,1,8,0:0:0:0:
448,192,155785,1,0,0:0:0:0:
320,192,155844,1,8,0:0:0:0:
192,192,155903,1,8,0:0:0:0:
64,192,155961,128,8,156078:1:0:0:0:
448,192,156078,128,8,156196:1:0:0:0:
320,192,156196,1,0,0:0:0:0:
192,192,156196,1,8,0:0:0:0:
64,192,156254,1,8,0:0:0:0:
192,192,156313,1,8,0:0:0:0:
320,192,156371,1,8,0:0:0:0:
448,192,156430,1,8,0:0:0:0:
320,192,156488,1,8,0:0:0:0:
192,192,156547,1,8,0:0:0:0:
64,192,156606,1,8,0:0:0:0:
192,192,156664,1,8,0:0:0:0:
320,192,156664,1,0,0:0:0:0:
448,192,156781,1,8,0:0:0:0:
320,192,156840,1,8,0:0:0:0:
64,192,156899,1,0,0:0:0:0:
192,192,156899,1,8,0:0:0:0:
320,192,157016,1,0,0:0:0:0:
448,192,157016,1,0,0:0:0:0:
64,192,157133,1,0,0:0:0:0:
192,192,157133,1,0,0:0:0:0:
320,192,157250,1,0,0:0:0:0:
448,192,157367,1,0,0:0:0:0:
64,192,157367,1,0,0:0:0:0:
192,192,157485,1,8,0:0:0:0:
64,192,157543,1,8,0:0:0:0:
448,192,157602,1,0,0:0:0:0:
320,192,157602,1,8,0:0:0:0:
192,192,157719,1,0,0:0:0:0:
320,192,157836,1,0,0:0:0:0:
448,192,157836,1,0,0:0:0:0:
64,192,157953,1,0,0:0:0:0:
448,192,158071,1,0,0:0:0:0:
192,192,158071,1,0,0:0:0:0:
320,192,158188,1,0,0:0:0:0:
448,192,158305,1,0,0:0:0:0:
64,192,158305,1,0,0:0:0:0:
192,192,158422,1,0,0:0:0:0:
64,192,158539,1,0,0:0:0:0:
320,192,158539,1,0,0:0:0:0:
448,192,158656,1,8,0:0:0:0:
64,192,158715,1,8,0:0:0:0:
320,192,158774,5,0,0:0:0:0:
192,192,158774,1,8,0:0:0:0:
448,192,158891,1,0,0:0:0:0:
192,192,159008,1,0,0:0:0:0:
64,192,159008,1,0,0:0:0:0:
448,192,159125,1,0,0:0:0:0:
64,192,159242,1,0,0:0:0:0:
320,192,159242,1,0,0:0:0:0:
448,192,159360,1,8,0:0:0:0:
192,192,159418,1,8,0:0:0:0:
320,192,159477,1,0,0:0:0:0:
64,192,159477,1,8,0:0:0:0:
64,192,159594,1,0,0:0:0:0:
192,192,159594,1,8,0:0:0:0:
320,192,159653,1,8,0:0:0:0:
448,192,159711,128,8,159946:1:0:0:0:
64,192,159946,1,0,0:0:0:0:
192,192,159946,1,0,0:0:0:0:
320,192,159946,1,0,0:0:0:0:
64,192,160180,1,0,0:0:0:0:
448,192,160180,1,0,0:0:0:0:
320,192,160180,1,0,0:0:0:0:
448,192,160414,1,0,0:0:0:0:
64,192,160414,1,0,0:0:0:0:
192,192,160414,1,0,0:0:0:0:
64,192,160649,1,0,0:0:0:0:
320,192,160649,1,0,0:0:0:0:
192,192,160649,1,0,0:0:0:0:
448,192,160883,1,0,0:0:0:0:
320,192,160883,1,0,0:0:0:0:
64,192,160883,1,0,0:0:0:0:
64,192,161117,1,0,0:0:0:0:
192,192,161117,1,0,0:0:0:0:
320,192,161117,1,0,0:0:0:0:
448,192,161352,1,0,0:0:0:0:
320,192,161352,1,0,0:0:0:0:
64,192,161352,1,0,0:0:0:0:
192,192,161469,1,8,0:0:0:0:
64,192,161528,1,8,0:0:0:0:
192,192,161586,1,8,0:0:0:0:
320,192,161586,1,0,0:0:0:0:
448,192,161586,1,0,0:0:0:0:
192,192,161703,1,8,0:0:0:0:
320,192,161762,1,8,0:0:0:0:
64,192,161821,1,0,0:0:0:0:
448,192,161821,1,8,0:0:0:0:
320,192,161938,1,0,0:0:0:0:
192,192,162055,1,0,0:0:0:0:
64,192,162055,1,0,0:0:0:0:
448,192,162172,1,0,0:0:0:0:
320,192,162289,1,0,0:0:0:0:
192,192,162289,1,0,0:0:0:0:
448,192,162406,1,0,0:0:0:0:
64,192,162524,1,0,0:0:0:0:
192,192,162524,1,0,0:0:0:0:
320,192,162641,1,0,0:0:0:0:
448,192,162758,1,0,0:0:0:0:
64,192,162758,1,0,0:0:0:0:
448,192,162992,128,8,163461:1:0:0:0:
320,192,162992,1,4,0:0:0:0:
192,192,163227,1,4,0:0:0:0:
64,192,163227,1,4,0:0:0:0:
64,192,163461,128,8,163696:1:0:0:0:
192,192,163461,1,4,0:0:0:0:
448,192,163696,5,0,0:0:0:0:
320,192,163696,1,0,0:0:0:0:
192,192,163696,1,0,0:0:0:0:
64,192,164047,1,0,0:0:0:0:
192,192,164047,1,0,0:0:0:0:
320,192,164047,1,0,0:0:0:0:
448,192,164164,1,0,0:0:0:0:
448,192,164399,1,0,0:0:0:0:
192,192,164399,1,0,0:0:0:0:
64,192,164399,1,0,0:0:0:0:
448,192,164750,1,0,0:0:0:0:
320,192,164750,1,0,0:0:0:0:
64,192,164750,1,0,0:0:0:0:
64,192,165102,1,0,0:0:0:0:
192,192,165102,1,0,0:0:0:0:
320,192,165102,1,0,0:0:0:0:
448,192,165688,1,0,0:0:0:0:
320,192,165688,1,0,0:0:0:0:
64,192,165688,1,0,0:0:0:0:
64,192,166039,1,0,0:0:0:0:
192,192,166039,1,0,0:0:0:0:
320,192,166039,1,0,0:0:0:0:
448,192,166391,1,0,0:0:0:0:
320,192,166391,1,0,0:0:0:0:
192,192,166391,1,0,0:0:0:0:
64,192,166742,1,0,0:0:0:0:
192,192,166742,1,0,0:0:0:0:
448,192,166742,1,0,0:0:0:0:
320,192,166977,1,0,0:0:0:0:
448,192,166977,1,0,0:0:0:0:
64,192,167094,1,0,0:0:0:0:
192,192,167094,1,0,0:0:0:0:
448,192,167211,1,8,0:0:0:0:
320,192,167270,1,8,0:0:0:0:
192,192,167328,1,8,0:0:0:0:
64,192,167387,1,8,0:0:0:0:
448,192,167446,1,0,0:0:0:0:
320,192,167446,1,0,0:0:0:0:
192,192,167446,1,0,0:0:0:0:
64,192,167797,1,0,0:0:0:0:
192,192,167797,1,0,0:0:0:0:
320,192,167797,1,0,0:0:0:0:
448,192,167914,1,0,0:0:0:0:
448,192,168149,1,0,0:0:0:0:
192,192,168149,1,0,0:0:0:0:
64,192,168149,1,0,0:0:0:0:
64,192,168500,1,0,0:0:0:0:
448,192,168500,1,0,0:0:0:0:
320,192,168500,1,0,0:0:0:0:
320,192,168852,1,0,0:0:0:0:
192,192,168852,1,0,0:0:0:0:
64,192,168852,1,0,0:0:0:0:
320,192,169438,1,0,0:0:0:0:
64,192,169438,1,0,0:0:0:0:
448,192,169438,1,0,0:0:0:0:
192,192,169789,1,0,0:0:0:0:
64,192,169789,1,0,0:0:0:0:
448,192,169789,1,0,0:0:0:0:
320,192,170141,1,0,0:0:0:0:
192,192,170141,1,0,0:0:0:0:
448,192,170141,1,0,0:0:0:0:
448,192,170492,1,0,0:0:0:0:
320,192,170492,1,0,0:0:0:0:
192,192,170610,1,0,0:0:0:0:
64,192,170610,1,0,0:0:0:0:
448,192,170727,1,8,0:0:0:0:
320,192,170785,1,8,0:0:0:0:
64,192,170844,1,8,0:0:0:0:
192,192,170903,1,8,0:0:0:0:
448,192,170961,1,8,0:0:0:0:
320,192,171020,1,8,0:0:0:0:
64,192,171078,1,8,0:0:0:0:
192,192,171137,1,8,0:0:0:0:
320,192,171196,1,0,0:0:0:0:
448,192,171196,1,0,0:0:0:0:
320,192,171313,1,0,0:0:0:0:
448,192,171313,1,0,0:0:0:0:
192,192,171547,1,0,0:0:0:0:
64,192,171547,1,0,0:0:0:0:
192,192,171664,1,0,0:0:0:0:
64,192,171664,1,0,0:0:0:0:
448,192,171899,1,0,0:0:0:0:
320,192,171899,1,0,0:0:0:0:
320,192,172016,1,0,0:0:0:0:
448,192,172016,1,0,0:0:0:0:
64,192,172250,1,0,0:0:0:0:
192,192,172250,1,0,0:0:0:0:
192,192,172367,1,0,0:0:0:0:
64,192,172367,1,0,0:0:0:0:
448,192,172602,1,0,0:0:0:0:
320,192,172602,1,0,0:0:0:0:
448,192,172719,1,0,0:0:0:0:
320,192,172719,1,0,0:0:0:0:
448,192,172836,1,8,0:0:0:0:
320,192,172895,1,8,0:0:0:0:
192,192,172953,1,8,0:0:0:0:
64,192,173012,1,8,0:0:0:0:
448,192,173071,1,8,0:0:0:0:
320,192,173129,1,8,0:0:0:0:
448,192,173188,1,8,0:0:0:0:
192,192,173188,1,0,0:0:0:0:
64,192,173188,1,0,0:0:0:0:
64,192,173305,1,0,0:0:0:0:
192,192,173305,1,0,0:0:0:0:
448,192,173539,1,0,0:0:0:0:
320,192,173539,1,0,0:0:0:0:
320,192,173656,1,0,0:0:0:0:
448,192,173656,1,0,0:0:0:0:
64,192,173891,1,0,0:0:0:0:
192,192,173891,1,0,0:0:0:0:
64,192,174008,1,0,0:0:0:0:
192,192,174008,1,0,0:0:0:0:
448,192,174242,1,0,0:0:0:0:
192,192,174242,1,0,0:0:0:0:
320,192,174242,1,0,0:0:0:0:
448,192,174477,1,0,0:0:0:0:
320,192,174477,1,0,0:0:0:0:
192,192,174594,1,0,0:0:0:0:
64,192,174594,1,0,0:0:0:0:
448,192,174711,1,8,0:0:0:0:
320,192,174770,1,8,0:0:0:0:
192,192,174828,1,8,0:0:0:0:
64,192,174887,1,8,0:0:0:0:
320,192,174946,1,8,0:0:0:0:
192,192,175004,1,8,0:0:0:0:
64,192,175063,1,8,0:0:0:0:
320,192,175180,1,0,0:0:0:0:
448,192,175180,1,0,0:0:0:0:
64,192,175297,1,8,0:0:0:0:
192,192,175356,1,8,0:0:0:0:
320,192,175414,1,8,0:0:0:0:
192,192,175531,1,0,0:0:0:0:
64,192,175531,1,0,0:0:0:0:
448,192,175649,1,8,0:0:0:0:
192,192,175707,1,8,0:0:0:0:
320,192,175766,1,8,0:0:0:0:
64,192,175883,1,0,0:0:0:0:
448,192,175883,1,0,0:0:0:0:
320,192,176000,1,8,0:0:0:0:
64,192,176059,1,8,0:0:0:0:
192,192,176117,1,8,0:0:0:0:
320,192,176235,1,0,0:0:0:0:
448,192,176235,1,0,0:0:0:0:
64,192,176352,1,8,0:0:0:0:
320,192,176410,1,8,0:0:0:0:
448,192,176469,1,8,0:0:0:0:
320,192,176586,1,0,0:0:0:0:
64,192,176586,1,0,0:0:0:0:
192,192,176703,1,8,0:0:0:0:
320,192,176762,1,8,0:0:0:0:
448,192,176821,1,8,0:0:0:0:
320,192,176938,1,8,0:0:0:0:
192,192,176996,1,8,0:0:0:0:
64,192,177055,1,8,0:0:0:0:
320,192,177172,1,0,0:0:0:0:
192,192,177172,1,0,0:0:0:0:
448,192,177289,1,8,0:0:0:0:
320,192,177348,1,8,0:0:0:0:
192,192,177406,1,8,0:0:0:0:
448,192,177524,1,0,0:0:0:0:
320,192,177524,1,0,0:0:0:0:
192,192,177641,1,8,0:0:0:0:
64,192,177699,1,8,0:0:0:0:
192,192,177758,1,8,0:0:0:0:
320,192,177875,1,0,0:0:0:0:
448,192,177875,1,0,0:0:0:0:
192,192,177992,1,8,0:0:0:0:
320,192,178051,1,8,0:0:0:0:
448,192,178110,1,8,0:0:0:0:
192,192,178227,1,8,0:0:0:0:
64,192,178227,1,0,0:0:0:0:
320,192,178285,1,8,0:0:0:0:
448,192,178344,1,8,0:0:0:0:
64,192,178403,1,8,0:0:0:0:
192,192,178461,1,8,0:0:0:0:
448,192,178520,1,8,0:0:0:0:
320,192,178578,1,8,0:0:0:0:
192,192,178637,1,8,0:0:0:0:
64,192,178696,1,8,0:0:0:0:
448,192,178696,1,0,0:0:0:0:
320,192,178813,1,0,0:0:0:0:
448,192,178930,1,0,0:0:0:0:
64,192,178930,1,0,0:0:0:0:
320,192,179047,1,0,0:0:0:0:
448,192,179164,1,0,0:0:0:0:
192,192,179164,1,0,0:0:0:0:
64,192,179281,1,0,0:0:0:0:
448,192,179399,1,0,0:0:0:0:
320,192,179399,1,0,0:0:0:0:
64,192,179516,1,0,0:0:0:0:
320,192,179633,1,0,0:0:0:0:
192,192,179633,1,0,0:0:0:0:
448,192,179750,1,0,0:0:0:0:
64,192,179867,1,0,0:0:0:0:
320,192,179867,1,0,0:0:0:0:
192,192,179985,1,0,0:0:0:0:
448,192,180102,1,0,0:0:0:0:
64,192,180102,1,0,0:0:0:0:
192,192,180219,1,0,0:0:0:0:
320,192,180336,1,0,0:0:0:0:
64,192,180336,1,0,0:0:0:0:
448,192,180453,1,0,0:0:0:0:
192,192,180571,1,0,0:0:0:0:
64,192,180571,1,0,0:0:0:0:
320,192,180688,1,8,0:0:0:0:
192,192,180746,1,8,0:0:0:0:
448,192,180805,1,0,0:0:0:0:
64,192,180805,1,8,0:0:0:0:
192,192,180922,1,0,0:0:0:0:
320,192,181039,1,0,0:0:0:0:
448,192,181039,1,0,0:0:0:0:
64,192,181156,1,0,0:0:0:0:
320,192,181274,1,0,0:0:0:0:
192,192,181274,1,0,0:0:0:0:
448,192,181391,1,0,0:0:0:0:
64,192,181508,1,0,0:0:0:0:
320,192,181508,1,0,0:0:0:0:
192,192,181625,1,0,0:0:0:0:
448,192,181742,1,0,0:0:0:0:
64,192,181742,1,0,0:0:0:0:
320,192,181860,1,0,0:0:0:0:
448,192,181977,1,0,0:0:0:0:
192,192,181977,1,0,0:0:0:0:
64,192,182094,1,0,0:0:0:0:
320,192,182211,1,8,0:0:0:0:
448,192,182211,1,0,0:0:0:0:
192,192,182270,1,8,0:0:0:0:
64,192,182328,1,8,0:0:0:0:
192,192,182387,1,8,0:0:0:0:
448,192,182446,128,8,182563:1:0:0:0:
320,192,182563,1,8,0:0:0:0:
192,192,182621,1,8,0:0:0:0:
64,192,182680,1,8,0:0:0:0:
448,192,182680,1,0,0:0:0:0:
320,192,182797,1,0,0:0:0:0:
448,192,182914,1,0,0:0:0:0:
192,192,182914,1,0,0:0:0:0:
64,192,183031,1,0,0:0:0:0:
192,192,183149,1,0,0:0:0:0:
320,192,183149,1,0,0:0:0:0:
448,192,183266,1,0,0:0:0:0:
320,192,183383,1,0,0:0:0:0:
64,192,183383,1,0,0:0:0:0:
192,192,183500,1,0,0:0:0:0:
448,192,183617,1,0,0:0:0:0:
64,192,183617,1,0,0:0:0:0:
192,192,183735,1,0,0:0:0:0:
448,192,183852,1,0,0:0:0:0:
320,192,183852,1,0,0:0:0:0:
64,192,183969,1,0,0:0:0:0:
448,192,184086,1,0,0:0:0:0:
192,192,184086,1,0,0:0:0:0:
64,192,184203,1,0,0:0:0:0:
320,192,184321,1,0,0:0:0:0:
192,192,184321,1,0,0:0:0:0:
448,192,184438,1,0,0:0:0:0:
192,192,184555,1,0,0:0:0:0:
64,192,184555,1,0,0:0:0:0:
448,192,184672,1,0,0:0:0:0:
192,192,184789,1,0,0:0:0:0:
320,192,184789,1,0,0:0:0:0:
448,192,184906,1,0,0:0:0:0:
64,192,185024,1,0,0:0:0:0:
192,192,185024,1,0,0:0:0:0:
320,192,185141,1,0,0:0:0:0:
64,192,185258,1,8,0:0:0:0:
192,192,185317,1,8,0:0:0:0:
448,192,185375,1,8,0:0:0:0:
320,192,185434,1,8,0:0:0:0:
64,192,185492,1,8,0:0:0:0:
192,192,185551,1,8,0:0:0:0:
320,192,185610,1,8,0:0:0:0:
448,192,185668,1,8,0:0:0:0:
64,192,185727,1,0,0:0:0:0:
192,192,185727,1,8,0:0:0:0:
448,192,185844,1,8,0:0:0:0:
320,192,185844,1,8,0:0:0:0:
192,192,185903,1,8,0:0:0:0:
64,192,185903,1,8,0:0:0:0:
320,192,185961,1,8,0:0:0:0:
448,192,185961,1,8,0:0:0:0:
64,192,186078,1,0,0:0:0:0:
192,192,186078,1,0,0:0:0:0:
448,192,186196,1,0,0:0:0:0:
320,192,186196,1,0,0:0:0:0:
192,192,186196,1,0,0:0:0:0:
448,192,186430,1,0,0:0:0:0:
64,192,186430,1,0,0:0:0:0:
192,192,186430,1,0,0:0:0:0:
320,192,186664,1,0,0:0:0:0:
448,192,186664,1,0,0:0:0:0:
192,192,186664,1,0,0:0:0:0:
448,192,186899,1,0,0:0:0:0:
192,192,186899,1,0,0:0:0:0:
64,192,186899,1,0,0:0:0:0:
64,192,187133,1,0,0:0:0:0:
192,192,187133,1,0,0:0:0:0:
320,192,187133,1,0,0:0:0:0:
192,192,187367,1,0,0:0:0:0:
320,192,187367,1,0,0:0:0:0:
448,192,187367,1,0,0:0:0:0:
448,192,187602,1,0,0:0:0:0:
320,192,187602,1,0,0:0:0:0:
64,192,187602,1,0,0:0:0:0:
448,192,187836,1,0,0:0:0:0:
64,192,187836,1,0,0:0:0:0:
320,192,187836,1,0,0:0:0:0:
320,192,188071,1,0,0:0:0:0:
448,192,188071,1,0,0:0:0:0:
64,192,188071,1,0,0:0:0:0:
192,192,188188,1,8,0:0:0:0:
320,192,188246,1,8,0:0:0:0:
448,192,188305,1,8,0:0:0:0:
192,192,188305,1,0,0:0:0:0:
64,192,188305,1,0,0:0:0:0:
64,192,188539,1,0,0:0:0:0:
192,192,188539,1,0,0:0:0:0:
320,192,188539,1,0,0:0:0:0:
192,192,188774,1,0,0:0:0:0:
320,192,188774,1,0,0:0:0:0:
448,192,188774,1,0,0:0:0:0:
64,192,189008,1,0,0:0:0:0:
320,192,189008,1,0,0:0:0:0:
448,192,189008,1,0,0:0:0:0:
448,192,189242,1,0,0:0:0:0:
320,192,189242,1,0,0:0:0:0:
192,192,189242,1,0,0:0:0:0:
64,192,189477,1,0,0:0:0:0:
448,192,189477,1,0,0:0:0:0:
192,192,189477,1,0,0:0:0:0:
320,192,189711,1,0,0:0:0:0:
448,192,189711,1,0,0:0:0:0:
64,192,189711,1,0,0:0:0:0:
192,192,189828,1,8,0:0:0:0:
448,192,189946,1,0,0:0:0:0:
64,192,189946,1,0,0:0:0:0:
320,192,189946,1,0,0:0:0:0:
192,192,190063,1,8,0:0:0:0:
64,192,190121,1,8,0:0:0:0:
320,192,190180,1,0,0:0:0:0:
448,192,190180,1,0,0:0:0:0:
192,192,190180,1,8,0:0:0:0:
320,192,190414,1,0,0:0:0:0:
64,192,190414,1,0,0:0:0:0:
448,192,190414,1,0,0:0:0:0:
320,192,190649,1,0,0:0:0:0:
192,192,190649,1,0,0:0:0:0:
64,192,190649,1,0,0:0:0:0:
192,192,190883,1,0,0:0:0:0:
64,192,190883,1,0,0:0:0:0:
448,192,190883,1,0,0:0:0:0:
448,192,191117,1,0,0:0:0:0:
64,192,191117,1,0,0:0:0:0:
320,192,191352,1,0,0:0:0:0:
448,192,191352,1,0,0:0:0:0:
64,192,191352,1,0,0:0:0:0:
448,192,191586,1,0,0:0:0:0:
64,192,191586,1,0,0:0:0:0:
192,192,191586,1,0,0:0:0:0:
448,192,191821,1,0,0:0:0:0:
64,192,191821,1,0,0:0:0:0:
320,192,191821,1,0,0:0:0:0:
192,192,192055,1,0,0:0:0:0:
320,192,192055,1,0,0:0:0:0:
64,192,192055,1,0,0:0:0:0:
320,192,192289,1,0,0:0:0:0:
64,192,192289,1,0,0:0:0:0:
448,192,192289,1,0,0:0:0:0:
448,192,192524,1,0,0:0:0:0:
320,192,192524,1,0,0:0:0:0:
192,192,192524,1,0,0:0:0:0:
320,192,192758,1,0,0:0:0:0:
192,192,192758,1,0,0:0:0:0:
448,192,192875,1,8,0:0:0:0:
320,192,192934,1,8,0:0:0:0:
64,192,192992,1,0,0:0:0:0:
192,192,192992,1,8,0:0:0:0:
320,192,193110,1,0,0:0:0:0:
448,192,193227,1,8,0:0:0:0:
64,192,193227,128,4,193696:0:0:0:0:
192,192,193227,1,0,0:0:0:0:
448,192,193344,1,8,0:0:0:0:
448,192,193461,1,8,0:0:0:0:
448,192,193578,1,8,0:0:0:0:
448,192,193696,1,8,0:0:0:0:
320,192,193696,128,4,200727:1:0:0:0:
192,192,193696,128,4,200727:1:0:0:0:
