osu file format v14

[General]
AudioFilename: audio.mp3
AudioLeadIn: 0
PreviewTime: 45644
Countdown: 0
SampleSet: Soft
StackLeniency: 0.7
Mode: 2
LetterboxInBreaks: 0
WidescreenStoryboard: 0

[Editor]
DistanceSpacing: 4.5
BeatDivisor: 4
GridSize: 4
TimelineZoom: 8

[Metadata]
Title:Kumo No Kireme [feat. Kourin.]
TitleUnicode:Kumo No Kireme [feat. 紅燐。]
Artist:Kobaryo
ArtistUnicode:Kobaryo
Creator:angki
Version:Rain of eternity
Source:
Tags:psycho filth records chaotic solutions speedcore noch einen
BeatmapID:1899356
BeatmapSetID:910178

[Difficulty]
HPDrainRate:6
CircleSize:4
OverallDifficulty:9.6
ApproachRate:9.6
SliderMultiplier:2
SliderTickRate:1

[Events]
//Background and Video events
0,0,"BG.jpg",0,0
//Break Periods
//Storyboard Layer 0 (Background)
//Storyboard Layer 1 (Fail)
//Storyboard Layer 2 (Pass)
//Storyboard Layer 3 (Foreground)
//Storyboard Sound Samples

[TimingPoints]
2519,234.375,4,2,1,70,1,0
2519,-133.333333333333,4,2,1,30,0,0
17519,-100,4,2,1,45,0,0
32519,-100,4,2,1,35,0,0
40019,-100,4,2,1,40,0,0
40956,-100,4,2,1,45,0,0
41894,-100,4,2,1,50,0,0
42831,-100,4,2,1,55,0,0
43769,-100,4,2,1,60,0,0
44706,-100,4,2,1,65,0,0
45644,-100,4,2,1,35,0,0
46581,-100,4,2,1,40,0,0
47519,-100,4,3,1,70,0,1
77519,-100,4,3,1,50,0,0
85019,-100,4,3,1,60,0,0
88769,-100,4,3,1,55,0,0
92519,-100,4,2,1,10,0,0
100019,-133.333333333333,4,3,1,50,0,0
107577,-133.333333333333,4,3,1,47,0,0
107987,-133.333333333333,4,3,1,44,0,0
108456,-133.333333333333,4,3,1,41,0,0
108925,-133.333333333333,4,3,1,38,0,0
109394,-133.333333333333,4,3,1,35,0,0
109862,-133.333333333333,4,3,1,33,0,0
110331,-133.333333333333,4,3,1,30,0,0
110800,-133.333333333333,4,3,1,27,0,0
111269,-133.333333333333,4,3,1,24,0,0
111737,-133.333333333333,4,3,1,21,0,0
112206,-133.333333333333,4,3,1,18,0,0
112675,-133.333333333333,4,3,1,15,0,0
113144,-133.333333333333,4,3,1,12,0,0
113612,-133.333333333333,4,3,1,9,0,0
114081,-133.333333333333,4,3,1,6,0,0
114550,-133.333333333333,4,2,1,0,0,0

[HitObjects]
256,192,409,12,0,1581,0:0:0:0:
50,279,1815,5,0,0:0:0:0:
187,250,2049,1,0,0:0:0:0:
324,222,2283,1,0,0:0:0:0:
461,194,2519,2,0,P|480:128|415:134,1,150.000005722046
112,32,2870,2,0,P|26:81|48:144,1,150.000005722046
336,224,3222,2,0,L|448:112,2,150.000005722046
205,197,3925,2,0,P|139:200|195:244,1,150.000005722046
320,272,4394,6,0,P|384:224|416:160,1,150.000005722046
48,64,4745,2,0,P|83:129|143:173,1,150.000005722046
416,160,5097,2,0,L|416:80,1,75.0000028610231
218,52,5331,1,0,0:0:0:0:
317,68,5800,1,0,0:0:0:0:
120,35,6034,1,0,0:0:0:0:
96,160,6269,6,0,P|32:192|96:224,1,150.000005722046
192,272,6620,2,0,L|288:272,2,75.0000028610231
384,208,6972,2,0,L|459:77,2,150.000005722046
225,192,7675,2,0,L|145:64,1,150.000005722046
0,192,8144,6,0,L|224:192,1,225.000008583069
336,192,9081,2,0,L|528:192,1,150.000005722046
416,192,9433,1,0,0:0:0:0:
128,288,9550,2,0,P|80:240|144:240,1,150.000005722046
336,224,10019,6,0,L|396:86,1,150.000005722046
256,224,10371,2,0,L|316:86,1,150.000005722046
90,80,10722,2,0,L|240:80,2,150.000005722046
400,80,11425,2,0,L|464:128,1,75.0000028610231
352,176,11659,2,0,L|292:221,1,75.0000028610231
128,176,11894,6,0,L|48:224,1,75.0000028610231
96,192,12128,1,0,0:0:0:0:
288,192,12245,2,0,L|480:64,1,225.000008583069
192,176,12831,2,0,L|384:48,1,225.000008583069
96,160,13534,2,0,L|176:112,1,75.0000028610231
368,96,13769,6,0,L|496:176,1,150.000005722046
352,192,14120,2,0,L|192:192,1,150.000005722046
80,192,14472,2,0,L|208:80,2,150.000005722046
288,109,15175,2,0,L|176:208,1,150.000005722046
320,192,15644,2,0,L|496:192,1,150.000005722046
144,192,15995,1,0,0:0:0:0:
256,192,16112,12,0,17050,0:0:0:0:
96,304,17519,6,0,P|80:208|176:192,1,200
364,180,17870,2,0,L|476:132,2,100
264,80,18222,2,0,L|264:180,1,100
364,180,18456,2,0,L|364:80,1,100
164,180,18690,2,0,L|164:80,1,100
464,180,18925,2,0,L|464:80,1,100
64,180,19159,2,0,L|64:80,1,100
360,80,19394,6,0,L|480:240,2,200
240,80,20097,2,0,L|120:80,1,100
48,192,20331,1,0,0:0:0:0:
256,192,20565,1,0,0:0:0:0:
488,184,20800,1,0,0:0:0:0:
256,192,21034,2,0,L|376:192,1,100
88,136,21269,6,0,P|32:88|120:72,1,200
256,192,21620,2,0,L|312:104,2,100
104,160,21972,2,0,L|48:72,1,100
224,160,22206,2,0,L|304:96,1,100
512,104,22440,2,0,L|448:200,1,100
256,280,22675,1,0,0:0:0:0:
158,291,22792,1,0,0:0:0:0:
72,243,22909,1,0,0:0:0:0:
32,153,23026,1,0,0:0:0:0:
160,112,23144,6,0,L|360:56,1,200
160,112,23495,2,0,P|96:160|176:176,1,200
456,192,23847,1,0,0:0:0:0:
329,149,24081,1,0,0:0:0:0:
203,107,24315,1,0,0:0:0:0:
76,65,24550,1,0,0:0:0:0:
347,221,24784,6,0,L|496:88,2,200
128,272,25487,2,0,L|56:200,3,100
248,176,25956,2,0,L|318:105,3,100
152,104,26425,2,0,L|16:280,1,200
88,266,26776,1,0,0:0:0:0:
272,112,26894,6,0,L|480:48,1,200
420,68,27245,1,0,0:0:0:0:
204,85,27362,2,0,L|138:160,1,100
413,158,27597,2,0,L|479:83,1,100
210,248,27831,2,0,L|110:240,1,100
314,152,28065,2,0,L|413:159,1,100
204,85,28300,2,0,P|44:165|60:277,1,300
288,336,28769,6,0,L|472:232,1,200
224,272,29237,2,0,L|376:136,1,200
152,232,29706,2,0,L|264:64,1,200
64,224,30175,2,0,L|120:32,1,200
336,112,30644,6,0,P|448:192|352:280,1,300
168,120,31112,2,0,L|64:168,1,100
368,192,31347,2,0,L|480:192,1,100
176,304,31581,2,0,P|56:224|16:8,1,300
496,40,32050,2,0,L|448:360,1,300
0,0,32519,5,0,0:0:0:0:
68,51,32753,1,0,0:0:0:0:
137,102,32987,1,0,0:0:0:0:
205,154,33222,1,0,0:0:0:0:
274,205,33456,1,0,0:0:0:0:
411,308,33690,1,0,0:0:0:0:
480,360,33925,1,0,0:0:0:0:
342,257,34159,1,0,0:0:0:0:
240,256,34394,6,0,L|32:256,1,200
304,192,34862,2,0,L|104:192,1,200
376,272,35331,2,0,L|464:88,3,200
208,152,36269,6,0,P|112:136|40:208,1,200
200,280,36737,2,0,P|304:232|344:144,1,200
208,168,37206,2,0,P|304:256|400:264,1,200
120,264,37675,2,0,L|40:64,1,200
256,224,38144,6,0,L|472:128,1,200
328,176,38612,2,0,L|264:376,1,200
120,224,39081,2,0,L|8:56,1,200
176,120,39550,2,0,L|400:72,1,200
334,87,39901,1,0,0:0:0:0:
72,128,40019,6,0,L|48:232,1,100
336,223,40253,2,0,L|356:123,1,100
107,185,40487,2,0,L|133:76,1,100
391,111,40722,2,0,P|421:161|429:201,1,100
21,165,40956,2,0,L|125:117,1,100
357,232,41190,2,0,L|256:289,1,100
32,120,41425,2,0,L|136:72,1,100
432,104,41659,2,0,L|352:176,1,100
112,144,41894,2,0,P|85:193|84:253,1,100
392,187,42128,2,0,P|426:141|431:87,1,100
136,184,42362,2,0,L|80:80,1,100
384,152,42597,2,0,L|448:72,1,100
128,136,42831,2,0,L|24:160,1,100
342,201,43065,2,0,L|440:224,1,100
120,272,43300,2,0,L|0:272,1,100
496,144,43534,2,0,L|396:144,1,100
120,72,43769,5,0,0:0:0:0:
82,105,43886,1,0,0:0:0:0:
60,149,44003,1,0,0:0:0:0:
56,199,44120,1,0,0:0:0:0:
71,246,44237,1,0,0:0:0:0:
102,285,44354,1,0,0:0:0:0:
146,309,44472,1,0,0:0:0:0:
195,315,44589,1,0,0:0:0:0:
400,272,44706,5,0,0:0:0:0:
430,259,44764,1,0,0:0:0:0:
456,239,44823,1,0,0:0:0:0:
476,212,44881,1,0,0:0:0:0:
487,180,44940,1,0,0:0:0:0:
488,147,44998,1,0,0:0:0:0:
480,115,45057,1,0,0:0:0:0:
464,86,45116,1,0,0:0:0:0:
440,63,45174,1,0,0:0:0:0:
410,48,45233,1,0,0:0:0:0:
378,42,45291,1,0,0:0:0:0:
345,45,45350,1,0,0:0:0:0:
314,57,45409,1,0,0:0:0:0:
288,78,45467,1,0,0:0:0:0:
268,105,45526,1,0,0:0:0:0:
258,136,45584,1,0,0:0:0:0:
104,320,45644,6,0,B|24:136|24:136|248:40,1,400
336,56,46347,2,0,L|448:56,1,100
232,48,46581,2,0,L|48:296,1,300
336,304,47050,2,0,P|464:296|432:160,1,300
26,150,47519,5,0,0:0:0:0:
368,288,47636,1,0,0:0:0:0:
296,168,47753,1,0,0:0:0:0:
113,272,47870,1,0,0:0:0:0:
40,272,47987,1,0,0:0:0:0:
331,191,48104,1,0,0:0:0:0:
376,169,48162,1,0,0:0:0:0:
421,148,48221,1,0,0:0:0:0:
288,128,48339,6,0,L|196:90,2,100
408,104,48690,1,0,0:0:0:0:
96,288,48808,1,0,0:0:0:0:
57,255,48866,1,0,0:0:0:0:
19,223,48925,1,0,0:0:0:0:
208,192,49042,1,0,0:0:0:0:
400,272,49159,5,0,0:0:0:0:
438,240,49217,1,0,0:0:0:0:
455,194,49276,1,0,0:0:0:0:
446,145,49334,1,0,0:0:0:0:
414,108,49393,1,0,0:0:0:0:
368,92,49451,1,0,0:0:0:0:
319,102,49510,1,0,0:0:0:0:
104,120,49628,5,0,0:0:0:0:
414,108,49745,2,0,L|503:166,1,100
160,200,49979,1,0,0:0:0:0:
110,196,50037,1,0,0:0:0:0:
60,193,50096,1,0,0:0:0:0:
160,200,50214,1,0,0:0:0:0:
336,192,50331,6,0,L|448:192,2,100
256,192,50683,1,0,0:0:0:0:
32,192,50800,1,0,0:0:0:0:
75,166,50858,1,0,0:0:0:0:
118,141,50917,1,0,0:0:0:0:
288,280,51034,5,0,0:0:0:0:
327,257,51073,1,0,0:0:0:0:
367,234,51112,1,0,0:0:0:0:
406,211,51151,1,0,0:0:0:0:
432,189,51190,1,0,0:0:0:0:
389,173,51229,1,0,0:0:0:0:
346,158,51268,1,0,0:0:0:0:
144,176,51386,6,0,L|56:112,1,100
304,192,51620,2,0,L|384:112,1,100
144,192,51854,1,0,0:0:0:0:
115,233,51912,1,0,0:0:0:0:
87,274,51971,1,0,0:0:0:0:
304,192,52089,6,0,L|424:192,1,100
112,120,52323,2,0,L|0:120,1,100
352,192,52558,1,0,0:0:0:0:
371,145,52616,1,0,0:0:0:0:
390,99,52675,1,0,0:0:0:0:
192,112,52792,2,0,L|128:208,1,100
384,288,53026,5,0,0:0:0:0:
403,241,53084,1,0,0:0:0:0:
422,195,53143,1,0,0:0:0:0:
264,192,53261,2,0,L|144:192,2,100
352,120,53612,5,0,0:0:0:0:
80,104,53729,1,0,0:0:0:0:
64,151,53787,1,0,0:0:0:0:
48,198,53846,1,0,0:0:0:0:
264,192,53964,1,0,0:0:0:0:
392,192,54081,1,0,0:0:0:0:
442,192,54139,1,0,0:0:0:0:
492,192,54198,1,0,0:0:0:0:
208,312,54315,6,0,L|104:272,1,100
160,296,54491,1,0,0:0:0:0:
384,272,54550,1,0,0:0:0:0:
413,231,54608,1,0,0:0:0:0:
442,191,54667,1,0,0:0:0:0:
192,272,54784,5,0,0:0:0:0:
159,245,54823,1,0,0:0:0:0:
127,218,54862,1,0,0:0:0:0:
95,191,54901,1,0,0:0:0:0:
63,165,54940,1,0,0:0:0:0:
31,138,54979,1,0,0:0:0:0:
0,111,55018,1,0,0:0:0:0:
448,192,55136,5,0,0:0:0:0:
336,272,55253,1,0,0:0:0:0:
24,128,55370,2,0,L|136:48,1,100
440,232,55604,1,0,0:0:0:0:
464,208,55662,1,0,0:0:0:0:
488,184,55721,1,0,0:0:0:0:
168,176,55839,5,0,0:0:0:0:
344,176,55956,1,0,0:0:0:0:
56,168,56073,2,0,L|0:64,1,100
296,240,56308,1,0,0:0:0:0:
346,240,56366,1,0,0:0:0:0:
396,240,56425,1,0,0:0:0:0:
216,168,56542,5,0,0:0:0:0:
38,129,56659,1,0,0:0:0:0:
0,159,56717,1,0,0:0:0:0:
0,208,56776,1,0,0:0:0:0:
31,242,56834,1,0,0:0:0:0:
79,240,56893,1,0,0:0:0:0:
336,176,57011,6,0,L|440:160,2,100
248,200,57362,1,0,0:0:0:0:
35,106,57479,1,0,0:0:0:0:
61,149,57538,1,0,0:0:0:0:
88,192,57596,1,0,0:0:0:0:
336,136,57714,6,0,L|440:104,1,100
176,248,57948,2,0,L|80:277,1,100
392,192,58183,1,0,0:0:0:0:
442,192,58241,1,0,0:0:0:0:
492,192,58300,1,0,0:0:0:0:
104,192,58417,1,0,0:0:0:0:
456,240,58534,5,0,0:0:0:0:
477,214,58573,1,0,0:0:0:0:
491,192,58612,1,0,0:0:0:0:
458,192,58651,1,0,0:0:0:0:
425,192,58690,1,0,0:0:0:0:
391,192,58729,1,0,0:0:0:0:
358,192,58768,1,0,0:0:0:0:
144,192,58886,6,0,L|24:168,1,100
352,136,59120,2,0,L|456:136,1,100
120,200,59354,1,0,0:0:0:0:
72,152,59413,1,0,0:0:0:0:
120,112,59472,1,0,0:0:0:0:
464,112,59589,5,0,0:0:0:0:
160,96,59706,1,0,0:0:0:0:
424,256,59823,1,0,0:0:0:0:
120,256,59940,1,0,0:0:0:0:
336,192,60058,1,0,0:0:0:0:
386,192,60116,1,0,0:0:0:0:
436,192,60175,1,0,0:0:0:0:
256,192,60292,1,0,0:0:0:0:
432,312,60409,2,0,P|456:184|448:176,1,150
180,192,60644,6,0,L|80:192,2,100
320,184,60995,2,0,L|408:120,1,100
152,104,61229,1,0,0:0:0:0:
102,104,61287,1,0,0:0:0:0:
52,104,61346,1,0,0:0:0:0:
256,104,61464,1,0,0:0:0:0:
432,104,61581,6,0,P|472:192|448:240,1,150
158,255,61815,2,0,P|84:216|64:176,1,100
368,112,61991,2,0,L|472:112,1,100
104,72,62167,2,0,P|64:136|160:256,1,250
456,192,62519,5,0,0:0:0:0:
424,153,62577,1,0,0:0:0:0:
392,114,62636,1,0,0:0:0:0:
120,192,62694,1,0,0:0:0:0:
64,120,62753,1,0,0:0:0:0:
272,192,62870,1,0,0:0:0:0:
368,168,62987,6,0,L|462:136,1,100
416,152,63163,1,0,0:0:0:0:
176,112,63222,2,0,L|56:112,1,100
384,112,63456,2,0,L|496:112,2,100
160,272,63808,2,0,L|128:224,1,50
312,216,63926,1,0,0:0:0:0:
480,144,64042,1,0,0:0:0:0:
368,104,64159,1,0,0:0:0:0:
40,184,64276,2,0,L|8:136,1,50
192,128,64394,5,0,0:0:0:0:
291,127,64511,1,0,0:0:0:0:
391,127,64628,1,0,0:0:0:0:
143,254,64745,2,0,L|40:248,1,100
384,296,64979,1,0,0:0:0:0:
399,248,65037,1,0,0:0:0:0:
415,201,65096,1,0,0:0:0:0:
176,192,65214,5,0,0:0:0:0:
48,192,65331,2,0,L|16:96,1,100
360,192,65565,1,0,0:0:0:0:
176,192,65683,1,0,0:0:0:0:
126,192,65741,1,0,0:0:0:0:
76,192,65800,1,0,0:0:0:0:
256,192,65917,1,0,0:0:0:0:
360,312,66034,5,0,0:0:0:0:
379,296,66063,1,0,0:0:0:0:
395,277,66092,1,0,0:0:0:0:
408,255,66121,1,0,0:0:0:0:
415,232,66151,1,0,0:0:0:0:
418,207,66180,1,0,0:0:0:0:
416,182,66209,1,0,0:0:0:0:
409,158,66239,1,0,0:0:0:0:
400,136,66269,6,0,L|344:136,1,50
64,192,66386,2,0,L|120:192,1,50
400,192,66503,2,0,L|464:192,1,50
216,192,66620,2,0,L|152:192,1,50
16,136,66737,1,0,0:0:0:0:
224,192,66854,5,0,0:0:0:0:
274,192,66912,1,0,0:0:0:0:
324,192,66971,1,0,0:0:0:0:
400,264,67089,1,0,0:0:0:0:
148,192,67206,2,0,L|48:192,2,100
400,248,67558,1,0,0:0:0:0:
426,205,67616,1,0,0:0:0:0:
452,162,67675,1,0,0:0:0:0:
257,191,67792,5,0,0:0:0:0:
57,193,67909,1,0,0:0:0:0:
157,192,68027,1,0,0:0:0:0:
355,192,68144,1,0,0:0:0:0:
303,192,68202,1,0,0:0:0:0:
255,191,68261,1,0,0:0:0:0:
392,192,68378,2,0,L|472:120,2,100
176,230,68729,1,0,0:0:0:0:
144,190,68787,1,0,0:0:0:0:
113,151,68846,1,0,0:0:0:0:
329,270,68964,5,0,0:0:0:0:
454,198,69081,2,0,P|442:140|361:90,1,150
80,192,69315,2,0,L|-24:112,1,100
192,112,69491,2,0,L|256:112,1,50
424,144,69608,2,0,L|336:208,1,100
64,192,69784,2,0,L|96:192,7,25
64,192,70019,1,0,0:0:0:0:
113,196,70077,5,0,0:0:0:0:
163,192,70136,1,0,0:0:0:0:
212,180,70194,1,0,0:0:0:0:
336,128,70253,1,0,0:0:0:0:
381,108,70311,1,0,0:0:0:0:
431,104,70370,1,0,0:0:0:0:
479,116,70428,1,0,0:0:0:0:
211,192,70487,2,0,L|104:192,1,100
328,192,70722,5,0,0:0:0:0:
111,192,70839,2,0,L|4:192,1,100
328,192,71073,2,0,L|440:192,1,100
176,192,71308,2,0,L|136:160,1,50
400,192,71425,2,0,P|456:168|368:120,1,200
112,120,71776,2,0,L|224:112,1,100
384,128,72011,5,0,0:0:0:0:
224,224,72128,1,0,0:0:0:0:
416,240,72245,1,0,0:0:0:0:
176,288,72362,2,0,L|64:288,1,100
256,288,72538,1,0,0:0:0:0:
336,288,72597,1,0,0:0:0:0:
76,288,72714,6,0,L|176:288,1,100
336,288,72948,2,0,L|400:192,1,100
256,128,73183,1,0,0:0:0:0:
206,128,73241,1,0,0:0:0:0:
156,128,73300,1,0,0:0:0:0:
0,128,73417,1,0,0:0:0:0:
156,128,73534,5,0,0:0:0:0:
178,116,73563,1,0,0:0:0:0:
202,112,73592,1,0,0:0:0:0:
227,114,73621,1,0,0:0:0:0:
250,124,73651,1,0,0:0:0:0:
269,140,73680,1,0,0:0:0:0:
283,160,73709,1,0,0:0:0:0:
290,184,73739,1,0,0:0:0:0:
288,208,73769,6,0,L|384:144,1,100
192,272,74003,2,0,L|80:304,1,100
400,320,74237,2,0,L|400:208,1,100
240,320,74472,2,0,P|160:320|144:304,1,100
432,320,74706,2,0,L|432:208,1,100
172,220,74940,2,0,L|60:220,1,100
252,220,75175,2,0,L|364:220,1,100
400,224,75351,1,0,0:0:0:0:
432,224,75409,5,0,0:0:0:0:
176,224,75526,1,0,0:0:0:0:
144,184,75584,1,0,0:0:0:0:
113,145,75643,1,0,0:0:0:0:
288,144,75761,1,0,0:0:0:0:
113,145,75878,1,0,0:0:0:0:
288,144,75995,1,0,0:0:0:0:
416,256,76112,5,0,0:0:0:0:
224,256,76229,1,0,0:0:0:0:
416,256,76347,1,0,0:0:0:0:
224,256,76464,1,0,0:0:0:0:
48,256,76581,1,0,0:0:0:0:
448,320,76815,6,0,P|448:240|392:224,1,150
56,64,77050,2,0,P|47:133|112:159,1,150
320,328,77284,1,0,0:0:0:0:
340,302,77323,1,0,0:0:0:0:
361,276,77362,1,0,0:0:0:0:
382,250,77401,1,0,0:0:0:0:
403,224,77440,1,0,0:0:0:0:
424,198,77479,1,0,0:0:0:0:
445,172,77518,5,0,0:0:0:0:
182,192,77870,1,0,0:0:0:0:
482,192,77987,1,0,0:0:0:0:
332,192,78222,1,0,0:0:0:0:
182,192,78573,1,0,0:0:0:0:
32,192,78925,1,0,0:0:0:0:
182,192,79511,5,0,0:0:0:0:
32,192,79863,1,0,0:0:0:0:
332,192,80213,1,0,0:0:0:0:
482,192,80565,1,0,0:0:0:0:
332,192,80800,5,0,0:0:0:0:
32,192,80917,2,0,L|64:136,1,50
280,283,81034,2,0,L|256:240,1,50
455,148,81151,2,0,L|480:192,1,50
182,192,81269,5,0,0:0:0:0:
32,192,81620,1,0,0:0:0:0:
332,192,81737,1,0,0:0:0:0:
482,192,81972,1,0,0:0:0:0:
332,192,82323,1,0,0:0:0:0:
182,192,82675,1,0,0:0:0:0:
332,336,83261,6,0,L|488:72,1,300
180,336,83964,2,0,L|27:77,1,300
256,72,84433,1,0,0:0:0:0:
484,77,84550,1,0,0:0:0:0:
446,142,84609,1,0,0:0:0:0:
408,206,84667,1,0,0:0:0:0:
370,271,84726,1,0,0:0:0:0:
332,336,84784,2,0,L|256:336,1,50
42,336,84901,2,0,L|92:336,1,50
396,192,85019,5,0,0:0:0:0:
0,197,85136,1,0,0:0:0:0:
38,197,85370,1,0,0:0:0:0:
434,192,85487,1,0,0:0:0:0:
472,192,85722,1,0,0:0:0:0:
76,197,85839,1,0,0:0:0:0:
114,197,86073,1,0,0:0:0:0:
510,192,86190,1,0,0:0:0:0:
76,197,86425,1,0,0:0:0:0:
472,192,86542,1,0,0:0:0:0:
174,312,86659,5,0,0:0:0:0:
130,289,86717,1,0,0:0:0:0:
107,246,86776,1,0,0:0:0:0:
114,197,86834,1,0,0:0:0:0:
148,161,86893,1,0,0:0:0:0:
196,152,86951,1,0,0:0:0:0:
241,173,87010,1,0,0:0:0:0:
488,192,87128,5,0,0:0:0:0:
448,192,87362,1,0,0:0:0:0:
168,192,87479,1,0,0:0:0:0:
120,188,87714,1,0,0:0:0:0:
472,192,87831,1,0,0:0:0:0:
504,196,88065,6,0,P|476:168|408:160,1,100
40,168,88300,2,0,L|144:112,1,100
256,92,88534,1,0,0:0:0:0:
256,92,88593,1,0,0:0:0:0:
256,92,88651,1,0,0:0:0:0:
256,92,88710,1,0,0:0:0:0:
468,192,88769,6,0,L|400:192,1,50
264,192,88886,1,0,0:0:0:0:
344,192,89003,1,0,0:0:0:0:
80,232,89120,2,0,L|24:208,1,50
256,104,89237,1,0,0:0:0:0:
168,104,89354,1,0,0:0:0:0:
424,280,89472,6,0,L|448:232,1,50
256,192,89589,1,0,0:0:0:0:
344,192,89706,1,0,0:0:0:0:
32,288,89823,2,0,L|96:288,1,50
280,352,89940,1,0,0:0:0:0:
200,352,90058,1,0,0:0:0:0:
464,200,90175,6,0,L|496:144,1,50
304,120,90292,1,0,0:0:0:0:
392,120,90409,1,0,0:0:0:0:
8,312,90526,2,0,L|64:312,1,50
264,128,90643,1,0,0:0:0:0:
176,128,90761,1,0,0:0:0:0:
416,192,90878,6,0,L|472:192,1,50
168,192,90995,1,0,0:0:0:0:
88,192,91112,1,0,0:0:0:0:
312,264,91229,2,0,L|248:264,1,50
488,264,91347,1,0,0:0:0:0:
392,264,91464,1,0,0:0:0:0:
104,224,91581,6,0,L|168:224,1,50
312,232,91698,1,0,0:0:0:0:
416,152,91815,1,0,0:0:0:0:
224,136,91933,2,0,L|288:136,1,50
120,136,92050,5,0,0:0:0:0:
76,192,92108,1,0,0:0:0:0:
32,248,92167,1,0,0:0:0:0:
0,312,92226,1,0,0:0:0:0:
222,315,92284,1,0,0:0:0:0:
271,318,92342,1,0,0:0:0:0:
316,298,92401,1,0,0:0:0:0:
346,258,92459,1,0,0:0:0:0:
44,284,92519,5,0,0:0:0:0:
33,261,92534,5,0,0:0:0:0:
23,239,92549,5,0,0:0:0:0:
12,217,92563,5,0,0:0:0:0:
3,193,92578,5,0,0:0:0:0:
11,171,92593,5,0,0:0:0:0:
22,149,92607,5,0,0:0:0:0:
33,127,92622,5,0,0:0:0:0:
460,284,92637,5,0,0:0:0:0:
471,261,92651,5,0,0:0:0:0:
481,239,92666,5,0,0:0:0:0:
492,217,92680,5,0,0:0:0:0:
501,193,92695,5,0,0:0:0:0:
493,171,92710,5,0,0:0:0:0:
482,149,92724,5,0,0:0:0:0:
471,127,92739,5,0,0:0:0:0:
44,284,92754,5,0,0:0:0:0:
33,261,92768,5,0,0:0:0:0:
23,239,92783,5,0,0:0:0:0:
12,217,92797,5,0,0:0:0:0:
3,193,92812,5,0,0:0:0:0:
11,171,92827,5,0,0:0:0:0:
22,149,92841,5,0,0:0:0:0:
33,127,92856,5,0,0:0:0:0:
460,284,92871,5,0,0:0:0:0:
471,261,92885,5,0,0:0:0:0:
481,239,92900,5,0,0:0:0:0:
492,217,92914,5,0,0:0:0:0:
501,193,92929,5,0,0:0:0:0:
493,171,92944,5,0,0:0:0:0:
482,149,92958,5,0,0:0:0:0:
471,127,92973,5,0,0:0:0:0:
44,284,92988,5,0,0:0:0:0:
33,261,93002,5,0,0:0:0:0:
23,239,93017,5,0,0:0:0:0:
12,217,93031,5,0,0:0:0:0:
3,193,93046,5,0,0:0:0:0:
11,171,93061,5,0,0:0:0:0:
22,149,93075,5,0,0:0:0:0:
33,127,93090,5,0,0:0:0:0:
460,284,93105,5,0,0:0:0:0:
471,261,93119,5,0,0:0:0:0:
481,239,93134,5,0,0:0:0:0:
492,217,93148,5,0,0:0:0:0:
501,193,93163,5,0,0:0:0:0:
493,171,93178,5,0,0:0:0:0:
482,149,93192,5,0,0:0:0:0:
471,127,93207,5,0,0:0:0:0:
44,284,93223,5,0,0:0:0:0:
33,261,93237,5,0,0:0:0:0:
23,239,93252,5,0,0:0:0:0:
12,217,93266,5,0,0:0:0:0:
3,193,93281,5,0,0:0:0:0:
11,171,93296,5,0,0:0:0:0:
22,149,93310,5,0,0:0:0:0:
33,127,93325,5,0,0:0:0:0:
460,284,93340,5,0,0:0:0:0:
471,261,93354,5,0,0:0:0:0:
481,239,93369,5,0,0:0:0:0:
492,217,93383,5,0,0:0:0:0:
501,193,93398,5,0,0:0:0:0:
493,171,93413,5,0,0:0:0:0:
482,149,93427,5,0,0:0:0:0:
471,127,93442,5,0,0:0:0:0:
366,111,93456,5,0,0:0:0:0:
351,109,93471,5,0,0:0:0:0:
337,109,93486,5,0,0:0:0:0:
323,109,93500,5,0,0:0:0:0:
219,103,93516,5,0,0:0:0:0:
205,102,93530,5,0,0:0:0:0:
190,102,93545,5,0,0:0:0:0:
177,102,93559,5,0,0:0:0:0:
44,284,93574,5,0,0:0:0:0:
33,261,93588,5,0,0:0:0:0:
23,239,93603,5,0,0:0:0:0:
12,217,93617,5,0,0:0:0:0:
3,193,93632,5,0,0:0:0:0:
11,171,93647,5,0,0:0:0:0:
22,149,93661,5,0,0:0:0:0:
33,127,93676,5,0,0:0:0:0:
460,284,93691,5,0,0:0:0:0:
471,261,93705,5,0,0:0:0:0:
481,239,93720,5,0,0:0:0:0:
492,217,93734,5,0,0:0:0:0:
501,193,93749,5,0,0:0:0:0:
493,171,93764,5,0,0:0:0:0:
482,149,93778,5,0,0:0:0:0:
471,127,93793,5,0,0:0:0:0:
366,111,93808,5,0,0:0:0:0:
351,109,93822,5,0,0:0:0:0:
337,109,93837,5,0,0:0:0:0:
323,109,93853,5,0,0:0:0:0:
219,103,93867,5,0,0:0:0:0:
205,102,93881,5,0,0:0:0:0:
190,102,93896,5,0,0:0:0:0:
177,102,93910,5,0,0:0:0:0:
44,284,93925,5,0,0:0:0:0:
33,261,93939,5,0,0:0:0:0:
23,239,93954,5,0,0:0:0:0:
12,217,93970,5,0,0:0:0:0:
3,193,93983,5,0,0:0:0:0:
11,171,93998,5,0,0:0:0:0:
22,149,94014,5,0,0:0:0:0:
33,127,94027,5,0,0:0:0:0:
460,284,94043,5,0,0:0:0:0:
471,261,94057,5,0,0:0:0:0:
481,239,94072,5,0,0:0:0:0:
492,217,94086,5,0,0:0:0:0:
501,193,94101,5,0,0:0:0:0:
493,171,94116,5,0,0:0:0:0:
482,149,94130,5,0,0:0:0:0:
471,127,94145,5,0,0:0:0:0:
366,111,94160,5,0,0:0:0:0:
351,109,94174,5,0,0:0:0:0:
337,109,94189,5,0,0:0:0:0:
323,109,94203,5,0,0:0:0:0:
219,103,94219,5,0,0:0:0:0:
205,102,94233,5,0,0:0:0:0:
190,102,94248,5,0,0:0:0:0:
177,102,94262,5,0,0:0:0:0:
44,284,94277,5,0,0:0:0:0:
33,261,94291,5,0,0:0:0:0:
23,239,94306,5,0,0:0:0:0:
12,217,94320,5,0,0:0:0:0:
3,193,94335,5,0,0:0:0:0:
11,171,94350,5,0,0:0:0:0:
22,149,94364,5,0,0:0:0:0:
33,127,94379,5,0,0:0:0:0:
145,111,94395,5,0,0:0:0:0:
160,109,94409,5,0,0:0:0:0:
174,109,94424,5,0,0:0:0:0:
188,109,94438,5,0,0:0:0:0:
334,102,94452,5,0,0:0:0:0:
321,102,94468,5,0,0:0:0:0:
306,102,94481,5,0,0:0:0:0:
292,103,94497,5,0,0:0:0:0:
145,111,94512,5,0,0:0:0:0:
160,109,94526,5,0,0:0:0:0:
174,109,94541,5,0,0:0:0:0:
188,109,94555,5,0,0:0:0:0:
334,102,94569,5,0,0:0:0:0:
321,102,94585,5,0,0:0:0:0:
306,102,94600,5,0,0:0:0:0:
292,103,94614,5,0,0:0:0:0:
458,286,94629,5,0,0:0:0:0:
464,274,94643,5,0,0:0:0:0:
471,264,94658,5,0,0:0:0:0:
477,252,94672,5,0,0:0:0:0:
484,242,94687,5,0,0:0:0:0:
492,230,94702,5,0,0:0:0:0:
498,219,94716,5,0,0:0:0:0:
505,208,94731,5,0,0:0:0:0:
511,197,94746,5,0,0:0:0:0:
512,186,94760,5,0,0:0:0:0:
506,175,94775,5,0,0:0:0:0:
499,164,94790,5,0,0:0:0:0:
492,153,94804,5,0,0:0:0:0:
485,141,94819,5,0,0:0:0:0:
478,131,94834,5,0,0:0:0:0:
464,121,94848,5,0,0:0:0:0:
366,111,94863,5,0,0:0:0:0:
351,109,94877,5,0,0:0:0:0:
337,109,94892,5,0,0:0:0:0:
323,109,94906,5,0,0:0:0:0:
217,97,94922,5,0,0:0:0:0:
202,96,94936,5,0,0:0:0:0:
188,96,94951,5,0,0:0:0:0:
174,96,94965,5,0,0:0:0:0:
61,97,94980,5,0,0:0:0:0:
47,96,94994,5,0,0:0:0:0:
32,96,95009,5,0,0:0:0:0:
19,96,95023,5,0,0:0:0:0:
174,96,95039,5,0,0:0:0:0:
188,96,95053,5,0,0:0:0:0:
202,96,95068,5,0,0:0:0:0:
217,97,95082,5,0,0:0:0:0:
333,97,95098,5,0,0:0:0:0:
346,97,95112,5,0,0:0:0:0:
361,97,95127,5,0,0:0:0:0:
376,99,95141,5,0,0:0:0:0:
469,97,95156,5,0,0:0:0:0:
482,97,95170,5,0,0:0:0:0:
497,97,95185,5,0,0:0:0:0:
511,99,95199,5,0,0:0:0:0:
366,111,95215,5,0,0:0:0:0:
351,109,95229,5,0,0:0:0:0:
337,109,95244,5,0,0:0:0:0:
323,109,95258,5,0,0:0:0:0:
217,97,95272,5,0,0:0:0:0:
202,96,95288,5,0,0:0:0:0:
188,96,95303,5,0,0:0:0:0:
174,96,95317,5,0,0:0:0:0:
61,97,95332,5,0,0:0:0:0:
47,96,95346,5,0,0:0:0:0:
32,96,95361,5,0,0:0:0:0:
19,96,95375,5,0,0:0:0:0:
174,96,95391,5,0,0:0:0:0:
188,96,95405,5,0,0:0:0:0:
202,96,95420,5,0,0:0:0:0:
217,97,95434,5,0,0:0:0:0:
333,97,95448,5,0,0:0:0:0:
346,97,95464,5,0,0:0:0:0:
361,97,95477,5,0,0:0:0:0:
376,99,95493,5,0,0:0:0:0:
469,97,95508,5,0,0:0:0:0:
482,97,95522,5,0,0:0:0:0:
497,97,95537,5,0,0:0:0:0:
511,99,95551,5,0,0:0:0:0:
366,111,95566,5,0,0:0:0:0:
351,109,95580,5,0,0:0:0:0:
337,109,95595,5,0,0:0:0:0:
323,109,95609,5,0,0:0:0:0:
217,97,95625,5,0,0:0:0:0:
202,96,95639,5,0,0:0:0:0:
188,96,95654,5,0,0:0:0:0:
174,96,95668,5,0,0:0:0:0:
61,97,95683,5,0,0:0:0:0:
47,96,95697,5,0,0:0:0:0:
32,96,95712,5,0,0:0:0:0:
19,96,95728,5,0,0:0:0:0:
174,96,95742,5,0,0:0:0:0:
188,96,95756,5,0,0:0:0:0:
202,96,95771,5,0,0:0:0:0:
217,97,95785,5,0,0:0:0:0:
333,97,95801,5,0,0:0:0:0:
346,97,95815,5,0,0:0:0:0:
361,97,95830,5,0,0:0:0:0:
376,99,95844,5,0,0:0:0:0:
469,97,95859,5,0,0:0:0:0:
482,97,95873,5,0,0:0:0:0:
497,97,95888,5,0,0:0:0:0:
511,99,95902,5,0,0:0:0:0:
366,111,95918,5,0,0:0:0:0:
351,109,95932,5,0,0:0:0:0:
337,109,95947,5,0,0:0:0:0:
323,109,95961,5,0,0:0:0:0:
217,97,95977,5,0,0:0:0:0:
202,96,95991,5,0,0:0:0:0:
188,96,96006,5,0,0:0:0:0:
174,96,96020,5,0,0:0:0:0:
61,97,96035,5,0,0:0:0:0:
47,96,96049,5,0,0:0:0:0:
32,96,96064,5,0,0:0:0:0:
19,96,96078,5,0,0:0:0:0:
174,96,96094,5,0,0:0:0:0:
188,96,96108,5,0,0:0:0:0:
202,96,96123,5,0,0:0:0:0:
217,97,96137,5,0,0:0:0:0:
333,97,96151,5,0,0:0:0:0:
346,97,96167,5,0,0:0:0:0:
361,97,96182,5,0,0:0:0:0:
376,99,96196,5,0,0:0:0:0:
469,97,96211,5,0,0:0:0:0:
482,97,96225,5,0,0:0:0:0:
497,97,96240,5,0,0:0:0:0:
511,99,96254,5,0,0:0:0:0:
317,287,96269,5,0,0:0:0:0:
293,287,96284,5,0,0:0:0:0:
269,287,96299,5,0,0:0:0:0:
245,287,96313,5,0,0:0:0:0:
220,287,96328,5,0,0:0:0:0:
196,287,96343,5,0,0:0:0:0:
173,287,96357,5,0,0:0:0:0:
149,287,96372,5,0,0:0:0:0:
180,287,96387,5,0,0:0:0:0:
205,287,96401,5,0,0:0:0:0:
229,287,96416,5,0,0:0:0:0:
253,287,96431,5,0,0:0:0:0:
276,287,96445,5,0,0:0:0:0:
300,287,96460,5,0,0:0:0:0:
325,287,96475,5,0,0:0:0:0:
349,287,96489,5,0,0:0:0:0:
44,284,96504,5,0,0:0:0:0:
33,261,96518,5,0,0:0:0:0:
23,239,96533,5,0,0:0:0:0:
12,217,96547,5,0,0:0:0:0:
3,193,96562,5,0,0:0:0:0:
11,171,96577,5,0,0:0:0:0:
22,149,96591,5,0,0:0:0:0:
33,127,96606,5,0,0:0:0:0:
460,284,96621,5,0,0:0:0:0:
471,261,96635,5,0,0:0:0:0:
481,239,96650,5,0,0:0:0:0:
492,217,96664,5,0,0:0:0:0:
501,193,96679,5,0,0:0:0:0:
493,171,96694,5,0,0:0:0:0:
482,149,96708,5,0,0:0:0:0:
471,127,96723,5,0,0:0:0:0:
44,284,96738,5,0,0:0:0:0:
33,261,96752,5,0,0:0:0:0:
23,239,96767,5,0,0:0:0:0:
12,217,96781,5,0,0:0:0:0:
3,193,96796,5,0,0:0:0:0:
11,171,96811,5,0,0:0:0:0:
22,149,96825,5,0,0:0:0:0:
33,127,96840,5,0,0:0:0:0:
460,284,96855,5,0,0:0:0:0:
471,261,96869,5,0,0:0:0:0:
481,239,96884,5,0,0:0:0:0:
492,217,96898,5,0,0:0:0:0:
501,193,96913,5,0,0:0:0:0:
493,171,96928,5,0,0:0:0:0:
482,149,96942,5,0,0:0:0:0:
471,127,96957,5,0,0:0:0:0:
44,284,96972,5,0,0:0:0:0:
33,261,96986,5,0,0:0:0:0:
23,239,97001,5,0,0:0:0:0:
12,217,97017,5,0,0:0:0:0:
3,193,97030,5,0,0:0:0:0:
11,171,97045,5,0,0:0:0:0:
22,149,97059,5,0,0:0:0:0:
33,127,97074,5,0,0:0:0:0:
460,284,97089,5,0,0:0:0:0:
471,261,97103,5,0,0:0:0:0:
481,239,97118,5,0,0:0:0:0:
492,217,97132,5,0,0:0:0:0:
501,193,97147,5,0,0:0:0:0:
493,171,97162,5,0,0:0:0:0:
482,149,97176,5,0,0:0:0:0:
471,127,97191,5,0,0:0:0:0:
44,284,97207,5,0,0:0:0:0:
33,261,97221,5,0,0:0:0:0:
23,239,97236,5,0,0:0:0:0:
12,217,97250,5,0,0:0:0:0:
3,193,97265,5,0,0:0:0:0:
11,171,97280,5,0,0:0:0:0:
22,149,97294,5,0,0:0:0:0:
33,127,97309,5,0,0:0:0:0:
460,284,97324,5,0,0:0:0:0:
471,261,97338,5,0,0:0:0:0:
481,239,97353,5,0,0:0:0:0:
492,217,97367,5,0,0:0:0:0:
501,193,97382,5,0,0:0:0:0:
493,171,97397,5,0,0:0:0:0:
482,149,97411,5,0,0:0:0:0:
471,127,97426,5,0,0:0:0:0:
366,111,97441,5,0,0:0:0:0:
351,109,97455,5,0,0:0:0:0:
337,109,97470,5,0,0:0:0:0:
323,109,97484,5,0,0:0:0:0:
219,103,97500,5,0,0:0:0:0:
205,102,97514,5,0,0:0:0:0:
190,102,97529,5,0,0:0:0:0:
177,102,97543,5,0,0:0:0:0:
44,284,97558,5,0,0:0:0:0:
33,261,97572,5,0,0:0:0:0:
23,239,97587,5,0,0:0:0:0:
12,217,97601,5,0,0:0:0:0:
3,193,97616,5,0,0:0:0:0:
11,171,97631,5,0,0:0:0:0:
22,149,97645,5,0,0:0:0:0:
33,127,97660,5,0,0:0:0:0:
460,284,97675,5,0,0:0:0:0:
471,261,97689,5,0,0:0:0:0:
481,239,97704,5,0,0:0:0:0:
492,217,97718,5,0,0:0:0:0:
501,193,97733,5,0,0:0:0:0:
493,171,97748,5,0,0:0:0:0:
482,149,97762,5,0,0:0:0:0:
471,127,97777,5,0,0:0:0:0:
366,111,97792,5,0,0:0:0:0:
351,109,97806,5,0,0:0:0:0:
337,109,97821,5,0,0:0:0:0:
323,109,97835,5,0,0:0:0:0:
219,103,97851,5,0,0:0:0:0:
205,102,97865,5,0,0:0:0:0:
190,102,97880,5,0,0:0:0:0:
177,102,97894,5,0,0:0:0:0:
44,284,97909,5,0,0:0:0:0:
33,261,97923,5,0,0:0:0:0:
23,239,97938,5,0,0:0:0:0:
12,217,97952,5,0,0:0:0:0:
3,193,97967,5,0,0:0:0:0:
11,171,97982,5,0,0:0:0:0:
22,149,97996,5,0,0:0:0:0:
33,127,98011,5,0,0:0:0:0:
460,284,98027,5,0,0:0:0:0:
471,261,98041,5,0,0:0:0:0:
481,239,98056,5,0,0:0:0:0:
492,217,98070,5,0,0:0:0:0:
501,193,98085,5,0,0:0:0:0:
493,171,98100,5,0,0:0:0:0:
482,149,98114,5,0,0:0:0:0:
471,127,98129,5,0,0:0:0:0:
366,111,98144,5,0,0:0:0:0:
351,109,98158,5,0,0:0:0:0:
337,109,98173,5,0,0:0:0:0:
323,109,98187,5,0,0:0:0:0:
219,103,98203,5,0,0:0:0:0:
205,102,98217,5,0,0:0:0:0:
190,102,98232,5,0,0:0:0:0:
177,102,98246,5,0,0:0:0:0:
44,284,98261,5,0,0:0:0:0:
33,261,98275,5,0,0:0:0:0:
23,239,98290,5,0,0:0:0:0:
12,217,98304,5,0,0:0:0:0:
3,193,98319,5,0,0:0:0:0:
11,171,98334,5,0,0:0:0:0:
22,149,98348,5,0,0:0:0:0:
33,127,98363,5,0,0:0:0:0:
323,109,98378,5,0,0:0:0:0:
323,109,98392,5,0,0:0:0:0:
323,109,98407,5,0,0:0:0:0:
323,109,98422,5,0,0:0:0:0:
323,109,98436,5,0,0:0:0:0:
323,109,98451,5,0,0:0:0:0:
323,109,98466,5,0,0:0:0:0:
323,109,98480,5,0,0:0:0:0:
188,109,98495,5,0,0:0:0:0:
188,109,98510,5,0,0:0:0:0:
188,109,98524,5,0,0:0:0:0:
188,109,98539,5,0,0:0:0:0:
188,109,98554,5,0,0:0:0:0:
188,109,98568,5,0,0:0:0:0:
188,109,98583,5,0,0:0:0:0:
188,109,98597,5,0,0:0:0:0:
458,286,98613,5,0,0:0:0:0:
464,274,98627,5,0,0:0:0:0:
471,264,98642,5,0,0:0:0:0:
477,252,98656,5,0,0:0:0:0:
484,242,98671,5,0,0:0:0:0:
492,230,98686,5,0,0:0:0:0:
498,219,98700,5,0,0:0:0:0:
505,208,98715,5,0,0:0:0:0:
511,197,98730,5,0,0:0:0:0:
512,186,98744,5,0,0:0:0:0:
506,175,98759,5,0,0:0:0:0:
499,164,98774,5,0,0:0:0:0:
492,153,98788,5,0,0:0:0:0:
485,141,98803,5,0,0:0:0:0:
478,131,98818,5,0,0:0:0:0:
464,121,98832,5,0,0:0:0:0:
366,111,98847,5,0,0:0:0:0:
351,109,98861,5,0,0:0:0:0:
337,109,98876,5,0,0:0:0:0:
323,109,98890,5,0,0:0:0:0:
217,97,98906,5,0,0:0:0:0:
202,96,98920,5,0,0:0:0:0:
188,96,98935,5,0,0:0:0:0:
174,96,98949,5,0,0:0:0:0:
61,97,98964,5,0,0:0:0:0:
47,96,98978,5,0,0:0:0:0:
32,96,98993,5,0,0:0:0:0:
19,96,99007,5,0,0:0:0:0:
174,96,99023,5,0,0:0:0:0:
188,96,99037,5,0,0:0:0:0:
202,96,99052,5,0,0:0:0:0:
217,97,99066,5,0,0:0:0:0:
333,97,99082,5,0,0:0:0:0:
346,97,99096,5,0,0:0:0:0:
361,97,99111,5,0,0:0:0:0:
376,99,99125,5,0,0:0:0:0:
469,97,99140,5,0,0:0:0:0:
482,97,99154,5,0,0:0:0:0:
497,97,99169,5,0,0:0:0:0:
511,99,99183,5,0,0:0:0:0:
366,111,99199,5,0,0:0:0:0:
351,109,99213,5,0,0:0:0:0:
337,109,99228,5,0,0:0:0:0:
323,109,99242,5,0,0:0:0:0:
217,97,99258,5,0,0:0:0:0:
202,96,99272,5,0,0:0:0:0:
188,96,99287,5,0,0:0:0:0:
174,96,99301,5,0,0:0:0:0:
61,97,99316,5,0,0:0:0:0:
47,96,99330,5,0,0:0:0:0:
32,96,99345,5,0,0:0:0:0:
19,96,99359,5,0,0:0:0:0:
174,96,99375,5,0,0:0:0:0:
188,96,99389,5,0,0:0:0:0:
202,96,99404,5,0,0:0:0:0:
217,97,99418,5,0,0:0:0:0:
333,97,99434,5,0,0:0:0:0:
346,97,99448,5,0,0:0:0:0:
361,97,99463,5,0,0:0:0:0:
376,99,99477,5,0,0:0:0:0:
469,97,99492,5,0,0:0:0:0:
482,97,99506,5,0,0:0:0:0:
497,97,99521,5,0,0:0:0:0:
511,99,99535,5,0,0:0:0:0:
352,128,99550,6,0,L|336:128,15,12.5
236,128,99784,6,0,L|220:128,15,12.5
96,128,100019,6,0,L|21:128,2,75.0000028610231
192,192,100370,2,0,L|191:146,1,37.5000014305115
363,263,100487,2,0,P|427:231|411:135,1,150.000005722046
240,192,100839,1,0,0:0:0:0:
432,160,100956,2,0,P|480:160|464:64,1,150.000005722046
400,96,101308,1,0,0:0:0:0:
160,96,101425,2,0,L|80:144,1,75.0000028610231
160,96,101659,2,0,L|240:128,1,75.0000028610231
336,160,101894,1,0,0:0:0:0:
448,160,102011,2,0,L|496:160,1,37.5000014305115
224,160,102128,6,0,P|192:160|128:256,1,150.000005722046
336,160,102479,1,0,0:0:0:0:
161,187,102597,2,0,P|113:155|33:187,1,150.000005722046
96,144,102948,1,0,0:0:0:0:
288,160,103065,2,0,L|352:112,2,75.0000028610231
192,208,103417,1,0,0:0:0:0:
96,256,103534,2,0,L|16:256,2,75.0000028610231
377,195,103886,2,0,L|377:245,1,37.5000014305115
240,256,104003,6,0,L|384:192,1,150.000005722046
304,224,104354,1,0,0:0:0:0:
96,320,104472,2,0,L|240:256,1,150.000005722046
160,288,104823,1,0,0:0:0:0:
32,336,104940,2,0,L|0:256,2,75.0000028610231
192,192,105292,1,0,0:0:0:0:
336,192,105409,2,0,L|400:128,1,75.0000028610231
336,192,105644,2,0,L|256:192,1,75.0000028610231
144,192,105878,6,0,P|112:224|112:336,1,150.000005722046
256,192,106229,2,0,L|304:192,1,37.5000014305115
512,192,106347,2,0,P|517:265|472:323,1,150.000005722046
192,320,106698,1,0,0:0:0:0:
144,320,106757,1,0,0:0:0:0:
192,320,106815,1,0,0:0:0:0:
368,320,106933,2,0,L|330:320,1,37.5000014305115
28,328,107050,6,0,P|17:294|28:260,1,56.2500021457673
256,192,107152,1,0,0:0:0:0:
483,55,107167,6,0,P|493:88|483:120,1,56.2500021457673
256,192,107269,1,0,0:0:0:0:
28,55,107284,6,0,P|17:89|28:123,1,56.2500021457673
256,192,107386,1,0,0:0:0:0:
483,326,107401,6,0,P|493:294|483:261,1,56.2500021457673
256,192,107503,1,0,0:0:0:0:
28,192,107519,1,0,0:0:0:0:
256,192,107577,12,0,114550,0:0:0:0:
