osu file format v14

[General]
AudioFilename: audio.mp3
AudioLeadIn: 0
PreviewTime: 30571
Countdown: 0
SampleSet: Soft
StackLeniency: 0.2
Mode: 0
LetterboxInBreaks: 0
WidescreenStoryboard: 0

[Editor]
Bookmarks: 2446,17446
DistanceSpacing: 0.9
BeatDivisor: 4
GridSize: 32
TimelineZoom: 3.800006

[Metadata]
Title:Kumo No Kireme [feat. Kourin.]
TitleUnicode:Kumo No Kireme [feat. 紅燐。]
Artist:Kobaryo
ArtistUnicode:Kobaryo
Creator:Yonaka-
Version:Extra
Source:
Tags:Speedcore Hardcore Rei Furuba Chaotic Solutions Dashy Dashyy- Asagi Slips
BeatmapID:1730657
BeatmapSetID:825710

[Difficulty]
HPDrainRate:5
CircleSize:3.5
OverallDifficulty:9.2
ApproachRate:9.6
SliderMultiplier:2.75
SliderTickRate:1

[Events]
//Background and Video events
0,0,"Kobaryo bkg.jpg",0,0
//Break Periods
2,62646,63577
2,66395,67093
2,73896,87483
//Storyboard Layer 0 (Background)
//Storyboard Layer 1 (Fail)
//Storyboard Layer 2 (Pass)
//Storyboard Layer 3 (Foreground)
//Storyboard Sound Samples

[TimingPoints]
571,234.375,4,2,0,100,1,0
1508,-666.666666666667,4,2,0,15,0,0
2446,-285.714285714286,4,2,0,55,0,0
16976,-1000,4,2,0,55,0,0
17328,-285.714285714286,4,2,0,5,0,0
17446,-285.714285714286,4,2,0,55,0,0
32446,-100,4,2,0,55,0,1
39184,-66.6666666666667,4,2,0,55,0,1
39946,-100,4,2,0,55,0,1
46684,-66.6666666666667,4,2,0,55,0,1
47211,-133.333333333333,4,2,0,55,0,1
47446,-100,4,2,0,55,0,0
54594,-66.6666666666667,4,2,0,55,0,0
54711,-50,4,2,0,55,0,0
54828,-40,4,2,0,55,0,0
54946,-100,4,2,0,55,0,0
61977,-40,4,2,0,55,0,0
62094,-50,4,2,0,55,0,0
62211,-66.6666666666667,4,2,0,55,0,0
62328,-100,4,2,0,55,0,0
64321,-100,4,2,0,55,0,1
66196,-66.6666666666667,4,2,0,55,0,0
68071,-100,4,2,0,55,0,1
73461,-25,4,2,0,55,0,1
73696,-100,4,2,0,55,0,0
87992,-666.666666666667,4,2,0,55,0,0
88696,-285.714285714286,4,2,0,55,0,0
118696,-400,4,2,0,55,0,0
126196,-285.714285714286,4,2,0,55,0,0
133696,-100,4,2,0,55,0,1
140434,-66.6666666666667,4,2,0,55,0,1
140961,-100,4,2,0,55,0,1
147934,-66.6666666666667,4,2,0,55,0,1
148696,-100,4,2,0,55,0,1
155317,-66.6666666666667,4,2,0,55,0,1
156196,-100,4,2,0,55,0,1
159946,-133.333333333333,4,2,0,55,0,1
161821,-100,4,2,0,55,0,1
162992,-66.6666666666667,4,2,0,55,0,1
163696,-133.333333333333,4,2,0,55,0,0
185727,-100,4,2,0,55,0,0
186196,-133.333333333333,4,2,0,55,0,0
193227,-100,4,2,0,55,0,0
193344,-76.9230769230769,4,2,0,55,0,0
193461,-62.5,4,2,0,55,0,0
193578,-52.6315789473684,4,2,0,55,0,0
200727,-45.4545454545455,4,2,0,5,0,0

[Colours]
Combo1 : 236,19,19
Combo2 : 6,170,249
Combo3 : 68,86,253
Combo4 : 244,72,202

[HitObjects]
256,192,571,12,0,1508,0:0:0:0:
409,118,1742,6,0,L|454:122,2,41.2499987411499
340,49,2446,5,0,0:0:0:0:
272,116,2680,1,0,0:0:0:0:
238,82,2797,2,0,L|135:90,1,96.2499970626832
94,96,3149,2,0,P|119:157|96:238,1,144.374995594025
66,264,3617,2,0,L|209:251,1,144.374995594025
257,245,4086,1,0,0:0:0:0:
326,312,4321,2,0,P|351:247|320:169,2,144.374995594025
326,312,5961,5,0,0:0:0:0:
422,322,6196,1,0,0:0:0:0:
489,254,6430,1,0,0:0:0:0:
455,220,6547,2,0,P|441:172|455:118,1,96.2499970626832
484,93,6899,2,0,L|340:80,1,144.374995594025
306,46,7367,2,0,L|162:58,1,144.374995594025
114,64,7836,1,0,0:0:0:0:
46,148,8071,2,0,P|111:173|189:142,1,144.374995594025
179,150,9242,5,0,0:0:0:0:
273,171,9477,1,0,0:0:0:0:
340,103,9711,1,0,0:0:0:0:
434,124,9946,5,0,0:0:0:0:
364,194,10180,1,0,0:0:0:0:
397,227,10297,2,0,P|405:266|394:321,1,96.2499970626832
359,354,10649,2,0,L|215:341,1,144.374995594025
181,307,11117,2,0,L|37:320,1,144.374995594025
0,323,11586,1,0,0:0:0:0:
99,225,11821,2,0,P|124:160|93:82,2,144.374995594025
99,225,13461,5,0,0:0:0:0:
192,200,13696,1,0,0:0:0:0:
259,267,13930,1,0,0:0:0:0:
292,300,14047,2,0,L|407:289,1,96.2499970626832
422,257,14399,2,0,P|447:192|416:114,1,144.374995594025
390,89,14867,2,0,L|244:75,1,144.374995594025
198,70,15336,1,0,0:0:0:0:
106,102,15571,2,0,P|81:167|112:245,1,144.374995594025
103,235,16977,6,0,L|145:231,1,41.25
178,197,17446,6,0,L|168:302,1,96.2499970626832,12|0,0:0|0:0,0:0:0:0:
271,190,17914,2,0,L|262:285,1,96.2499970626832,8|0,0:0|0:0,0:0:0:0:
125,123,18383,2,0,L|134:28,1,96.2499970626832,8|0,0:0|0:0,0:0:0:0:
218,116,18852,2,0,L|227:21,1,96.2499970626832,8|0,0:0|0:0,0:0:0:0:
364,181,19321,2,0,L|354:286,1,96.2499970626832,8|0,0:0|0:0,0:0:0:0:
457,174,19789,2,0,L|448:269,1,96.2499970626832,8|0,0:0|0:0,0:0:0:0:
311,107,20258,2,0,L|319:11,1,96.2499970626832,8|0,0:0|0:0,0:0:0:0:
404,100,20726,2,0,L|412:4,1,96.2499970626832,8|0,0:0|0:0,0:0:0:0:
76,291,21196,6,0,B|122:279|122:279|169:292,1,96.2499970626832,8|0,0:0|0:0,0:0:0:0:
269,197,21664,2,0,B|222:208|222:208|175:195,1,96.2499970626832,8|0,0:0|0:0,0:0:0:0:
255,372,22133,2,0,B|301:360|301:360|348:373,1,96.2499970626832,8|0,0:0|0:0,0:0:0:0:
448,278,22601,2,0,B|401:289|401:289|354:276,1,96.2499970626832,8|0,0:0|0:0,0:0:0:0:
82,194,23071,2,0,B|128:182|128:182|175:195,1,96.2499970626832,8|0,0:0|0:0,0:0:0:0:
275,100,23539,2,0,B|228:111|228:111|181:98,1,96.2499970626832,8|0,0:0|0:0,0:0:0:0:
261,275,24008,2,0,B|307:263|307:263|354:276,1,96.2499970626832,8|0,0:0|0:0,0:0:0:0:
454,181,24476,2,0,B|407:192|407:192|360:179,1,96.2499970626832,8|0,0:0|0:0,0:0:0:0:
97,226,24946,6,0,L|101:273,1,48.1249985313416,8|0,0:0|0:0,0:0:0:0:
179,195,25180,2,0,L|183:242,1,48.1249985313416,8|0,0:0|0:0,0:0:0:0:
251,310,25414,2,0,L|255:357,1,48.1249985313416,8|0,0:0|0:0,0:0:0:0:
333,279,25648,2,0,L|337:326,1,48.1249985313416,8|0,0:0|0:0,0:0:0:0:
261,160,25883,2,0,L|265:207,1,48.1249985313416,8|0,0:0|0:0,0:0:0:0:
343,129,26117,2,0,L|347:176,1,48.1249985313416,8|0,0:0|0:0,0:0:0:0:
415,244,26351,2,0,L|419:291,1,48.1249985313416,8|0,0:0|0:0,0:0:0:0:
497,213,26585,2,0,L|501:260,1,48.1249985313416,8|0,0:0|0:0,0:0:0:0:
429,112,26821,6,0,L|424:159,1,48.1249985313416,8|0,0:0|0:0,0:0:0:0:
347,81,27055,2,0,L|342:128,1,48.1249985313416,8|0,0:0|0:0,0:0:0:0:
275,196,27289,2,0,L|270:243,1,48.1249985313416,8|0,0:0|0:0,0:0:0:0:
193,165,27523,2,0,L|188:212,1,48.1249985313416,8|0,0:0|0:0,0:0:0:0:
265,46,27758,2,0,L|260:93,1,48.1249985313416,8|0,0:0|0:0,0:0:0:0:
183,15,27992,2,0,L|178:62,1,48.1249985313416,8|0,0:0|0:0,0:0:0:0:
111,130,28226,2,0,L|106:177,1,48.1249985313416,8|0,0:0|0:0,0:0:0:0:
29,99,28460,2,0,L|24:146,1,48.1249985313416,8|0,0:0|0:0,0:0:0:0:
56,268,28696,5,8,0:0:0:0:
77,277,28813,1,8,0:0:0:0:
101,281,28930,1,8,0:0:0:0:
125,277,29047,1,8,0:0:0:0:
147,268,29164,1,8,0:0:0:0:
176,247,29281,1,8,0:0:0:0:
211,240,29398,1,8,0:0:0:0:
246,247,29515,1,8,0:0:0:0:
274,269,29633,5,8,0:0:0:0:
308,302,29750,1,8,0:0:0:0:
355,314,29867,1,8,0:0:0:0:
400,301,29984,1,8,0:0:0:0:
433,267,30102,1,8,0:0:0:0:
435,197,30219,1,8,0:0:0:0:
381,152,30336,1,8,0:0:0:0:
312,166,30453,1,8,0:0:0:0:
298,166,32446,6,0,B|258:174|258:174|204:159|204:159|164:165,1,137.5
0,323,32680,2,0,B|40:315|40:315|94:330|94:330|134:324,1,137.5
270,308,32914,1,0,0:0:0:0:
97,231,33031,1,0,0:0:0:0:
97,231,33090,1,0,0:0:0:0:
97,231,33149,2,0,P|71:162|95:101,1,137.5
218,52,33383,5,0,0:0:0:0:
298,166,33500,2,0,L|443:153,1,137.5
512,276,33735,1,0,0:0:0:0:
512,276,33793,1,0,0:0:0:0:
512,276,33852,2,0,L|366:263,1,137.5
65,325,34086,1,0,0:0:0:0:
99,323,34144,1,0,0:0:0:0:
133,320,34203,1,0,0:0:0:0:
167,317,34261,1,0,0:0:0:0:
201,314,34320,5,0,0:0:0:0:
236,311,34378,1,0,0:0:0:0:
270,308,34438,2,0,B|251:238|251:238|271:173,1,137.5
312,45,34672,1,0,0:0:0:0:
178,73,34789,1,0,0:0:0:0:
404,148,34906,1,0,0:0:0:0:
404,148,34965,1,0,0:0:0:0:
404,148,35024,2,0,L|415:7,1,137.5
270,175,35258,5,0,0:0:0:0:
374,263,35375,2,0,B|437:283|437:283|507:264,1,137.5
264,303,35610,1,0,0:0:0:0:
264,303,35668,1,0,0:0:0:0:
264,303,35727,2,0,B|201:283|201:283|131:302,1,137.5
34,194,35961,2,0,L|0:190,6,34.375
66,231,36196,6,0,B|74:191|74:191|59:137|59:137|65:97,1,137.5
260,36,36430,2,0,B|252:76|252:76|267:130|267:130|261:170,1,137.5
164,131,36664,1,0,0:0:0:0:
363,83,36781,1,0,0:0:0:0:
363,83,36840,1,0,0:0:0:0:
363,83,36899,2,0,P|389:152|365:213,1,137.5
250,365,37133,5,0,0:0:0:0:
152,267,37250,2,0,L|164:124,1,137.5
0,37,37485,1,0,0:0:0:0:
0,37,37543,1,0,0:0:0:0:
0,37,37602,2,0,B|63:57|63:57|133:38,1,137.5
264,2,37836,1,0,0:0:0:0:
163,130,37953,1,0,0:0:0:0:
163,130,38012,1,0,0:0:0:0:
163,130,38071,6,0,B|231:111|231:111|294:131,1,137.5
512,232,38305,2,0,L|374:242,1,137.5
163,129,38539,1,0,0:0:0:0:
138,302,38656,1,0,0:0:0:0:
138,302,38715,1,0,0:0:0:0:
138,302,38774,2,0,P|207:328|268:304,1,137.5
205,228,39008,1,0,0:0:0:0:
45,367,39184,6,0,P|24:260|87:192,1,206.250007867813
205,228,39360,2,0,P|99:139|111:37,1,206.250007867813
194,12,39535,2,0,P|300:101|288:203,1,206.250007867813
264,307,39711,2,0,L|314:292,6,51.5625019669533
259,339,39946,6,0,B|327:320|327:320|390:340,1,137.5
485,240,40180,2,0,B|417:259|417:259|354:239,1,137.5
330,74,40414,1,0,0:0:0:0:
442,143,40531,1,0,0:0:0:0:
442,143,40590,1,0,0:0:0:0:
442,143,40649,2,0,L|452:5,1,137.5
199,58,40883,5,0,0:0:0:0:
353,238,41000,2,0,B|285:219|285:219|222:239,1,137.5
107,312,41235,1,0,0:0:0:0:
107,312,41293,1,0,0:0:0:0:
107,312,41352,2,0,P|133:243|109:182,1,137.5
73,52,41586,1,0,0:0:0:0:
102,71,41644,1,0,0:0:0:0:
135,78,41703,1,0,0:0:0:0:
169,74,41761,1,0,0:0:0:0:
199,58,41821,6,0,P|268:32|329:56,1,137.5
479,232,42055,2,0,P|410:258|349:234,1,137.5
267,143,42289,1,0,0:0:0:0:
107,312,42406,1,0,0:0:0:0:
107,312,42465,1,0,0:0:0:0:
107,312,42524,2,0,L|245:302,1,137.5
352,237,42758,5,0,0:0:0:0:
480,363,42875,2,0,B|499:295|499:295|479:232,1,137.5
400,127,43110,1,0,0:0:0:0:
400,127,43168,1,0,0:0:0:0:
400,127,43227,2,0,L|467:121,1,68.75
352,237,43344,1,0,0:0:0:0:
352,237,43402,1,0,0:0:0:0:
352,237,43461,2,0,L|316:233,6,34.375
287,254,43696,6,0,B|306:186|306:186|286:123,1,137.5
110,54,43930,2,0,B|91:122|91:122|111:185,1,137.5
145,318,44164,1,0,0:0:0:0:
7,308,44281,1,0,0:0:0:0:
7,308,44340,1,0,0:0:0:0:
7,308,44399,2,0,L|145:318,1,137.5
287,254,44633,1,0,0:0:0:0:
403,326,44750,6,0,P|429:257|405:196,1,137.5
304,108,44985,1,0,0:0:0:0:
304,108,45043,1,0,0:0:0:0:
304,108,45102,2,0,B|344:116|344:116|398:101|398:101|438:107,1,137.5
287,254,45336,1,0,0:0:0:0:
287,254,45571,6,0,B|247:246|247:246|193:261|193:261|153:255,1,137.5
73,12,45805,2,0,B|113:20|113:20|167:5|167:5|207:11,1,137.5
304,108,46039,1,0,0:0:0:0:
76,319,46156,1,0,0:0:0:0:
76,319,46215,1,0,0:0:0:0:
76,319,46274,2,0,P|56:255|82:193,1,137.5
202,125,46508,1,0,0:0:0:0:
260,373,46684,6,0,P|246:277|152:254,1,206.250007867813
151,254,46860,2,0,P|241:289|308:219,1,206.250007867813
309,218,47035,2,0,P|232:278|259:371,1,206.250007867813
315,305,47211,2,8,L|339:307,6,25.7812509834767
362,335,47446,6,0,L|500:325,1,137.5
202,125,47680,2,0,L|340:135,1,137.5
277,33,47914,1,0,0:0:0:0:
277,33,48031,1,0,0:0:0:0:
120,184,48149,2,0,P|100:120|126:58,1,137.5
212,224,48383,2,0,P|166:274|99:282,1,137.5
202,125,48617,2,0,P|268:139|309:193,1,137.5
259,371,48852,5,0,0:0:0:0:
212,224,48969,1,0,0:0:0:0:
388,261,49086,1,0,0:0:0:0:
201,125,49203,1,0,0:0:0:0:
398,162,49321,5,0,0:0:0:0:
300,289,49438,1,0,0:0:0:0:
300,289,49496,1,0,0:0:0:0:
300,289,49555,2,0,L|312:148,1,137.5
489,369,49789,2,0,L|476:228,1,137.5
398,162,50024,1,0,0:0:0:0:
398,162,50141,1,0,0:0:0:0:
512,63,50258,6,0,B|469:77|469:77|371:63,1,137.5
66,125,50492,2,0,B|109:111|109:111|207:125,1,137.5
279,269,50727,1,0,0:0:0:0:
97,218,50844,1,0,0:0:0:0:
172,363,50961,2,0,L|176:295,1,68.75
200,124,51078,2,0,L|204:191,1,68.75
279,269,51196,5,0,0:0:0:0:
310,285,51254,1,0,0:0:0:0:
344,289,51313,1,0,0:0:0:0:
377,282,51371,1,0,0:0:0:0:
406,263,51430,2,0,L|418:122,1,137.5
356,42,51664,1,0,0:0:0:0:
356,42,51781,1,0,0:0:0:0:
417,125,51899,2,0,P|353:145|291:119,1,137.5
77,186,52133,2,0,P|141:166|203:192,1,137.5
309,351,52367,2,0,L|168:363,1,137.5
57,370,52602,5,0,0:0:0:0:
136,262,52719,1,0,0:0:0:0:
0,283,52836,1,0,0:0:0:0:
203,192,52953,1,0,0:0:0:0:
9,112,53071,6,0,B|75:98|75:98|143:114,1,137.5
424,120,53305,2,0,B|358:134|358:134|290:118,1,137.5
357,21,53539,1,0,0:0:0:0:
357,21,53656,1,0,0:0:0:0:
488,188,53774,2,0,P|514:126|495:62,1,137.5
396,210,54008,5,0,0:0:0:0:
512,296,54125,1,0,0:0:0:0:
512,296,54184,1,0,0:0:0:0:
512,296,54242,2,0,L|371:308,1,137.5
136,237,54477,6,0,B|168:229|168:229|205:237,1,68.75
275,322,54594,2,0,B|227:333|227:333|173:322,1,103.125003933907
103,214,54711,2,0,B|164:198|164:198|236:214,1,137.5
309,351,54828,2,0,B|231:370|231:370|141:351,1,171.875
0,117,54946,6,0,B|63:131|63:131|134:117,1,137.5
236,214,55180,2,0,L|248:77,1,137.5
158,6,55414,1,0,0:0:0:0:
158,6,55531,1,0,0:0:0:0:
248,76,55649,2,0,P|310:102|374:83,1,137.5
512,69,55883,2,0,P|458:109|442:174,1,137.5
386,301,56117,2,0,P|377:234|329:188,1,137.5
174,322,56352,5,0,0:0:0:0:
297,280,56469,1,0,0:0:0:0:
168,319,56586,1,0,0:0:0:0:
328,187,56703,1,0,0:0:0:0:
88,316,56821,5,0,0:0:0:0:
184,158,56938,1,0,0:0:0:0:
184,158,56996,1,0,0:0:0:0:
184,158,57055,2,0,P|122:132|58:151,1,137.5
248,76,57289,2,0,P|310:102|374:83,1,137.5
477,18,57524,2,0,L|465:155,1,137.5
248,351,57758,2,0,L|236:213,1,137.5
512,294,57992,2,0,P|450:320|386:301,1,137.5
328,187,58227,5,0,0:0:0:0:
465,154,58344,1,0,0:0:0:0:
409,0,58461,2,0,L|403:67,1,68.75
328,187,58578,2,0,L|322:119,1,68.75
212,31,58696,6,0,L|251:34,6,34.375
177,31,58930,2,0,P|203:92|184:156,1,137.5
49,126,59164,1,0,0:0:0:0:
49,126,59281,1,0,0:0:0:0:
0,265,59399,2,0,L|138:253,1,137.5
319,169,59633,2,0,L|182:157,1,137.5
397,229,59867,2,0,P|418:165|392:103,1,137.5
212,31,60102,5,0,0:0:0:0:
331,1,60219,1,0,0:0:0:0:
204,34,60336,1,0,0:0:0:0:
392,103,60453,1,0,0:0:0:0:
188,282,60571,6,0,P|162:221|181:157,1,137.5
428,330,60805,2,0,L|290:318,1,137.5
265,215,61039,1,0,0:0:0:0:
265,215,61156,1,0,0:0:0:0:
291,318,61274,5,0,0:0:0:0:
376,141,61391,1,0,0:0:0:0:
182,157,61508,1,0,0:0:0:0:
397,229,61625,1,0,0:0:0:0:
397,229,61684,1,0,0:0:0:0:
397,229,61742,2,0,P|462:164|463:122,1,137.5
208,140,61977,6,0,B|298:159|298:159|376:140,1,171.875
303,3,62094,2,0,B|231:-13|231:-13|170:3,1,137.5
241,111,62211,2,0,B|293:121|293:121|341:110,1,103.125003933907
269,25,62328,2,0,B|234:17|234:17|202:25,1,68.75
74,103,62446,5,4,0:0:0:0:
74,103,64086,6,0,L|71:140,6,34.375
76,66,64321,5,0,0:0:0:0:
182,172,64438,1,0,0:0:0:0:
75,278,64555,2,0,L|212:289,1,137.5
362,304,64789,1,0,0:0:0:0:
182,172,64906,2,0,B|222:180|222:180|276:165|276:165|316:171,1,137.5
423,63,65141,1,0,0:0:0:0:
217,79,65258,5,0,0:0:0:0:
490,130,65375,2,0,P|516:61|492:0,1,137.5
316,171,65610,1,0,0:0:0:0:
499,314,65727,2,0,L|361:302,1,137.5
205,384,65961,1,0,0:0:0:0:
205,384,66020,1,0,0:0:0:0:
205,384,66078,2,0,P|231:315|207:254,1,137.5,0|4,0:0|0:0,0:0:0:0:
210,257,67602,6,8,L|211:232,8,25.7812509834767
295,144,67836,2,8,L|297:169,8,25.7812509834767,8|8|8|8|8|8|8|8|8,0:3|0:3|0:3|0:3|0:3|0:3|0:3|0:3|0:3,0:3:0:0:
207,55,68071,5,8,0:0:0:0:
419,22,68188,1,8,0:0:0:0:
419,22,68246,1,8,0:0:0:0:
419,22,68305,2,8,L|402:212,1,137.5
307,280,68539,1,8,0:0:0:0:
307,280,68597,1,8,0:0:0:0:
307,280,68656,2,8,L|290:89,1,137.5
420,278,68891,6,8,L|454:282,4,34.375
209,363,69125,1,8,0:0:0:0:
209,363,69184,1,8,0:0:0:0:
209,363,69242,2,8,B|190:295|190:295|210:232,1,137.5
301,142,69477,1,8,0:0:0:0:
301,142,69536,1,8,0:0:0:0:
301,142,69594,2,0,L|222:149,1,68.75
82,34,69711,2,0,L|160:41,1,68.75
307,40,69828,6,0,L|311:5,2,34.375
304,60,69946,5,0,0:0:0:0:
350,80,70004,1,0,0:0:0:0:
376,123,70063,1,0,0:0:0:0:
372,174,70121,1,0,0:0:0:0:
339,212,70180,1,0,0:0:0:0:
306,250,70239,1,0,0:0:0:0:
302,301,70297,1,0,0:0:0:0:
333,346,70356,1,0,0:0:0:0:
382,354,70414,5,0,0:0:0:0:
410,312,70472,1,0,0:0:0:0:
419,262,70531,1,0,0:0:0:0:
405,212,70589,1,0,0:0:0:0:
372,174,70648,1,0,0:0:0:0:
325,152,70706,1,0,0:0:0:0:
274,153,70765,1,0,0:0:0:0:
228,174,70824,1,0,0:0:0:0:
194,213,70883,6,0,L|188:172,20,34.375
98,153,71586,6,0,L|95:181,8,17.1875
27,81,71821,5,0,0:0:0:0:
57,64,71879,1,0,0:0:0:0:
90,57,71938,1,0,0:0:0:0:
124,60,71996,1,0,0:0:0:0:
156,73,72055,2,0,L|151:35,4,34.375
323,169,72289,1,0,0:0:0:0:
293,186,72347,1,0,0:0:0:0:
260,193,72406,1,0,0:0:0:0:
226,190,72464,1,0,0:0:0:0:
194,177,72524,2,0,L|199:215,4,34.375
266,362,72758,6,0,L|271:294,1,68.75
100,166,72875,2,0,L|94:233,1,68.75
186,296,72992,1,0,0:0:0:0:
186,296,73051,1,0,0:0:0:0:
186,296,73110,2,0,L|181:334,2,34.375
89,340,73227,1,0,0:0:0:0:
89,340,73286,1,0,0:0:0:0:
89,340,73345,2,0,L|84:378,2,34.375
0,289,73461,6,8,P|-11:278|6:288,9,68.75,8|8|8|8|8|8|8|8|8|8,0:3|0:3|0:3|0:3|0:3|0:3|0:3|0:3|0:3|0:3,0:3:0:0:
100,166,73696,5,4,0:0:0:0:
87,178,87992,6,0,L|90:134,2,41.2499987411499
47,266,88696,5,0,0:0:0:0:
142,253,88930,1,0,0:0:0:0:
175,286,89047,2,0,L|274:292,1,96.2499970626832
305,326,89399,2,0,L|454:315,1,144.374995594025
483,282,89867,2,0,P|507:222|480:147,1,144.374995594025
447,115,90336,1,0,0:0:0:0:
378,183,90571,2,0,B|294:210|318:156|231:183,2,144.374995594025
378,183,92211,5,0,0:0:0:0:
352,89,92446,1,0,0:0:0:0:
277,149,92680,1,0,0:0:0:0:
243,115,92797,2,0,P|196:104|146:120,1,96.2499970626832
116,151,93149,2,0,L|129:300,1,144.374995594025
134,342,93617,1,0,0:0:0:0:
134,342,94086,5,0,0:0:0:0:
214,289,94321,2,0,P|283:273|351:294,1,144.374995594025
351,294,95492,5,0,0:0:0:0:
419,225,95727,1,0,0:0:0:0:
418,128,95961,1,0,0:0:0:0:
348,60,96196,1,0,0:0:0:0:
251,60,96430,1,0,0:0:0:0:
217,93,96547,2,0,P|170:104|120:88,1,96.2499970626832
90,56,96899,2,0,L|103:205,1,144.374995594025
109,247,97367,1,0,0:0:0:0:
109,247,97836,5,0,0:0:0:0:
177,315,98071,2,0,B|261:342|237:288|324:315,2,144.374995594025
177,315,99711,5,0,0:0:0:0:
109,247,99946,1,0,0:0:0:0:
202,223,100180,1,0,0:0:0:0:
235,189,100297,2,0,P|246:142|230:92,1,96.2499970626832
198,62,100649,2,0,L|347:75,1,144.374995594025
389,79,101117,1,0,0:0:0:0:
389,79,101586,5,0,0:0:0:0:
334,158,101821,2,0,P|318:224|341:294,1,144.374995594025
256,192,102289,12,0,103227,0:0:0:0:
137,313,103696,6,0,L|128:217,1,96.2499970626832
204,53,104164,2,0,L|196:149,1,96.2499970626832
56,128,104516,1,0,0:0:0:0:
56,128,104633,2,0,P|77:132|111:126,1,48.1249985313416
269,245,104867,2,0,P|248:241|214:247,1,48.1249985313416
127,264,105102,2,0,P|123:240|128:217,1,48.1249985313416
195,101,105336,2,0,P|199:125|195:149,1,48.1249985313416
191,340,105571,6,0,L|290:331,1,96.2499970626832
456,264,106039,2,0,L|361:256,1,96.2499970626832
285,180,106391,1,0,0:0:0:0:
285,180,106508,2,0,P|281:156|285:132,1,48.1249985313416
209,9,106742,2,0,P|213:33|210:57,1,48.1249985313416
191,200,106977,2,0,P|187:176|191:152,1,48.1249985313416
115,29,107211,2,0,P|119:52|115:76,1,48.1249985313416
0,219,107446,6,0,L|110:226,1,96.2499970626832
266,293,107914,2,0,L|170:300,1,96.2499970626832
72,322,108266,1,0,0:0:0:0:
72,322,108383,2,0,P|68:346|72:370,1,48.1249985313416
96,225,108617,2,0,P|77:209|54:201,1,48.1249985313416
169,300,108852,2,0,P|191:291|210:276,1,48.1249985313416
411,310,109086,2,0,P|392:294|369:286,1,48.1249985313416
286,331,109321,6,0,L|294:228,1,96.2499970626832
366,57,109789,2,0,L|375:153,1,96.2499970626832
456,234,110141,2,0,L|461:174,1,48.1249985313416
369,286,110375,2,0,L|376:381,1,96.2499970626832
383,378,110727,2,0,L|380:331,1,48.1249985313416
459,186,110961,2,0,L|456:234,1,48.1249985313416
294,235,111196,6,0,P|247:225|197:239,1,96.2499970626832
40,166,111664,2,0,P|86:178|133:168,1,96.2499970626832
201,99,112016,1,0,0:0:0:0:
201,99,112133,2,0,L|261:104,1,48.1249985313416
364,30,112367,2,0,L|317:34,1,48.1249985313416
259,218,112602,2,0,L|319:223,1,48.1249985313416
422,149,112836,2,0,L|374:152,1,48.1249985313416
471,289,113071,6,0,P|424:299|378:287,1,96.2499970626832
166,216,113539,2,0,P|212:205|258:217,1,96.2499970626832
215,349,113891,2,0,L|210:289,1,48.1249985313416
173,120,114125,2,0,L|163:231,1,96.2499970626832
80,182,114477,2,0,L|83:134,1,48.1249985313416
211,301,114711,2,0,L|147:306,1,48.1249985313416
165,215,114946,6,0,L|276:205,1,96.2499970626832
423,146,115414,2,0,L|328:139,1,96.2499970626832
344,320,115883,2,0,P|356:274|346:228,1,96.2499970626832
242,69,116352,2,0,P|238:93|242:117,1,48.1249985313416
155,48,116586,2,0,P|158:24|155:0,1,48.1249985313416
0,129,116821,6,0,L|95:121,1,96.2499970626832
259,208,117289,2,0,L|163:200,1,96.2499970626832
93,315,117641,2,0,P|90:291|94:268,1,48.1249985313416
169,376,117875,2,0,L|264:368,1,96.2499970626832
333,299,118227,2,0,L|476:312,1,144.374995594025
410,218,118696,6,0,P|404:191|410:146,1,68.75
441,32,119164,2,0,P|420:50|378:67,1,68.75
265,99,119633,2,0,P|291:107|327:135,1,68.75
282,216,120102,2,0,P|255:207|219:180,1,68.75
94,181,120571,6,0,P|100:208|94:253,1,68.75
63,367,121039,2,0,P|83:348|125:331,1,68.75
239,300,121508,2,0,P|212:291|176:264,1,68.75
222,183,121977,2,0,P|248:191|284:219,1,68.75
338,367,122446,6,0,L|331:296,1,68.75
384,148,122914,2,0,L|378:216,1,68.75
212,221,123383,2,0,L|282:214,1,68.75
499,312,123852,2,0,L|428:305,1,68.75
161,69,124321,6,0,L|167:139,1,68.75
115,288,124789,2,0,L|120:219,1,68.75
287,215,125258,2,0,L|216:221,1,68.75
0,124,125727,2,0,L|70:130,1,68.75
158,30,126196,5,0,0:0:0:0:
239,37,126430,1,0,0:0:0:0:
320,44,126664,1,0,0:0:0:0:
401,51,126899,1,0,0:0:0:0:
459,126,127133,5,0,0:0:0:0:
361,134,127367,1,0,0:0:0:0:
264,142,127601,1,0,0:0:0:0:
167,151,127836,1,0,0:0:0:0:
101,227,128071,5,0,0:0:0:0:
218,236,128305,1,0,0:0:0:0:
335,246,128539,1,0,0:0:0:0:
451,257,128774,1,0,0:0:0:0:
508,333,129008,5,0,0:0:0:0:
367,343,129242,1,0,0:0:0:0:
227,355,129476,1,0,0:0:0:0:
88,369,129711,1,0,0:0:0:0:
101,227,129946,5,0,0:0:0:0:
132,212,130063,1,0,0:0:0:0:
165,206,130180,1,0,0:0:0:0:
199,209,130297,1,0,0:0:0:0:
232,221,130414,1,0,0:0:0:0:
272,253,130531,1,0,0:0:0:0:
322,264,130648,1,0,0:0:0:0:
371,253,130765,1,0,0:0:0:0:
412,221,130883,6,0,L|415:199,3,24.0624992656708
321,149,131117,2,0,L|318:126,3,24.0624992656708
419,99,131352,5,0,0:0:0:0:
384,95,131410,1,0,0:0:0:0:
350,92,131469,1,0,0:0:0:0:
316,89,131527,1,0,0:0:0:0:
282,86,131586,1,0,0:0:0:0:
247,83,131644,1,0,0:0:0:0:
213,80,131703,1,0,0:0:0:0:
179,77,131762,1,0,0:0:0:0:
57,54,133696,5,0,0:0:0:0:
112,179,133813,1,0,0:0:0:0:
14,276,133930,2,0,B|54:268|54:268|108:283|108:283|148:277,1,137.5
245,179,134164,1,0,0:0:0:0:
352,384,134281,1,0,0:0:0:0:
352,384,134340,1,0,0:0:0:0:
352,384,134399,2,0,P|378:315|354:254,1,137.5
245,179,134633,5,0,0:0:0:0:
508,136,134750,2,0,L|365:122,1,137.5
177,240,134985,1,0,0:0:0:0:
177,240,135043,1,0,0:0:0:0:
177,240,135102,2,0,P|156:175|182:113,1,137.5
451,62,135336,1,0,0:0:0:0:
416,59,135394,1,0,0:0:0:0:
382,56,135453,1,0,0:0:0:0:
348,53,135511,1,0,0:0:0:0:
314,50,135570,5,0,0:0:0:0:
279,47,135628,1,0,0:0:0:0:
245,44,135688,2,0,B|253:84|253:84|238:138|238:138|244:178,1,137.5
460,231,135922,1,0,0:0:0:0:
331,144,136039,1,0,0:0:0:0:
443,351,136156,1,0,0:0:0:0:
443,351,136215,1,0,0:0:0:0:
443,351,136274,2,0,B|403:343|403:343|349:358|349:358|309:352,1,137.5
177,240,136508,5,0,0:0:0:0:
330,143,136625,2,0,P|356:205|336:270,1,137.5
82,332,136860,1,0,0:0:0:0:
82,332,136919,1,0,0:0:0:0:
82,332,136978,2,0,B|122:324|122:324|176:339|176:339|216:333,1,137.5
179,205,137211,2,0,L|176:239,6,34.375
183,173,137446,5,0,0:0:0:0:
216,332,137563,1,0,0:0:0:0:
460,231,137680,2,0,L|323:217,1,137.5
248,102,137914,1,0,0:0:0:0:
337,0,138031,1,0,0:0:0:0:
337,0,138090,1,0,0:0:0:0:
337,0,138149,2,0,B|329:40|329:40|344:94|344:94|338:134,1,137.5
183,173,138383,5,0,0:0:0:0:
58,38,138500,2,0,P|120:12|185:32,1,137.5
43,336,138735,1,0,0:0:0:0:
43,336,138793,1,0,0:0:0:0:
43,336,138852,2,0,L|29:199,1,137.5
126,102,139086,1,0,0:0:0:0:
141,266,139203,1,0,0:0:0:0:
141,266,139262,1,0,0:0:0:0:
141,266,139321,6,0,B|181:274|181:274|235:259|235:259|275:265,1,137.5
506,166,139555,2,0,B|466:158|466:158|412:173|412:173|372:167,1,137.5
126,102,139789,1,0,0:0:0:0:
253,6,139906,1,0,0:0:0:0:
253,6,139964,1,0,0:0:0:0:
253,6,140023,2,0,P|274:71|248:133,1,137.5
29,199,140258,5,0,0:0:0:0:
29,199,140316,1,0,0:0:0:0:
29,199,140375,1,0,0:0:0:0:
29,199,140434,2,0,B|84:248|162:205|162:205|133:176|88:200,1,206.250007867813
350,270,140610,1,0,0:0:0:0:
350,270,140668,1,0,0:0:0:0:
350,270,140727,1,0,0:0:0:0:
350,270,140786,2,0,B|294:319|216:276|216:276|245:247|290:271,1,206.250007867813
455,257,140961,2,0,L|452:291,4,34.375
464,156,141196,5,0,0:0:0:0:
350,270,141313,1,0,0:0:0:0:
237,167,141430,2,0,B|277:175|277:175|331:160|331:160|371:166,1,137.5
333,370,141664,1,0,0:0:0:0:
166,227,141781,1,0,0:0:0:0:
166,227,141839,1,0,0:0:0:0:
166,227,141898,2,0,P|145:162|171:100,1,137.5
300,54,142133,5,0,0:0:0:0:
31,2,142250,2,0,L|45:139,1,137.5
72,315,142485,1,0,0:0:0:0:
72,315,142543,1,0,0:0:0:0:
72,315,142602,2,0,B|112:307|112:307|166:322|166:322|206:316,1,137.5
297,229,142836,1,0,0:0:0:0:
265,215,142894,1,0,0:0:0:0:
231,210,142953,1,0,0:0:0:0:
197,214,143011,1,0,0:0:0:0:
166,227,143071,6,0,L|178:86,1,137.5
431,228,143305,2,0,B|391:220|391:220|337:235|337:235|297:229,1,137.5
472,126,143539,1,0,0:0:0:0:
501,329,143656,1,0,0:0:0:0:
501,329,143714,1,0,0:0:0:0:
501,329,143773,2,0,P|436:350|374:324,1,137.5
296,228,144008,5,0,0:0:0:0:
472,126,144125,2,0,L|331:113,1,137.5
215,292,144360,1,0,0:0:0:0:
215,292,144418,1,0,0:0:0:0:
215,292,144477,2,0,P|194:227|220:165,1,137.5
335,113,144711,2,0,L|332:148,4,34.375
233,50,144946,5,0,0:0:0:0:
296,228,145063,1,0,0:0:0:0:
109,315,145180,2,0,B|103:275|103:275|118:221|118:221|110:181,1,137.5
10,359,145414,1,0,0:0:0:0:
215,292,145531,1,0,0:0:0:0:
215,292,145589,1,0,0:0:0:0:
215,292,145649,2,0,L|355:304,1,137.5
466,204,145883,5,0,0:0:0:0:
323,73,146000,2,0,P|302:138|328:200,1,137.5
512,86,146235,1,0,0:0:0:0:
512,86,146293,1,0,0:0:0:0:
512,86,146352,2,0,P|466:35|399:26,1,137.5
327,199,146586,1,0,0:0:0:0:
327,199,146821,5,0,0:0:0:0:
233,50,146938,1,0,0:0:0:0:
41,173,147055,2,0,B|81:179|81:179|135:164|135:164|175:172,1,137.5
327,199,147289,1,0,0:0:0:0:
233,384,147406,1,0,0:0:0:0:
233,384,147465,1,0,0:0:0:0:
233,384,147524,2,0,P|212:319|238:257,1,137.5
389,293,147758,1,0,0:0:0:0:
389,293,147934,6,0,P|433:189|356:93,1,206.250007867813
222,7,148110,2,0,P|273:20|312:61,1,103.125003933907
308,157,148227,2,0,P|270:194|215:208,1,103.125003933907
134,156,148344,2,0,P|120:105|135:49,1,103.125003933907
51,219,148461,2,0,L|-3:214,4,51.5625019669533
142,251,148696,5,0,0:0:0:0:
161,279,148754,1,0,0:0:0:0:
169,313,148813,1,0,0:0:0:0:
165,347,148871,1,0,0:0:0:0:
149,384,148930,2,0,L|290:374,1,137.5
450,364,149164,1,0,0:0:0:0:
223,208,149281,1,0,0:0:0:0:
223,208,149340,1,0,0:0:0:0:
223,208,149399,2,0,B|263:214|263:214|317:199|317:199|357:207,1,137.5
438,52,149633,5,0,0:0:0:0:
259,0,149750,2,0,P|238:63|259:128,1,137.5
491,206,149985,1,0,0:0:0:0:
491,206,150043,1,0,0:0:0:0:
491,206,150102,2,0,B|451:200|451:200|397:215|397:215|357:207,1,137.5
258,127,150336,1,0,0:0:0:0:
37,219,150453,1,0,0:0:0:0:
37,219,150511,1,0,0:0:0:0:
37,219,150570,6,0,B|77:225|77:225|130:210|130:210|171:218,1,137.5
357,335,150805,2,0,P|378:272|357:207,1,137.5
258,127,151039,1,0,0:0:0:0:
449,18,151156,1,0,0:0:0:0:
449,18,151214,1,0,0:0:0:0:
449,18,151273,2,0,B|443:58|443:58|458:112|458:112|450:152,1,137.5
258,127,151508,5,0,0:0:0:0:
329,9,151625,2,0,L|188:-1,1,137.5
0,149,151860,1,0,0:0:0:0:
0,149,151918,1,0,0:0:0:0:
0,149,151977,2,0,L|141:139,1,137.5
258,127,152211,2,0,L|262:92,4,34.375
56,260,152446,5,0,0:0:0:0:
86,244,152504,1,0,0:0:0:0:
120,238,152563,1,0,0:0:0:0:
154,243,152621,1,0,0:0:0:0:
185,258,152680,1,0,0:0:0:0:
215,275,152738,1,0,0:0:0:0:
249,281,152797,1,0,0:0:0:0:
283,276,152855,1,0,0:0:0:0:
314,261,152914,1,0,0:0:0:0:
406,326,153031,1,0,0:0:0:0:
406,326,153090,1,0,0:0:0:0:
406,326,153149,2,0,P|427:263|406:198,1,137.5
258,127,153383,5,0,0:0:0:0:
512,87,153500,2,0,L|371:77,1,137.5
174,191,153735,1,0,0:0:0:0:
174,191,153793,1,0,0:0:0:0:
173,192,153852,2,0,P|151:127|172:63,1,137.5
314,261,154086,1,0,0:0:0:0:
153,336,154203,1,0,0:0:0:0:
35,201,154321,5,0,0:0:0:0:
35,201,154379,1,0,0:0:0:0:
35,201,154438,2,0,L|176:191,1,137.5
451,270,154672,2,0,L|310:260,1,137.5
176,63,154906,1,0,0:0:0:0:
176,63,154965,1,0,0:0:0:0:
176,63,155024,2,0,P|241:41|305:62,1,137.5
413,171,155258,5,0,0:0:0:0:
413,171,155317,2,0,P|392:130|405:63,1,103.125003933907
499,65,155434,1,0,0:0:0:0:
499,65,155493,2,0,P|519:105|506:172,1,103.125003933907
299,356,155610,1,0,0:0:0:0:
299,356,155669,2,0,P|319:315|306:248,1,103.125003933907
213,250,155786,1,0,0:0:0:0:
213,250,155845,2,0,P|192:290|205:357,1,103.125003933907
258,127,155961,6,0,L|253:75,4,51.5625019669533
266,165,156196,5,0,0:0:0:0:
234,151,156254,1,0,0:0:0:0:
200,148,156313,1,0,0:0:0:0:
167,158,156371,1,0,0:0:0:0:
139,178,156430,1,0,0:0:0:0:
107,191,156488,1,0,0:0:0:0:
73,194,156547,1,0,0:0:0:0:
40,184,156605,1,0,0:0:0:0:
12,164,156664,1,0,0:0:0:0:
210,377,156781,1,0,0:0:0:0:
210,377,156839,1,0,0:0:0:0:
211,378,156898,2,0,P|233:313|212:249,1,137.5
86,90,157133,5,0,0:0:0:0:
266,165,157250,2,0,B|306:171|306:171|359:156|359:156|400:164,1,137.5
511,98,157485,1,0,0:0:0:0:
511,98,157543,1,0,0:0:0:0:
511,98,157602,2,0,P|533:163|512:227,1,137.5
370,295,157836,1,0,0:0:0:0:
266,165,157953,1,0,0:0:0:0:
400,164,158071,5,0,0:0:0:0:
236,296,158188,1,0,0:0:0:0:
128,174,158305,2,0,L|269:164,1,137.5
187,57,158539,1,0,0:0:0:0:
52,240,158657,1,0,0:0:0:0:
52,240,158715,1,0,0:0:0:0:
52,240,158774,2,0,P|31:175|53:111,1,137.5
236,296,159008,5,0,0:0:0:0:
3,346,159125,2,0,B|43:340|43:340|96:355|96:355|137:347,1,137.5
325,235,159360,1,0,0:0:0:0:
325,235,159418,1,0,0:0:0:0:
325,235,159477,2,0,P|345:299|323:363,1,137.5
128,174,159711,2,0,L|85:178,4,34.375
156,196,159946,6,0,L|165:84,1,103.125003933907
62,8,160180,2,0,L|52:119,1,103.125003933907
374,211,160414,2,0,L|382:108,1,103.125003933907
279,23,160648,2,0,L|273:125,1,103.125003933907
425,295,160883,6,0,P|378:311|324:295,1,103.125003933907
58,198,161117,2,0,P|105:182|159:198,1,103.125003933907
236,384,161352,1,0,0:0:0:0:
115,287,161469,1,0,0:0:0:0:
115,287,161528,1,0,0:0:0:0:
115,287,161586,1,0,0:0:0:0:
268,230,161703,1,0,0:0:0:0:
268,230,161762,1,0,0:0:0:0:
268,230,161821,6,0,L|254:91,1,137.5
388,5,162055,2,0,L|374:143,1,137.5
356,307,162289,1,0,0:0:0:0:
126,91,162406,2,0,P|190:70|254:92,1,137.5
58,198,162641,1,0,0:0:0:0:
27,0,162758,1,0,0:0:0:0:
60,310,162992,6,0,B|174:326|174:326|234:288|234:288|369:309,1,309.37501180172
290,377,163227,2,0,P|288:238|427:237,1,309.37501180172
496,332,163461,2,0,L|498:301,9,25.7812509834767
427,237,163696,6,0,L|445:22,1,206.250007867813
354,4,164047,2,0,L|336:209,1,206.250007867813
149,233,164399,2,0,L|167:18,1,206.250007867813
76,0,164750,2,0,L|58:205,1,206.250007867813
51,309,165102,1,0,0:0:0:0:
51,309,165688,6,0,P|129:293|216:380,1,206.250007867813
214,374,166039,2,0,P|161:313|193:194,1,206.250007867813
189,198,166391,2,0,P|162:273|44:305,1,206.250007867813
17,188,166742,2,0,P|43:146|100:130,1,103.125003933907
189,198,166977,6,0,L|193:141,1,51.5625019669533
150,3,167094,2,0,L|154:59,1,51.5625019669533
281,241,167211,1,0,0:0:0:0:
284,215,167269,1,0,0:0:0:0:
286,189,167328,1,0,0:0:0:0:
288,163,167386,1,0,0:0:0:0:
290,138,167446,6,0,B|362:152|362:152|410:138|410:138|497:155,1,206.250007867813
466,44,167797,2,0,B|394:30|394:30|346:44|346:44|259:27,1,206.250007867813
105,335,168149,2,0,B|177:349|177:349|225:335|225:335|312:352,1,206.250007867813
281,241,168500,2,0,B|209:227|209:227|161:241|161:241|74:224,1,206.250007867813
155,140,168852,1,0,0:0:0:0:
155,140,169438,6,0,B|137:1|137:1|195:31,1,206.250007867813
269,120,169789,2,0,B|157:205|157:205|154:139,1,206.250007867813
195,31,170141,2,0,B|324:84|324:84|269:120,1,206.250007867813
376,195,170492,2,0,L|315:189,1,51.5625019669533
154,139,170610,2,0,L|214:133,1,51.5625019669533
436,44,170727,1,0,0:0:0:0:
410,42,170785,1,0,0:0:0:0:
384,39,170844,1,0,0:0:0:0:
358,37,170902,1,0,0:0:0:0:
321,34,170961,6,0,L|325:86,1,51.5625019669533
471,235,171078,2,0,L|475:182,1,51.5625019669533
181,290,171196,6,0,L|236:295,1,51.5625019669533
284,280,171313,2,0,L|172:291,1,103.125003933907
102,227,171547,2,0,L|46:232,1,51.5625019669533
0,217,171664,2,0,L|111:228,1,103.125003933907
154,139,171899,6,0,L|209:144,1,51.5625019669533
257,129,172016,2,0,L|145:140,1,103.125003933907
102,49,172250,2,0,L|46:54,1,51.5625019669533
0,39,172367,2,0,L|111:50,1,103.125003933907
206,43,172602,5,0,0:0:0:0:
257,129,172719,1,0,0:0:0:0:
329,56,172836,1,0,0:0:0:0:
353,45,172894,1,0,0:0:0:0:
377,38,172953,1,0,0:0:0:0:
403,36,173011,1,0,0:0:0:0:
429,38,173070,1,0,0:0:0:0:
454,44,173128,1,0,0:0:0:0:
477,54,173188,6,0,P|468:77|466:108,1,51.5625019669533
499,153,173305,2,0,P|494:101|476:53,1,103.125003933907
382,153,173539,2,0,P|373:176|371:207,1,51.5625019669533
404,252,173656,2,0,P|399:200|381:152,1,103.125003933907
287,252,173891,2,0,P|278:275|276:306,1,51.5625019669533
309,351,174008,2,0,P|304:299|286:251,1,103.125003933907
78,281,174242,2,0,L|186:290,1,103.125003933907
278,154,174477,2,0,P|252:148|223:153,1,51.5625019669533
103,75,174594,2,0,P|128:81|154:78,1,51.5625019669533
234,12,174711,1,0,0:0:0:0:
259,14,174769,1,0,0:0:0:0:
285,16,174828,1,0,0:0:0:0:
310,19,174886,1,0,0:0:0:0:
336,27,174945,5,0,0:0:0:0:
336,27,175004,1,0,0:0:0:0:
336,27,175063,2,0,L|440:34,1,103.125003933907
476,125,175297,1,0,0:0:0:0:
476,125,175356,1,0,0:0:0:0:
476,126,175415,2,0,L|372:119,1,103.125003933907
319,205,175649,5,0,0:0:0:0:
319,205,175708,1,0,0:0:0:0:
318,204,175767,2,0,L|422:211,1,103.125003933907
458,306,176001,1,0,0:0:0:0:
458,306,176060,1,0,0:0:0:0:
458,307,176117,2,0,L|354:300,1,103.125003933907
251,374,176352,5,0,0:0:0:0:
251,374,176410,1,0,0:0:0:0:
251,374,176469,2,0,P|234:336|251:270,1,103.125003933907
318,204,176703,1,0,0:0:0:0:
318,204,176762,1,0,0:0:0:0:
318,204,176821,5,0,0:0:0:0:
245,131,176938,1,0,0:0:0:0:
245,131,176997,1,0,0:0:0:0:
245,130,177056,2,0,L|141:137,1,103.125003933907
0,36,177289,1,0,0:0:0:0:
0,36,177348,1,0,0:0:0:0:
0,35,177407,2,0,L|102:42,1,103.125003933907
245,278,177641,5,0,0:0:0:0:
245,278,177700,1,0,0:0:0:0:
245,277,177759,2,0,L|141:284,1,103.125003933907
77,218,177992,1,0,0:0:0:0:
77,218,178051,1,0,0:0:0:0:
77,217,178110,1,0,0:0:0:0:
142,136,178227,1,0,0:0:0:0:
167,135,178286,1,0,0:0:0:0:
193,133,178344,1,0,0:0:0:0:
219,131,178403,1,0,0:0:0:0:
245,130,178461,5,0,0:0:0:0:
271,102,178519,1,0,0:0:0:0:
280,65,178578,1,0,0:0:0:0:
271,28,178636,1,0,0:0:0:0:
244,1,178696,6,0,L|356:12,1,103.125003933907
511,85,178930,2,0,L|399:95,1,103.125003933907
219,131,179164,2,0,L|330:141,1,103.125003933907
486,214,179398,2,0,L|374:224,1,103.125003933907
329,300,179633,5,0,0:0:0:0:
239,275,179750,1,0,0:0:0:0:
173,340,179867,1,0,0:0:0:0:
83,315,179984,1,0,0:0:0:0:
149,250,180102,2,0,P|162:198|148:151,1,103.125003933907
0,25,180336,2,0,P|38:62|86:73,1,103.125003933907
171,6,180571,6,0,L|273:16,1,103.125003933907
297,26,180746,1,0,0:0:0:0:
315,44,180805,2,0,P|328:96|314:143,1,103.125003933907
149,250,181039,2,0,P|184:213|233:200,1,103.125003933907
410,289,181274,2,0,P|360:276|324:240,1,103.125003933907
412,186,181508,5,0,0:0:0:0:
500,238,181625,1,0,0:0:0:0:
498,341,181742,1,0,0:0:0:0:
402,378,181860,1,0,0:0:0:0:
314,326,181977,1,0,0:0:0:0:
410,289,182094,1,0,0:0:0:0:
218,363,182211,1,0,0:0:0:0:
210,338,182269,1,0,0:0:0:0:
210,312,182328,1,0,0:0:0:0:
216,287,182386,1,0,0:0:0:0:
229,265,182446,6,0,L|196:268,4,25.7812509834767
281,176,182680,2,0,L|178:165,1,103.125003933907
88,216,182914,2,0,P|74:166|88:117,1,103.125003933907
11,325,183149,2,0,L|113:314,1,103.125003933907
218,363,183383,5,0,0:0:0:0:
314,326,183500,1,0,0:0:0:0:
229,265,183617,1,0,0:0:0:0:
325,228,183735,1,0,0:0:0:0:
410,289,183852,1,0,0:0:0:0:
425,187,183969,1,0,0:0:0:0:
340,126,184085,1,0,0:0:0:0:
244,163,184203,1,0,0:0:0:0:
155,108,184321,6,0,P|141:58|155:9,1,103.125003933907
244,163,184555,2,0,P|207:198|158:211,1,103.125003933907
248,59,184789,2,0,L|351:68,1,103.125003933907
512,128,185024,2,0,L|408:137,1,103.125003933907
352,211,185258,5,0,0:0:0:0:
329,222,185316,1,0,0:0:0:0:
304,227,185375,1,0,0:0:0:0:
278,224,185433,1,0,0:0:0:0:
255,214,185492,1,0,0:0:0:0:
232,203,185551,1,0,0:0:0:0:
207,198,185610,1,0,0:0:0:0:
181,201,185668,1,0,0:0:0:0:
158,211,185727,6,0,L|171:129,1,68.75
27,0,185844,2,0,L|38:68,1,68.75
207,71,185961,2,0,P|174:62|135:70,1,68.75
0,138,186078,2,0,P|32:146|66:141,1,68.75
317,20,186196,6,0,L|305:143,1,103.125003933907
418,34,186430,2,0,L|406:157,1,103.125003933907
483,224,186664,6,0,B|412:241|412:241|340:221|340:221|272:240,1,206.250007867813
184,268,187016,1,0,0:0:0:0:
96,322,187133,6,0,P|80:271|96:218,1,103.125003933907
257,114,187367,2,0,P|220:153|166:165,1,103.125003933907
118,25,187602,2,0,B|233:58|193:-14|324:30,1,206.250007867813
380,110,187953,1,0,0:0:0:0:
454,38,188071,5,0,0:0:0:0:
407,217,188188,1,0,0:0:0:0:
414,210,188246,1,0,0:0:0:0:
421,202,188305,2,0,L|316:192,1,103.125003933907
142,273,188539,2,0,L|245:265,1,103.125003933907
420,346,188774,2,0,L|318:338,1,103.125003933907
68,330,189008,6,0,P|52:279|68:226,1,103.125003933907
225,221,189242,2,0,P|188:260|134:273,1,103.125003933907
53,140,189477,2,0,P|105:151|143:191,1,103.125003933907
158,369,189711,1,0,0:0:0:0:
213,126,189828,1,0,0:0:0:0:
414,292,189946,6,0,L|309:301,1,103.125003933907
277,303,190121,1,0,0:0:0:0:
277,303,190180,2,0,P|237:266|225:212,1,103.125003933907
414,292,190414,2,0,B|431:221|431:221|411:149|411:149|430:81,1,206.250007867813
506,151,190766,1,0,0:0:0:0:
327,229,190883,6,0,L|213:219,1,103.125003933907
110,135,191117,2,0,L|224:125,1,103.125003933907
290,320,191352,2,0,B|219:337|219:337|147:317|147:317|79:336,1,206.250007867813
27,227,191703,1,0,0:0:0:0:
110,135,191821,6,0,P|123:93|110:32,1,103.125003933907
324,0,192055,2,0,P|281:9|234:51,1,103.125003933907
224,220,192289,2,0,L|334:210,1,103.125003933907
512,111,192524,2,0,L|401:101,1,103.125003933907
54,18,192758,1,0,0:0:0:0:
110,135,192875,1,0,0:0:0:0:
110,135,192934,1,0,0:0:0:0:
110,135,192992,2,0,P|159:146|209:132,1,103.125003933907
323,30,193227,6,0,L|316:102,1,68.75
415,198,193344,2,0,L|405:90,1,89.3749959087374
311,4,193461,6,0,L|298:135,1,110
432,214,193578,2,0,L|416:41,1,130.624996511936
288,229,193696,5,4,0:0:0:0:
256,192,193754,12,0,200727,0:0:0:0:
