osu file format v14

[General]
AudioFilename: Kobaryo - Kumo No Kireme.mp3
AudioLeadIn: 0
PreviewTime: 30571
Countdown: 0
SampleSet: Normal
StackLeniency: 0.7
Mode: 1
LetterboxInBreaks: 0
WidescreenStoryboard: 0

[Editor]
DistanceSpacing: 1
BeatDivisor: 2
GridSize: 32
TimelineZoom: 1.9

[Metadata]
Title:Kumo No Kireme [feat. Kourin.]
TitleUnicode:Kumo No Kireme [feat. 紅燐。]
Artist:Kobaryo
ArtistUnicode:Kobaryo
Creator:Sayaka-
Version:Futsuu
Source:
Tags:psycho filth records chaotic solutions speedcore backfire xtrem3x
BeatmapID:812292
BeatmapSetID:370678

[Difficulty]
HPDrainRate:7
CircleSize:5
OverallDifficulty:4
ApproachRate:5
SliderMultiplier:1.2
SliderTickRate:1

[Events]
//Background and Video events
0,0,"Kobaryo bkg.jpg",0,50
//Break Periods
//Storyboard Layer 0 (Background)
//Storyboard Layer 1 (Fail)
//Storyboard Layer 2 (Pass)
//Storyboard Layer 3 (Foreground)
//Storyboard Sound Samples

[TimingPoints]
2446,234.375,4,1,0,100,1,0
32446,-100,4,1,0,100,0,1
47446,-100,4,1,0,100,0,0
133696,-100,4,1,0,100,0,1
163696,-100,4,1,0,100,0,0

[HitObjects]
256,192,2446,5,4,0:0:0:0:
256,192,4321,1,8,0:0:0:0:
256,192,6196,1,0,0:0:0:0:
256,192,8071,1,8,0:0:0:0:
256,192,9008,1,8,0:0:0:0:
256,192,9946,1,0,0:0:0:0:
256,192,11821,1,8,0:0:0:0:
256,192,12758,1,8,0:0:0:0:
256,192,13696,1,0,0:0:0:0:
256,192,15571,1,0,0:0:0:0:
256,192,17446,1,12,0:0:0:0:
256,192,17914,1,8,0:0:0:0:
256,192,18383,1,8,0:0:0:0:
256,192,18852,1,8,0:0:0:0:
256,192,19321,1,0,0:0:0:0:
256,192,20258,1,8,0:0:0:0:
256,192,21196,1,0,0:0:0:0:
256,192,21664,1,0,0:0:0:0:
256,192,22133,1,0,0:0:0:0:
256,192,22602,1,0,0:0:0:0:
256,192,23071,1,8,0:0:0:0:
256,192,24008,1,0,0:0:0:0:
256,192,24946,1,8,0:0:0:0:
256,192,25180,1,8,0:0:0:0:
256,192,25414,1,8,0:0:0:0:
256,192,25883,1,0,0:0:0:0:
256,192,26117,1,0,0:0:0:0:
256,192,26352,1,0,0:0:0:0:
256,192,26821,1,8,0:0:0:0:
256,192,27055,1,8,0:0:0:0:
256,192,27289,1,0,0:0:0:0:
256,192,27758,1,0,0:0:0:0:
256,192,27992,1,0,0:0:0:0:
256,192,28227,1,8,0:0:0:0:
256,192,28696,1,8,0:0:0:0:
256,192,28930,1,8,0:0:0:0:
256,192,29164,1,8,0:0:0:0:
256,192,29399,1,8,0:0:0:0:
256,192,29633,1,8,0:0:0:0:
256,192,30102,1,8,0:0:0:0:
256,192,32446,1,4,0:0:0:0:
256,192,32680,1,8,0:0:0:0:
256,192,32914,1,8,0:0:0:0:
256,192,33031,1,8,0:0:0:0:
256,192,33149,1,8,0:0:0:0:
256,192,33383,1,8,0:0:0:0:
256,192,33617,1,0,0:0:0:0:
256,192,33852,1,8,0:0:0:0:
256,192,34321,1,8,0:0:0:0:
256,192,34555,1,0,0:0:0:0:
256,192,34789,1,0,0:0:0:0:
256,192,34906,1,0,0:0:0:0:
256,192,35024,1,0,0:0:0:0:
256,192,35258,1,0,0:0:0:0:
256,192,35492,1,8,0:0:0:0:
256,192,35727,1,0,0:0:0:0:
256,192,36196,1,0,0:0:0:0:
256,192,36430,1,8,0:0:0:0:
256,192,36664,1,8,0:0:0:0:
256,192,36899,1,0,0:0:0:0:
256,192,37133,1,8,0:0:0:0:
256,192,37367,1,0,0:0:0:0:
256,192,37485,1,0,0:0:0:0:
256,192,37602,1,0,0:0:0:0:
256,192,38071,1,8,0:0:0:0:
256,192,38305,1,0,0:0:0:0:
256,192,38539,1,0,0:0:0:0:
256,192,38774,1,8,0:0:0:0:
256,192,39008,1,0,0:0:0:0:
256,192,39946,1,4,0:0:0:0:
256,192,40180,1,8,0:0:0:0:
256,192,40414,1,8,0:0:0:0:
256,192,40531,1,8,0:0:0:0:
256,192,40649,1,8,0:0:0:0:
256,192,40883,1,0,0:0:0:0:
256,192,41117,1,8,0:0:0:0:
256,192,41352,1,8,0:0:0:0:
256,192,41821,1,8,0:0:0:0:
256,192,42055,1,0,0:0:0:0:
256,192,42289,1,0,0:0:0:0:
256,192,42406,1,0,0:0:0:0:
256,192,42524,1,0,0:0:0:0:
256,192,42758,1,8,0:0:0:0:
256,192,42992,1,0,0:0:0:0:
256,192,43227,1,0,0:0:0:0:
256,192,43696,1,0,0:0:0:0:
256,192,43930,1,8,0:0:0:0:
256,192,44164,1,0,0:0:0:0:
256,192,44399,1,8,0:0:0:0:
256,192,44633,1,0,0:0:0:0:
256,192,44867,1,8,0:0:0:0:
256,192,44985,1,8,0:0:0:0:
256,192,45102,1,8,0:0:0:0:
256,192,45571,1,8,0:0:0:0:
256,192,45805,1,0,0:0:0:0:
256,192,46039,1,8,0:0:0:0:
256,192,46274,1,0,0:0:0:0:
256,192,46508,1,8,0:0:0:0:
256,192,47446,1,4,0:0:0:0:
256,192,47680,1,0,0:0:0:0:
256,192,47914,1,0,0:0:0:0:
256,192,48383,1,8,0:0:0:0:
256,192,48617,1,8,0:0:0:0:
256,192,48852,1,8,0:0:0:0:
256,192,49321,1,0,0:0:0:0:
256,192,49438,1,0,0:0:0:0:
256,192,49555,1,0,0:0:0:0:
256,192,49789,1,8,0:0:0:0:
256,192,50258,1,8,0:0:0:0:
256,192,50727,1,0,0:0:0:0:
256,192,51196,1,8,0:0:0:0:
256,192,51430,1,0,0:0:0:0:
256,192,51664,1,8,0:0:0:0:
256,192,52133,1,0,0:0:0:0:
256,192,52367,1,8,0:0:0:0:
256,192,52602,1,0,0:0:0:0:
256,192,53071,1,8,0:0:0:0:
256,192,53305,1,8,0:0:0:0:
256,192,53539,1,8,0:0:0:0:
256,192,54008,1,0,0:0:0:0:
256,192,54477,1,0,0:0:0:0:
256,192,54946,1,4,0:0:0:0:
256,192,55180,1,0,0:0:0:0:
256,192,55414,1,8,0:0:0:0:
256,192,55883,1,0,0:0:0:0:
256,192,56117,1,0,0:0:0:0:
256,192,56352,1,8,0:0:0:0:
256,192,56821,1,0,0:0:0:0:
256,192,56938,1,0,0:0:0:0:
256,192,57055,1,0,0:0:0:0:
256,192,57289,1,8,0:0:0:0:
256,192,57758,1,0,0:0:0:0:
256,192,57992,1,0,0:0:0:0:
256,192,58227,1,8,0:0:0:0:
256,192,58696,1,0,0:0:0:0:
256,192,58813,1,0,0:0:0:0:
256,192,58930,1,0,0:0:0:0:
256,192,59164,1,8,0:0:0:0:
256,192,59633,1,8,0:0:0:0:
256,192,59867,1,0,0:0:0:0:
256,192,60102,1,8,0:0:0:0:
256,192,60571,1,0,0:0:0:0:
256,192,60805,1,8,0:0:0:0:
256,192,61039,1,0,0:0:0:0:
256,192,61508,1,0,0:0:0:0:
256,192,61742,1,8,0:0:0:0:
256,192,61860,1,8,0:0:0:0:
256,192,61977,1,8,0:0:0:0:
256,192,62211,1,0,0:0:0:0:
256,192,62446,1,4,0:0:0:0:
256,192,64321,1,4,0:0:0:0:
256,192,64555,1,8,0:0:0:0:
256,192,64789,1,0,0:0:0:0:
256,192,65258,1,0,0:0:0:0:
256,192,65375,1,0,0:0:0:0:
256,192,65492,1,0,0:0:0:0:
256,192,65727,1,8,0:0:0:0:
256,192,66196,1,4,0:0:0:0:
256,192,68071,1,12,0:0:0:0:
256,192,68305,1,0,0:0:0:0:
256,192,68539,1,8,0:0:0:0:
256,192,69008,1,8,0:0:0:0:
256,192,69125,1,8,0:0:0:0:
256,192,69242,1,8,0:0:0:0:
256,192,69477,1,0,0:0:0:0:
256,192,69946,1,12,0:0:0:0:
256,192,70180,1,8,0:0:0:0:
256,192,70297,1,8,0:0:0:0:
256,192,70414,1,8,0:0:0:0:
256,192,70883,1,0,0:0:0:0:
256,192,71000,1,0,0:0:0:0:
256,192,71117,1,0,0:0:0:0:
256,192,71352,1,0,0:0:0:0:
256,192,71586,1,8,0:0:0:0:
256,192,71821,1,0,0:0:0:0:
256,192,72289,1,8,0:0:0:0:
256,192,72524,1,0,0:0:0:0:
256,192,72758,1,8,0:0:0:0:
256,192,72992,1,0,0:0:0:0:
256,192,73227,1,8,0:0:0:0:
256,192,73344,1,8,0:0:0:0:
256,192,73461,1,8,0:0:0:0:
256,192,73696,1,4,0:0:0:0:
256,192,75571,1,8,0:0:0:0:
256,192,77446,1,0,0:0:0:0:
256,192,79321,1,8,0:0:0:0:
256,192,80258,1,8,0:0:0:0:
256,192,81196,1,0,0:0:0:0:
256,192,83071,1,8,0:0:0:0:
256,192,84008,1,0,0:0:0:0:
256,192,84946,1,8,0:0:0:0:
256,192,86821,1,0,0:0:0:0:
256,192,88696,1,8,0:0:0:0:
256,192,90571,1,0,0:0:0:0:
256,192,92446,1,8,0:0:0:0:
256,192,94321,1,8,0:0:0:0:
256,192,95258,1,8,0:0:0:0:
256,192,96196,1,0,0:0:0:0:
256,192,98071,1,8,0:0:0:0:
256,192,99008,1,8,0:0:0:0:
256,192,99946,1,0,0:0:0:0:
256,192,101821,1,0,0:0:0:0:
256,192,103696,1,4,0:0:0:0:
256,192,104164,1,8,0:0:0:0:
256,192,104633,1,0,0:0:0:0:
256,192,104867,1,8,0:0:0:0:
256,192,105336,1,8,0:0:0:0:
256,192,105571,1,0,0:0:0:0:
256,192,106039,1,8,0:0:0:0:
256,192,106508,1,0,0:0:0:0:
256,192,106742,1,8,0:0:0:0:
256,192,107211,1,8,0:0:0:0:
256,192,107446,1,0,0:0:0:0:
256,192,107914,1,8,0:0:0:0:
256,192,108383,1,0,0:0:0:0:
256,192,108617,1,8,0:0:0:0:
256,192,109086,1,8,0:0:0:0:
256,192,109321,1,0,0:0:0:0:
256,192,109789,1,8,0:0:0:0:
256,192,110024,1,8,0:0:0:0:
256,192,110141,1,8,0:0:0:0:
256,192,110375,1,8,0:0:0:0:
256,192,110727,1,0,0:0:0:0:
256,192,110961,1,8,0:0:0:0:
256,192,111196,1,0,0:0:0:0:
256,192,111664,1,8,0:0:0:0:
256,192,112133,1,0,0:0:0:0:
256,192,112367,1,8,0:0:0:0:
256,192,112836,1,8,0:0:0:0:
256,192,113071,1,0,0:0:0:0:
256,192,113539,1,8,0:0:0:0:
256,192,113891,1,8,0:0:0:0:
256,192,114125,1,0,0:0:0:0:
256,192,114242,1,0,0:0:0:0:
256,192,114477,1,8,0:0:0:0:
256,192,114711,1,8,0:0:0:0:
256,192,114946,1,0,0:0:0:0:
256,192,115414,1,8,0:0:0:0:
256,192,115649,1,0,0:0:0:0:
256,192,115883,1,0,0:0:0:0:
256,192,116117,1,8,0:0:0:0:
256,192,116586,1,8,0:0:0:0:
256,192,116821,1,0,0:0:0:0:
256,192,117289,1,8,0:0:0:0:
256,192,117524,1,8,0:0:0:0:
256,192,117641,1,8,0:0:0:0:
256,192,117875,1,8,0:0:0:0:
256,192,118227,1,0,0:0:0:0:
256,192,118461,1,8,0:0:0:0:
256,192,118696,1,4,0:0:0:0:
256,192,119164,1,0,0:0:0:0:
256,192,119633,1,8,0:0:0:0:
256,192,120102,1,8,0:0:0:0:
256,192,120571,1,0,0:0:0:0:
256,192,121039,1,0,0:0:0:0:
256,192,121508,1,8,0:0:0:0:
256,192,121977,1,8,0:0:0:0:
256,192,122446,1,0,0:0:0:0:
256,192,122914,1,0,0:0:0:0:
256,192,123383,1,8,0:0:0:0:
256,192,123852,1,8,0:0:0:0:
256,192,124321,1,0,0:0:0:0:
256,192,124789,1,0,0:0:0:0:
256,192,125258,1,8,0:0:0:0:
256,192,125727,1,8,0:0:0:0:
256,192,126196,1,0,0:0:0:0:
256,192,126430,1,0,0:0:0:0:
256,192,126664,1,0,0:0:0:0:
256,192,127133,1,8,0:0:0:0:
256,192,127367,1,8,0:0:0:0:
256,192,127602,1,8,0:0:0:0:
256,192,128071,1,0,0:0:0:0:
256,192,128305,1,0,0:0:0:0:
256,192,128539,1,0,0:0:0:0:
256,192,129008,1,8,0:0:0:0:
256,192,129242,1,8,0:0:0:0:
256,192,129477,1,8,0:0:0:0:
256,192,129946,1,0,0:0:0:0:
256,192,130063,1,0,0:0:0:0:
256,192,130180,1,0,0:0:0:0:
256,192,130414,1,0,0:0:0:0:
256,192,130649,1,0,0:0:0:0:
256,192,130883,1,8,0:0:0:0:
256,192,131000,1,8,0:0:0:0:
256,192,131117,1,8,0:0:0:0:
256,192,131352,1,8,0:0:0:0:
256,192,131586,1,8,0:0:0:0:
256,192,133696,1,4,0:0:0:0:
256,192,133930,1,0,0:0:0:0:
256,192,134047,1,0,0:0:0:0:
256,192,134164,1,0,0:0:0:0:
256,192,134399,1,8,0:0:0:0:
256,192,134633,1,0,0:0:0:0:
256,192,134750,1,0,0:0:0:0:
256,192,134867,1,0,0:0:0:0:
256,192,135102,1,8,0:0:0:0:
256,192,135571,1,0,0:0:0:0:
256,192,135805,1,8,0:0:0:0:
256,192,135922,1,8,0:0:0:0:
256,192,136039,1,8,0:0:0:0:
256,192,136274,1,0,0:0:0:0:
256,192,136508,1,8,0:0:0:0:
256,192,136625,1,8,0:0:0:0:
256,192,136742,1,8,0:0:0:0:
256,192,136977,1,0,0:0:0:0:
256,192,137446,1,8,0:0:0:0:
256,192,137563,1,8,0:0:0:0:
256,192,137680,1,8,0:0:0:0:
256,192,137914,1,8,0:0:0:0:
256,192,138149,1,0,0:0:0:0:
256,192,138383,1,0,0:0:0:0:
256,192,138500,1,0,0:0:0:0:
256,192,138617,1,0,0:0:0:0:
256,192,138852,1,8,0:0:0:0:
256,192,139321,1,0,0:0:0:0:
256,192,139438,1,0,0:0:0:0:
256,192,139555,1,0,0:0:0:0:
256,192,139789,1,0,0:0:0:0:
256,192,140024,1,8,0:0:0:0:
256,192,140258,1,0,0:0:0:0:
256,192,141196,1,4,0:0:0:0:
256,192,141430,1,8,0:0:0:0:
256,192,141547,1,8,0:0:0:0:
256,192,141664,1,8,0:0:0:0:
256,192,141899,1,8,0:0:0:0:
256,192,142133,1,0,0:0:0:0:
256,192,142250,1,0,0:0:0:0:
256,192,142367,1,0,0:0:0:0:
256,192,142602,1,8,0:0:0:0:
256,192,143071,1,8,0:0:0:0:
256,192,143305,1,0,0:0:0:0:
256,192,143422,1,0,0:0:0:0:
256,192,143539,1,0,0:0:0:0:
256,192,143774,1,0,0:0:0:0:
256,192,144008,1,8,0:0:0:0:
256,192,144125,1,8,0:0:0:0:
256,192,144242,1,8,0:0:0:0:
256,192,144477,1,0,0:0:0:0:
256,192,144946,1,8,0:0:0:0:
256,192,145063,1,8,0:0:0:0:
256,192,145180,1,8,0:0:0:0:
256,192,145414,1,0,0:0:0:0:
256,192,145649,1,8,0:0:0:0:
256,192,145883,1,8,0:0:0:0:
256,192,146000,1,8,0:0:0:0:
256,192,146117,1,8,0:0:0:0:
256,192,146352,1,0,0:0:0:0:
256,192,146821,1,0,0:0:0:0:
256,192,146938,1,0,0:0:0:0:
256,192,147055,1,0,0:0:0:0:
256,192,147289,1,8,0:0:0:0:
256,192,147524,1,0,0:0:0:0:
256,192,147758,1,0,0:0:0:0:
256,192,148696,1,4,0:0:0:0:
256,192,148930,1,0,0:0:0:0:
256,192,149164,1,8,0:0:0:0:
256,192,149281,1,8,0:0:0:0:
256,192,149399,1,8,0:0:0:0:
256,192,149633,1,0,0:0:0:0:
256,192,149867,1,8,0:0:0:0:
256,192,149985,1,8,0:0:0:0:
256,192,150102,1,8,0:0:0:0:
256,192,150571,1,8,0:0:0:0:
256,192,150805,1,0,0:0:0:0:
256,192,151039,1,0,0:0:0:0:
256,192,151156,1,0,0:0:0:0:
256,192,151274,1,0,0:0:0:0:
256,192,151508,1,8,0:0:0:0:
256,192,152446,1,8,0:0:0:0:
256,192,152563,1,8,0:0:0:0:
256,192,152680,1,8,0:0:0:0:
256,192,152914,1,0,0:0:0:0:
256,192,153031,1,0,0:0:0:0:
256,192,153149,1,0,0:0:0:0:
256,192,153383,1,8,0:0:0:0:
256,192,153617,1,8,0:0:0:0:
256,192,153852,1,0,0:0:0:0:
256,192,154321,1,0,0:0:0:0:
256,192,154438,1,0,0:0:0:0:
256,192,154555,1,0,0:0:0:0:
256,192,154789,1,8,0:0:0:0:
256,192,154906,1,8,0:0:0:0:
256,192,155024,1,8,0:0:0:0:
256,192,155258,1,0,0:0:0:0:
256,192,156196,1,4,0:0:0:0:
256,192,156430,1,8,0:0:0:0:
256,192,156664,1,0,0:0:0:0:
256,192,156781,1,0,0:0:0:0:
256,192,156899,1,0,0:0:0:0:
256,192,157133,1,8,0:0:0:0:
256,192,157250,1,8,0:0:0:0:
256,192,157367,1,8,0:0:0:0:
256,192,157602,1,0,0:0:0:0:
256,192,158071,1,8,0:0:0:0:
256,192,158305,1,0,0:0:0:0:
256,192,158539,1,8,0:0:0:0:
256,192,158656,1,8,0:0:0:0:
256,192,158774,1,8,0:0:0:0:
256,192,159008,1,0,0:0:0:0:
256,192,159125,1,0,0:0:0:0:
256,192,159242,1,0,0:0:0:0:
256,192,159477,1,8,0:0:0:0:
256,192,159946,1,8,0:0:0:0:
256,192,160180,1,0,0:0:0:0:
256,192,160414,1,8,0:0:0:0:
256,192,160649,1,8,0:0:0:0:
256,192,160883,1,0,0:0:0:0:
256,192,161352,1,8,0:0:0:0:
256,192,161821,1,0,0:0:0:0:
256,192,162055,1,8,0:0:0:0:
256,192,162289,1,0,0:0:0:0:
256,192,162524,1,0,0:0:0:0:
256,192,162758,1,8,0:0:0:0:
256,192,163696,1,4,0:0:0:0:
256,192,164047,1,4,0:0:0:0:
256,192,164399,1,12,0:0:0:0:
256,192,164750,1,12,0:0:0:0:
256,192,165102,1,4,0:0:0:0:
256,192,165688,1,12,0:0:0:0:
256,192,166039,1,12,0:0:0:0:
256,192,166391,1,4,0:0:0:0:
256,192,166742,1,4,0:0:0:0:
256,192,166977,1,12,0:0:0:0:
256,192,167211,1,12,0:0:0:0:
256,192,167446,1,4,0:0:0:0:
256,192,167797,1,4,0:0:0:0:
256,192,168149,1,12,0:0:0:0:
256,192,168500,1,12,0:0:0:0:
256,192,168852,1,4,0:0:0:0:
256,192,169438,1,12,0:0:0:0:
256,192,169789,1,12,0:0:0:0:
256,192,170141,1,4,0:0:0:0:
256,192,170492,1,4,0:0:0:0:
256,192,170727,1,12,0:0:0:0:
256,192,170961,1,12,0:0:0:0:
256,192,171196,1,4,0:0:0:0:
256,192,171664,1,8,0:0:0:0:
256,192,171781,1,8,0:0:0:0:
256,192,171899,1,8,0:0:0:0:
256,192,172133,1,0,0:0:0:0:
256,192,172602,1,8,0:0:0:0:
256,192,172719,1,8,0:0:0:0:
256,192,172836,1,8,0:0:0:0:
256,192,173071,1,0,0:0:0:0:
256,192,173188,1,0,0:0:0:0:
256,192,173305,1,0,0:0:0:0:
256,192,173539,1,8,0:0:0:0:
256,192,174008,1,0,0:0:0:0:
256,192,174477,1,8,0:0:0:0:
256,192,174946,1,0,0:0:0:0:
256,192,175180,1,8,0:0:0:0:
256,192,175414,1,0,0:0:0:0:
256,192,175649,1,8,0:0:0:0:
256,192,175883,1,0,0:0:0:0:
256,192,176000,1,0,0:0:0:0:
256,192,176117,1,0,0:0:0:0:
256,192,176352,1,8,0:0:0:0:
256,192,176821,1,8,0:0:0:0:
256,192,177055,1,0,0:0:0:0:
256,192,177289,1,8,0:0:0:0:
256,192,177406,1,8,0:0:0:0:
256,192,177524,1,8,0:0:0:0:
256,192,177758,1,0,0:0:0:0:
256,192,178227,1,8,0:0:0:0:
256,192,178696,1,4,0:0:0:0:
256,192,178930,1,0,0:0:0:0:
256,192,179164,1,8,0:0:0:0:
256,192,179633,1,0,0:0:0:0:
256,192,179750,1,0,0:0:0:0:
256,192,179867,1,0,0:0:0:0:
256,192,180102,1,8,0:0:0:0:
256,192,180571,1,0,0:0:0:0:
256,192,180805,1,0,0:0:0:0:
256,192,181039,1,8,0:0:0:0:
256,192,181508,1,0,0:0:0:0:
256,192,181625,1,0,0:0:0:0:
256,192,181742,1,0,0:0:0:0:
256,192,181977,1,8,0:0:0:0:
256,192,182446,1,8,0:0:0:0:
256,192,182680,1,0,0:0:0:0:
256,192,182914,1,8,0:0:0:0:
256,192,183383,1,0,0:0:0:0:
256,192,183500,1,0,0:0:0:0:
256,192,183617,1,0,0:0:0:0:
256,192,183852,1,8,0:0:0:0:
256,192,184321,1,0,0:0:0:0:
256,192,184555,1,0,0:0:0:0:
256,192,184789,1,8,0:0:0:0:
256,192,185258,1,0,0:0:0:0:
256,192,186196,1,4,0:0:0:0:
256,192,186430,1,0,0:0:0:0:
256,192,186664,1,8,0:0:0:0:
256,192,186899,1,8,0:0:0:0:
256,192,187133,1,0,0:0:0:0:
256,192,187602,1,8,0:0:0:0:
256,192,188071,1,0,0:0:0:0:
256,192,188305,1,8,0:0:0:0:
256,192,188539,1,8,0:0:0:0:
256,192,188774,1,8,0:0:0:0:
256,192,189008,1,0,0:0:0:0:
256,192,189946,1,8,0:0:0:0:
256,192,190180,1,8,0:0:0:0:
256,192,190414,1,0,0:0:0:0:
256,192,190649,1,0,0:0:0:0:
256,192,190883,1,8,0:0:0:0:
256,192,191352,1,0,0:0:0:0:
256,192,191821,1,8,0:0:0:0:
256,192,192055,1,0,0:0:0:0:
256,192,192289,1,0,0:0:0:0:
256,192,192524,1,0,0:0:0:0:
256,192,192758,1,8,0:0:0:0:
256,192,192875,1,8,0:0:0:0:
256,192,192992,1,8,0:0:0:0:
256,192,193227,1,8,0:0:0:0:
256,192,193696,1,4,0:0:0:0:
256,192,193930,12,0,201196,0:0:0:0:
