osu file format v14

[General]
AudioFilename: audio.mp3
AudioLeadIn: 0
PreviewTime: 30179
Countdown: 0
SampleSet: None
StackLeniency: 0.2
Mode: 3
LetterboxInBreaks: 0
SpecialStyle: 0
WidescreenStoryboard: 1

[Editor]
Bookmarks: 7730,14261,30587,56710,69771,82832,95893,122016,135077,161199
DistanceSpacing: 0.8
BeatDivisor: 1
GridSize: 32
TimelineZoom: 1

[Metadata]
Title:Kick To The Sky
TitleUnicode:Kick To The Sky
Artist:Kobaryo
ArtistUnicode:Kobaryo
Creator:jojozoli
Version:Easy
Source:ブチアゲスピードコア 2
Tags:PFEX009 Psycho Filth Records Various Artists Kobaryo Speedcore ブチアゲスピードコア 2
BeatmapID:1516230
BeatmapSetID:717356

[Difficulty]
HPDrainRate:6
CircleSize:4
OverallDifficulty:8
ApproachRate:5
SliderMultiplier:1
SliderTickRate:1

[Events]
//Background and Video events
0,0,"bg.png",0,0
//Break Periods
//Storyboard Layer 0 (Background)
//Storyboard Layer 1 (Fail)
//Storyboard Layer 2 (Pass)
//Storyboard Layer 3 (Foreground)
//Storyboard Sound Samples

[TimingPoints]
1200,204.081632653061,4,3,1,100,1,0
1200,-100,4,3,1,30,0,0
7730,-100,4,3,1,60,0,0
8546,-100,4,3,1,65,0,0
9363,-100,4,3,1,70,0,0
10179,-100,4,3,1,75,0,0
10995,-100,4,3,1,80,0,0
11812,-100,4,3,1,85,0,0
12628,-100,4,3,1,90,0,0
13444,-100,4,3,1,95,0,0
14261,-100,4,3,1,100,0,0
30587,-100,4,3,1,100,0,1
56710,-100,4,3,1,10,0,0
57118,-100,4,3,1,13,0,0
57526,-100,4,3,1,16,0,0
57934,-100,4,3,1,19,0,0
58342,-100,4,3,1,22,0,0
58751,-100,4,3,1,25,0,0
59159,-100,4,3,1,28,0,0
59567,-100,4,3,1,31,0,0
59975,-100,4,3,1,34,0,0
60383,-100,4,3,1,37,0,0
60791,-100,4,3,1,40,0,0
61199,-100,4,3,1,43,0,0
61608,-100,4,3,1,46,0,0
62016,-100,4,3,1,49,0,0
62424,-100,4,3,1,52,0,0
62832,-100,4,3,1,55,0,0
63240,-100,4,3,1,58,0,0
63648,-100,4,3,1,61,0,0
64057,-100,4,3,1,64,0,0
64465,-100,4,3,1,67,0,0
64873,-100,4,3,1,70,0,0
65281,-100,4,3,1,73,0,0
65689,-100,4,3,1,76,0,0
66097,-100,4,3,1,79,0,0
66506,-100,4,3,1,82,0,0
66914,-100,4,3,1,85,0,0
67322,-100,4,3,1,88,0,0
67730,-100,4,3,1,91,0,0
68138,-100,4,3,1,94,0,0
68546,-100,4,3,1,97,0,0
68955,-100,4,3,1,100,0,0
69771,-100,4,3,1,100,0,1
82832,-100,4,3,1,100,0,0
96710,-100,4,3,1,10,0,0
97118,-100,4,3,1,13,0,0
97526,-100,4,3,1,16,0,0
97934,-100,4,3,1,19,0,0
98342,-100,4,3,1,22,0,0
98751,-100,4,3,1,25,0,0
99159,-100,4,3,1,28,0,0
99567,-100,4,3,1,31,0,0
99975,-100,4,3,1,34,0,0
100383,-100,4,3,1,37,0,0
100791,-100,4,3,1,40,0,0
101199,-100,4,3,1,43,0,0
101608,-100,4,3,1,46,0,0
102016,-100,4,3,1,49,0,0
102424,-100,4,3,1,52,0,0
102832,-100,4,3,1,55,0,0
103240,-100,4,3,1,58,0,0
103648,-100,4,3,1,61,0,0
104057,-100,4,3,1,64,0,0
104465,-100,4,3,1,67,0,0
104873,-100,4,3,1,70,0,0
105281,-100,4,3,1,73,0,0
105689,-100,4,3,1,76,0,0
106097,-100,4,3,1,79,0,0
106506,-100,4,3,1,82,0,0
106914,-100,4,3,1,85,0,0
107322,-100,4,3,1,88,0,0
107730,-100,4,3,1,91,0,0
108138,-100,4,3,1,94,0,0
108546,-100,4,3,1,97,0,0
108955,-100,4,3,1,100,0,0
120383,-100,4,3,1,100,0,0
120791,-100,4,3,1,80,0,0
121199,-100,4,3,1,60,0,0
121608,-100,4,3,1,40,0,0
125281,-100,4,3,1,100,0,0
125689,-100,4,3,1,40,0,0
128546,-100,4,3,1,45,0,0
128955,-100,4,3,1,50,0,0
129363,-100,4,3,1,55,0,0
129771,-100,4,3,1,60,0,0
130179,-100,4,3,1,65,0,0
130587,-100,4,3,1,70,0,0
130995,-100,4,3,1,75,0,0
131404,-100,4,3,1,80,0,0
131812,-100,4,3,1,85,0,0
132220,-100,4,3,1,90,0,0
132628,-100,4,3,1,95,0,0
133036,-100,4,3,1,100,0,0
135077,-100,4,3,1,100,0,1
161199,-100,4,3,1,100,0,0

[HitObjects]
448,192,1200,5,4,2:3:0:0:
64,192,2832,1,4,2:3:0:0:
320,192,4465,1,4,2:3:0:0:
192,192,6097,1,4,2:3:0:0:
448,192,7730,1,4,2:3:0:0:
320,192,8138,1,4,2:3:0:0:
64,192,8546,1,4,2:3:0:0:
192,192,8955,1,4,2:3:0:0:
320,192,9363,1,4,2:3:0:0:
448,192,9771,1,4,2:3:0:0:
192,192,10179,1,4,2:3:0:0:
64,192,10587,1,4,2:3:0:0:
448,192,10995,1,4,2:3:0:0:
192,192,11404,1,4,2:3:0:0:
320,192,11812,1,4,2:3:0:0:
192,192,12220,1,4,2:3:0:0:
64,192,12628,1,4,2:3:0:0:
320,192,13036,1,4,2:3:0:0:
192,192,13444,1,4,2:3:0:0:
320,192,13853,1,4,2:3:0:0:
448,192,14261,1,4,0:0:0:0:
448,192,14669,1,4,0:0:0:0:
64,192,15077,1,4,0:0:0:0:
64,192,15485,1,4,0:0:0:0:
192,192,15893,1,4,0:0:0:0:
192,192,16302,1,4,0:0:0:0:
320,192,16710,1,4,0:0:0:0:
320,192,17118,1,4,0:0:0:0:
192,192,17526,1,4,0:0:0:0:
192,192,17934,1,4,0:0:0:0:
320,192,18342,1,4,0:0:0:0:
320,192,18751,1,4,0:0:0:0:
64,192,19159,1,4,0:0:0:0:
64,192,19567,1,4,0:0:0:0:
448,192,19975,1,4,0:0:0:0:
448,192,20383,1,4,0:0:0:0:
64,192,20791,1,6,3:0:0:0:
192,192,20995,1,6,3:0:0:0:
320,192,21199,1,6,3:0:0:0:
448,192,21404,1,6,3:0:0:0:
320,192,21608,1,6,3:0:0:0:
192,192,21812,1,6,3:0:0:0:
64,192,22016,1,6,3:0:0:0:
320,192,22220,1,6,3:0:0:0:
192,192,22424,1,6,3:0:0:0:
64,192,22628,1,6,3:0:0:0:
192,192,22832,1,6,3:0:0:0:
320,192,23036,1,6,3:0:0:0:
448,192,23240,1,6,3:0:0:0:
192,192,23444,1,6,3:0:0:0:
320,192,23648,1,6,3:0:0:0:
448,192,23853,1,6,3:0:0:0:
192,192,24057,128,4,24465:0:0:0:0:
320,192,24465,128,4,24873:0:0:0:0:
64,192,24873,128,4,25281:0:0:0:0:
448,192,25281,128,4,25689:0:0:0:0:
64,192,25689,1,4,3:0:0:0:
448,192,26097,1,4,3:0:0:0:
192,192,26506,1,4,3:0:0:0:
320,192,26914,1,4,3:0:0:0:
448,192,27322,1,2,3:0:0:0:
64,192,27322,1,8,3:0:0:0:
192,192,28138,1,8,3:0:0:0:
320,192,28138,1,2,3:0:0:0:
448,192,28955,1,2,3:0:0:0:
192,192,28955,1,8,3:0:0:0:
64,192,29771,1,8,3:0:0:0:
320,192,29771,1,2,3:0:0:0:
64,192,30587,1,8,3:0:0:0:
320,192,30791,1,8,3:0:0:0:
64,192,30995,1,8,3:0:0:0:
320,192,31199,1,8,3:0:0:0:
192,192,31404,1,8,3:0:0:0:
448,192,31608,1,8,3:0:0:0:
192,192,31812,1,8,3:0:0:0:
448,192,32016,1,8,3:0:0:0:
320,192,32220,1,8,3:0:0:0:
64,192,32424,1,8,3:0:0:0:
320,192,32628,1,8,3:0:0:0:
64,192,32832,1,8,3:0:0:0:
448,192,33036,1,8,3:0:0:0:
192,192,33240,1,8,3:0:0:0:
448,192,33444,1,8,3:0:0:0:
192,192,33648,1,8,3:0:0:0:
64,192,33853,1,8,3:0:0:0:
320,192,34057,1,8,3:0:0:0:
64,192,34261,1,8,3:0:0:0:
320,192,34465,1,8,3:0:0:0:
448,192,34669,1,8,3:0:0:0:
192,192,34873,1,8,3:0:0:0:
448,192,35077,1,8,3:0:0:0:
192,192,35281,1,8,3:0:0:0:
64,192,35485,1,8,3:0:0:0:
192,192,35689,1,8,3:0:0:0:
320,192,35893,1,8,3:0:0:0:
448,192,36097,1,8,3:0:0:0:
192,192,36302,128,8,36710:3:0:0:0:
320,192,36710,128,8,37118:3:0:0:0:
64,192,37118,1,8,3:0:0:0:
192,192,37322,1,8,3:0:0:0:
64,192,37526,1,8,3:0:0:0:
192,192,37730,1,8,3:0:0:0:
320,192,37934,1,8,3:0:0:0:
448,192,38138,1,8,3:0:0:0:
320,192,38342,1,8,3:0:0:0:
448,192,38546,1,8,3:0:0:0:
192,192,38751,1,8,3:0:0:0:
64,192,38955,1,8,3:0:0:0:
192,192,39159,1,8,3:0:0:0:
64,192,39363,1,8,3:0:0:0:
448,192,39567,1,8,3:0:0:0:
320,192,39771,1,8,3:0:0:0:
448,192,39975,1,8,3:0:0:0:
320,192,40179,1,8,3:0:0:0:
64,192,40383,1,8,3:0:0:0:
192,192,40587,1,8,3:0:0:0:
64,192,40791,1,8,3:0:0:0:
192,192,40995,1,8,3:0:0:0:
448,192,41199,1,8,3:0:0:0:
320,192,41404,1,8,3:0:0:0:
448,192,41608,1,8,3:0:0:0:
320,192,41812,1,8,3:0:0:0:
64,192,42016,128,8,42832:3:0:0:0:
448,192,42832,128,8,43648:3:0:0:0:
64,192,43648,1,8,3:0:0:0:
192,192,43853,1,8,3:0:0:0:
320,192,44057,1,8,3:0:0:0:
448,192,44261,1,8,3:0:0:0:
64,192,44465,1,8,3:0:0:0:
448,192,44669,1,8,3:0:0:0:
192,192,44873,1,8,3:0:0:0:
320,192,45077,1,8,3:0:0:0:
448,192,45281,1,8,3:0:0:0:
320,192,45485,1,8,3:0:0:0:
192,192,45689,1,8,3:0:0:0:
64,192,45893,1,8,3:0:0:0:
448,192,46097,1,8,3:0:0:0:
64,192,46302,1,8,3:0:0:0:
320,192,46506,1,8,3:0:0:0:
192,192,46710,1,8,3:0:0:0:
64,192,46914,1,8,3:0:0:0:
192,192,47118,1,8,3:0:0:0:
448,192,47322,1,8,3:0:0:0:
320,192,47526,1,8,3:0:0:0:
64,192,47730,1,8,3:0:0:0:
192,192,47934,1,8,3:0:0:0:
448,192,48138,1,8,3:0:0:0:
320,192,48342,1,8,3:0:0:0:
192,192,48546,1,8,3:0:0:0:
64,192,48751,1,8,3:0:0:0:
320,192,48955,1,8,3:0:0:0:
448,192,49159,1,8,3:0:0:0:
192,192,49363,128,8,49771:3:0:0:0:
320,192,49771,128,8,50179:3:0:0:0:
192,192,50179,1,8,3:0:0:0:
64,192,50383,1,8,3:0:0:0:
448,192,50587,1,8,3:0:0:0:
320,192,50791,1,8,3:0:0:0:
64,192,50995,1,8,3:0:0:0:
192,192,51199,1,8,3:0:0:0:
320,192,51404,1,8,3:0:0:0:
448,192,51608,1,8,3:0:0:0:
320,192,51812,1,8,3:0:0:0:
192,192,52016,1,8,3:0:0:0:
448,192,52220,1,8,3:0:0:0:
64,192,52424,1,8,3:0:0:0:
192,192,52628,1,8,3:0:0:0:
320,192,52832,1,8,3:0:0:0:
192,192,53036,1,8,3:0:0:0:
320,192,53240,1,8,3:0:0:0:
448,192,53444,1,8,3:0:0:0:
320,192,53648,1,8,3:0:0:0:
192,192,53853,1,8,3:0:0:0:
64,192,54057,1,8,3:0:0:0:
448,192,54261,1,8,3:0:0:0:
320,192,54465,1,8,3:0:0:0:
448,192,54669,1,8,3:0:0:0:
192,192,54873,1,8,3:0:0:0:
64,192,55077,1,8,3:0:0:0:
192,192,55281,1,8,3:0:0:0:
320,192,55485,1,8,3:0:0:0:
448,192,55689,1,8,3:0:0:0:
64,192,55893,128,8,56302:3:0:0:0:
448,192,56302,128,8,56710:3:0:0:0:
192,192,56710,1,2,3:0:0:0:
320,192,57118,1,2,3:0:0:0:
64,192,57526,1,2,3:0:0:0:
192,192,57934,1,2,3:0:0:0:
320,192,58342,1,2,3:0:0:0:
448,192,58751,1,2,3:0:0:0:
320,192,59159,1,2,3:0:0:0:
192,192,59567,1,2,3:0:0:0:
64,192,59975,1,2,3:0:0:0:
448,192,60383,1,2,3:0:0:0:
320,192,60791,1,2,3:0:0:0:
192,192,61199,1,2,3:0:0:0:
64,192,61608,1,2,3:0:0:0:
192,192,62016,1,2,3:0:0:0:
320,192,62424,1,2,3:0:0:0:
448,192,62832,1,2,3:0:0:0:
192,192,63240,1,2,3:0:0:0:
320,192,63648,1,2,3:0:0:0:
64,192,64057,1,2,3:0:0:0:
192,192,64465,1,2,3:0:0:0:
320,192,64873,1,2,3:0:0:0:
192,192,65281,1,2,3:0:0:0:
448,192,65689,1,2,3:0:0:0:
320,192,66097,1,2,3:0:0:0:
64,192,66506,1,2,3:0:0:0:
448,192,66914,1,2,3:0:0:0:
192,192,67322,1,2,3:0:0:0:
320,192,67730,1,2,3:0:0:0:
448,192,68138,1,2,3:0:0:0:
64,192,68546,1,2,3:0:0:0:
320,192,68955,128,2,69771:3:0:0:0:
192,192,69771,1,8,3:0:0:0:
64,192,69975,1,8,3:0:0:0:
448,192,70179,1,8,3:0:0:0:
320,192,70383,1,8,3:0:0:0:
64,192,70587,1,8,3:0:0:0:
192,192,70791,1,8,3:0:0:0:
448,192,70995,1,8,3:0:0:0:
320,192,71199,1,8,3:0:0:0:
192,192,71404,1,8,3:0:0:0:
64,192,71608,1,8,3:0:0:0:
320,192,71812,1,8,3:0:0:0:
448,192,72016,1,8,3:0:0:0:
64,192,72220,1,8,3:0:0:0:
192,192,72424,1,8,3:0:0:0:
320,192,72628,1,8,3:0:0:0:
448,192,72832,1,8,3:0:0:0:
192,192,73036,1,8,3:0:0:0:
320,192,73240,1,8,3:0:0:0:
64,192,73444,1,8,3:0:0:0:
448,192,73648,1,8,3:0:0:0:
64,192,73853,1,8,3:0:0:0:
192,192,74057,1,8,3:0:0:0:
448,192,74261,1,8,3:0:0:0:
320,192,74465,1,8,3:0:0:0:
192,192,74669,1,8,3:0:0:0:
64,192,74873,1,8,3:0:0:0:
448,192,75077,1,8,3:0:0:0:
320,192,75281,1,8,3:0:0:0:
64,192,75485,128,8,75893:3:0:0:0:
320,192,75893,128,8,76302:3:0:0:0:
64,192,76302,1,8,3:0:0:0:
192,192,76506,1,8,3:0:0:0:
448,192,76710,1,8,3:0:0:0:
320,192,76914,1,8,3:0:0:0:
64,192,77118,1,8,3:0:0:0:
192,192,77322,1,8,3:0:0:0:
320,192,77526,1,8,3:0:0:0:
448,192,77730,1,8,3:0:0:0:
64,192,77934,1,8,3:0:0:0:
192,192,78138,1,8,3:0:0:0:
448,192,78342,1,8,3:0:0:0:
320,192,78546,1,8,3:0:0:0:
64,192,78751,1,8,3:0:0:0:
192,192,78955,1,8,3:0:0:0:
320,192,79159,1,8,3:0:0:0:
192,192,79363,1,8,3:0:0:0:
64,192,79567,1,8,3:0:0:0:
320,192,79771,1,8,3:0:0:0:
448,192,79975,1,8,3:0:0:0:
320,192,80179,1,8,3:0:0:0:
192,192,80383,1,8,3:0:0:0:
320,192,80587,1,8,3:0:0:0:
192,192,80791,1,8,3:0:0:0:
320,192,80995,1,8,3:0:0:0:
448,192,81199,1,8,3:0:0:0:
64,192,81404,1,8,3:0:0:0:
448,192,81608,1,8,3:0:0:0:
64,192,81812,1,8,3:0:0:0:
448,192,82016,1,8,3:0:0:0:
192,192,82220,1,8,3:0:0:0:
320,192,82424,1,8,3:0:0:0:
64,192,82628,1,8,3:0:0:0:
320,192,82832,1,8,3:0:0:0:
448,192,82832,1,2,3:0:0:0:
448,192,83240,1,2,3:0:0:0:
192,192,83240,1,8,3:0:0:0:
320,192,83648,1,2,3:0:0:0:
64,192,83648,1,8,3:0:0:0:
192,192,84057,1,2,3:0:0:0:
64,192,84057,1,8,3:0:0:0:
448,192,84465,1,2,3:0:0:0:
320,192,84465,1,8,3:0:0:0:
64,192,84873,1,8,3:0:0:0:
192,192,84873,1,2,3:0:0:0:
448,192,85281,1,2,3:0:0:0:
192,192,85281,1,8,3:0:0:0:
320,192,85689,1,2,3:0:0:0:
64,192,85689,1,8,3:0:0:0:
320,192,86097,1,2,3:0:0:0:
192,192,86097,1,8,3:0:0:0:
448,192,86506,1,2,3:0:0:0:
64,192,86506,1,8,3:0:0:0:
448,192,86914,1,2,3:0:0:0:
192,192,86914,1,8,3:0:0:0:
64,192,87322,1,8,3:0:0:0:
320,192,87322,1,2,3:0:0:0:
448,192,87730,1,2,3:0:0:0:
320,192,87730,1,8,3:0:0:0:
320,192,88138,1,2,3:0:0:0:
192,192,88138,1,8,3:0:0:0:
192,192,88546,1,2,3:0:0:0:
64,192,88546,1,8,3:0:0:0:
448,192,88955,1,2,3:0:0:0:
64,192,88955,1,8,3:0:0:0:
448,192,89363,1,2,3:0:0:0:
64,192,89363,1,8,3:0:0:0:
448,192,89771,1,2,3:0:0:0:
192,192,89771,1,8,3:0:0:0:
448,192,90179,1,2,3:0:0:0:
320,192,90179,1,8,3:0:0:0:
448,192,90587,1,2,3:0:0:0:
192,192,90587,1,8,3:0:0:0:
64,192,90995,1,8,3:0:0:0:
192,192,90995,1,2,3:0:0:0:
64,192,91404,1,8,3:0:0:0:
320,192,91404,1,2,3:0:0:0:
448,192,91812,1,2,3:0:0:0:
64,192,91812,1,8,3:0:0:0:
64,192,92220,1,8,3:0:0:0:
320,192,92220,1,2,3:0:0:0:
448,192,92628,1,2,3:0:0:0:
192,192,92628,1,8,3:0:0:0:
448,192,93036,1,2,3:0:0:0:
64,192,93036,1,8,3:0:0:0:
320,192,93444,1,2,3:0:0:0:
64,192,93444,1,8,3:0:0:0:
64,192,93853,1,8,3:0:0:0:
192,192,93853,1,2,3:0:0:0:
448,192,94261,1,0,0:0:0:0:
320,192,94397,1,0,3:0:0:0:
64,192,94533,1,0,3:0:0:0:
192,192,94669,1,0,3:0:0:0:
320,192,94805,1,0,3:0:0:0:
448,192,94941,1,0,3:0:0:0:
192,192,95077,1,0,3:0:0:0:
64,192,95213,1,0,3:0:0:0:
320,192,95349,1,0,3:0:0:0:
448,192,95485,1,0,3:0:0:0:
192,192,95893,128,0,96710:0:0:0:0:
448,192,96710,1,2,3:0:0:0:
448,192,97118,1,2,3:0:0:0:
64,192,97526,1,2,3:0:0:0:
64,192,97934,1,2,3:0:0:0:
320,192,98342,1,2,3:0:0:0:
320,192,98751,1,2,3:0:0:0:
192,192,99159,1,2,3:0:0:0:
192,192,99567,1,2,3:0:0:0:
448,192,99975,1,2,3:0:0:0:
448,192,100383,1,2,3:0:0:0:
320,192,100791,1,2,3:0:0:0:
320,192,101199,1,2,3:0:0:0:
192,192,101608,1,2,3:0:0:0:
192,192,102016,1,2,3:0:0:0:
64,192,102424,1,2,3:0:0:0:
64,192,102832,1,2,3:0:0:0:
448,192,103240,1,2,3:0:0:0:
448,192,103648,1,2,3:0:0:0:
192,192,104057,1,2,3:0:0:0:
192,192,104465,1,2,3:0:0:0:
320,192,104873,1,2,3:0:0:0:
320,192,105281,1,2,3:0:0:0:
448,192,105689,1,2,3:0:0:0:
448,192,106097,1,2,3:0:0:0:
320,192,106506,1,2,3:0:0:0:
320,192,106914,1,2,3:0:0:0:
64,192,107322,1,2,3:0:0:0:
64,192,107730,1,2,3:0:0:0:
192,192,108138,1,2,3:0:0:0:
192,192,108546,1,2,3:0:0:0:
448,192,108955,1,2,3:0:0:0:
320,192,109363,1,2,3:0:0:0:
64,192,109771,1,2,3:0:0:0:
192,192,110179,1,2,3:0:0:0:
320,192,110587,1,2,3:0:0:0:
448,192,110995,1,2,3:0:0:0:
192,192,111404,1,2,3:0:0:0:
64,192,111812,1,2,3:0:0:0:
320,192,112220,1,2,3:0:0:0:
448,192,112628,1,2,3:0:0:0:
64,192,113036,1,2,3:0:0:0:
192,192,113444,1,2,3:0:0:0:
448,192,113853,1,2,3:0:0:0:
320,192,114261,1,2,3:0:0:0:
192,192,114669,1,2,3:0:0:0:
64,192,115077,1,2,3:0:0:0:
448,192,115485,1,4,0:0:0:0:
320,192,115689,1,4,0:0:0:0:
192,192,115893,1,4,0:0:0:0:
64,192,116097,128,4,116506:0:0:0:0:
64,192,117118,1,4,0:0:0:0:
192,192,117322,1,4,0:0:0:0:
320,192,117526,1,4,0:0:0:0:
448,192,117730,128,4,118138:0:0:0:0:
448,192,118751,1,2,0:0:0:0:
192,192,118955,1,2,0:0:0:0:
320,192,119159,1,2,0:0:0:0:
64,192,119363,1,2,0:0:0:0:
320,192,119567,1,2,0:0:0:0:
192,192,119771,1,2,0:0:0:0:
448,192,119975,1,2,0:0:0:0:
64,192,120179,1,2,0:0:0:0:
448,192,120383,128,4,120791:0:0:0:0:
320,192,120791,128,4,121199:0:0:0:0:
192,192,121199,128,4,121608:0:0:0:0:
64,192,121608,128,4,122016:0:0:0:0:
448,192,122016,1,2,3:0:0:0:
320,192,122424,1,2,3:0:0:0:
448,192,122832,1,2,3:0:0:0:
320,192,123240,1,2,3:0:0:0:
64,192,123648,1,2,3:0:0:0:
192,192,124057,1,2,3:0:0:0:
64,192,124465,1,2,3:0:0:0:
192,192,124873,1,2,3:0:0:0:
448,192,125281,1,2,3:0:0:0:
320,192,125689,1,2,3:0:0:0:
192,192,126097,1,2,3:0:0:0:
64,192,126506,1,2,3:0:0:0:
320,192,126914,1,2,3:0:0:0:
192,192,127322,1,2,3:0:0:0:
448,192,127730,1,2,3:0:0:0:
320,192,128138,1,2,3:0:0:0:
64,192,128546,1,2,3:0:0:0:
192,192,128955,1,2,3:0:0:0:
320,192,129363,1,2,3:0:0:0:
448,192,129771,1,2,3:0:0:0:
192,192,130179,1,2,3:0:0:0:
320,192,130587,1,2,3:0:0:0:
64,192,130995,1,2,3:0:0:0:
192,192,131404,1,2,3:0:0:0:
448,192,131812,1,2,3:0:0:0:
320,192,132016,1,2,3:0:0:0:
64,192,132220,1,2,3:0:0:0:
192,192,132424,1,2,3:0:0:0:
448,192,132628,1,2,3:0:0:0:
320,192,132832,1,2,3:0:0:0:
64,192,133036,1,2,3:0:0:0:
192,192,133240,1,2,3:0:0:0:
448,192,133444,1,2,3:0:0:0:
64,192,133853,1,2,3:0:0:0:
320,192,134261,1,2,3:0:0:0:
192,192,134669,1,2,3:0:0:0:
448,192,135077,1,8,3:0:0:0:
320,192,135281,1,8,3:0:0:0:
64,192,135485,1,8,3:0:0:0:
192,192,135689,1,8,3:0:0:0:
320,192,135893,1,8,3:0:0:0:
64,192,136097,1,8,3:0:0:0:
192,192,136302,1,8,3:0:0:0:
448,192,136506,1,8,3:0:0:0:
320,192,136710,1,8,3:0:0:0:
64,192,136914,1,8,3:0:0:0:
448,192,137118,1,8,3:0:0:0:
192,192,137322,1,8,3:0:0:0:
64,192,137526,1,8,3:0:0:0:
192,192,137730,1,8,3:0:0:0:
320,192,137934,1,8,3:0:0:0:
448,192,138138,1,8,3:0:0:0:
64,192,138342,1,8,3:0:0:0:
448,192,138546,1,8,3:0:0:0:
192,192,138751,1,8,3:0:0:0:
64,192,138955,1,8,3:0:0:0:
448,192,139159,1,8,3:0:0:0:
320,192,139363,1,8,3:0:0:0:
64,192,139567,1,8,3:0:0:0:
448,192,139771,1,8,3:0:0:0:
320,192,139975,1,8,3:0:0:0:
192,192,140179,1,8,3:0:0:0:
64,192,140383,1,8,3:0:0:0:
192,192,140587,1,8,3:0:0:0:
448,192,140791,1,8,3:0:0:0:
192,192,140995,1,8,3:0:0:0:
320,192,141199,1,8,3:0:0:0:
192,192,141404,1,8,3:0:0:0:
448,192,141608,1,8,3:0:0:0:
64,192,141812,1,8,3:0:0:0:
448,192,142016,1,8,3:0:0:0:
64,192,142220,1,8,3:0:0:0:
448,192,142424,1,8,3:0:0:0:
64,192,142628,1,8,3:0:0:0:
448,192,142832,1,8,3:0:0:0:
64,192,143036,1,8,3:0:0:0:
320,192,143240,1,8,3:0:0:0:
192,192,143444,1,8,3:0:0:0:
320,192,143648,1,8,3:0:0:0:
192,192,143853,1,8,3:0:0:0:
320,192,144057,1,8,3:0:0:0:
192,192,144261,1,8,3:0:0:0:
320,192,144465,1,8,3:0:0:0:
192,192,144669,1,8,3:0:0:0:
448,192,144873,1,8,3:0:0:0:
64,192,145077,1,8,3:0:0:0:
320,192,145281,1,8,3:0:0:0:
192,192,145485,1,8,3:0:0:0:
448,192,145689,1,8,3:0:0:0:
64,192,145893,1,8,3:0:0:0:
320,192,146097,1,8,3:0:0:0:
192,192,146302,1,8,3:0:0:0:
320,192,146506,128,8,147322:0:0:0:0:
192,192,147322,128,8,148138:0:0:0:0:
448,192,148138,1,8,3:0:0:0:
320,192,148342,1,8,0:0:0:0:
64,192,148546,1,8,0:0:0:0:
192,192,148751,1,8,0:0:0:0:
448,192,148955,1,8,0:0:0:0:
320,192,149159,1,8,0:0:0:0:
64,192,149363,1,8,0:0:0:0:
192,192,149567,1,8,0:0:0:0:
320,192,149771,1,8,0:0:0:0:
448,192,149975,1,8,0:0:0:0:
192,192,150179,1,8,0:0:0:0:
64,192,150383,1,8,0:0:0:0:
320,192,150587,1,8,0:0:0:0:
448,192,150791,1,8,0:0:0:0:
192,192,150995,1,8,0:0:0:0:
64,192,151199,1,8,0:0:0:0:
448,192,151404,1,8,0:0:0:0:
64,192,151608,1,8,0:0:0:0:
320,192,151812,1,8,0:0:0:0:
192,192,152016,1,8,0:0:0:0:
448,192,152220,1,8,0:0:0:0:
64,192,152424,1,8,0:0:0:0:
192,192,152628,1,8,0:0:0:0:
320,192,152832,1,8,0:0:0:0:
448,192,153036,1,8,0:0:0:0:
320,192,153240,1,8,0:0:0:0:
192,192,153444,1,8,0:0:0:0:
320,192,153648,1,8,0:0:0:0:
192,192,153853,1,8,0:0:0:0:
64,192,154057,1,8,0:0:0:0:
448,192,154261,1,8,0:0:0:0:
192,192,154465,1,8,0:0:0:0:
320,192,154669,1,8,0:0:0:0:
64,192,154873,1,8,0:0:0:0:
192,192,155077,1,8,0:0:0:0:
320,192,155281,1,8,0:0:0:0:
448,192,155485,1,8,0:0:0:0:
192,192,155689,1,8,0:0:0:0:
320,192,155893,1,8,0:0:0:0:
448,192,156097,1,8,0:0:0:0:
64,192,156302,1,8,0:0:0:0:
192,192,156506,1,8,0:0:0:0:
320,192,156710,1,8,0:0:0:0:
448,192,156914,1,8,0:0:0:0:
320,192,157118,1,8,0:0:0:0:
64,192,157322,1,8,0:0:0:0:
192,192,157526,1,8,0:0:0:0:
320,192,157730,1,8,0:0:0:0:
448,192,157934,1,8,0:0:0:0:
320,192,158138,1,8,0:0:0:0:
192,192,158342,1,8,0:0:0:0:
320,192,158546,1,8,0:0:0:0:
192,192,158751,1,8,0:0:0:0:
64,192,158955,1,8,0:0:0:0:
448,192,159159,1,8,0:0:0:0:
320,192,159363,1,8,0:0:0:0:
64,192,159567,128,4,159975:0:0:0:0:
192,192,159975,128,4,160383:0:0:0:0:
448,192,160383,128,4,160791:0:0:0:0:
320,192,160791,128,4,161199:0:0:0:0:
192,192,161199,1,2,3:0:0:0:
320,192,161608,1,2,3:0:0:0:
64,192,162016,1,2,3:0:0:0:
192,192,162424,1,2,3:0:0:0:
320,192,162832,1,2,3:0:0:0:
448,192,163240,1,2,3:0:0:0:
320,192,163648,1,2,3:0:0:0:
192,192,164057,1,2,3:0:0:0:
64,192,164465,1,2,3:0:0:0:
448,192,164873,1,2,3:0:0:0:
320,192,165281,1,2,3:0:0:0:
192,192,165689,1,2,3:0:0:0:
64,192,166097,1,2,3:0:0:0:
192,192,166506,1,2,3:0:0:0:
320,192,166914,1,2,3:0:0:0:
448,192,167322,1,2,3:0:0:0:
192,192,167730,1,2,3:0:0:0:
320,192,168138,1,2,3:0:0:0:
64,192,168546,1,2,3:0:0:0:
192,192,168955,1,2,3:0:0:0:
320,192,169363,1,2,3:0:0:0:
192,192,169771,1,2,3:0:0:0:
448,192,170179,1,2,3:0:0:0:
320,192,170587,1,2,3:0:0:0:
64,192,170995,1,2,3:0:0:0:
192,192,171199,1,2,3:0:0:0:
320,192,171404,1,2,3:0:0:0:
448,192,171608,1,2,3:0:0:0:
192,192,171812,1,2,3:0:0:0:
320,192,172016,1,2,3:0:0:0:
64,192,172220,1,2,3:0:0:0:
448,192,172424,1,2,3:0:0:0:
192,192,172628,1,2,0:0:0:0:
64,192,172628,1,8,0:0:0:0:
448,192,173036,1,2,0:0:0:0:
192,192,173036,1,8,0:0:0:0:
64,192,173444,1,2,0:0:0:0:
320,192,173444,1,8,0:0:0:0:
448,192,173853,128,4,174261:1:0:0:0:
64,192,173853,128,4,174261:1:0:0:0:
192,192,174261,1,2,0:2:0:0:
320,192,174261,1,2,0:2:0:0:
