osu file format v14

[General]
AudioFilename: [J-CoreSpeedcore #84] Kobaryo - Kick To The Sky.mp3
AudioLeadIn: 0
PreviewTime: -1
Countdown: 0
SampleSet: Normal
StackLeniency: 0.7
Mode: 3
LetterboxInBreaks: 0
SpecialStyle: 0
WidescreenStoryboard: 1

[Editor]
DistanceSpacing: 1.5
BeatDivisor: 2
GridSize: 16
TimelineZoom: 1.299999

[Metadata]
Title:Kick To The Sky
TitleUnicode:Kick To The Sky
Artist:Kobaryo
ArtistUnicode:Kobaryo
Creator:KH_Supernova
Version:Normal
Source:ブチアゲスピードコア 2 (Buchiage Speedcore 2)
Tags:Kobaryo speedcore 4k hardcore map
BeatmapID:881951
BeatmapSetID:405787

[Difficulty]
HPDrainRate:6
CircleSize:4
OverallDifficulty:7
ApproachRate:5
SliderMultiplier:1.80000000596047
SliderTickRate:1

[Events]
//Background and Video events
0,0,"kick to the sky kid friendly background.jpg",0,0
//Break Periods
//Storyboard Layer 0 (Background)
//Storyboard Layer 1 (Fail)
//Storyboard Layer 2 (Pass)
//Storyboard Layer 3 (Foreground)
//Storyboard Layer 4 (Overlay)
//Storyboard Sound Samples

[TimingPoints]
1280,204.081632653061,4,1,0,7,1,0

[HitObjects]
64,192,1280,5,0,0:0:0:0:
448,192,1280,128,0,2912:0:0:0:0:
192,192,2912,128,0,4545:0:0:0:0:
320,192,4545,128,0,6177:0:0:0:0:
64,192,6177,128,0,7810:0:0:0:0:
192,192,7810,128,0,9443:0:0:0:0:
448,192,9443,128,0,11075:0:0:0:0:
64,192,11075,128,0,12708:0:0:0:0:
320,192,12708,128,0,14341:0:0:0:0:
64,192,14341,1,0,0:0:0:0:
448,192,14749,1,0,0:0:0:0:
64,192,15157,1,0,0:0:0:0:
320,192,15565,1,0,0:0:0:0:
448,192,15973,1,0,0:0:0:0:
192,192,16382,1,0,0:0:0:0:
320,192,16790,1,0,0:0:0:0:
64,192,17198,1,0,0:0:0:0:
192,192,17606,1,0,0:0:0:0:
448,192,18014,1,0,0:0:0:0:
320,192,18422,1,0,0:0:0:0:
64,192,18831,1,0,0:0:0:0:
320,192,19239,1,0,0:0:0:0:
192,192,19647,1,0,0:0:0:0:
448,192,20055,1,0,0:0:0:0:
320,192,20463,1,0,0:0:0:0:
64,192,20871,1,0,0:0:0:0:
448,192,21075,1,0,0:0:0:0:
192,192,21279,1,0,0:0:0:0:
448,192,21484,1,0,0:0:0:0:
320,192,21688,1,0,0:0:0:0:
448,192,21892,1,0,0:0:0:0:
64,192,22096,1,0,0:0:0:0:
320,192,22300,1,0,0:0:0:0:
448,192,22504,1,0,0:0:0:0:
192,192,22708,1,0,0:0:0:0:
448,192,22912,1,0,0:0:0:0:
64,192,23116,1,0,0:0:0:0:
192,192,23320,1,0,0:0:0:0:
448,192,23524,1,0,0:0:0:0:
320,192,23728,1,0,0:0:0:0:
64,192,23933,1,0,0:0:0:0:
192,192,24137,128,0,25769:0:0:0:0:
320,192,24137,128,0,25769:0:0:0:0:
64,192,25769,1,0,0:0:0:0:
448,192,25769,1,0,0:0:0:0:
192,192,25973,1,0,0:0:0:0:
320,192,26177,1,0,0:0:0:0:
448,192,26382,1,0,0:0:0:0:
320,192,26484,1,0,0:0:0:0:
64,192,26586,128,0,27402:0:0:0:0:
192,192,26586,128,0,27402:0:0:0:0:
320,192,27402,1,0,0:0:0:0:
448,192,27402,1,0,0:0:0:0:
192,192,27606,1,0,0:0:0:0:
448,192,27810,1,0,0:0:0:0:
192,192,28014,128,0,28218:0:0:0:0:
64,192,28218,128,0,28422:0:0:0:0:
448,192,28422,1,0,0:0:0:0:
320,192,28524,1,0,0:0:0:0:
64,192,28728,1,0,0:0:0:0:
192,192,28831,1,0,0:0:0:0:
448,192,29035,1,0,0:0:0:0:
192,192,29239,1,0,0:0:0:0:
320,192,29443,1,0,0:0:0:0:
64,192,29647,128,0,29851:0:0:0:0:
192,192,29851,128,0,30055:0:0:0:0:
448,192,30055,1,0,0:0:0:0:
320,192,30157,1,0,0:0:0:0:
64,192,30259,128,0,30667:0:0:0:0:
448,192,30667,1,0,0:0:0:0:
320,192,30871,1,0,0:0:0:0:
64,192,31075,1,0,0:0:0:0:
192,192,31279,128,0,31484:0:0:0:0:
320,192,31484,128,0,31688:0:0:0:0:
64,192,31688,1,0,0:0:0:0:
192,192,31790,1,0,0:0:0:0:
320,192,31994,1,0,0:0:0:0:
448,192,32096,1,0,0:0:0:0:
320,192,32300,1,0,0:0:0:0:
192,192,32504,1,0,0:0:0:0:
448,192,32708,1,0,0:0:0:0:
320,192,32912,128,0,33116:0:0:0:0:
192,192,33116,128,0,33320:0:0:0:0:
448,192,33320,1,0,0:0:0:0:
320,192,33422,1,0,0:0:0:0:
192,192,33626,1,0,0:0:0:0:
64,192,33728,1,0,0:0:0:0:
192,192,33933,1,0,0:0:0:0:
448,192,34137,1,0,0:0:0:0:
192,192,34341,1,0,0:0:0:0:
64,192,34545,128,0,34749:0:0:0:0:
320,192,34749,128,0,34953:0:0:0:0:
192,192,34953,1,0,0:0:0:0:
64,192,35055,1,0,0:0:0:0:
320,192,35259,1,0,0:0:0:0:
448,192,35361,1,0,0:0:0:0:
64,192,35565,1,0,0:0:0:0:
448,192,35769,1,0,0:0:0:0:
192,192,35973,1,0,0:0:0:0:
448,192,36177,128,0,36382:0:0:0:0:
192,192,36382,128,0,36586:0:0:0:0:
320,192,36586,1,0,0:0:0:0:
448,192,36688,1,0,0:0:0:0:
192,192,36892,1,0,0:0:0:0:
64,192,36994,1,0,0:0:0:0:
448,192,37198,1,0,0:0:0:0:
192,192,37402,1,0,0:0:0:0:
320,192,37606,1,0,0:0:0:0:
192,192,37810,128,0,38014:0:0:0:0:
448,192,38014,128,0,38218:0:0:0:0:
64,192,38218,1,0,0:0:0:0:
320,192,38320,1,0,0:0:0:0:
448,192,38524,1,0,0:0:0:0:
192,192,38626,1,0,0:0:0:0:
64,192,38831,1,0,0:0:0:0:
320,192,39035,1,0,0:0:0:0:
192,192,39239,1,0,0:0:0:0:
320,192,39443,128,0,39647:0:0:0:0:
64,192,39647,128,0,39851:0:0:0:0:
448,192,39851,1,0,0:0:0:0:
192,192,39953,1,0,0:0:0:0:
64,192,40157,1,0,0:0:0:0:
320,192,40259,1,0,0:0:0:0:
64,192,40463,1,0,0:0:0:0:
320,192,40667,1,0,0:0:0:0:
192,192,40871,1,0,0:0:0:0:
320,192,41075,128,0,41279:0:0:0:0:
448,192,41279,128,0,41484:0:0:0:0:
64,192,41484,1,0,0:0:0:0:
192,192,41586,1,0,0:0:0:0:
448,192,41790,1,0,0:0:0:0:
320,192,41892,1,0,0:0:0:0:
448,192,42096,1,0,0:0:0:0:
64,192,42300,1,0,0:0:0:0:
192,192,42504,1,0,0:0:0:0:
448,192,42708,128,0,42912:0:0:0:0:
64,192,42912,128,0,43116:0:0:0:0:
320,192,43116,1,0,0:0:0:0:
192,192,43218,1,0,0:0:0:0:
448,192,43422,1,0,0:0:0:0:
64,192,43524,1,0,0:0:0:0:
448,192,43728,1,0,0:0:0:0:
64,192,43728,1,0,0:0:0:0:
192,192,43933,1,0,0:0:0:0:
320,192,44137,1,0,0:0:0:0:
64,192,44341,1,0,0:0:0:0:
192,192,44545,1,0,0:0:0:0:
320,192,44545,1,0,0:0:0:0:
448,192,44749,1,0,0:0:0:0:
320,192,44953,1,0,0:0:0:0:
192,192,45157,1,0,0:0:0:0:
64,192,45259,1,0,0:0:0:0:
448,192,45361,1,0,0:0:0:0:
192,192,45565,1,0,0:0:0:0:
448,192,45769,1,0,0:0:0:0:
320,192,45973,1,0,0:0:0:0:
64,192,46177,1,0,0:0:0:0:
320,192,46279,128,0,46484:0:0:0:0:
192,192,46484,1,0,0:0:0:0:
64,192,46586,128,0,46790:0:0:0:0:
192,192,46790,1,0,0:0:0:0:
320,192,46892,1,0,0:0:0:0:
448,192,46994,1,0,0:0:0:0:
192,192,47198,1,0,0:0:0:0:
448,192,47402,1,0,0:0:0:0:
320,192,47606,1,0,0:0:0:0:
64,192,47810,1,0,0:0:0:0:
448,192,48014,1,0,0:0:0:0:
192,192,48218,1,0,0:0:0:0:
448,192,48422,128,0,48626:0:0:0:0:
320,192,48626,1,0,0:0:0:0:
64,192,48831,1,0,0:0:0:0:
448,192,49035,1,0,0:0:0:0:
192,192,49239,1,0,0:0:0:0:
320,192,49443,128,0,50259:0:0:0:0:
448,192,49443,128,0,50259:0:0:0:0:
64,192,50259,1,0,0:0:0:0:
192,192,50463,1,0,0:0:0:0:
320,192,50667,1,0,0:0:0:0:
448,192,50871,128,0,51075:0:0:0:0:
64,192,51075,128,0,51279:0:0:0:0:
448,192,51279,1,0,0:0:0:0:
320,192,51382,1,0,0:0:0:0:
64,192,51586,1,0,0:0:0:0:
192,192,51688,1,0,0:0:0:0:
448,192,51892,1,0,0:0:0:0:
192,192,52096,1,0,0:0:0:0:
320,192,52300,1,0,0:0:0:0:
192,192,52504,128,0,52708:0:0:0:0:
448,192,52708,128,0,52912:0:0:0:0:
320,192,52912,1,0,0:0:0:0:
192,192,53014,1,0,0:0:0:0:
448,192,53218,1,0,0:0:0:0:
64,192,53320,1,0,0:0:0:0:
192,192,53524,1,0,0:0:0:0:
320,192,53728,1,0,0:0:0:0:
64,192,53933,1,0,0:0:0:0:
192,192,54137,128,0,54341:0:0:0:0:
320,192,54341,128,0,54545:0:0:0:0:
64,192,54545,1,0,0:0:0:0:
192,192,54647,1,0,0:0:0:0:
448,192,54851,1,0,0:0:0:0:
320,192,54953,1,0,0:0:0:0:
192,192,55157,1,0,0:0:0:0:
64,192,55361,1,0,0:0:0:0:
448,192,55565,1,0,0:0:0:0:
320,192,55769,128,0,55973:0:0:0:0:
192,192,55973,128,0,56177:0:0:0:0:
320,192,56177,1,0,0:0:0:0:
448,192,56279,1,0,0:0:0:0:
192,192,56484,1,0,0:0:0:0:
64,192,56586,1,0,0:0:0:0:
64,192,56790,5,0,0:0:0:0:
448,192,56790,1,0,0:0:0:0:
320,192,57198,1,0,0:0:0:0:
448,192,57198,1,0,0:0:0:0:
192,192,57606,1,0,0:0:0:0:
320,192,58014,1,0,0:0:0:0:
64,192,58014,1,0,0:0:0:0:
448,192,58422,1,0,0:0:0:0:
192,192,58831,1,0,0:0:0:0:
64,192,58831,1,0,0:0:0:0:
192,192,59239,1,0,0:0:0:0:
320,192,59647,1,0,0:0:0:0:
448,192,59647,1,0,0:0:0:0:
320,192,60055,1,0,0:0:0:0:
192,192,60463,1,0,0:0:0:0:
448,192,60463,1,0,0:0:0:0:
320,192,60871,1,0,0:0:0:0:
192,192,61279,1,0,0:0:0:0:
64,192,61279,1,0,0:0:0:0:
192,192,61688,1,0,0:0:0:0:
320,192,62096,1,0,0:0:0:0:
448,192,62096,1,0,0:0:0:0:
192,192,62504,1,0,0:0:0:0:
64,192,62912,1,0,0:0:0:0:
448,192,62912,1,0,0:0:0:0:
192,192,63320,1,0,0:0:0:0:
320,192,63320,1,0,0:0:0:0:
64,192,63728,1,0,0:0:0:0:
448,192,63728,1,0,0:0:0:0:
320,192,64137,1,0,0:0:0:0:
320,192,64545,1,0,0:0:0:0:
448,192,64545,1,0,0:0:0:0:
64,192,64953,1,0,0:0:0:0:
448,192,64953,1,0,0:0:0:0:
320,192,65361,1,0,0:0:0:0:
192,192,65361,1,0,0:0:0:0:
64,192,65769,1,0,0:0:0:0:
192,192,66177,1,0,0:0:0:0:
448,192,66177,1,0,0:0:0:0:
64,192,66586,1,0,0:0:0:0:
448,192,66586,1,0,0:0:0:0:
192,192,66790,1,0,0:0:0:0:
320,192,66994,1,0,0:0:0:0:
448,192,67198,1,0,0:0:0:0:
64,192,67402,1,0,0:0:0:0:
192,192,67402,1,0,0:0:0:0:
448,192,67606,1,0,0:0:0:0:
320,192,67810,1,0,0:0:0:0:
192,192,68014,1,0,0:0:0:0:
64,192,68218,128,0,69035:0:0:0:0:
448,192,68626,128,0,69035:0:0:0:0:
64,192,69851,1,0,0:0:0:0:
448,192,69851,1,0,0:0:0:0:
192,192,70055,1,0,0:0:0:0:
64,192,70259,1,0,0:0:0:0:
448,192,70463,1,0,0:0:0:0:
320,192,70667,1,0,0:0:0:0:
64,192,70871,1,0,0:0:0:0:
448,192,71075,1,0,0:0:0:0:
192,192,71279,1,0,0:0:0:0:
64,192,71484,1,0,0:0:0:0:
320,192,71688,1,0,0:0:0:0:
192,192,71892,1,0,0:0:0:0:
448,192,72096,1,0,0:0:0:0:
192,192,72300,1,0,0:0:0:0:
64,192,72504,1,0,0:0:0:0:
320,192,72708,1,0,0:0:0:0:
448,192,72912,1,0,0:0:0:0:
320,192,73116,1,0,0:0:0:0:
192,192,73320,1,0,0:0:0:0:
64,192,73524,1,0,0:0:0:0:
320,192,73728,1,0,0:0:0:0:
448,192,73933,1,0,0:0:0:0:
192,192,74137,1,0,0:0:0:0:
64,192,74341,1,0,0:0:0:0:
192,192,74545,1,0,0:0:0:0:
448,192,74749,1,0,0:0:0:0:
320,192,74953,1,0,0:0:0:0:
64,192,75157,1,0,0:0:0:0:
192,192,75361,1,0,0:0:0:0:
320,192,75565,128,0,76382:0:0:0:0:
448,192,75565,128,0,76382:0:0:0:0:
192,192,76382,128,0,77198:0:0:0:0:
64,192,76382,1,0,0:0:0:0:
320,192,76586,1,0,0:0:0:0:
448,192,76790,1,0,0:0:0:0:
64,192,76994,1,0,0:0:0:0:
320,192,77198,128,0,78014:0:0:0:0:
448,192,77198,1,0,0:0:0:0:
64,192,77402,1,0,0:0:0:0:
192,192,77606,1,0,0:0:0:0:
448,192,77810,1,0,0:0:0:0:
64,192,78014,128,0,78831:0:0:0:0:
192,192,78014,1,0,0:0:0:0:
448,192,78218,1,0,0:0:0:0:
192,192,78422,1,0,0:0:0:0:
320,192,78626,1,0,0:0:0:0:
448,192,78831,128,0,79647:0:0:0:0:
192,192,78831,1,0,0:0:0:0:
320,192,79035,1,0,0:0:0:0:
64,192,79239,1,0,0:0:0:0:
192,192,79443,1,0,0:0:0:0:
192,192,79647,128,0,80463:0:0:0:0:
64,192,79647,1,0,0:0:0:0:
320,192,79851,1,0,0:0:0:0:
448,192,80055,1,0,0:0:0:0:
64,192,80259,1,0,0:0:0:0:
320,192,80463,128,0,81279:0:0:0:0:
448,192,80463,1,0,0:0:0:0:
64,192,80667,1,0,0:0:0:0:
192,192,80871,1,0,0:0:0:0:
448,192,81075,1,0,0:0:0:0:
64,192,81279,128,0,82096:0:0:0:0:
192,192,81279,1,0,0:0:0:0:
448,192,81484,1,0,0:0:0:0:
192,192,81688,1,0,0:0:0:0:
320,192,81892,1,0,0:0:0:0:
192,192,82096,128,0,82912:0:0:0:0:
448,192,82096,1,0,0:0:0:0:
320,192,82300,1,0,0:0:0:0:
64,192,82504,1,0,0:0:0:0:
320,192,82708,1,0,0:0:0:0:
64,192,82912,1,0,0:0:0:0:
448,192,82912,1,0,0:0:0:0:
192,192,83320,1,0,0:0:0:0:
320,192,83320,1,0,0:0:0:0:
448,192,83728,1,0,0:0:0:0:
64,192,83728,1,0,0:0:0:0:
192,192,84137,1,0,0:0:0:0:
320,192,84137,1,0,0:0:0:0:
192,192,84545,1,0,0:0:0:0:
64,192,84545,1,0,0:0:0:0:
320,192,84953,1,0,0:0:0:0:
448,192,84953,1,0,0:0:0:0:
192,192,85361,1,0,0:0:0:0:
64,192,85361,1,0,0:0:0:0:
448,192,85769,1,0,0:0:0:0:
320,192,85769,1,0,0:0:0:0:
192,192,85973,1,0,0:0:0:0:
64,192,85973,1,0,0:0:0:0:
320,192,86177,1,0,0:0:0:0:
448,192,86177,1,0,0:0:0:0:
320,192,86586,1,0,0:0:0:0:
64,192,86586,1,0,0:0:0:0:
192,192,86994,1,0,0:0:0:0:
448,192,86994,1,0,0:0:0:0:
320,192,87402,1,0,0:0:0:0:
64,192,87402,1,0,0:0:0:0:
192,192,87810,1,0,0:0:0:0:
320,192,87810,1,0,0:0:0:0:
448,192,88218,1,0,0:0:0:0:
64,192,88218,1,0,0:0:0:0:
192,192,88626,1,0,0:0:0:0:
320,192,88626,1,0,0:0:0:0:
448,192,89035,128,0,89443:0:0:0:0:
64,192,89035,128,0,89443:0:0:0:0:
192,192,89443,1,0,0:0:0:0:
320,192,89443,1,0,0:0:0:0:
64,192,89851,1,0,0:0:0:0:
448,192,89851,1,0,0:0:0:0:
448,192,90259,1,0,0:0:0:0:
64,192,90259,1,0,0:0:0:0:
64,192,90667,1,0,0:0:0:0:
448,192,90667,1,0,0:0:0:0:
320,192,91075,1,0,0:0:0:0:
192,192,91075,1,0,0:0:0:0:
192,192,91484,1,0,0:0:0:0:
320,192,91484,1,0,0:0:0:0:
192,192,91892,1,0,0:0:0:0:
320,192,91892,1,0,0:0:0:0:
192,192,92300,1,0,0:0:0:0:
320,192,92300,1,0,0:0:0:0:
64,192,92708,1,0,0:0:0:0:
448,192,92708,1,0,0:0:0:0:
448,192,93116,1,0,0:0:0:0:
64,192,93116,1,0,0:0:0:0:
64,192,93524,1,0,0:0:0:0:
448,192,93524,1,0,0:0:0:0:
64,192,93933,1,0,0:0:0:0:
448,192,93933,1,0,0:0:0:0:
64,192,94341,128,0,95565:0:0:0:0:
448,192,94341,128,0,95565:0:0:0:0:
64,192,95973,1,0,0:0:0:0:
448,192,95973,128,0,97606:0:0:0:0:
320,192,97606,128,0,99239:0:0:0:0:
64,192,99239,128,0,100871:0:0:0:0:
192,192,100871,128,0,102504:0:0:0:0:
448,192,102504,128,0,104137:0:0:0:0:
64,192,104137,128,0,105769:0:0:0:0:
320,192,105769,128,0,107402:0:0:0:0:
192,192,107402,128,0,109035:0:0:0:0:
64,192,109035,1,0,0:0:0:0:
448,192,109035,1,0,0:0:0:0:
320,192,109443,1,0,0:0:0:0:
192,192,109443,1,0,0:0:0:0:
64,192,109851,1,0,0:0:0:0:
448,192,109851,1,0,0:0:0:0:
192,192,110259,1,0,0:0:0:0:
320,192,110259,1,0,0:0:0:0:
192,192,110667,1,0,0:0:0:0:
64,192,110667,1,0,0:0:0:0:
448,192,111075,1,0,0:0:0:0:
320,192,111075,1,0,0:0:0:0:
192,192,111484,1,0,0:0:0:0:
64,192,111484,1,0,0:0:0:0:
320,192,111892,1,0,0:0:0:0:
448,192,111892,1,0,0:0:0:0:
320,192,112300,1,0,0:0:0:0:
64,192,112300,1,0,0:0:0:0:
192,192,112708,1,0,0:0:0:0:
448,192,112708,1,0,0:0:0:0:
320,192,113116,1,0,0:0:0:0:
64,192,113116,1,0,0:0:0:0:
192,192,113524,1,0,0:0:0:0:
448,192,113524,1,0,0:0:0:0:
192,192,113933,1,0,0:0:0:0:
320,192,113933,1,0,0:0:0:0:
64,192,114341,1,0,0:0:0:0:
448,192,114341,1,0,0:0:0:0:
320,192,114749,1,0,0:0:0:0:
192,192,114749,1,0,0:0:0:0:
64,192,115157,1,0,0:0:0:0:
448,192,115157,1,0,0:0:0:0:
64,192,115565,1,0,0:0:0:0:
448,192,115565,1,0,0:0:0:0:
320,192,115769,1,0,0:0:0:0:
192,192,115973,1,0,0:0:0:0:
64,192,116177,1,0,0:0:0:0:
448,192,116279,1,0,0:0:0:0:
64,192,117198,1,0,0:0:0:0:
448,192,117198,1,0,0:0:0:0:
192,192,117402,1,0,0:0:0:0:
320,192,117606,1,0,0:0:0:0:
448,192,117810,1,0,0:0:0:0:
64,192,117912,1,0,0:0:0:0:
64,192,118831,1,0,0:0:0:0:
192,192,118831,1,0,0:0:0:0:
320,192,119035,1,0,0:0:0:0:
448,192,119035,1,0,0:0:0:0:
64,192,119239,1,0,0:0:0:0:
320,192,119239,1,0,0:0:0:0:
192,192,119443,1,0,0:0:0:0:
448,192,119443,1,0,0:0:0:0:
192,192,119647,1,0,0:0:0:0:
320,192,119647,1,0,0:0:0:0:
64,192,119851,1,0,0:0:0:0:
448,192,119851,1,0,0:0:0:0:
448,192,120055,1,0,0:0:0:0:
320,192,120055,1,0,0:0:0:0:
64,192,120259,1,0,0:0:0:0:
192,192,120259,1,0,0:0:0:0:
64,192,120463,128,0,122096:0:0:0:0:
448,192,120463,128,0,122096:0:0:0:0:
192,192,122096,1,0,0:0:0:0:
320,192,122096,1,0,0:0:0:0:
64,192,122300,1,0,0:0:0:0:
448,192,122504,1,0,0:0:0:0:
320,192,122606,1,0,0:0:0:0:
192,192,122708,1,0,0:0:0:0:
448,192,122912,1,0,0:0:0:0:
192,192,123116,1,0,0:0:0:0:
320,192,123320,1,0,0:0:0:0:
448,192,123422,1,0,0:0:0:0:
64,192,123524,1,0,0:0:0:0:
192,192,123728,1,0,0:0:0:0:
64,192,123933,1,0,0:0:0:0:
192,192,124137,1,0,0:0:0:0:
320,192,124239,1,0,0:0:0:0:
448,192,124341,1,0,0:0:0:0:
192,192,124545,1,0,0:0:0:0:
448,192,124749,1,0,0:0:0:0:
64,192,124953,1,0,0:0:0:0:
192,192,125055,1,0,0:0:0:0:
320,192,125157,1,0,0:0:0:0:
64,192,125361,1,0,0:0:0:0:
448,192,125361,1,0,0:0:0:0:
320,192,125565,1,0,0:0:0:0:
64,192,125769,1,0,0:0:0:0:
320,192,125871,1,0,0:0:0:0:
192,192,125973,1,0,0:0:0:0:
448,192,126177,1,0,0:0:0:0:
64,192,126382,1,0,0:0:0:0:
320,192,126586,1,0,0:0:0:0:
192,192,126688,1,0,0:0:0:0:
64,192,126790,1,0,0:0:0:0:
448,192,126994,1,0,0:0:0:0:
192,192,127198,1,0,0:0:0:0:
64,192,127402,1,0,0:0:0:0:
192,192,127504,1,0,0:0:0:0:
448,192,127606,1,0,0:0:0:0:
192,192,127810,1,0,0:0:0:0:
64,192,128014,1,0,0:0:0:0:
448,192,128218,1,0,0:0:0:0:
320,192,128320,1,0,0:0:0:0:
192,192,128422,1,0,0:0:0:0:
64,192,128422,1,0,0:0:0:0:
448,192,128626,1,0,0:0:0:0:
64,192,128626,1,0,0:0:0:0:
320,192,128831,1,0,0:0:0:0:
192,192,129035,1,0,0:0:0:0:
320,192,129137,1,0,0:0:0:0:
448,192,129239,1,0,0:0:0:0:
320,192,129443,1,0,0:0:0:0:
192,192,129647,1,0,0:0:0:0:
448,192,129851,1,0,0:0:0:0:
320,192,129953,1,0,0:0:0:0:
64,192,130055,1,0,0:0:0:0:
192,192,130055,1,0,0:0:0:0:
64,192,130259,1,0,0:0:0:0:
448,192,130259,1,0,0:0:0:0:
320,192,130463,1,0,0:0:0:0:
192,192,130667,1,0,0:0:0:0:
320,192,130769,1,0,0:0:0:0:
448,192,130871,1,0,0:0:0:0:
192,192,131075,1,0,0:0:0:0:
64,192,131279,1,0,0:0:0:0:
320,192,131484,1,0,0:0:0:0:
448,192,131586,1,0,0:0:0:0:
320,192,131688,1,0,0:0:0:0:
192,192,131688,1,0,0:0:0:0:
64,192,131892,1,0,0:0:0:0:
448,192,131892,1,0,0:0:0:0:
192,192,132096,1,0,0:0:0:0:
320,192,132096,1,0,0:0:0:0:
64,192,132300,1,0,0:0:0:0:
448,192,132300,1,0,0:0:0:0:
192,192,132504,1,0,0:0:0:0:
320,192,132504,1,0,0:0:0:0:
64,192,132708,128,0,133524:0:0:0:0:
448,192,132708,128,0,133524:0:0:0:0:
192,192,133524,1,0,0:0:0:0:
320,192,133524,1,0,0:0:0:0:
448,192,133728,1,0,0:0:0:0:
320,192,133933,1,0,0:0:0:0:
64,192,134137,1,0,0:0:0:0:
192,192,134239,1,0,0:0:0:0:
320,192,134341,128,0,135157:0:0:0:0:
448,192,134341,128,0,135157:0:0:0:0:
192,192,135157,1,0,0:0:0:0:
64,192,135157,1,0,0:0:0:0:
320,192,135361,1,0,0:0:0:0:
192,192,135565,1,0,0:0:0:0:
448,192,135769,1,0,0:0:0:0:
192,192,135973,1,0,0:0:0:0:
64,192,136177,1,0,0:0:0:0:
320,192,136382,1,0,0:0:0:0:
64,192,136586,128,0,136790:0:0:0:0:
192,192,136790,1,0,0:0:0:0:
448,192,136994,1,0,0:0:0:0:
320,192,137198,1,0,0:0:0:0:
64,192,137402,1,0,0:0:0:0:
192,192,137606,1,0,0:0:0:0:
448,192,137708,128,0,137912:0:0:0:0:
320,192,137912,1,0,0:0:0:0:
64,192,138014,128,0,138218:0:0:0:0:
192,192,138218,1,0,0:0:0:0:
320,192,138320,1,0,0:0:0:0:
448,192,138422,1,0,0:0:0:0:
64,192,138626,1,0,0:0:0:0:
320,192,138831,1,0,0:0:0:0:
192,192,139035,1,0,0:0:0:0:
448,192,139239,1,0,0:0:0:0:
192,192,139443,1,0,0:0:0:0:
64,192,139647,1,0,0:0:0:0:
320,192,139851,128,0,140055:0:0:0:0:
448,192,140055,128,0,140871:0:0:0:0:
320,192,140871,128,0,141688:0:0:0:0:
192,192,141688,1,0,0:0:0:0:
64,192,141892,1,0,0:0:0:0:
192,192,142096,1,0,0:0:0:0:
448,192,142300,1,0,0:0:0:0:
320,192,142504,1,0,0:0:0:0:
64,192,142708,1,0,0:0:0:0:
448,192,142912,1,0,0:0:0:0:
320,192,143116,128,0,143320:0:0:0:0:
448,192,143320,1,0,0:0:0:0:
64,192,143524,1,0,0:0:0:0:
192,192,143728,1,0,0:0:0:0:
448,192,143933,1,0,0:0:0:0:
64,192,144137,1,0,0:0:0:0:
192,192,144239,128,0,144443:0:0:0:0:
320,192,144443,1,0,0:0:0:0:
64,192,144545,128,0,144749:0:0:0:0:
320,192,144749,1,0,0:0:0:0:
192,192,144851,1,0,0:0:0:0:
64,192,144953,1,0,0:0:0:0:
448,192,144953,128,0,146586:0:0:0:0:
192,192,146382,128,0,146586:0:0:0:0:
64,192,146586,128,0,147402:0:0:0:0:
64,192,148218,1,0,0:0:0:0:
448,192,148218,1,0,0:0:0:0:
320,192,148422,1,0,0:0:0:0:
192,192,148626,128,0,148831:0:0:0:0:
320,192,148831,1,0,0:0:0:0:
192,192,148933,1,0,0:0:0:0:
64,192,149035,1,0,0:0:0:0:
448,192,149239,1,0,0:0:0:0:
320,192,149443,128,0,149647:0:0:0:0:
192,192,149647,1,0,0:0:0:0:
320,192,149749,1,0,0:0:0:0:
448,192,149851,1,0,0:0:0:0:
192,192,150055,1,0,0:0:0:0:
64,192,150259,128,0,150463:0:0:0:0:
192,192,150463,1,0,0:0:0:0:
320,192,150565,1,0,0:0:0:0:
448,192,150667,1,0,0:0:0:0:
192,192,150871,1,0,0:0:0:0:
320,192,151075,1,0,0:0:0:0:
64,192,151279,128,0,151484:0:0:0:0:
448,192,151279,128,0,151484:0:0:0:0:
320,192,151484,1,0,0:0:0:0:
192,192,151688,1,0,0:0:0:0:
64,192,151892,128,0,152096:0:0:0:0:
192,192,152096,1,0,0:0:0:0:
320,192,152198,1,0,0:0:0:0:
448,192,152300,1,0,0:0:0:0:
192,192,152504,1,0,0:0:0:0:
320,192,152708,128,0,152912:0:0:0:0:
448,192,152912,1,0,0:0:0:0:
192,192,153014,1,0,0:0:0:0:
64,192,153116,1,0,0:0:0:0:
192,192,153320,1,0,0:0:0:0:
448,192,153524,1,0,0:0:0:0:
320,192,153728,1,0,0:0:0:0:
64,192,153933,128,0,154749:0:0:0:0:
192,192,153933,128,0,154749:0:0:0:0:
448,192,154749,1,0,0:0:0:0:
320,192,154953,1,0,0:0:0:0:
192,192,155157,128,0,155361:0:0:0:0:
64,192,155361,1,0,0:0:0:0:
320,192,155463,1,0,0:0:0:0:
448,192,155565,1,0,0:0:0:0:
64,192,155769,1,0,0:0:0:0:
192,192,155973,128,0,156177:0:0:0:0:
448,192,156177,1,0,0:0:0:0:
320,192,156279,1,0,0:0:0:0:
64,192,156382,1,0,0:0:0:0:
192,192,156586,1,0,0:0:0:0:
320,192,156790,128,0,156994:0:0:0:0:
192,192,156994,1,0,0:0:0:0:
320,192,157096,1,0,0:0:0:0:
448,192,157198,1,0,0:0:0:0:
64,192,157198,1,0,0:0:0:0:
192,192,157300,1,0,0:0:0:0:
320,192,157402,1,0,0:0:0:0:
64,192,157606,1,0,0:0:0:0:
320,192,157810,128,0,158014:0:0:0:0:
192,192,157810,128,0,158014:0:0:0:0:
64,192,158014,1,0,0:0:0:0:
448,192,158014,1,0,0:0:0:0:
64,192,159647,1,0,0:0:0:0:
192,192,159647,1,0,0:0:0:0:
320,192,159749,1,0,0:0:0:0:
448,192,159749,1,0,0:0:0:0:
64,192,159851,128,0,160055:0:0:0:0:
192,192,160055,128,0,160259:0:0:0:0:
320,192,160259,128,0,160463:0:0:0:0:
448,192,160463,128,0,160871:0:0:0:0:
64,192,160463,128,0,160871:0:0:0:0:
64,192,161279,1,0,0:0:0:0:
448,192,161279,1,0,0:0:0:0:
192,192,161688,1,0,0:0:0:0:
320,192,161688,1,0,0:0:0:0:
64,192,162096,1,0,0:0:0:0:
448,192,162096,1,0,0:0:0:0:
320,192,162504,1,0,0:0:0:0:
192,192,162504,1,0,0:0:0:0:
192,192,162912,1,0,0:0:0:0:
448,192,162912,1,0,0:0:0:0:
320,192,163320,1,0,0:0:0:0:
64,192,163320,1,0,0:0:0:0:
192,192,163728,1,0,0:0:0:0:
448,192,163728,1,0,0:0:0:0:
320,192,164137,1,0,0:0:0:0:
64,192,164137,1,0,0:0:0:0:
192,192,164545,1,0,0:0:0:0:
64,192,164545,1,0,0:0:0:0:
320,192,164953,1,0,0:0:0:0:
448,192,164953,1,0,0:0:0:0:
192,192,165361,1,0,0:0:0:0:
64,192,165361,1,0,0:0:0:0:
320,192,165769,1,0,0:0:0:0:
448,192,165769,1,0,0:0:0:0:
320,192,166177,1,0,0:0:0:0:
192,192,166177,1,0,0:0:0:0:
64,192,166586,1,0,0:0:0:0:
448,192,166586,1,0,0:0:0:0:
192,192,166994,1,0,0:0:0:0:
320,192,166994,1,0,0:0:0:0:
320,192,167300,1,0,0:0:0:0:
64,192,167402,1,0,0:0:0:0:
448,192,167402,1,0,0:0:0:0:
192,192,167708,1,0,0:0:0:0:
448,192,167810,1,0,0:0:0:0:
64,192,167810,1,0,0:0:0:0:
192,192,168014,1,0,0:0:0:0:
448,192,168218,1,0,0:0:0:0:
320,192,168422,1,0,0:0:0:0:
64,192,168626,1,0,0:0:0:0:
448,192,168831,1,0,0:0:0:0:
192,192,169035,1,0,0:0:0:0:
320,192,169239,1,0,0:0:0:0:
192,192,169443,1,0,0:0:0:0:
448,192,169647,1,0,0:0:0:0:
64,192,169851,1,0,0:0:0:0:
320,192,170055,1,0,0:0:0:0:
192,192,170259,1,0,0:0:0:0:
64,192,170463,1,0,0:0:0:0:
448,192,170667,1,0,0:0:0:0:
320,192,170871,1,0,0:0:0:0:
192,192,171075,1,0,0:0:0:0:
64,192,171075,128,0,171892:0:0:0:0:
320,192,171892,1,0,0:0:0:0:
448,192,171892,128,0,172708:0:0:0:0:
192,192,172708,1,0,0:0:0:0:
64,192,172708,1,0,0:0:0:0:
320,192,172912,1,0,0:0:0:0:
192,192,173116,1,0,0:0:0:0:
448,192,173320,1,0,0:0:0:0:
320,192,173422,1,0,0:0:0:0:
448,192,173524,1,0,0:0:0:0:
64,192,173524,1,0,0:0:0:0:
64,192,173933,1,0,0:0:0:0:
192,192,174035,1,0,0:0:0:0:
448,192,174137,1,0,0:0:0:0:
320,192,174239,1,0,0:0:0:0:
448,192,174341,1,0,0:0:0:0:
64,192,174341,1,0,0:0:0:0:
