osu file format v14

[General]
AudioFilename: audio.mp3
AudioLeadIn: 0
PreviewTime: 98778
Countdown: 0
SampleSet: Normal
StackLeniency: 0.7
Mode: 1
LetterboxInBreaks: 0
WidescreenStoryboard: 1

[Editor]
Bookmarks: 17718,25555,41228,56902,76493,84330,92167,100004,115677
DistanceSpacing: 1.4
BeatDivisor: 4
GridSize: 32
TimelineZoom: 1.6

[Metadata]
Title:Invisible Frenzy
TitleUnicode:Invisible Frenzy
Artist:Kobaryo
ArtistUnicode:Kobaryo
Creator:Cychloryn
Version:Muzukashii
Source:WACCA
Tags:HARDCORE TANO*C オリジナル speedcore electronic instrumental jcore techno rhythm game arcade
BeatmapID:2269016
BeatmapSetID:1083165

[Difficulty]
HPDrainRate:6
CircleSize:2
OverallDifficulty:5
ApproachRate:10
SliderMultiplier:1.4
SliderTickRate:1

[Events]
//Background and Video events
0,0,"rem.jpg",0,84
//Break Periods
//Storyboard Layer 0 (Background)
//Storyboard Layer 1 (Fail)
//Storyboard Layer 2 (Pass)
//Storyboard Layer 3 (Foreground)
//Storyboard Layer 4 (Overlay)
//Storyboard Sound Samples

[TimingPoints]
90,244.897959183673,4,1,0,70,1,0
90,-133.333333333333,4,1,0,70,0,0
2050,244.897959183673,4,1,0,70,1,0
2050,-133.333333333333,4,1,0,70,0,0
9519,-125,4,1,0,70,0,0
9886,-117.647058823529,4,1,0,75,0,0
14049,-117.647058823529,4,1,0,80,0,0
14172,-114.308184008742,4,1,0,80,0,0
14294,-111.153720037125,4,1,0,80,0,0
14417,-108.168565565835,4,1,0,80,0,0
14539,-105.339667758688,4,1,0,80,0,0
14784,-100.103507026265,4,1,0,80,0,0
16743,-105.263157894737,4,1,0,80,0,0
17723,-100,4,1,0,85,0,0
21152,-100,4,1,0,85,0,0
21213,-101.252595863426,4,1,0,85,0,0
21274,-102.536969704427,4,1,0,85,0,0
21396,-105.206125100603,4,1,0,85,0,0
21520,-108.017840226492,4,1,0,85,0,0
21641,-110.983972804487,4,1,0,80,0,0
25560,-100,4,1,0,85,0,0
29478,-95.2380952380952,4,1,0,85,0,0
30458,-100,4,1,0,85,0,0
30580,-95.2380952380952,4,1,0,85,0,0
31070,-100,4,1,0,85,0,0
33029,-92.5925925925926,4,1,0,85,0,0
33090,-94.3396226415094,4,1,0,85,0,0
33152,-96.1538461538461,4,1,0,85,0,0
33396,-100,4,1,0,85,0,0
37315,-95.2380952380952,4,1,0,85,0,0
38294,-100,4,1,0,85,0,0
38417,-95.2380952380952,4,1,0,85,0,0
38907,-100,4,1,0,85,0,0
40866,-111.111111111111,4,1,0,85,0,0
40927,-114.942528735632,4,1,0,85,0,0
40988,-119.047619047619,4,1,0,85,0,0
41192,-133.333333333333,4,1,0,70,0,0
45152,-117.647058823529,4,1,0,80,0,0
46009,-114.942528735632,4,1,0,80,0,0
46131,-111.111111111111,4,1,0,80,0,0
46866,-109.89010989011,4,1,0,80,0,0
46988,-107.52688172043,4,1,0,80,0,0
47111,-105.263157894737,4,1,0,80,0,0
47968,-104.166666666667,4,1,0,80,0,0
48090,-100,4,1,0,80,0,0
49437,-114.942528735632,4,1,0,75,0,0
49560,-117.647058823529,4,1,0,75,0,0
52988,-100,4,1,0,80,0,0
55192,-104.166666666667,4,1,0,80,0,0
55437,-108.459869848156,4,1,0,80,0,0
55682,-113.636363636364,4,1,0,80,0,0
55927,-119.047619047619,4,1,0,80,0,0
56172,-125,4,1,0,80,0,0
56417,-105.263157894737,4,1,0,80,0,0
56907,-125,4,1,0,70,0,0
57152,-119.047619047619,4,1,0,70,0,0
57396,-117.647058823529,4,1,0,70,0,0
57458,-114.942528735632,4,1,0,70,0,0
57519,-112.359550561798,4,1,0,70,0,0
57641,-108.695652173913,4,1,0,70,0,0
57886,-119.047619047619,4,1,0,70,0,0
58131,-128.205128205128,4,1,0,70,0,0
58254,-123.456790123457,4,1,0,70,0,0
58376,-119.047619047619,4,1,0,70,0,0
58498,-114.942528735632,4,1,0,70,0,0
58621,-111.111111111111,4,1,0,70,0,0
58743,-107.52688172043,4,1,0,70,0,0
58866,-104.166666666667,4,1,0,70,0,0
59111,-106.382978723404,4,1,0,70,0,0
59233,-108.695652173913,4,1,0,70,0,0
59356,-111.111111111111,4,1,0,70,0,0
59478,-112.359550561798,4,1,0,70,0,0
59539,-113.636363636364,4,1,0,70,0,0
59601,-114.942528735632,4,1,0,70,0,0
59723,-116.279069767442,4,1,0,70,0,0
59845,-117.647058823529,4,1,0,70,0,0
60090,-121.951219512195,4,1,0,70,0,0
60213,-123.456790123457,4,1,0,70,0,0
60335,-125,4,1,0,70,0,0
60825,-117.647058823529,4,1,0,70,0,0
61070,-125,4,1,0,70,0,0
61131,-121.951219512195,4,1,0,70,0,0
61192,-119.047619047619,4,1,0,70,0,0
61315,-114.942528735632,4,1,0,70,0,0
61560,-119.047619047619,4,1,0,70,0,0
61682,-116.279069767442,4,1,0,70,0,0
61805,-113.636363636364,4,1,0,70,0,0
61927,-116.279069767442,4,1,0,70,0,0
62049,-119.047619047619,4,1,0,70,0,0
62294,-119.047619047619,4,1,0,70,0,0
62356,-117.647058823529,4,1,0,70,0,0
62417,-116.279069767442,4,1,0,70,0,0
62539,-111.111111111111,4,1,0,70,0,0
62662,-109.89010989011,4,1,0,70,0,0
62784,-100,4,1,0,80,0,0
63764,-105.263157894737,4,1,0,80,0,0
63886,-100,4,1,0,80,0,0
64254,-100,4,1,0,80,0,0
64315,-101.26582278481,4,1,0,80,0,0
64376,-102.564102564103,4,1,0,80,0,0
64498,-105.263157894737,4,1,0,80,0,0
64621,-108.108108108108,4,1,0,80,0,0
64743,-111.111111111111,4,1,0,80,0,0
70621,-105.263157894737,4,1,0,85,0,0
71601,-111.111111111111,4,1,0,85,0,0
71723,-105.263157894737,4,1,0,85,0,0
72090,-105.263157894737,4,1,0,85,0,0
72152,-103.910030539158,4,1,0,85,0,0
72213,-102.591249787123,4,1,0,85,0,0
72335,-100.051526536166,4,1,0,85,0,0
72458,-97.6346063909661,4,1,0,85,0,0
72580,-95.3317018901416,4,1,0,85,0,0
73560,-100,4,1,0,85,0,0
73682,-95.3317018901416,4,1,0,85,0,0
74049,-95.2380952380952,4,1,0,85,0,0
74111,-94.1290754359823,4,1,0,85,0,0
74172,-93.0455867547746,4,1,0,85,0,0
74294,-92.5925925925926,4,1,0,85,0,0
74417,-91.743119266055,4,1,0,85,0,0
74539,-90.9090909090909,4,1,0,90,0,0
76009,-90.9090909090909,4,1,0,90,0,0
76070,-90.0900900900901,4,1,0,90,0,0
76131,-89.2857142857143,4,1,0,90,0,0
76254,-88.4955752212389,4,1,0,90,0,0
76376,-87.719298245614,4,1,0,90,0,0
76498,-86.9565217391304,4,1,0,90,0,0
76743,-100,4,1,0,65,0,0
76988,-105.263157894737,4,1,0,65,0,0
77233,-117.647058823529,4,1,0,65,0,0
77478,-125,4,1,0,65,0,0
77723,-133.333333333333,4,1,0,65,0,0
84335,-125,4,1,0,70,0,0
92172,-111.111111111111,4,1,0,80,0,0
92294,-113.636363636364,4,1,0,80,0,0
92417,-116.279069767442,4,1,0,80,0,0
93152,-111.111111111111,4,1,0,80,0,0
93274,-113.636363636364,4,1,0,80,0,0
93396,-116.279069767442,4,1,0,80,0,0
94131,-111.111111111111,4,1,0,80,0,0
94254,-113.636363636364,4,1,0,80,0,0
94376,-116.279069767442,4,1,0,80,0,0
95111,-111.111111111111,4,1,0,80,0,0
95233,-113.636363636364,4,1,0,80,0,0
95478,-117.647058823529,4,1,0,80,0,0
95723,-111.111111111111,4,1,0,80,0,0
96090,-111.111111111111,4,1,0,80,0,0
96213,-109.596847994652,4,1,0,80,0,0
96335,-108.123303815671,4,1,0,80,0,0
96458,-106.688744124117,4,1,0,80,0,0
96580,-105.29186378181,4,1,0,80,0,0
96825,-102.605039343902,4,1,0,80,0,0
96947,-101.312298198566,4,1,0,80,0,0
97070,-100.051826846306,4,1,0,80,0,0
99029,-105.263157894737,4,1,0,80,0,0
100009,-100,4,1,0,85,0,1
102947,-95.2380952380952,4,1,0,85,0,1
103070,-90.9090909090909,4,1,0,85,0,1
103315,-86.9565217391304,4,1,0,85,0,1
103682,-101.010101010101,4,1,0,85,0,1
103927,-100,4,1,0,85,0,1
105886,-95.2380952380952,4,1,0,85,0,1
106743,-100,4,1,0,85,0,1
106988,-95.2380952380952,4,1,0,85,0,1
107111,-100,4,1,0,85,0,1
107356,-102.040816326531,4,1,0,85,0,1
107478,-100,4,1,0,85,0,1
107601,-98.0392156862745,4,1,0,85,0,1
107845,-98.0392156862745,4,1,0,90,0,1
110784,-93.4579439252336,4,1,0,90,0,1
110907,-89.2857142857143,4,1,0,90,0,1
111152,-81.3008130081301,4,1,0,90,0,1
111519,-94.3396226415094,4,1,0,90,0,1
111764,-98.0392156862745,4,1,0,90,0,1
113723,-93.4579439252336,4,1,0,90,0,1
114703,-98.0392156862745,4,1,0,90,0,1
114825,-93.4579439252336,4,1,0,90,0,1
115192,-95.2380952380952,4,1,0,90,0,1
115315,-97.536424977908,4,1,0,90,0,1
115437,-99.9485265088479,4,1,0,90,0,1
115498,-101.199825126702,4,1,0,90,0,1
115560,-102.48285205678,4,1,0,90,0,1
115682,-105.149043511726,4,1,0,70,0,0
116049,-133.333333333333,4,1,0,65,0,0
116172,-138.888888888889,4,1,0,65,0,0
116539,-142.857142857143,4,1,0,65,0,0
119601,-142.857142857143,4,1,0,70,0,0
119845,-139.393998530787,4,1,0,70,0,0
119968,-137.724542651225,4,1,0,70,0,0
120090,-136.094602079798,4,1,0,70,0,0
120335,-132.947961508906,4,1,0,70,0,0
120458,-131.428496326574,4,1,0,70,0,0
120703,-128.491598576827,4,1,0,70,0,0
120825,-127.071745978497,4,1,0,70,0,0
120947,-125.683087581003,4,1,0,70,0,0
121070,-124.324297443395,4,1,0,70,0,0
121192,-122.994724756255,4,1,0,70,0,0
121437,-120.481927710843,4,1,0,70,0,0
121560,-119.171046202615,4,1,0,70,0,0
121682,-117.948730046024,4,1,0,70,0,0
121927,-115.577941718667,4,1,0,70,0,0
122049,-114.427866389446,4,1,0,70,0,0
122294,-112.195165734699,4,1,0,70,0,0
122539,-107.52688172043,4,1,0,80,0,0
123519,-95.2380952380952,4,1,0,100,0,1
126335,-93.4579439252336,4,1,0,100,0,1
126396,-92.5925925925926,4,1,0,100,0,1
126458,-90.9090909090909,4,1,0,100,0,1
126580,-86.9565217391304,4,1,0,100,0,1
126825,-83.3333333333333,4,1,0,100,0,1
127192,-90.9090909090909,4,1,0,100,0,1
127254,-91.743119266055,4,1,0,100,0,1
127315,-92.5925925925926,4,1,0,100,0,1
127437,-94.3396226415094,4,1,0,100,0,1
127560,-95.2380952380952,4,1,0,100,0,1
129274,-94.3396226415094,4,1,0,100,0,1
129396,-92.5925925925926,4,1,0,100,0,1
130376,-95.2380952380952,4,1,0,100,0,1
130498,-92.5925925925926,4,1,0,100,0,1
130866,-95.2380952380952,4,1,0,100,0,1
131356,-92.5925925925926,4,1,0,100,0,1
133315,-90.9090909090909,4,1,0,100,0,0

[HitObjects]
256,192,2050,5,4,0:0:0:0:
256,192,5601,1,12,0:0:0:0:
256,192,5968,1,4,0:0:0:0:
256,192,9519,1,12,0:0:0:0:
256,192,9886,1,4,0:0:0:0:
256,192,10131,1,8,0:0:0:0:
256,192,10254,1,0,0:0:0:0:
256,192,10498,1,0,0:0:0:0:
256,192,10621,1,8,0:0:0:0:
256,192,10866,1,4,0:0:0:0:
256,192,11111,1,8,0:0:0:0:
256,192,11233,1,0,0:0:0:0:
256,192,11478,1,0,0:0:0:0:
256,192,11601,1,8,0:0:0:0:
256,192,11845,1,4,0:0:0:0:
256,192,12090,1,8,0:0:0:0:
256,192,12213,1,0,0:0:0:0:
256,192,12458,1,0,0:0:0:0:
256,192,12580,1,8,0:0:0:0:
256,192,12825,1,4,0:0:0:0:
256,192,13070,1,8,0:0:0:0:
256,192,13192,1,0,0:0:0:0:
256,192,13437,1,4,0:0:0:0:
256,192,13560,1,8,0:0:0:0:
256,192,13805,1,4,0:0:0:0:
256,192,14049,1,8,0:0:0:0:
256,192,14172,1,0,0:0:0:0:
256,192,14294,1,8,0:0:0:0:
256,192,14417,1,8,0:0:0:0:
256,192,14539,1,0,0:0:0:0:
256,192,14784,1,8,0:0:0:0:
256,192,14845,1,8,0:0:0:0:
256,192,14907,1,8,0:0:0:0:
256,192,15029,1,0,0:0:0:0:
256,192,15152,1,0,0:0:0:0:
256,192,15274,1,8,0:0:0:0:
256,192,15396,1,0,0:0:0:0:
256,192,15519,1,8,0:0:0:0:
256,192,15580,1,8,0:0:0:0:
256,192,15641,1,8,0:0:0:0:
256,192,15764,1,0,0:0:0:0:
256,192,16743,1,8,0:0:0:0:
256,192,16988,1,8,0:0:0:0:
256,192,17111,1,0,0:0:0:0:
256,192,17233,1,8,0:0:0:0:
256,192,17356,1,0,0:0:0:0:
256,192,17417,1,0,0:0:0:0:
256,192,17478,1,0,0:0:0:0:
256,192,17723,5,4,0:0:0:0:
256,192,17845,1,8,0:0:0:0:
256,192,17968,1,8,0:0:0:0:
256,192,18090,1,0,0:0:0:0:
256,192,18213,1,8,0:0:0:0:
256,192,18335,1,0,0:0:0:0:
256,192,18458,1,0,0:0:0:0:
256,192,18580,1,8,0:0:0:0:
256,192,18825,1,8,0:0:0:0:
256,192,18947,1,0,0:0:0:0:
256,192,19070,1,0,0:0:0:0:
256,192,19192,1,8,0:0:0:0:
256,192,19315,1,0,0:0:0:0:
256,192,19437,1,8,0:0:0:0:
256,192,19498,1,8,0:0:0:0:
256,192,19560,1,8,0:0:0:0:
256,192,19805,1,8,0:0:0:0:
256,192,19927,1,8,0:0:0:0:
256,192,20049,1,0,0:0:0:0:
256,192,20172,1,8,0:0:0:0:
256,192,20294,1,8,0:0:0:0:
256,192,20417,1,0,0:0:0:0:
256,192,20539,1,8,0:0:0:0:
256,192,20784,1,8,0:0:0:0:
256,192,20907,1,0,0:0:0:0:
256,192,21029,1,0,0:0:0:0:
256,192,21152,1,8,0:0:0:0:
256,192,21213,1,8,0:0:0:0:
256,192,21274,1,8,0:0:0:0:
256,192,21396,1,0,0:0:0:0:
256,192,21520,1,8,0:0:0:0:
256,192,21641,1,0,0:0:0:0:
256,192,21886,1,0,0:0:0:0:
256,192,22131,1,8,0:0:0:0:
256,192,22376,1,8,0:0:0:0:
256,192,22498,1,0,0:0:0:0:
256,192,22621,1,8,0:0:0:0:
256,192,22866,1,8,0:0:0:0:
256,192,22988,1,8,0:0:0:0:
256,192,23111,1,0,0:0:0:0:
256,192,23356,1,0,0:0:0:0:
256,192,23601,1,0,0:0:0:0:
256,192,23723,1,8,0:0:0:0:
256,192,23845,1,0,0:0:0:0:
256,192,23968,1,8,0:0:0:0:
256,192,24090,1,0,0:0:0:0:
256,192,24213,1,8,0:0:0:0:
256,192,24335,1,0,0:0:0:0:
256,192,24580,1,8,0:0:0:0:
256,192,24825,1,8,0:0:0:0:
256,192,24947,1,0,0:0:0:0:
256,192,25070,1,8,0:0:0:0:
256,192,25192,1,0,0:0:0:0:
256,192,25254,1,0,0:0:0:0:
256,192,25315,1,0,0:0:0:0:
256,192,25560,5,4,0:0:0:0:
256,192,25927,1,0,0:0:0:0:
256,192,26049,1,8,0:0:0:0:
256,192,26172,1,8,0:0:0:0:
256,192,26294,1,0,0:0:0:0:
256,192,26417,1,0,0:0:0:0:
256,192,26539,1,8,0:0:0:0:
256,192,26784,1,8,0:0:0:0:
256,192,26907,1,0,0:0:0:0:
256,192,27152,1,0,0:0:0:0:
256,192,27274,1,8,0:0:0:0:
256,192,27396,1,8,0:0:0:0:
256,192,27519,1,0,0:0:0:0:
256,192,27764,1,8,0:0:0:0:
256,192,27886,1,8,0:0:0:0:
256,192,28009,1,0,0:0:0:0:
256,192,28131,1,0,0:0:0:0:
256,192,28254,1,8,0:0:0:0:
256,192,28376,1,0,0:0:0:0:
256,192,28621,1,0,0:0:0:0:
256,192,28743,1,8,0:0:0:0:
256,192,28866,1,0,0:0:0:0:
256,192,28988,1,8,0:0:0:0:
256,192,29049,1,8,0:0:0:0:
256,192,29111,1,8,0:0:0:0:
256,192,29233,1,0,0:0:0:0:
256,192,29356,1,0,0:0:0:0:
256,192,29478,1,12,0:0:0:0:
256,192,29845,1,12,0:0:0:0:
256,192,30213,1,12,0:0:0:0:
256,192,30580,1,12,0:0:0:0:
256,192,30825,1,4,0:0:0:0:
256,192,31070,1,0,0:0:0:0:
256,192,31192,1,8,0:0:0:0:
256,192,31315,1,8,0:0:0:0:
256,192,31437,1,0,0:0:0:0:
256,192,31498,1,0,0:0:0:0:
256,192,31560,1,0,0:0:0:0:
256,192,31682,1,0,0:0:0:0:
256,192,31805,1,8,0:0:0:0:
256,192,31927,1,0,0:0:0:0:
256,192,32049,1,0,0:0:0:0:
256,192,32172,1,8,0:0:0:0:
256,192,32417,1,8,0:0:0:0:
256,192,32478,1,8,0:0:0:0:
224,160,32539,1,8,0:0:0:0:
256,192,32662,1,0,0:0:0:0:
256,192,32784,1,8,0:0:0:0:
256,192,33029,1,8,0:0:0:0:
256,192,33090,1,8,0:0:0:0:
256,192,33152,1,8,0:0:0:0:
256,192,33396,5,4,0:0:0:0:
256,192,33641,1,8,0:0:0:0:
256,192,33764,1,0,0:0:0:0:
256,192,33886,1,8,0:0:0:0:
256,192,34009,1,8,0:0:0:0:
256,192,34131,1,0,0:0:0:0:
256,192,34376,1,8,0:0:0:0:
256,192,34498,1,0,0:0:0:0:
256,192,34621,1,0,0:0:0:0:
256,192,34743,1,8,0:0:0:0:
256,192,34988,1,0,0:0:0:0:
256,192,35111,1,8,0:0:0:0:
256,192,35233,1,8,0:0:0:0:
256,192,35356,1,0,0:0:0:0:
256,192,35478,1,0,0:0:0:0:
256,192,35601,1,8,0:0:0:0:
256,192,35845,1,0,0:0:0:0:
256,192,35968,1,0,0:0:0:0:
256,192,36090,1,8,0:0:0:0:
256,192,36213,1,0,0:0:0:0:
256,192,36458,1,0,0:0:0:0:
256,192,36580,1,8,0:0:0:0:
256,192,36703,1,0,0:0:0:0:
256,192,36825,1,8,0:0:0:0:
256,192,36886,1,8,0:0:0:0:
256,192,36947,1,8,0:0:0:0:
256,192,37070,1,0,0:0:0:0:
256,192,37192,1,0,0:0:0:0:
256,192,37315,1,12,0:0:0:0:
256,192,37682,1,12,0:0:0:0:
256,192,38049,1,12,0:0:0:0:
256,192,38417,1,12,0:0:0:0:
256,192,38662,1,4,0:0:0:0:
256,192,38907,1,0,0:0:0:0:
256,192,39029,1,8,0:0:0:0:
256,192,39090,1,8,0:0:0:0:
256,192,39152,1,8,0:0:0:0:
256,192,39274,1,0,0:0:0:0:
256,192,39396,1,0,0:0:0:0:
256,192,39519,1,8,0:0:0:0:
256,192,39764,1,0,0:0:0:0:
256,192,39886,1,0,0:0:0:0:
256,192,40009,1,8,0:0:0:0:
256,192,40070,1,8,0:0:0:0:
256,192,40131,1,8,0:0:0:0:
256,192,40866,1,0,0:0:0:0:
256,192,40927,1,0,0:0:0:0:
256,192,40988,1,0,0:0:0:0:
256,192,41233,5,4,0:0:0:0:
256,192,41601,1,0,0:0:0:0:
256,192,41723,1,8,0:0:0:0:
256,192,41968,1,8,0:0:0:0:
256,192,42090,1,0,0:0:0:0:
256,192,42335,1,0,0:0:0:0:
256,192,42458,1,0,0:0:0:0:
256,192,42703,1,8,0:0:0:0:
256,192,42825,1,0,0:0:0:0:
256,192,43192,1,0,0:0:0:0:
256,192,43437,1,0,0:0:0:0:
256,192,43560,1,0,0:0:0:0:
256,192,43682,1,8,0:0:0:0:
256,192,43927,1,0,0:0:0:0:
256,192,44049,1,8,0:0:0:0:
256,192,44172,1,0,0:0:0:0:
256,192,44294,1,8,0:0:0:0:
256,192,44539,1,0,0:0:0:0:
256,192,44662,1,8,0:0:0:0:
256,192,45152,1,4,0:0:0:0:
256,192,45396,1,0,0:0:0:0:
256,192,45641,1,8,0:0:0:0:
256,192,45764,1,8,0:0:0:0:
256,192,45886,1,0,0:0:0:0:
256,192,46009,1,8,0:0:0:0:
256,192,46131,1,4,0:0:0:0:
256,192,46376,1,0,0:0:0:0:
256,192,46621,1,8,0:0:0:0:
256,192,46743,1,0,0:0:0:0:
256,192,46866,1,8,0:0:0:0:
256,192,46988,1,8,0:0:0:0:
256,192,47111,1,4,0:0:0:0:
256,192,47356,1,0,0:0:0:0:
256,192,47601,1,8,0:0:0:0:
256,192,47723,1,0,0:0:0:0:
256,192,47845,1,8,0:0:0:0:
256,192,47968,1,8,0:0:0:0:
256,192,48090,1,4,0:0:0:0:
256,192,48213,1,0,0:0:0:0:
256,192,48335,1,0,0:0:0:0:
256,192,48580,1,8,0:0:0:0:
256,192,48641,1,8,0:0:0:0:
256,192,48703,1,8,0:0:0:0:
256,192,48825,1,8,0:0:0:0:
256,192,48947,1,8,0:0:0:0:
256,192,49070,1,4,0:0:0:0:
256,192,49437,1,8,0:0:0:0:
256,192,49560,1,8,0:0:0:0:
256,192,49805,1,0,0:0:0:0:
256,192,49927,1,8,0:0:0:0:
256,192,50172,1,0,0:0:0:0:
256,192,50294,1,0,0:0:0:0:
256,192,50417,1,8,0:0:0:0:
256,192,50662,1,8,0:0:0:0:
256,192,50784,1,8,0:0:0:0:
256,192,51029,1,0,0:0:0:0:
256,192,51396,1,0,0:0:0:0:
256,192,51519,1,8,0:0:0:0:
256,192,51641,1,0,0:0:0:0:
256,192,51764,1,0,0:0:0:0:
256,192,51886,1,8,0:0:0:0:
256,192,52131,1,0,0:0:0:0:
256,192,52254,1,0,0:0:0:0:
256,192,52376,1,8,0:0:0:0:
256,192,52621,1,8,0:0:0:0:
256,192,52743,1,0,0:0:0:0:
256,192,52988,1,8,0:0:0:0:
256,192,53049,1,8,0:0:0:0:
256,192,53111,1,8,0:0:0:0:
256,192,53233,1,0,0:0:0:0:
256,192,53356,1,0,0:0:0:0:
256,192,53478,1,8,0:0:0:0:
256,192,53723,1,0,0:0:0:0:
256,192,53845,1,8,0:0:0:0:
256,192,53968,1,0,0:0:0:0:
256,192,54029,1,0,0:0:0:0:
256,192,54090,1,0,0:0:0:0:
256,192,54213,1,8,0:0:0:0:
256,192,54335,1,8,0:0:0:0:
256,192,54580,1,0,0:0:0:0:
256,192,54703,1,8,0:0:0:0:
256,192,54764,1,8,0:0:0:0:
256,192,54825,1,8,0:0:0:0:
256,192,54947,1,0,0:0:0:0:
256,192,55192,1,0,0:0:0:0:
256,192,55437,1,8,0:0:0:0:
256,192,55682,1,0,0:0:0:0:
256,192,55927,1,8,0:0:0:0:
256,192,56172,1,8,0:0:0:0:
256,192,56417,1,12,0:0:0:0:
256,192,56907,5,4,0:0:0:0:
256,192,57152,1,8,0:0:0:0:
256,192,57274,1,0,0:0:0:0:
256,192,57396,1,0,0:0:0:0:
256,192,57458,1,0,0:0:0:0:
256,192,57519,1,0,0:0:0:0:
256,192,57641,1,8,0:0:0:0:
256,192,57886,1,0,0:0:0:0:
256,192,58131,1,8,0:0:0:0:
256,192,58254,1,0,0:0:0:0:
256,192,58376,1,8,0:0:0:0:
256,192,58498,1,8,0:0:0:0:
256,192,58621,1,8,0:0:0:0:
256,192,58743,1,8,0:0:0:0:
256,192,58866,1,0,0:0:0:0:
256,192,59111,1,8,0:0:0:0:
256,192,59233,1,0,0:0:0:0:
256,192,59356,1,8,0:0:0:0:
256,192,59478,1,0,0:0:0:0:
256,192,59539,1,0,0:0:0:0:
256,192,59601,1,0,0:0:0:0:
256,192,59723,1,0,0:0:0:0:
256,192,59845,1,8,0:0:0:0:
256,192,60090,1,8,0:0:0:0:
256,192,60213,1,0,0:0:0:0:
256,192,60335,1,8,0:0:0:0:
256,192,60825,1,0,0:0:0:0:
256,192,61070,1,8,0:0:0:0:
256,192,61131,1,8,0:0:0:0:
256,192,61192,1,8,0:0:0:0:
256,192,61315,1,0,0:0:0:0:
256,192,61560,1,8,0:0:0:0:
256,192,61682,1,8,0:0:0:0:
256,192,61805,1,0,0:0:0:0:
256,192,61927,1,8,0:0:0:0:
256,192,62049,1,0,0:0:0:0:
256,192,62294,1,8,0:0:0:0:
256,192,62356,1,8,0:0:0:0:
256,192,62417,1,8,0:0:0:0:
256,192,62539,1,0,0:0:0:0:
256,192,62662,1,0,0:0:0:0:
256,192,62784,5,12,0:0:0:0:
256,192,63152,1,12,0:0:0:0:
256,192,63519,1,12,0:0:0:0:
256,192,63887,1,12,0:0:0:0:
256,192,64131,1,0,0:0:0:0:
256,192,64254,1,8,0:0:0:0:
256,192,64315,1,8,0:0:0:0:
256,192,64376,1,8,0:0:0:0:
256,192,64498,1,0,0:0:0:0:
256,192,64621,1,0,0:0:0:0:
256,192,64743,1,8,0:0:0:0:
256,192,64988,1,0,0:0:0:0:
256,192,65111,1,0,0:0:0:0:
256,192,65172,1,0,0:0:0:0:
256,192,65233,1,0,0:0:0:0:
256,192,65356,1,8,0:0:0:0:
256,192,65478,1,0,0:0:0:0:
256,192,65601,1,0,0:0:0:0:
256,192,65723,1,8,0:0:0:0:
256,192,66703,1,0,0:0:0:0:
256,192,66947,1,0,0:0:0:0:
256,192,67070,1,0,0:0:0:0:
256,192,67131,1,0,0:0:0:0:
256,192,67192,1,0,0:0:0:0:
256,192,67315,1,8,0:0:0:0:
256,192,67437,1,0,0:0:0:0:
256,192,67560,1,0,0:0:0:0:
256,192,67682,1,8,0:0:0:0:
256,192,67927,1,8,0:0:0:0:
256,192,68049,1,8,0:0:0:0:
256,192,68172,1,0,0:0:0:0:
256,192,68294,1,8,0:0:0:0:
256,192,68417,1,8,0:0:0:0:
256,192,68662,1,0,0:0:0:0:
256,192,68907,1,0,0:0:0:0:
256,192,69029,1,0,0:0:0:0:
256,192,69090,1,0,0:0:0:0:
256,192,69152,1,0,0:0:0:0:
256,192,69274,1,8,0:0:0:0:
256,192,69396,1,0,0:0:0:0:
256,192,69519,1,0,0:0:0:0:
256,192,69641,1,8,0:0:0:0:
256,192,70376,5,0,0:0:0:0:
256,192,70498,1,0,0:0:0:0:
256,192,70621,1,12,0:0:0:0:
256,192,70989,1,12,0:0:0:0:
256,192,71356,1,12,0:0:0:0:
256,192,71724,1,12,0:0:0:0:
256,192,71968,1,0,0:0:0:0:
256,192,72090,1,8,0:0:0:0:
256,192,72152,1,8,0:0:0:0:
256,192,72213,1,8,0:0:0:0:
256,192,72335,1,0,0:0:0:0:
256,192,72458,1,8,0:0:0:0:
256,192,72580,1,4,0:0:0:0:
256,192,72947,1,4,0:0:0:0:
256,192,73315,1,4,0:0:0:0:
256,192,73682,1,4,0:0:0:0:
256,192,73927,1,8,0:0:0:0:
256,192,74049,1,0,0:0:0:0:
256,192,74111,1,0,0:0:0:0:
256,192,74172,1,0,0:0:0:0:
256,192,74294,1,8,0:0:0:0:
256,192,74417,1,8,0:0:0:0:
256,192,74539,1,4,0:0:0:0:
256,192,74723,1,8,0:0:0:0:
256,192,74907,1,4,0:0:0:0:
256,192,75090,1,8,0:0:0:0:
256,192,75274,1,4,0:0:0:0:
256,192,75458,1,8,0:0:0:0:
256,192,75641,1,4,0:0:0:0:
256,192,75825,1,8,0:0:0:0:
256,192,76009,1,0,0:0:0:0:
256,192,76070,1,0,0:0:0:0:
256,192,76131,1,0,0:0:0:0:
256,192,76254,1,8,0:0:0:0:
256,192,76376,1,8,0:0:0:0:
256,192,76498,5,4,0:0:0:0:
256,192,76866,1,8,0:0:0:0:
256,192,76988,1,0,0:0:0:0:
256,192,77233,1,8,0:0:0:0:
256,192,77723,1,8,0:0:0:0:
256,192,77805,1,8,0:0:0:0:
256,192,77886,1,8,0:0:0:0:
256,192,77968,1,8,0:0:0:0:
256,192,78213,1,0,0:0:0:0:
256,192,78458,1,8,0:0:0:0:
256,192,78825,1,8,0:0:0:0:
256,192,78947,1,0,0:0:0:0:
256,192,79192,1,8,0:0:0:0:
256,192,79682,1,8,0:0:0:0:
256,192,80417,1,0,0:0:0:0:
256,192,80784,1,8,0:0:0:0:
256,192,80907,1,0,0:0:0:0:
256,192,81152,1,8,0:0:0:0:
256,192,81641,1,0,0:0:0:0:
256,192,81886,1,8,0:0:0:0:
256,192,82131,1,8,0:0:0:0:
256,192,82254,1,0,0:0:0:0:
256,192,82376,1,8,0:0:0:0:
256,192,82743,1,8,0:0:0:0:
256,192,82866,1,0,0:0:0:0:
256,192,83111,1,8,0:0:0:0:
256,192,83233,1,0,0:0:0:0:
256,192,83356,1,0,0:0:0:0:
256,192,83601,1,0,0:0:0:0:
256,192,83845,1,8,0:0:0:0:
256,192,84090,1,8,0:0:0:0:
256,192,84335,1,4,0:0:0:0:
256,192,84825,1,8,0:0:0:0:
256,192,84947,1,0,0:0:0:0:
256,192,85070,1,0,0:0:0:0:
256,192,85315,1,8,0:0:0:0:
256,192,85560,1,0,0:0:0:0:
256,192,85805,1,8,0:0:0:0:
256,192,85927,1,8,0:0:0:0:
256,192,86049,1,0,0:0:0:0:
256,192,86294,1,8,0:0:0:0:
256,192,86784,1,8,0:0:0:0:
256,192,86907,1,0,0:0:0:0:
256,192,87029,1,0,0:0:0:0:
256,192,87274,1,0,0:0:0:0:
256,192,87519,1,8,0:0:0:0:
256,192,87764,1,8,0:0:0:0:
256,192,87886,1,8,0:0:0:0:
256,192,88009,1,0,0:0:0:0:
256,192,88254,1,0,0:0:0:0:
256,192,88744,1,8,0:0:0:0:
256,192,88866,1,0,0:0:0:0:
256,192,88989,1,0,0:0:0:0:
256,192,89234,1,8,0:0:0:0:
256,192,89479,1,0,0:0:0:0:
256,192,89724,1,8,0:0:0:0:
256,192,89846,1,8,0:0:0:0:
256,192,89968,1,0,0:0:0:0:
256,192,90213,1,8,0:0:0:0:
256,192,90458,1,0,0:0:0:0:
256,192,90580,1,8,0:0:0:0:
256,192,90825,1,0,0:0:0:0:
256,192,90947,1,8,0:0:0:0:
256,192,91192,1,0,0:0:0:0:
256,192,91682,1,8,0:0:0:0:
256,192,91805,1,8,0:0:0:0:
256,192,91866,1,8,0:0:0:0:
256,192,91927,1,8,0:0:0:0:
256,192,92172,5,4,0:0:0:0:
256,192,92294,1,0,0:0:0:0:
256,192,92417,1,8,0:0:0:0:
256,192,92662,1,8,0:0:0:0:
256,192,92907,1,0,0:0:0:0:
256,192,93152,1,4,0:0:0:0:
256,192,93274,1,8,0:0:0:0:
256,192,93396,1,8,0:0:0:0:
256,192,93641,1,0,0:0:0:0:
256,192,93886,1,8,0:0:0:0:
256,192,94131,1,4,0:0:0:0:
256,192,94254,1,0,0:0:0:0:
256,192,94376,1,8,0:0:0:0:
256,192,94621,1,0,0:0:0:0:
256,192,94866,1,8,0:0:0:0:
256,192,94988,1,8,0:0:0:0:
256,192,95111,1,4,0:0:0:0:
256,192,95233,1,8,0:0:0:0:
256,192,95478,1,8,0:0:0:0:
256,192,95723,1,4,0:0:0:0:
256,192,96090,1,4,0:0:0:0:
256,192,96213,1,0,0:0:0:0:
256,192,96335,1,8,0:0:0:0:
256,192,96458,1,0,0:0:0:0:
256,192,96580,1,8,0:0:0:0:
256,192,96825,1,0,0:0:0:0:
256,192,96947,1,0,0:0:0:0:
256,192,97070,1,8,0:0:0:0:
256,192,97131,1,8,0:0:0:0:
256,192,97192,1,8,0:0:0:0:
256,192,97315,1,0,0:0:0:0:
256,192,97437,1,0,0:0:0:0:
256,192,97560,1,8,0:0:0:0:
256,192,97621,1,8,0:0:0:0:
256,192,97682,1,8,0:0:0:0:
256,192,97805,1,8,0:0:0:0:
256,192,97927,1,8,0:0:0:0:
224,192,98049,1,0,0:0:0:0:
256,192,99029,1,8,0:0:0:0:
256,192,99274,1,8,0:0:0:0:
256,192,99396,1,0,0:0:0:0:
256,192,99519,1,8,0:0:0:0:
256,192,99641,1,0,0:0:0:0:
256,192,99703,1,0,0:0:0:0:
256,192,99764,1,0,0:0:0:0:
256,192,100009,5,4,0:0:0:0:
256,192,100131,1,0,0:0:0:0:
256,192,100254,1,8,0:0:0:0:
256,192,100376,1,0,0:0:0:0:
256,192,100498,1,8,0:0:0:0:
256,192,100621,1,8,0:0:0:0:
256,192,100743,1,0,0:0:0:0:
256,192,100988,1,0,0:0:0:0:
256,192,101111,1,0,0:0:0:0:
256,192,101233,1,8,0:0:0:0:
256,192,101356,1,8,0:0:0:0:
256,192,101478,1,0,0:0:0:0:
256,192,101601,1,0,0:0:0:0:
256,192,101723,1,8,0:0:0:0:
256,192,101968,1,0,0:0:0:0:
256,192,102090,1,0,0:0:0:0:
256,192,102213,1,8,0:0:0:0:
256,192,102335,1,0,0:0:0:0:
256,192,102458,1,8,0:0:0:0:
256,192,102703,1,0,0:0:0:0:
256,192,102825,1,0,0:0:0:0:
256,192,102947,1,12,0:0:0:0:
256,192,103070,1,4,0:0:0:0:
256,192,103315,1,12,0:0:0:0:
256,192,103682,1,8,0:0:0:0:
256,192,103927,5,4,0:0:0:0:
256,192,104049,1,0,0:0:0:0:
256,192,104172,1,8,0:0:0:0:
256,192,104294,1,0,0:0:0:0:
256,192,104416,1,8,0:0:0:0:
256,192,104539,1,8,0:0:0:0:
256,192,104661,1,0,0:0:0:0:
256,192,104906,1,0,0:0:0:0:
256,192,105029,1,0,0:0:0:0:
256,192,105151,1,8,0:0:0:0:
256,192,105274,1,8,0:0:0:0:
256,192,105396,1,0,0:0:0:0:
256,192,105519,1,0,0:0:0:0:
256,192,105641,1,8,0:0:0:0:
256,192,105886,1,4,0:0:0:0:
256,192,106254,1,4,0:0:0:0:
256,192,106621,1,12,0:0:0:0:
256,192,106988,1,12,0:0:0:0:
256,192,107356,1,0,0:0:0:0:
256,192,107478,1,0,0:0:0:0:
256,192,107601,1,8,0:0:0:0:
256,192,107845,5,4,0:0:0:0:
256,192,107968,1,0,0:0:0:0:
256,192,108090,1,8,0:0:0:0:
256,192,108212,1,0,0:0:0:0:
256,192,108334,1,8,0:0:0:0:
256,192,108396,1,8,0:0:0:0:
256,192,108457,1,8,0:0:0:0:
256,192,108579,1,0,0:0:0:0:
256,192,108824,1,0,0:0:0:0:
256,192,108947,1,0,0:0:0:0:
256,192,109069,1,8,0:0:0:0:
256,192,109192,1,8,0:0:0:0:
256,192,109314,1,0,0:0:0:0:
256,192,109375,1,0,0:0:0:0:
256,192,109437,1,0,0:0:0:0:
256,192,109559,1,8,0:0:0:0:
256,192,109804,1,0,0:0:0:0:
256,192,109926,1,0,0:0:0:0:
256,192,110049,1,8,0:0:0:0:
256,192,110171,1,0,0:0:0:0:
256,192,110294,1,8,0:0:0:0:
256,192,110355,1,8,0:0:0:0:
256,192,110416,1,8,0:0:0:0:
256,192,110539,1,0,0:0:0:0:
256,192,110661,1,0,0:0:0:0:
256,192,110784,1,12,0:0:0:0:
256,192,110907,1,4,0:0:0:0:
256,192,111152,1,12,0:0:0:0:
256,192,111519,1,8,0:0:0:0:
256,192,111764,5,4,0:0:0:0:
256,192,111887,1,0,0:0:0:0:
256,192,112009,1,8,0:0:0:0:
256,192,112131,1,0,0:0:0:0:
256,192,112253,1,8,0:0:0:0:
256,192,112315,1,8,0:0:0:0:
256,192,112376,1,8,0:0:0:0:
256,192,112498,1,0,0:0:0:0:
256,192,112743,1,0,0:0:0:0:
256,192,112866,1,0,0:0:0:0:
256,192,112988,1,8,0:0:0:0:
256,192,113111,1,8,0:0:0:0:
256,192,113233,1,0,0:0:0:0:
256,192,113294,1,0,0:0:0:0:
256,192,113356,1,0,0:0:0:0:
256,192,113478,1,8,0:0:0:0:
256,192,113723,1,4,0:0:0:0:
256,192,114090,1,4,0:0:0:0:
256,192,114458,1,12,0:0:0:0:
256,192,114825,1,12,0:0:0:0:
256,192,115192,1,8,0:0:0:0:
256,192,115315,1,0,0:0:0:0:
256,192,115437,1,8,0:0:0:0:
256,192,115498,1,8,0:0:0:0:
256,192,115560,1,8,0:0:0:0:
256,192,115682,1,4,0:0:0:0:
256,192,116049,5,0,0:0:0:0:
256,192,116172,1,8,0:0:0:0:
256,192,116539,1,0,0:0:0:0:
256,192,116907,1,0,0:0:0:0:
256,192,117152,1,8,0:0:0:0:
256,192,117274,1,0,0:0:0:0:
256,192,117519,1,0,0:0:0:0:
256,192,117641,1,8,0:0:0:0:
256,192,117886,1,0,0:0:0:0:
256,192,118009,1,0,0:0:0:0:
256,192,118131,1,8,0:0:0:0:
256,192,118376,1,0,0:0:0:0:
256,192,118498,1,8,0:0:0:0:
256,192,118743,1,8,0:0:0:0:
256,192,118988,1,0,0:0:0:0:
256,192,119111,1,8,0:0:0:0:
256,192,119601,1,8,0:0:0:0:
256,192,119845,1,0,0:0:0:0:
256,192,119968,1,0,0:0:0:0:
256,192,120090,1,8,0:0:0:0:
256,192,120335,1,0,0:0:0:0:
256,192,120458,1,8,0:0:0:0:
256,192,120703,1,8,0:0:0:0:
256,192,120825,1,0,0:0:0:0:
256,192,120947,1,0,0:0:0:0:
256,192,121070,1,8,0:0:0:0:
256,192,121192,1,0,0:0:0:0:
256,192,121437,1,8,0:0:0:0:
256,192,121560,1,0,0:0:0:0:
256,192,121682,1,8,0:0:0:0:
256,192,121927,1,0,0:0:0:0:
256,192,122049,1,8,0:0:0:0:
256,192,122539,1,8,0:0:0:0:
256,192,122784,1,8,0:0:0:0:
256,192,122907,1,0,0:0:0:0:
256,192,123029,1,8,0:0:0:0:
256,192,123152,1,0,0:0:0:0:
256,192,123213,1,0,0:0:0:0:
256,192,123274,1,0,0:0:0:0:
256,192,123519,1,4,0:0:0:0:
256,192,123641,1,0,0:0:0:0:
256,192,123764,1,8,0:0:0:0:
256,192,123886,1,0,0:0:0:0:
256,192,124009,1,8,0:0:0:0:
256,192,124131,1,8,0:0:0:0:
256,192,124254,1,0,0:0:0:0:
256,192,124376,1,0,0:0:0:0:
256,192,124437,1,0,0:0:0:0:
256,192,124498,1,0,0:0:0:0:
256,192,124743,1,0,0:0:0:0:
256,192,124866,1,8,0:0:0:0:
256,192,124927,1,8,0:0:0:0:
256,192,124988,1,8,0:0:0:0:
256,192,125111,1,0,0:0:0:0:
256,192,125233,1,8,0:0:0:0:
256,192,125356,1,8,0:0:0:0:
256,192,125417,1,8,0:0:0:0:
256,192,125478,1,8,0:0:0:0:
256,192,125723,1,8,0:0:0:0:
256,192,125845,1,8,0:0:0:0:
256,192,125968,1,0,0:0:0:0:
256,192,126090,1,0,0:0:0:0:
256,192,126213,1,8,0:0:0:0:
256,192,126335,1,0,0:0:0:0:
256,192,126396,1,0,0:0:0:0:
256,192,126458,1,0,0:0:0:0:
256,192,126580,1,0,0:0:0:0:
256,192,126825,1,12,0:0:0:0:
256,192,127192,1,8,0:0:0:0:
256,192,127254,1,8,0:0:0:0:
256,192,127315,1,8,0:0:0:0:
256,192,127437,1,4,0:0:0:0:
256,192,127560,1,0,0:0:0:0:
256,192,127682,1,8,0:0:0:0:
256,192,127805,1,0,0:0:0:0:
256,192,127927,1,8,0:0:0:0:
256,192,128049,1,8,0:0:0:0:
256,192,128172,1,0,0:0:0:0:
256,192,128294,1,0,0:0:0:0:
256,192,128356,1,0,0:0:0:0:
256,192,128417,1,0,0:0:0:0:
256,192,128662,1,8,0:0:0:0:
256,192,128784,1,0,0:0:0:0:
256,192,128845,1,0,0:0:0:0:
256,192,128907,1,0,0:0:0:0:
256,192,129029,1,0,0:0:0:0:
256,192,129152,1,8,0:0:0:0:
256,192,129213,1,8,0:0:0:0:
256,192,129274,1,8,0:0:0:0:
256,192,129396,1,4,0:0:0:0:
256,192,129764,1,4,0:0:0:0:
256,192,130131,1,12,0:0:0:0:
256,192,130498,1,12,0:0:0:0:
256,192,130866,1,8,0:0:0:0:
256,192,130988,1,0,0:0:0:0:
256,192,131111,1,8,0:0:0:0:
256,192,131172,1,8,0:0:0:0:
256,192,131233,1,8,0:0:0:0:
256,192,131356,1,0,0:0:0:0:
256,192,131478,1,8,0:0:0:0:
256,192,131601,1,8,0:0:0:0:
256,192,131723,1,0,0:0:0:0:
256,192,131845,1,8,0:0:0:0:
256,192,132090,1,0,0:0:0:0:
256,192,132213,1,8,0:0:0:0:
256,192,132274,1,8,0:0:0:0:
256,192,132335,1,8,0:0:0:0:
256,192,132458,1,0,0:0:0:0:
256,192,132580,1,8,0:0:0:0:
256,192,132825,1,0,0:0:0:0:
256,192,132947,1,0,0:0:0:0:
256,192,133070,1,8,0:0:0:0:
256,192,133131,1,8,0:0:0:0:
256,192,133192,1,8,0:0:0:0:
256,192,133315,1,4,0:0:0:0:
