osu file format v14

[General]
AudioFilename: audio.mp3
AudioLeadIn: 0
PreviewTime: 230967
Countdown: 0
SampleSet: Normal
StackLeniency: 0.7
Mode: 1
LetterboxInBreaks: 0
WidescreenStoryboard: 0

[Editor]
DistanceSpacing: 0.8
BeatDivisor: 4
GridSize: 32
TimelineZoom: 3.799999

[Metadata]
Title:Invisible Frenzy (Camellia's "593: Insanely Fluctuated" Remix)
TitleUnicode:Invisible Frenzy (Camellia's "593: Insanely Fluctuated" Remix)
Artist:Kobaryo
ArtistUnicode:Kobaryo
Creator:KawaiiBass
Version:Inflation"593"
Source:WACCA
Tags:electronic instrumental fa featured artist speedcore かめりあ cametek kamelcamellia かめるかめりあ SUPER DREAM ZONE HiTNEX TRAX HNXCD-001
BeatmapID:2792871
BeatmapSetID:1348795

[Difficulty]
HPDrainRate:4.5
CircleSize:7
OverallDifficulty:7
ApproachRate:10
SliderMultiplier:1.4
SliderTickRate:1

[Events]
//Background and Video events
0,0,"Pixiv.Fantasia_.Last.Saga.full.2509088.jpg",0,0
//Break Periods
//Storyboard Layer 0 (Background)
//Storyboard Layer 1 (Fail)
//Storyboard Layer 2 (Pass)
//Storyboard Layer 3 (Foreground)
//Storyboard Layer 4 (Overlay)
//Storyboard Sound Samples

[TimingPoints]
3160,202.360876897133,4,1,0,80,1,0
12873,-83.3333333333333,4,1,0,80,0,1
12974,-83.3333333333333,4,1,0,80,0,0
13075,-83.3333333333333,4,1,0,80,0,1
13176,-83.3333333333333,4,1,0,80,0,0
13682,-83.3333333333333,4,1,0,80,0,1
13783,-83.3333333333333,4,1,0,80,0,0
13885,-83.3333333333333,4,1,0,80,0,1
13986,-83.3333333333333,4,1,0,80,0,0
14492,-100,4,1,0,80,0,0
15908,-83.3333333333333,4,1,0,80,0,0
16111,-101.010101010101,4,1,0,65,0,0
16313,-102.040816326531,4,1,0,65,0,0
16515,-103.092783505155,4,1,0,65,0,0
16718,-104.166666666667,4,1,0,65,0,0
16819,-105.263157894737,4,1,0,65,0,0
17021,-106.382978723404,4,1,0,65,0,0
17122,-107.52688172043,4,1,0,65,0,0
17325,-108.695652173913,4,1,0,65,0,0
17426,-109.89010989011,4,1,0,65,0,0
17527,-111.111111111111,4,1,0,65,0,0
17628,-112.359550561798,4,1,0,65,0,0
17729,-113.636363636364,4,1,0,65,0,0
17932,-114.942528735632,4,1,0,65,0,0
18134,-116.279069767442,4,1,0,65,0,0
18337,-117.647058823529,4,1,0,65,0,0
18438,-119.047619047619,4,1,0,65,0,0
18640,-120.481927710843,4,1,0,65,0,0
18741,-121.951219512195,4,1,0,65,0,0
18842,-123.456790123457,4,1,0,65,0,0
18944,-125,4,1,0,65,0,0
29062,-100,4,1,0,80,0,0
40596,-102.040816326531,4,1,0,65,0,0
40697,-104.166666666667,4,1,0,65,0,0
40799,-106.382978723404,4,1,0,65,0,0
40900,-108.695652173913,4,1,0,65,0,0
41001,-111.111111111111,4,1,0,65,0,0
41102,-113.636363636364,4,1,0,65,0,0
41203,-116.279069767442,4,1,0,65,0,0
41305,-119.047619047619,4,1,0,65,0,0
41406,-121.951219512195,4,1,0,65,0,0
41608,-83.3333333333333,4,1,0,80,0,0
42013,-100,4,1,0,70,0,0
42114,-101.010101010101,4,1,0,70,0,0
42215,-102.040816326531,4,1,0,70,0,0
42316,-103.092783505155,4,1,0,70,0,0
42418,-104.166666666667,4,1,0,70,0,0
42519,-105.263157894737,4,1,0,70,0,0
42620,-106.382978723404,4,1,0,70,0,0
42721,-107.52688172043,4,1,0,70,0,0
42822,-108.695652173913,4,1,0,70,0,0
42923,-109.89010989011,4,1,0,70,0,0
43025,-111.111111111111,4,1,0,70,0,0
43126,-112.359550561798,4,1,0,70,0,0
43227,-113.636363636364,4,1,0,70,0,0
43328,-114.942528735632,4,1,0,70,0,0
43429,-116.279069767442,4,1,0,70,0,0
43530,-117.647058823529,4,1,0,70,0,0
43632,-119.047619047619,4,1,0,70,0,0
43733,-120.481927710843,4,1,0,70,0,0
43834,-121.951219512195,4,1,0,70,0,0
43935,-123.456790123457,4,1,0,70,0,0
44036,-125,4,1,0,70,0,0
44138,-126.582278481013,4,1,0,70,0,0
44239,-128.205128205128,4,1,0,70,0,0
44340,-129.87012987013,4,1,0,70,0,0
44441,-131.578947368421,4,1,0,70,0,0
44542,-133.333333333333,4,1,0,70,0,0
44643,-135.135135135135,4,1,0,70,0,0
44745,-136.986301369863,4,1,0,70,0,0
44846,-138.888888888889,4,1,0,70,0,0
44947,-140.845070422535,4,1,0,70,0,0
45048,-142.857142857143,4,1,0,70,0,0
45149,-144.927536231884,4,1,0,70,0,0
45251,-147.058823529412,4,1,0,70,0,0
46869,-135.135135135135,4,1,0,70,0,0
46971,-133.333333333333,4,1,0,70,0,0
47072,-131.578947368421,4,1,0,70,0,0
47173,-129.87012987013,4,1,0,70,0,0
47274,-128.205128205128,4,1,0,70,0,0
47375,-126.582278481013,4,1,0,70,0,0
47477,-125,4,1,0,70,0,0
47578,-123.456790123457,4,1,0,70,0,0
47679,-121.951219512195,4,1,0,70,0,0
47729,-119.047619047619,4,1,0,70,0,0
47780,-116.279069767442,4,1,0,70,0,0
47881,-113.636363636364,4,1,0,70,0,0
47932,-111.111111111111,4,1,0,70,0,0
47982,-108.695652173913,4,1,0,70,0,0
48084,-106.382978723404,4,1,0,70,0,0
48134,-104.166666666667,4,1,0,70,0,0
48185,-102.040816326531,4,1,0,70,0,0
48286,-83.3333333333333,4,1,0,70,0,0
48488,-100,4,1,0,75,0,1
54762,-83.3333333333333,4,1,0,75,0,0
54964,-100,4,1,0,75,0,1
61035,-83.3333333333333,4,1,0,75,0,0
61439,-90.9090909090909,4,1,0,75,0,0
61642,-100,4,1,0,75,0,0
61844,-86.9565217391304,4,1,0,75,0,0
62047,-100,4,1,0,75,0,0
62249,-83.3333333333333,4,1,0,75,0,0
62451,-100,4,1,0,75,0,0
62654,-80,4,1,0,75,0,0
62856,-100,4,1,0,75,0,0
63058,-76.9230769230769,4,1,0,75,0,0
63261,-100,4,1,0,75,0,0
63463,-74.0740740740741,4,1,0,75,0,0
63665,-100,4,1,0,75,0,0
63868,-71.4285714285714,4,1,0,75,0,0
64070,-90.9090909090909,4,1,0,75,0,0
64272,-92.5925925925926,4,1,0,75,0,0
64374,-94.3396226415094,4,1,0,75,0,0
64475,-96.1538461538461,4,1,0,75,0,0
64576,-98.0392156862745,4,1,0,75,0,0
64677,-100,4,1,0,75,0,0
67915,-90.9090909090909,4,1,0,75,0,0
68117,-100,4,1,0,75,0,0
68320,-86.9565217391304,4,1,0,75,0,0
68522,-100,4,1,0,75,0,0
68724,-83.3333333333333,4,1,0,75,0,0
68927,-100,4,1,0,75,0,0
69129,-80,4,1,0,75,0,0
69230,-100,4,1,0,75,0,0
69534,-76.9230769230769,4,1,0,75,0,0
69736,-100,4,1,0,75,0,0
69939,-74.0740740740741,4,1,0,75,0,0
70040,-100,4,1,0,75,0,0
70343,-71.4285714285714,4,1,0,75,0,0
70546,-90.9090909090909,4,1,0,75,0,0
70647,-92.5925925925926,4,1,0,75,0,0
70748,-94.3396226415094,4,1,0,75,0,0
70849,-96.1538461538461,4,1,0,75,0,0
70950,-98.0392156862745,4,1,0,75,0,0
71153,-100,4,1,0,75,0,0
74391,-111.111111111111,4,1,0,60,0,0
74492,-112.359550561798,4,1,0,60,0,0
74593,-113.636363636364,4,1,0,60,0,0
74795,-114.942528735632,4,1,0,60,0,0
74998,-116.279069767442,4,1,0,60,0,0
75200,-117.647058823529,4,1,0,60,0,0
75301,-119.047619047619,4,1,0,60,0,0
75402,-120.481927710843,4,1,0,60,0,0
75605,-121.951219512195,4,1,0,60,0,0
75706,-123.456790123457,4,1,0,60,0,0
75807,-125,4,1,0,60,0,0
76009,-126.582278481013,4,1,0,60,0,0
76111,-128.205128205128,4,1,0,60,0,0
76212,-129.87012987013,4,1,0,60,0,0
76313,-131.578947368421,4,1,0,60,0,0
76414,-133.333333333333,4,1,0,60,0,0
76515,-135.135135135135,4,1,0,60,0,0
76616,-136.986301369863,4,1,0,60,0,0
76718,-138.888888888889,4,1,0,60,0,0
80866,-136.986301369863,4,1,0,60,0,0
80967,-135.135135135135,4,1,0,60,0,0
81068,-133.333333333333,4,1,0,60,0,0
81271,-131.578947368421,4,1,0,60,0,0
81473,-129.87012987013,4,1,0,60,0,0
81574,-128.205128205128,4,1,0,60,0,0
81777,-126.582278481013,4,1,0,60,0,0
81878,-125,4,1,0,60,0,0
81979,-123.456790123457,4,1,0,60,0,0
82080,-121.951219512195,4,1,0,60,0,0
82181,-120.481927710843,4,1,0,60,0,0
82283,-119.047619047619,4,1,0,60,0,0
82384,-117.647058823529,4,1,0,60,0,0
82485,-116.279069767442,4,1,0,60,0,0
82586,-114.942528735632,4,1,0,60,0,0
82687,-113.636363636364,4,1,0,60,0,0
82789,-112.359550561798,4,1,0,60,0,0
82890,-111.111111111111,4,1,0,60,0,0
82940,-109.89010989011,4,1,0,60,0,0
82991,-108.695652173913,4,1,0,60,0,0
83092,-107.52688172043,4,1,0,60,0,0
83143,-106.382978723404,4,1,0,60,0,0
83193,-105.263157894737,4,1,0,60,0,0
83294,-104.166666666667,4,1,0,60,0,0
83345,-103.092783505155,4,1,0,60,0,0
83396,-102.040816326531,4,1,0,60,0,0
83446,-101.010101010101,4,1,0,60,0,0
83497,-100,4,1,0,60,0,0
83547,-99.009900990099,4,1,0,60,0,0
83598,-98.0392156862745,4,1,0,60,0,0
83649,-97.0873786407767,4,1,0,60,0,0
83699,-83.3333333333333,4,1,0,75,0,0
84104,-100,4,1,0,75,0,1
86937,-101.010101010101,4,1,0,75,0,0
86987,-102.040816326531,4,1,0,75,0,0
87038,-103.092783505155,4,1,0,75,0,0
87089,-104.166666666667,4,1,0,75,0,0
87139,-105.263157894737,4,1,0,75,0,0
87190,-106.382978723404,4,1,0,75,0,0
87240,-107.52688172043,4,1,0,75,0,0
87342,-108.695652173913,4,1,0,65,0,0
87477,-109.89010989011,4,1,0,65,0,0
87544,-111.111111111111,4,1,0,65,0,0
87746,-112.359550561798,4,1,0,65,0,0
87949,-113.636363636364,4,1,0,65,0,0
88016,-114.942528735632,4,1,0,65,0,0
88084,-116.279069767442,4,1,0,65,0,0
88151,-117.647058823529,4,1,0,65,0,0
90377,-111.111111111111,4,1,0,65,0,0
90579,-100,4,1,0,75,0,0
93514,-101.010101010101,4,1,0,65,0,0
93564,-102.040816326531,4,1,0,65,0,0
93615,-103.092783505155,4,1,0,65,0,0
93649,-104.166666666667,4,1,0,65,0,0
93682,-105.263157894737,4,1,0,65,0,0
93716,-106.382978723404,4,1,0,65,0,0
93817,-107.52688172043,4,1,0,65,0,0
97055,-100,4,1,0,75,0,0
99079,-97.0873786407767,4,1,0,75,0,0
99180,-94.3396226415094,4,1,0,75,0,0
99382,-91.743119266055,4,1,0,75,0,0
99483,-89.2857142857143,4,1,0,75,0,0
99888,-83.3333333333333,4,1,0,75,0,0
100293,-144.927536231884,4,1,0,70,0,0
100394,-140.845070422535,4,1,0,70,0,0
100495,-136.986301369863,4,1,0,70,0,0
100596,-133.333333333333,4,1,0,70,0,0
100697,-129.87012987013,4,1,0,70,0,0
100799,-126.582278481013,4,1,0,70,0,0
100849,-125,4,1,0,70,0,0
100900,-123.456790123457,4,1,0,70,0,0
101001,-120.481927710843,4,1,0,70,0,0
101102,-117.647058823529,4,1,0,70,0,0
102316,-111.111111111111,4,1,0,70,0,0
102519,-105.263157894737,4,1,0,70,0,0
102721,-100,4,1,0,70,0,0
102923,-95.2380952380952,4,1,0,70,0,0
103025,-93.4579439252336,4,1,0,70,0,0
103126,-92.5925925925926,4,1,0,70,0,0
103227,-94.3396226415094,4,1,0,70,0,0
103328,-96.1538461538461,4,1,0,70,0,0
103429,-98.0392156862745,4,1,0,70,0,0
103530,-100,4,1,0,70,0,0
104340,-102.040816326531,4,1,0,70,0,0
104441,-106.382978723404,4,1,0,70,0,0
104542,-108.695652173913,4,1,0,70,0,0
104643,-111.111111111111,4,1,0,70,0,0
104846,-113.636363636364,4,1,0,70,0,0
104947,-116.279069767442,4,1,0,70,0,0
105048,-119.047619047619,4,1,0,70,0,0
105149,-121.951219512195,4,1,0,70,0,0
105554,-96.1538461538461,4,1,0,70,0,0
105655,-97.0873786407767,4,1,0,70,0,0
105756,-98.0392156862745,4,1,0,70,0,0
105858,-99.009900990099,4,1,0,70,0,0
105959,-100,4,1,0,70,0,0
106060,-101.010101010101,4,1,0,70,0,0
106111,-102.040816326531,4,1,0,70,0,0
106161,-103.092783505155,4,1,0,70,0,0
106262,-104.166666666667,4,1,0,70,0,0
106364,-105.263157894737,4,1,0,70,0,0
106414,-106.382978723404,4,1,0,70,0,0
106465,-107.52688172043,4,1,0,70,0,0
106566,-108.695652173913,4,1,0,70,0,0
106667,-109.89010989011,4,1,0,70,0,0
106768,-111.111111111111,4,1,0,70,0,0
107578,-102.040816326531,4,1,0,70,0,0
107679,-104.166666666667,4,1,0,70,0,0
107780,-106.382978723404,4,1,0,70,0,0
107881,-108.695652173913,4,1,0,70,0,0
108084,-111.111111111111,4,1,0,70,0,0
108185,-113.636363636364,4,1,0,70,0,0
108286,-114.942528735632,4,1,0,70,0,0
108337,-116.279069767442,4,1,0,70,0,0
108387,-117.647058823529,4,1,0,70,0,0
108691,-111.111111111111,4,1,0,70,0,0
108994,-113.636363636364,4,1,0,70,0,0
109197,-116.279069767442,4,1,0,70,0,0
110006,-99.009900990099,4,1,0,70,0,0
110107,-101.010101010101,4,1,0,70,0,0
110208,-103.092783505155,4,1,0,70,0,0
110310,-105.263157894737,4,1,0,70,0,0
110411,-107.52688172043,4,1,0,70,0,0
110512,-109.89010989011,4,1,0,70,0,0
110613,-112.359550561798,4,1,0,70,0,0
110714,-114.942528735632,4,1,0,70,0,0
110815,-117.647058823529,4,1,0,70,0,0
111018,-104.166666666667,4,1,0,70,0,0
111119,-107.52688172043,4,1,0,70,0,0
111220,-111.111111111111,4,1,0,70,0,0
111254,-112.359550561798,4,1,0,70,0,0
111288,-113.636363636364,4,1,0,70,0,0
111321,-114.942528735632,4,1,0,70,0,0
111625,-100,4,1,0,70,0,0
111726,-102.040816326531,4,1,0,70,0,0
111827,-104.166666666667,4,1,0,70,0,0
111928,-106.382978723404,4,1,0,70,0,0
112030,-108.695652173913,4,1,0,70,0,0
112063,-109.89010989011,4,1,0,70,0,0
112097,-111.111111111111,4,1,0,70,0,0
112131,-112.359550561798,4,1,0,70,0,0
112232,-114.942528735632,4,1,0,70,0,0
112434,-117.647058823529,4,1,0,70,0,0
112536,-116.279069767442,4,1,0,70,0,0
112586,-113.636363636364,4,1,0,70,0,0
112637,-112.359550561798,4,1,0,70,0,0
112738,-109.89010989011,4,1,0,70,0,0
112839,-107.52688172043,4,1,0,70,0,0
112890,-106.382978723404,4,1,0,70,0,0
112940,-105.263157894737,4,1,0,70,0,0
113041,-104.166666666667,4,1,0,70,0,0
113143,-102.040816326531,4,1,0,70,0,0
113244,-100,4,1,0,75,0,1
122957,-83.3333333333333,4,1,0,75,0,1
123362,-100,4,1,0,75,0,0
123767,-83.3333333333333,4,1,0,75,0,1
124171,-100,4,1,0,75,0,0
124576,-100,4,1,0,75,0,1
126195,-100,4,1,0,75,0,0
127004,-105.263157894737,4,1,0,75,0,0
127814,-111.111111111111,4,1,0,75,0,0
128623,-117.647058823529,4,1,0,75,0,0
129433,-133.333333333333,4,1,0,75,0,0
139146,-100,4,1,0,75,0,0
139551,-113.636363636364,4,1,0,75,0,0
139652,-109.89010989011,4,1,0,75,0,0
139753,-106.382978723404,4,1,0,75,0,0
139854,-103.092783505155,4,1,0,75,0,0
139955,-100,4,1,0,75,0,0
140158,-95.2380952380952,4,1,0,75,0,0
140360,-113.636363636364,4,1,0,75,0,0
140461,-109.89010989011,4,1,0,75,0,0
140563,-106.382978723404,4,1,0,75,0,0
140664,-103.092783505155,4,1,0,75,0,0
140765,-100,4,1,0,75,0,0
140967,-95.2380952380952,4,1,0,75,0,0
141170,-113.636363636364,4,1,0,75,0,0
141271,-109.89010989011,4,1,0,75,0,0
141372,-106.382978723404,4,1,0,75,0,0
141473,-103.092783505155,4,1,0,75,0,0
141574,-100,4,1,0,75,0,0
141777,-95.2380952380952,4,1,0,75,0,0
142384,-33.3333333333333,4,1,0,75,0,0
149062,-125,4,1,0,70,0,0
150478,-111.111111111111,4,1,0,70,0,1
155335,-105.263157894737,4,1,0,70,0,1
155537,-103.092783505155,4,1,0,70,0,1
155638,-101.010101010101,4,1,0,70,0,1
155841,-99.009900990099,4,1,0,70,0,1
155942,-97.0873786407767,4,1,0,70,0,1
156144,-95.2380952380952,4,1,0,70,0,1
156246,-93.4579439252336,4,1,0,70,0,1
156448,-91.743119266055,4,1,0,70,0,1
156549,-90.0900900900901,4,1,0,70,0,1
156650,-88.4955752212389,4,1,0,70,0,1
156751,-86.9565217391304,4,1,0,70,0,1
156853,-85.4700854700855,4,1,0,70,0,1
156954,-90.9090909090909,4,1,0,70,0,1
157156,-92.5925925925926,4,1,0,70,0,1
157358,-94.3396226415094,4,1,0,70,0,1
157409,-95.2380952380952,4,1,0,70,0,1
157460,-97.0873786407767,4,1,0,70,0,1
157561,-99.009900990099,4,1,0,70,0,1
157662,-101.010101010101,4,1,0,70,0,1
157763,-103.092783505155,4,1,0,70,0,1
157966,-105.263157894737,4,1,0,70,0,1
158067,-107.52688172043,4,1,0,70,0,1
158269,-108.695652173913,4,1,0,70,0,1
158370,-109.89010989011,4,1,0,70,0,1
158471,-111.111111111111,4,1,0,70,0,1
158573,-112.359550561798,4,1,0,70,0,1
161810,-105.263157894737,4,1,0,70,0,1
162013,-103.092783505155,4,1,0,70,0,1
162114,-101.010101010101,4,1,0,70,0,1
162316,-99.009900990099,4,1,0,70,0,1
162418,-97.0873786407767,4,1,0,70,0,1
162620,-95.2380952380952,4,1,0,70,0,1
162721,-93.4579439252336,4,1,0,70,0,1
162923,-91.743119266055,4,1,0,70,0,1
163025,-90.0900900900901,4,1,0,70,0,1
163126,-88.4955752212389,4,1,0,70,0,1
163227,-86.9565217391304,4,1,0,70,0,1
163328,-85.4700854700855,4,1,0,70,0,1
163429,-90.9090909090909,4,1,0,70,0,1
163530,-92.5925925925926,4,1,0,70,0,1
163632,-94.3396226415094,4,1,0,70,0,1
163834,-96.1538461538461,4,1,0,70,0,1
163935,-98.0392156862745,4,1,0,70,0,1
164036,-100,4,1,0,70,0,1
164138,-102.040816326531,4,1,0,70,0,1
164239,-104.166666666667,4,1,0,70,0,1
164542,-107.52688172043,4,1,0,70,0,1
164745,-111.111111111111,4,1,0,70,0,1
168286,-109.89010989011,4,1,0,70,0,1
168387,-108.695652173913,4,1,0,70,0,1
168488,-107.52688172043,4,1,0,70,0,1
168590,-106.382978723404,4,1,0,70,0,1
168691,-105.263157894737,4,1,0,70,0,1
168893,-104.166666666667,4,1,0,70,0,1
168994,-103.092783505155,4,1,0,70,0,1
169095,-102.040816326531,4,1,0,70,0,1
169197,-101.010101010101,4,1,0,70,0,1
169399,-100,4,1,0,70,0,1
169500,-99.009900990099,4,1,0,70,0,1
169601,-98.0392156862745,4,1,0,70,0,1
169703,-97.0873786407767,4,1,0,70,0,1
169905,-96.1538461538461,4,1,0,70,0,1
170006,-95.2380952380952,4,1,0,70,0,1
170107,-94.3396226415094,4,1,0,70,0,1
170208,-93.4579439252336,4,1,0,70,0,1
170411,-92.5925925925926,4,1,0,70,0,1
170512,-91.743119266055,4,1,0,70,0,1
170613,-90.9090909090909,4,1,0,70,0,1
170714,-90.0900900900901,4,1,0,70,0,1
170815,-89.2857142857143,4,1,0,70,0,1
170917,-88.4955752212389,4,1,0,70,0,1
171018,-87.719298245614,4,1,0,70,0,1
171119,-90.9090909090909,4,1,0,70,0,0
171220,-91.743119266055,4,1,0,70,0,0
171271,-92.5925925925926,4,1,0,70,0,0
171321,-93.4579439252336,4,1,0,70,0,0
171423,-95.2380952380952,4,1,0,70,0,0
171524,-97.0873786407767,4,1,0,70,0,0
171625,-99.009900990099,4,1,0,70,0,0
171726,-101.010101010101,4,1,0,70,0,0
171827,-103.092783505155,4,1,0,70,0,0
171928,-105.263157894737,4,1,0,70,0,0
177999,-104.166666666667,4,1,0,70,0,0
178134,-103.092783505155,4,1,0,70,0,0
178269,-102.040816326531,4,1,0,70,0,0
178404,-101.010101010101,4,1,0,70,0,0
178539,-100,4,1,0,70,0,0
178674,-99.009900990099,4,1,0,70,0,0
178809,-98.0392156862745,4,1,0,70,0,0
178944,-97.0873786407767,4,1,0,70,0,0
179079,-96.1538461538461,4,1,0,70,0,0
179213,-95.2380952380952,4,1,0,70,0,0
179348,-94.3396226415094,4,1,0,70,0,0
179483,-93.4579439252336,4,1,0,70,0,0
179618,-92.5925925925926,4,1,0,70,0,0
179753,-91.743119266055,4,1,0,70,0,0
179888,-90.9090909090909,4,1,0,70,0,0
180023,-90.0900900900901,4,1,0,70,0,0
180158,-89.2857142857143,4,1,0,70,0,0
180293,-88.4955752212389,4,1,0,70,0,0
180428,-87.719298245614,4,1,0,70,0,0
180563,-86.9565217391304,4,1,0,70,0,0
180697,-86.2068965517241,4,1,0,70,0,0
180832,-85.4700854700855,4,1,0,70,0,0
180900,-84.7457627118644,4,1,0,70,0,0
180967,-84.0336134453781,4,1,0,70,0,0
181102,-83.3333333333333,4,1,0,70,0,0
181170,-82.6446280991736,4,1,0,70,0,0
181237,-81.9672131147541,4,1,0,70,0,0
181507,-86.9565217391304,4,1,0,70,0,0
181777,-90.9090909090909,4,1,0,70,0,0
182047,-111.111111111111,4,1,0,70,0,0
184475,-105.263157894737,4,1,0,70,0,0
184677,-104.166666666667,4,1,0,70,0,0
184778,-103.092783505155,4,1,0,70,0,0
184981,-102.040816326531,4,1,0,70,0,0
185082,-101.010101010101,4,1,0,70,0,0
185284,-100,4,1,0,70,0,0
185385,-99.009900990099,4,1,0,70,0,0
185588,-98.0392156862745,4,1,0,70,0,0
185689,-97.0873786407767,4,1,0,70,0,0
185790,-96.1538461538461,4,1,0,70,0,0
185891,-95.2380952380952,4,1,0,70,0,0
185993,-94.3396226415094,4,1,0,70,0,0
186094,-100,4,1,0,70,0,0
186296,-99.009900990099,4,1,0,70,0,0
186397,-98.0392156862745,4,1,0,70,0,0
186600,-97.0873786407767,4,1,0,70,0,0
186701,-96.1538461538461,4,1,0,70,0,0
186903,-95.2380952380952,4,1,0,70,0,0
187004,-94.3396226415094,4,1,0,70,0,0
187207,-93.4579439252336,4,1,0,70,0,0
187308,-92.5925925925926,4,1,0,70,0,0
187409,-91.743119266055,4,1,0,70,0,0
187510,-90.9090909090909,4,1,0,70,0,0
187611,-90.0900900900901,4,1,0,70,0,0
187713,-95.2380952380952,4,1,0,70,0,0
187915,-94.3396226415094,4,1,0,70,0,0
188016,-93.4579439252336,4,1,0,70,0,0
188219,-92.5925925925926,4,1,0,70,0,0
188320,-91.743119266055,4,1,0,70,0,0
188522,-90.9090909090909,4,1,0,70,0,0
188623,-90.0900900900901,4,1,0,70,0,0
188826,-89.2857142857143,4,1,0,70,0,0
188927,-88.4955752212389,4,1,0,70,0,0
189028,-87.719298245614,4,1,0,70,0,0
189129,-86.9565217391304,4,1,0,70,0,0
189230,-86.2068965517241,4,1,0,70,0,0
189332,-90.9090909090909,4,1,0,70,0,0
189635,-95.2380952380952,4,1,0,70,0,0
189939,-111.111111111111,4,1,0,70,0,0
190343,-121.951219512195,4,1,0,70,0,0
195200,-120.481927710843,4,1,0,70,0,0
195301,-119.047619047619,4,1,0,70,0,0
195402,-117.647058823529,4,1,0,70,0,0
195504,-116.279069767442,4,1,0,70,0,0
195605,-114.942528735632,4,1,0,70,0,0
195706,-112.359550561798,4,1,0,70,0,0
195807,-111.111111111111,4,1,0,70,0,0
201878,-125,4,1,0,60,0,0
201979,-128.205128205128,4,1,0,60,0,0
202080,-131.578947368421,4,1,0,60,0,0
202283,-100,4,1,0,70,0,0
203901,-102.040816326531,4,1,0,70,0,0
204003,-104.166666666667,4,1,0,70,0,0
204104,-106.382978723404,4,1,0,70,0,0
204306,-108.695652173913,4,1,0,70,0,0
204407,-111.111111111111,4,1,0,70,0,0
204509,-113.636363636364,4,1,0,70,0,0
204610,-116.279069767442,4,1,0,70,0,0
204711,-119.047619047619,4,1,0,70,0,0
204812,-121.951219512195,4,1,0,70,0,0
204913,-125,4,1,0,70,0,0
205014,-128.205128205128,4,1,0,70,0,0
205116,-131.578947368421,4,1,0,70,0,0
205217,-133.333333333333,4,1,0,70,0,0
205267,-135.135135135135,4,1,0,70,0,0
205318,-136.986301369863,4,1,0,70,0,0
205419,-140.845070422535,4,1,0,70,0,0
205520,-100,4,1,0,70,0,0
207139,-147.058823529412,4,1,0,70,0,0
207240,-140.845070422535,4,1,0,60,0,0
207342,-136.986301369863,4,1,0,60,0,0
207443,-133.333333333333,4,1,0,60,0,0
207544,-129.87012987013,4,1,0,60,0,0
207645,-126.582278481013,4,1,0,60,0,0
207746,-123.456790123457,4,1,0,60,0,0
207848,-120.481927710843,4,1,0,60,0,0
207949,-117.647058823529,4,1,0,60,0,0
208050,-114.942528735632,4,1,0,60,0,0
208151,-112.359550561798,4,1,0,60,0,0
208252,-109.89010989011,4,1,0,60,0,0
208353,-107.52688172043,4,1,0,60,0,0
208455,-105.263157894737,4,1,0,60,0,0
208505,-104.166666666667,4,1,0,60,0,0
208556,-103.092783505155,4,1,0,70,0,0
208657,-102.040816326531,4,1,0,70,0,0
208758,-100,4,1,0,70,0,0
210377,-95.2380952380952,4,1,0,70,0,1
211996,-100,4,1,0,70,0,0
215234,-125,4,1,0,70,0,0
221709,-117.647058823529,4,1,0,70,0,0
222519,-111.111111111111,4,1,0,70,0,0
223328,-105.263157894737,4,1,0,70,0,0
224138,-100,4,1,0,70,0,0
229804,-102.040816326531,4,1,0,60,0,0
229905,-104.166666666667,4,1,0,60,0,0
230006,-106.382978723404,4,1,0,60,0,0
230107,-108.695652173913,4,1,0,60,0,0
230208,-111.111111111111,4,1,0,60,0,0
230310,-113.636363636364,4,1,0,60,0,0
230411,-116.279069767442,4,1,0,60,0,0
230512,-119.047619047619,4,1,0,60,0,0
230613,-121.951219512195,4,1,0,60,0,0
230714,-123.456790123457,4,1,0,60,0,0
230765,-125,4,1,0,60,0,0
230815,-126.582278481013,4,1,0,60,0,0
230917,-129.87012987013,4,1,0,60,0,0
231018,-83.3333333333333,4,1,0,75,0,0
231423,-95.2380952380952,4,1,0,80,0,1
244374,-96.1538461538461,4,1,0,80,0,0
244475,-97.0873786407767,4,1,0,80,0,0
244525,-98.0392156862745,4,1,0,80,0,0
244576,-99.009900990099,4,1,0,80,0,0
244677,-100,4,1,0,80,0,0
246397,-98.0392156862745,4,1,0,80,0,0
246802,-96.1538461538461,4,1,0,80,0,0
247207,-94.3396226415094,4,1,0,80,0,0
247510,-100,4,1,0,80,0,0
249635,-98.0392156862745,4,1,0,80,0,0
250040,-96.1538461538461,4,1,0,80,0,0
250343,-94.3396226415094,4,1,0,80,0,0
250444,-83.3333333333333,4,1,0,80,0,0
250849,-102.040816326531,4,1,0,60,0,0
250950,-104.166666666667,4,1,0,60,0,0
251052,-106.382978723404,4,1,0,60,0,0
251153,-108.695652173913,4,1,0,60,0,0
251254,-111.111111111111,4,1,0,60,0,0
251355,-113.636363636364,4,1,0,60,0,0
251456,-116.279069767442,4,1,0,60,0,0
251557,-119.047619047619,4,1,0,60,0,0
251659,-121.951219512195,4,1,0,60,0,0
251861,-125,4,1,0,60,0,0
251962,-128.205128205128,4,1,0,60,0,0
252063,-131.578947368421,4,1,0,60,0,0
254087,-129.87012987013,4,1,0,70,0,0
254188,-128.205128205128,4,1,0,70,0,0
254289,-126.582278481013,4,1,0,70,0,0
254391,-125,4,1,0,70,0,0
254492,-123.456790123457,4,1,0,70,0,0
254542,-121.951219512195,4,1,0,70,0,0
254593,-120.481927710843,4,1,0,70,0,0
254694,-119.047619047619,4,1,0,70,0,0
254795,-117.647058823529,4,1,0,70,0,0
254896,-116.279069767442,4,1,0,70,0,0
254998,-114.942528735632,4,1,0,70,0,0
255099,-113.636363636364,4,1,0,70,0,0
255200,-112.359550561798,4,1,0,70,0,0
255301,-111.111111111111,4,1,0,70,0,0
255352,-109.89010989011,4,1,0,70,0,0
255402,-108.695652173913,4,1,0,70,0,0
255453,-107.52688172043,4,1,0,70,0,0
255504,-106.382978723404,4,1,0,70,0,0
255605,-105.263157894737,4,1,0,70,0,0
255706,-104.166666666667,4,1,0,70,0,0
255756,-103.092783505155,4,1,0,70,0,0
255807,-102.040816326531,4,1,0,70,0,0
255908,-101.010101010101,4,1,0,70,0,0
256009,-100,4,1,0,70,0,0
256060,-99.009900990099,4,1,0,70,0,0
256111,-98.0392156862745,4,1,0,70,0,0
256212,-97.0873786407767,4,1,0,70,0,0
256313,-96.1538461538461,4,1,0,70,0,0
256364,-95.2380952380952,4,1,0,70,0,0
256414,-94.3396226415094,4,1,0,70,0,0
256515,-93.4579439252336,4,1,0,70,0,0
256616,-92.5925925925926,4,1,0,70,0,0
256667,-91.743119266055,4,1,0,70,0,0
256718,-90.9090909090909,4,1,0,70,0,0
256768,-90.0900900900901,4,1,0,70,0,0
256819,-89.2857142857143,4,1,0,70,0,0
256869,-88.4955752212389,4,1,0,70,0,0
256920,-87.719298245614,4,1,0,70,0,0
257021,-86.9565217391304,4,1,0,70,0,0
257122,-86.2068965517241,4,1,0,70,0,0
257325,101.180438448567,4,1,0,80,1,0
257325,-181.818181818182,4,1,0,80,0,1
263800,-172.413793103448,4,1,0,80,0,1
268758,-175.438596491228,4,1,0,80,0,1
268960,-178.571428571429,4,1,0,80,0,1
269061,-181.818181818182,4,1,0,80,0,1
269264,-185.185185185185,4,1,0,80,0,1
269365,-188.679245283019,4,1,0,80,0,1
269567,-192.307692307692,4,1,0,80,0,1
269669,-196.078431372549,4,1,0,80,0,1
270276,202.360876897133,4,1,0,80,1,0
271894,-125,4,1,0,80,0,0
272704,-111.111111111111,4,1,0,80,0,0
273513,-105.263157894737,4,1,0,80,0,0
274727,-100,4,1,0,80,0,0
276751,-111.111111111111,4,1,0,80,0,0
277560,-117.647058823529,4,1,0,80,0,0
278269,-111.111111111111,4,1,0,80,0,0
278370,-100,4,1,0,80,0,0
279179,-129.87012987013,4,1,0,80,0,0
279281,-126.582278481013,4,1,0,80,0,0
279382,-123.456790123457,4,1,0,80,0,0
279483,-120.481927710843,4,1,0,80,0,0
279584,-117.647058823529,4,1,0,80,0,0
279685,-114.942528735632,4,1,0,80,0,0
279786,-112.359550561798,4,1,0,80,0,0
279888,-109.89010989011,4,1,0,80,0,0
279989,-107.52688172043,4,1,0,80,0,0
280090,-105.263157894737,4,1,0,80,0,0
280141,-104.166666666667,4,1,0,80,0,0
280191,-103.092783505155,4,1,0,80,0,0
280292,-102.040816326531,4,1,0,80,0,0
280394,-100,4,1,0,80,0,0
281608,-83.3333333333333,4,1,0,80,0,0

[HitObjects]
256,192,3159,8,0,12063,0:0:0:0:
256,192,12873,5,4,0:0:0:0:
256,192,13075,1,4,0:0:0:0:
256,192,13682,1,4,0:0:0:0:
256,192,13885,1,4,0:0:0:0:
256,192,14492,1,8,0:0:0:0:
256,192,14542,1,8,0:0:0:0:
256,192,14593,1,0,0:0:0:0:
256,192,14694,1,0,0:0:0:0:
256,192,14795,1,8,0:0:0:0:
256,192,14846,1,8,0:0:0:0:
256,192,14896,1,0,0:0:0:0:
256,192,14998,1,0,0:0:0:0:
256,192,15099,1,8,0:0:0:0:
256,192,15149,1,0,0:0:0:0:
256,192,15200,1,0,0:0:0:0:
256,192,15301,1,0,0:0:0:0:
256,192,15402,1,8,0:0:0:0:
256,192,15453,1,8,0:0:0:0:
256,192,15504,1,0,0:0:0:0:
256,192,15605,1,0,0:0:0:0:
256,192,15706,1,8,0:0:0:0:
256,192,15756,1,8,0:0:0:0:
256,192,15807,1,0,0:0:0:0:
256,192,15908,1,12,0:0:0:0:
256,192,16111,1,0,0:0:0:0:
256,192,16313,1,0,0:0:0:0:
256,192,16515,1,8,0:0:0:0:
256,192,16718,1,0,0:0:0:0:
256,192,16819,1,8,0:0:0:0:
256,192,17021,1,8,0:0:0:0:
256,192,17122,1,0,0:0:0:0:
256,192,17325,1,8,0:0:0:0:
256,192,17426,1,0,0:0:0:0:
256,192,17527,1,0,0:0:0:0:
256,192,17628,1,8,0:0:0:0:
256,192,17729,1,0,0:0:0:0:
256,192,17932,1,0,0:0:0:0:
256,192,18134,1,8,0:0:0:0:
256,192,18337,1,0,0:0:0:0:
256,192,18438,1,8,0:0:0:0:
256,192,18640,1,8,0:0:0:0:
256,192,18741,1,0,0:0:0:0:
256,192,18842,1,8,0:0:0:0:
256,192,18944,1,8,0:0:0:0:
256,192,19146,1,0,0:0:0:0:
256,192,19348,1,0,0:0:0:0:
256,192,19551,1,0,0:0:0:0:
256,192,19652,1,0,0:0:0:0:
256,192,19753,1,8,0:0:0:0:
256,192,19955,1,0,0:0:0:0:
256,192,20057,1,8,0:0:0:0:
256,192,20259,1,8,0:0:0:0:
256,192,20360,1,0,0:0:0:0:
256,192,20461,1,0,0:0:0:0:
256,192,20563,1,8,0:0:0:0:
256,192,20765,1,8,0:0:0:0:
256,192,20866,1,8,0:0:0:0:
256,192,20967,1,0,0:0:0:0:
256,192,21170,1,0,0:0:0:0:
256,192,21372,1,8,0:0:0:0:
256,192,21574,1,0,0:0:0:0:
256,192,21676,1,8,0:0:0:0:
256,192,21777,1,8,0:0:0:0:
256,192,22080,1,0,0:0:0:0:
256,192,22283,1,0,0:0:0:0:
256,192,22384,1,8,0:0:0:0:
256,192,22485,1,8,0:0:0:0:
256,192,22586,1,0,0:0:0:0:
256,192,22890,1,0,0:0:0:0:
256,192,23193,1,8,0:0:0:0:
256,192,23598,1,8,0:0:0:0:
256,192,23666,1,8,0:0:0:0:
256,192,23733,1,8,0:0:0:0:
256,192,23801,1,0,0:0:0:0:
256,192,24003,1,0,0:0:0:0:
256,192,24205,1,8,0:0:0:0:
256,192,24509,1,0,0:0:0:0:
256,192,24812,1,0,0:0:0:0:
256,192,25824,1,0,0:0:0:0:
256,192,26127,1,8,0:0:0:0:
256,192,26430,1,8,0:0:0:0:
256,192,26836,1,0,0:0:0:0:
256,192,27038,1,8,0:0:0:0:
256,192,27240,1,0,0:0:0:0:
256,192,27342,1,8,0:0:0:0:
256,192,27443,1,8,0:0:0:0:
256,192,27746,1,8,0:0:0:0:
256,192,28050,1,0,0:0:0:0:
256,192,29062,1,4,0:0:0:0:
256,192,29264,1,4,0:0:0:0:
256,192,32299,1,0,0:0:0:0:
256,192,32502,1,0,0:0:0:0:
256,192,32603,1,0,0:0:0:0:
256,192,32704,1,8,0:0:0:0:
256,192,32907,1,0,0:0:0:0:
256,192,33008,1,8,0:0:0:0:
256,192,33210,1,0,0:0:0:0:
256,192,33311,1,8,0:0:0:0:
256,192,33412,1,8,0:0:0:0:
256,192,33615,1,0,0:0:0:0:
256,192,33817,1,8,0:0:0:0:
256,192,33918,1,0,0:0:0:0:
256,192,34121,1,0,0:0:0:0:
256,192,34222,1,0,0:0:0:0:
256,192,34323,1,8,0:0:0:0:
256,192,34525,1,0,0:0:0:0:
256,192,34627,1,8,0:0:0:0:
256,192,34728,1,8,0:0:0:0:
256,192,34829,1,8,0:0:0:0:
256,192,34930,1,0,0:0:0:0:
256,192,35031,1,0,0:0:0:0:
256,192,35133,1,8,0:0:0:0:
256,192,35234,1,8,0:0:0:0:
256,192,35335,1,8,0:0:0:0:
256,192,35385,1,8,0:0:0:0:
256,192,35436,1,8,0:0:0:0:
256,192,35537,1,4,0:0:0:0:
256,192,35638,1,0,0:0:0:0:
256,192,35740,1,0,0:0:0:0:
256,192,35841,1,0,0:0:0:0:
256,192,35942,1,8,0:0:0:0:
256,192,36043,1,0,0:0:0:0:
256,192,36144,1,0,0:0:0:0:
256,192,36246,1,8,0:0:0:0:
256,192,36347,1,0,0:0:0:0:
256,192,36397,1,0,0:0:0:0:
256,192,36448,1,0,0:0:0:0:
256,192,36549,1,8,0:0:0:0:
256,192,36650,1,0,0:0:0:0:
256,192,36701,1,0,0:0:0:0:
256,192,36751,1,0,0:0:0:0:
256,192,36853,1,8,0:0:0:0:
256,192,36954,1,0,0:0:0:0:
256,192,37004,1,0,0:0:0:0:
256,192,37055,1,8,0:0:0:0:
256,192,37156,1,0,0:0:0:0:
256,192,37257,1,0,0:0:0:0:
256,192,37358,1,0,0:0:0:0:
256,192,37460,1,0,0:0:0:0:
256,192,37561,1,8,0:0:0:0:
256,192,37662,1,0,0:0:0:0:
256,192,37763,1,0,0:0:0:0:
256,192,37864,1,8,0:0:0:0:
256,192,37966,1,0,0:0:0:0:
256,192,38016,1,8,0:0:0:0:
256,192,38067,1,8,0:0:0:0:
256,192,38168,1,0,0:0:0:0:
256,192,38269,1,0,0:0:0:0:
256,192,38320,1,8,0:0:0:0:
256,192,38370,1,8,0:0:0:0:
256,192,38471,1,0,0:0:0:0:
256,192,38573,1,0,0:0:0:0:
256,192,38674,1,8,0:0:0:0:
256,192,38775,1,8,0:0:0:0:
256,192,38826,1,8,0:0:0:0:
256,192,38876,1,0,0:0:0:0:
256,192,38977,1,8,0:0:0:0:
256,192,39028,1,0,0:0:0:0:
256,192,39079,1,0,0:0:0:0:
256,192,39180,1,8,0:0:0:0:
256,192,39230,1,8,0:0:0:0:
256,192,39281,1,0,0:0:0:0:
256,192,39382,1,8,0:0:0:0:
256,192,39433,1,0,0:0:0:0:
256,192,39483,1,0,0:0:0:0:
256,192,39584,1,8,0:0:0:0:
256,192,39635,1,8,0:0:0:0:
256,192,39686,1,0,0:0:0:0:
256,192,39736,1,8,0:0:0:0:
256,192,39787,1,0,0:0:0:0:
256,192,39837,1,0,0:0:0:0:
256,192,39888,1,8,0:0:0:0:
256,192,39939,1,0,0:0:0:0:
256,192,39989,1,8,0:0:0:0:
256,192,40040,1,8,0:0:0:0:
256,192,40090,1,0,0:0:0:0:
256,192,40124,1,0,0:0:0:0:
256,192,40158,1,0,0:0:0:0:
256,192,40192,1,8,0:0:0:0:
256,192,40242,1,8,0:0:0:0:
256,192,40293,1,0,0:0:0:0:
256,192,40596,1,0,0:0:0:0:
256,192,40697,1,0,0:0:0:0:
256,192,40799,1,8,0:0:0:0:
256,192,40900,1,0,0:0:0:0:
256,192,41001,1,8,0:0:0:0:
256,192,41102,1,8,0:0:0:0:
256,192,41203,1,0,0:0:0:0:
256,192,41305,1,0,0:0:0:0:
256,192,41406,1,8,0:0:0:0:
256,192,41608,1,12,0:0:0:0:
256,192,42013,1,0,0:0:0:0:
256,192,42114,1,0,0:0:0:0:
256,192,42215,1,8,0:0:0:0:
256,192,42316,1,8,0:0:0:0:
256,192,42418,1,0,0:0:0:0:
256,192,42519,1,8,0:0:0:0:
256,192,42620,1,8,0:0:0:0:
256,192,42721,1,8,0:0:0:0:
256,192,42822,1,0,0:0:0:0:
256,192,42923,1,0,0:0:0:0:
256,192,43025,1,8,0:0:0:0:
256,192,43126,1,0,0:0:0:0:
256,192,43227,1,8,0:0:0:0:
256,192,43328,1,8,0:0:0:0:
256,192,43429,1,0,0:0:0:0:
256,192,43530,1,0,0:0:0:0:
256,192,43632,1,8,0:0:0:0:
256,192,43733,1,0,0:0:0:0:
256,192,43834,1,8,0:0:0:0:
256,192,43935,1,0,0:0:0:0:
256,192,44036,1,8,0:0:0:0:
256,192,44138,1,8,0:0:0:0:
256,192,44239,1,8,0:0:0:0:
256,192,44340,1,0,0:0:0:0:
256,192,44441,1,8,0:0:0:0:
256,192,44542,1,0,0:0:0:0:
256,192,44643,1,8,0:0:0:0:
256,192,44745,1,0,0:0:0:0:
256,192,44846,1,8,0:0:0:0:
256,192,44947,1,8,0:0:0:0:
256,192,45048,1,8,0:0:0:0:
256,192,45149,1,0,0:0:0:0:
256,192,45251,1,8,0:0:0:0:
256,192,45453,1,8,0:0:0:0:
256,192,45554,1,8,0:0:0:0:
256,192,45655,1,0,0:0:0:0:
256,192,45858,1,0,0:0:0:0:
256,192,45959,1,0,0:0:0:0:
256,192,46060,1,8,0:0:0:0:
256,192,46262,1,8,0:0:0:0:
256,192,46364,1,8,0:0:0:0:
256,192,46566,1,8,0:0:0:0:
256,192,46667,1,0,0:0:0:0:
256,192,46869,1,0,0:0:0:0:
256,192,46971,1,0,0:0:0:0:
256,192,47072,1,0,0:0:0:0:
256,192,47173,1,0,0:0:0:0:
256,192,47274,1,8,0:0:0:0:
256,192,47375,1,0,0:0:0:0:
256,192,47477,1,8,0:0:0:0:
256,192,47578,1,8,0:0:0:0:
256,192,47679,1,0,0:0:0:0:
256,192,47729,1,0,0:0:0:0:
256,192,47780,1,0,0:0:0:0:
256,192,47881,1,8,0:0:0:0:
256,192,47932,1,0,0:0:0:0:
256,192,47982,1,0,0:0:0:0:
256,192,48084,1,8,0:0:0:0:
256,192,48134,1,8,0:0:0:0:
256,192,48185,1,0,0:0:0:0:
256,192,48286,1,12,0:0:0:0:
256,192,48488,1,0,0:0:0:0:
256,192,48590,1,8,0:0:0:0:
256,192,48640,1,8,0:0:0:0:
256,192,48691,1,0,0:0:0:0:
256,192,48792,1,8,0:0:0:0:
256,192,48893,1,0,0:0:0:0:
256,192,48944,1,0,0:0:0:0:
256,192,48994,1,0,0:0:0:0:
256,192,49045,1,8,0:0:0:0:
256,192,49095,1,0,0:0:0:0:
256,192,49197,1,8,0:0:0:0:
256,192,49298,1,0,0:0:0:0:
256,192,49348,1,0,0:0:0:0:
256,192,49399,1,0,0:0:0:0:
256,192,49500,1,8,0:0:0:0:
256,192,49551,1,8,0:0:0:0:
256,192,49601,1,0,0:0:0:0:
256,192,49703,1,8,0:0:0:0:
256,192,49753,1,8,0:0:0:0:
256,192,49804,1,0,0:0:0:0:
256,192,49854,1,0,0:0:0:0:
256,192,49905,1,8,0:0:0:0:
256,192,49955,1,8,0:0:0:0:
256,192,50006,1,0,0:0:0:0:
256,192,50107,1,8,0:0:0:0:
256,192,50158,1,8,0:0:0:0:
256,192,50208,1,0,0:0:0:0:
256,192,50259,1,8,0:0:0:0:
256,192,50310,1,0,0:0:0:0:
256,192,50343,1,0,0:0:0:0:
256,192,50377,1,0,0:0:0:0:
256,192,50411,1,8,0:0:0:0:
256,192,50461,1,8,0:0:0:0:
256,192,50512,1,0,0:0:0:0:
256,192,50613,1,8,0:0:0:0:
256,192,50664,1,8,0:0:0:0:
256,192,50714,1,0,0:0:0:0:
256,192,50815,1,8,0:0:0:0:
256,192,50917,1,0,0:0:0:0:
256,192,50967,1,0,0:0:0:0:
256,192,51018,1,8,0:0:0:0:
256,192,51068,1,0,0:0:0:0:
256,192,51119,1,8,0:0:0:0:
256,192,51170,1,8,0:0:0:0:
256,192,51220,1,0,0:0:0:0:
256,192,51271,1,8,0:0:0:0:
256,192,51321,1,0,0:0:0:0:
256,192,51423,1,0,0:0:0:0:
256,192,51473,1,0,0:0:0:0:
256,192,51524,1,8,0:0:0:0:
256,192,51557,1,8,0:0:0:0:
256,192,51591,1,8,0:0:0:0:
256,192,51625,1,0,0:0:0:0:
256,192,51726,1,8,0:0:0:0:
256,192,51827,1,0,0:0:0:0:
256,192,51928,1,0,0:0:0:0:
256,192,52030,1,8,0:0:0:0:
256,192,52131,1,0,0:0:0:0:
256,192,52181,1,0,0:0:0:0:
256,192,52232,1,0,0:0:0:0:
256,192,52333,1,8,0:0:0:0:
256,192,52434,1,0,0:0:0:0:
256,192,52536,1,8,0:0:0:0:
256,192,52569,1,8,0:0:0:0:
256,192,52603,1,8,0:0:0:0:
256,192,52637,1,0,0:0:0:0:
256,192,52687,1,0,0:0:0:0:
256,192,52738,1,8,0:0:0:0:
256,192,52772,1,0,0:0:0:0:
256,192,52805,1,0,0:0:0:0:
256,192,52839,1,8,0:0:0:0:
256,192,52940,1,0,0:0:0:0:
256,192,52966,1,0,0:0:0:0:
256,192,53041,1,0,0:0:0:0:
256,192,53067,1,0,0:0:0:0:
256,192,53143,1,8,0:0:0:0:
256,192,53168,1,8,0:0:0:0:
256,192,53244,1,8,0:0:0:0:
256,192,53269,1,8,0:0:0:0:
256,192,53345,1,0,0:0:0:0:
256,192,53446,1,8,0:0:0:0:
256,192,53497,1,8,0:0:0:0:
256,192,53547,1,0,0:0:0:0:
256,192,53649,1,8,0:0:0:0:
256,192,53750,1,0,0:0:0:0:
256,192,53851,1,8,0:0:0:0:
256,192,53901,1,8,0:0:0:0:
256,192,53952,1,0,0:0:0:0:
256,192,54003,1,0,0:0:0:0:
256,192,54053,1,8,0:0:0:0:
256,192,54154,1,0,0:0:0:0:
256,192,54256,1,0,0:0:0:0:
256,192,54306,1,0,0:0:0:0:
256,192,54357,1,8,0:0:0:0:
256,192,54458,1,0,0:0:0:0:
256,192,54559,1,8,0:0:0:0:
256,192,54610,1,0,0:0:0:0:
256,192,54660,1,0,0:0:0:0:
256,192,54762,1,8,0:0:0:0:
256,192,54964,1,0,0:0:0:0:
256,192,55065,1,0,0:0:0:0:
256,192,55166,1,0,0:0:0:0:
256,192,55267,1,0,0:0:0:0:
256,192,55369,1,8,0:0:0:0:
256,192,55470,1,0,0:0:0:0:
256,192,55571,1,0,0:0:0:0:
256,192,55672,1,0,0:0:0:0:
256,192,55723,1,0,0:0:0:0:
256,192,55773,1,8,0:0:0:0:
256,192,55875,1,0,0:0:0:0:
256,192,55976,1,8,0:0:0:0:
256,192,56077,1,0,0:0:0:0:
256,192,56178,1,8,0:0:0:0:
256,192,56279,1,8,0:0:0:0:
256,192,56380,1,0,0:0:0:0:
256,192,56431,1,0,0:0:0:0:
256,192,56482,1,0,0:0:0:0:
256,192,56532,1,0,0:0:0:0:
256,192,56583,1,0,0:0:0:0:
256,192,56684,1,0,0:0:0:0:
256,192,56785,1,8,0:0:0:0:
256,192,56886,1,0,0:0:0:0:
256,192,56987,1,8,0:0:0:0:
256,192,57089,1,8,0:0:0:0:
256,192,57190,1,0,0:0:0:0:
256,192,57291,1,8,0:0:0:0:
256,192,57392,1,0,0:0:0:0:
256,192,57493,1,8,0:0:0:0:
256,192,57527,1,8,0:0:0:0:
256,192,57561,1,8,0:0:0:0:
256,192,57595,1,0,0:0:0:0:
256,192,57696,1,8,0:0:0:0:
256,192,57729,1,8,0:0:0:0:
256,192,57763,1,8,0:0:0:0:
256,192,57797,1,0,0:0:0:0:
256,192,57848,1,0,0:0:0:0:
256,192,57898,1,8,0:0:0:0:
256,192,57949,1,8,0:0:0:0:
256,192,57999,1,0,0:0:0:0:
256,192,58033,1,0,0:0:0:0:
256,192,58067,1,0,0:0:0:0:
256,192,58100,1,8,0:0:0:0:
256,192,58151,1,8,0:0:0:0:
256,192,58202,1,0,0:0:0:0:
256,192,58303,1,0,0:0:0:0:
256,192,58404,1,8,0:0:0:0:
256,192,58505,1,0,0:0:0:0:
256,192,58606,1,8,0:0:0:0:
256,192,58708,1,8,0:0:0:0:
256,192,58809,1,0,0:0:0:0:
256,192,58910,1,8,0:0:0:0:
256,192,59011,1,0,0:0:0:0:
256,192,59079,1,0,0:0:0:0:
256,192,59146,1,0,0:0:0:0:
256,192,59213,1,8,0:0:0:0:
256,192,59281,1,8,0:0:0:0:
256,192,59348,1,8,0:0:0:0:
256,192,59416,1,0,0:0:0:0:
256,192,59551,1,0,0:0:0:0:
256,192,59686,1,0,0:0:0:0:
256,192,59821,1,4,0:0:0:0:
256,192,59922,1,8,0:0:0:0:
256,192,59972,1,8,0:0:0:0:
256,192,60023,1,0,0:0:0:0:
256,192,60124,1,8,0:0:0:0:
256,192,60225,1,0,0:0:0:0:
256,192,60276,1,0,0:0:0:0:
256,192,60326,1,0,0:0:0:0:
256,192,60377,1,0,0:0:0:0:
256,192,60428,1,8,0:0:0:0:
256,192,60529,1,0,0:0:0:0:
256,192,60630,1,8,0:0:0:0:
256,192,60681,1,0,0:0:0:0:
256,192,60731,1,0,0:0:0:0:
256,192,60832,1,8,0:0:0:0:
256,192,60883,1,0,0:0:0:0:
256,192,60934,1,0,0:0:0:0:
256,192,61035,1,12,0:0:0:0:
256,192,61439,1,4,0:0:0:0:
256,192,61642,1,8,0:0:0:0:
256,192,61844,1,4,0:0:0:0:
256,192,62047,1,8,0:0:0:0:
256,192,62249,1,4,0:0:0:0:
256,192,62451,1,8,0:0:0:0:
256,192,62552,1,8,0:0:0:0:
256,192,62654,1,4,0:0:0:0:
256,192,62856,1,8,0:0:0:0:
256,192,63058,1,4,0:0:0:0:
256,192,63261,1,8,0:0:0:0:
256,192,63463,1,4,0:0:0:0:
256,192,63665,1,8,0:0:0:0:
256,192,63868,1,4,0:0:0:0:
256,192,64070,1,8,0:0:0:0:
256,192,64272,1,8,0:0:0:0:
256,192,64374,1,8,0:0:0:0:
256,192,64475,1,0,0:0:0:0:
256,192,64576,1,0,0:0:0:0:
256,192,64677,1,8,0:0:0:0:
256,192,64711,1,8,0:0:0:0:
256,192,64745,1,0,0:0:0:0:
256,192,64778,1,0,0:0:0:0:
256,192,64981,1,0,0:0:0:0:
256,192,65082,1,8,0:0:0:0:
256,192,65284,1,0,0:0:0:0:
256,192,65487,1,8,0:0:0:0:
256,192,65512,1,8,0:0:0:0:
256,192,65689,1,8,0:0:0:0:
256,192,65714,1,8,0:0:0:0:
256,192,65891,1,0,0:0:0:0:
256,192,65917,1,0,0:0:0:0:
256,192,66094,1,8,0:0:0:0:
256,192,66119,1,8,0:0:0:0:
256,192,66296,1,0,0:0:0:0:
256,192,66321,1,0,0:0:0:0:
256,192,66498,1,8,0:0:0:0:
256,192,66524,1,8,0:0:0:0:
256,192,66701,1,0,0:0:0:0:
256,192,66726,1,0,0:0:0:0:
256,192,66903,1,8,0:0:0:0:
256,192,66928,1,8,0:0:0:0:
256,192,67004,1,8,0:0:0:0:
256,192,67106,1,0,0:0:0:0:
256,192,67131,1,0,0:0:0:0:
256,192,67207,1,0,0:0:0:0:
256,192,67308,1,8,0:0:0:0:
256,192,67409,1,8,0:0:0:0:
256,192,67510,1,0,0:0:0:0:
256,192,67578,1,0,0:0:0:0:
256,192,67645,1,0,0:0:0:0:
256,192,67713,1,8,0:0:0:0:
256,192,67915,1,4,0:0:0:0:
256,192,68117,1,8,0:0:0:0:
256,192,68320,1,4,0:0:0:0:
256,192,68522,1,8,0:0:0:0:
256,192,68623,1,8,0:0:0:0:
256,192,68724,1,4,0:0:0:0:
256,192,68927,1,8,0:0:0:0:
256,192,69129,1,4,0:0:0:0:
256,192,69332,1,8,0:0:0:0:
256,192,69534,1,4,0:0:0:0:
256,192,69736,1,8,0:0:0:0:
256,192,69939,1,4,0:0:0:0:
256,192,70040,1,8,0:0:0:0:
256,192,70141,1,8,0:0:0:0:
256,192,70343,1,4,0:0:0:0:
256,192,70546,1,8,0:0:0:0:
256,192,70647,1,8,0:0:0:0:
256,192,70748,1,0,0:0:0:0:
256,192,70849,1,0,0:0:0:0:
256,192,70950,1,8,0:0:0:0:
256,192,71153,1,8,0:0:0:0:
256,192,71186,1,8,0:0:0:0:
256,192,71220,1,0,0:0:0:0:
256,192,71254,1,0,0:0:0:0:
256,192,71456,1,0,0:0:0:0:
256,192,71557,1,8,0:0:0:0:
256,192,71760,1,0,0:0:0:0:
256,192,71962,1,8,0:0:0:0:
256,192,71987,1,8,0:0:0:0:
256,192,72165,1,8,0:0:0:0:
256,192,72190,1,8,0:0:0:0:
256,192,72367,1,0,0:0:0:0:
256,192,72392,1,0,0:0:0:0:
256,192,72569,1,8,0:0:0:0:
256,192,72595,1,8,0:0:0:0:
256,192,72772,1,0,0:0:0:0:
256,192,72797,1,0,0:0:0:0:
256,192,72873,1,8,0:0:0:0:
256,192,72974,1,8,0:0:0:0:
256,192,73075,1,0,0:0:0:0:
256,192,73100,1,0,0:0:0:0:
256,192,73176,1,8,0:0:0:0:
256,192,73278,1,0,0:0:0:0:
256,192,73303,1,0,0:0:0:0:
256,192,73379,1,8,0:0:0:0:
256,192,73480,1,0,0:0:0:0:
256,192,73505,1,0,0:0:0:0:
256,192,73581,1,12,0:0:0:0:
256,192,73783,1,4,0:0:0:0:
256,192,74391,1,0,0:0:0:0:
256,192,74492,1,0,0:0:0:0:
256,192,74593,1,8,0:0:0:0:
256,192,74795,1,0,0:0:0:0:
256,192,74998,1,8,0:0:0:0:
256,192,75200,1,0,0:0:0:0:
256,192,75301,1,0,0:0:0:0:
256,192,75402,1,8,0:0:0:0:
256,192,75605,1,0,0:0:0:0:
256,192,75706,1,8,0:0:0:0:
256,192,75807,1,8,0:0:0:0:
256,192,76009,1,0,0:0:0:0:
256,192,76111,1,8,0:0:0:0:
256,192,76212,1,8,0:0:0:0:
256,192,76313,1,0,0:0:0:0:
256,192,76414,1,8,0:0:0:0:
256,192,76515,1,8,0:0:0:0:
256,192,76616,1,0,0:0:0:0:
256,192,76718,1,8,0:0:0:0:
256,192,76819,8,0,80664,0:0:0:0:
256,192,80866,5,0,0:0:0:0:
256,192,80967,1,8,0:0:0:0:
256,192,81068,1,8,0:0:0:0:
256,192,81271,1,0,0:0:0:0:
256,192,81473,1,8,0:0:0:0:
256,192,81574,1,0,0:0:0:0:
256,192,81777,1,8,0:0:0:0:
256,192,81878,1,0,0:0:0:0:
256,192,81979,1,0,0:0:0:0:
256,192,82080,1,8,0:0:0:0:
256,192,82181,1,0,0:0:0:0:
256,192,82283,1,8,0:0:0:0:
256,192,82384,1,8,0:0:0:0:
256,192,82485,1,8,0:0:0:0:
256,192,82586,1,0,0:0:0:0:
256,192,82687,1,8,0:0:0:0:
256,192,82789,1,0,0:0:0:0:
256,192,82890,1,8,0:0:0:0:
256,192,82940,1,8,0:0:0:0:
256,192,82991,1,0,0:0:0:0:
256,192,83092,1,8,0:0:0:0:
256,192,83143,1,8,0:0:0:0:
256,192,83193,1,0,0:0:0:0:
256,192,83294,1,8,0:0:0:0:
256,192,83345,1,8,0:0:0:0:
256,192,83396,1,0,0:0:0:0:
256,192,83446,1,0,0:0:0:0:
256,192,83497,1,8,0:0:0:0:
256,192,83547,1,8,0:0:0:0:
256,192,83598,1,0,0:0:0:0:
256,192,83649,1,0,0:0:0:0:
256,192,83699,1,12,0:0:0:0:
256,192,84104,1,0,0:0:0:0:
256,192,84205,1,8,0:0:0:0:
256,192,84256,1,8,0:0:0:0:
256,192,84306,1,0,0:0:0:0:
256,192,84407,1,8,0:0:0:0:
256,192,84458,1,8,0:0:0:0:
256,192,84509,1,0,0:0:0:0:
256,192,84610,1,8,0:0:0:0:
256,192,84660,1,0,0:0:0:0:
256,192,84711,1,0,0:0:0:0:
256,192,84812,1,8,0:0:0:0:
256,192,84913,1,0,0:0:0:0:
256,192,85014,1,8,0:0:0:0:
256,192,85065,1,8,0:0:0:0:
256,192,85116,1,0,0:0:0:0:
256,192,85166,1,0,0:0:0:0:
256,192,85217,1,8,0:0:0:0:
256,192,85318,1,0,0:0:0:0:
256,192,85419,1,8,0:0:0:0:
256,192,85470,1,8,0:0:0:0:
256,192,85520,1,0,0:0:0:0:
256,192,85571,1,8,0:0:0:0:
256,192,85622,1,0,0:0:0:0:
256,192,85672,1,0,0:0:0:0:
256,192,85723,1,8,0:0:0:0:
256,192,85824,1,0,0:0:0:0:
256,192,85875,1,8,0:0:0:0:
256,192,85925,1,0,0:0:0:0:
256,192,86026,1,8,0:0:0:0:
256,192,86127,1,0,0:0:0:0:
256,192,86229,1,8,0:0:0:0:
256,192,86279,1,8,0:0:0:0:
256,192,86330,1,0,0:0:0:0:
256,192,86364,1,8,0:0:0:0:
256,192,86397,1,8,0:0:0:0:
256,192,86431,1,0,0:0:0:0:
256,192,86482,1,8,0:0:0:0:
256,192,86532,1,0,0:0:0:0:
256,192,86633,1,8,0:0:0:0:
256,192,86684,1,8,0:0:0:0:
256,192,86735,1,0,0:0:0:0:
256,192,86836,1,8,0:0:0:0:
256,192,86937,1,0,0:0:0:0:
256,192,86987,1,0,0:0:0:0:
256,192,87038,1,0,0:0:0:0:
256,192,87089,1,0,0:0:0:0:
256,192,87139,1,8,0:0:0:0:
256,192,87190,1,8,0:0:0:0:
256,192,87240,1,8,0:0:0:0:
256,192,87342,1,0,0:0:0:0:
256,192,87477,1,0,0:0:0:0:
256,192,87544,1,8,0:0:0:0:
256,192,87746,1,0,0:0:0:0:
256,192,87949,1,8,0:0:0:0:
256,192,88016,1,8,0:0:0:0:
256,192,88084,1,8,0:0:0:0:
256,192,88151,1,0,0:0:0:0:
256,192,88286,1,8,0:0:0:0:
256,192,88353,1,0,0:0:0:0:
256,192,88488,1,8,0:0:0:0:
256,192,88556,1,0,0:0:0:0:
256,192,88691,1,0,0:0:0:0:
256,192,88758,1,8,0:0:0:0:
256,192,88893,1,8,0:0:0:0:
256,192,88961,1,0,0:0:0:0:
256,192,89062,1,0,0:0:0:0:
256,192,89163,1,8,0:0:0:0:
256,192,89365,1,8,0:0:0:0:
256,192,89500,1,8,0:0:0:0:
256,192,89568,1,8,0:0:0:0:
256,192,89703,1,8,0:0:0:0:
256,192,89770,1,0,0:0:0:0:
256,192,89905,1,8,0:0:0:0:
256,192,89972,1,0,0:0:0:0:
256,192,90039,1,0,0:0:0:0:
256,192,90107,1,0,0:0:0:0:
256,192,90174,1,8,0:0:0:0:
256,192,90377,1,8,0:0:0:0:
256,192,90579,1,4,0:0:0:0:
256,192,90782,1,8,0:0:0:0:
256,192,90883,1,0,0:0:0:0:
256,192,91085,1,0,0:0:0:0:
256,192,91136,1,0,0:0:0:0:
256,192,91186,1,8,0:0:0:0:
256,192,91288,1,8,0:0:0:0:
256,192,91389,1,0,0:0:0:0:
256,192,91490,1,0,0:0:0:0:
256,192,91541,1,0,0:0:0:0:
256,192,91591,1,8,0:0:0:0:
256,192,91692,1,0,0:0:0:0:
256,192,91794,1,8,0:0:0:0:
256,192,91895,1,8,0:0:0:0:
256,192,91945,1,0,0:0:0:0:
256,192,91996,1,8,0:0:0:0:
256,192,92097,1,0,0:0:0:0:
256,192,92198,1,0,0:0:0:0:
256,192,92401,1,8,0:0:0:0:
256,192,92502,1,0,0:0:0:0:
256,192,92704,1,0,0:0:0:0:
256,192,92755,1,0,0:0:0:0:
256,192,92805,1,8,0:0:0:0:
256,192,92907,1,8,0:0:0:0:
256,192,93008,1,0,0:0:0:0:
256,192,93109,1,8,0:0:0:0:
256,192,93159,1,8,0:0:0:0:
256,192,93210,1,0,0:0:0:0:
256,192,93261,1,8,0:0:0:0:
256,192,93311,1,8,0:0:0:0:
256,192,93412,1,0,0:0:0:0:
256,192,93514,1,8,0:0:0:0:
256,192,93564,1,8,0:0:0:0:
256,192,93615,1,0,0:0:0:0:
256,192,93649,1,0,0:0:0:0:
256,192,93682,1,0,0:0:0:0:
256,192,93716,1,8,0:0:0:0:
256,192,93817,1,4,0:0:0:0:
256,192,94222,1,8,0:0:0:0:
256,192,94424,1,8,0:0:0:0:
256,192,94525,1,8,0:0:0:0:
256,192,94728,1,8,0:0:0:0:
256,192,94829,1,8,0:0:0:0:
256,192,95031,1,8,0:0:0:0:
256,192,95082,1,0,0:0:0:0:
256,192,95133,1,0,0:0:0:0:
256,192,95234,1,8,0:0:0:0:
256,192,95436,1,0,0:0:0:0:
256,192,95638,1,0,0:0:0:0:
256,192,95841,1,8,0:0:0:0:
256,192,96043,1,0,0:0:0:0:
256,192,96144,1,8,0:0:0:0:
256,192,96347,1,0,0:0:0:0:
256,192,96448,1,8,0:0:0:0:
256,192,96650,1,8,0:0:0:0:
256,192,96701,1,8,0:0:0:0:
256,192,96751,1,8,0:0:0:0:
256,192,96853,1,8,0:0:0:0:
256,192,97055,1,0,0:0:0:0:
256,192,97156,1,8,0:0:0:0:
256,192,97190,1,8,0:0:0:0:
256,192,97224,1,8,0:0:0:0:
256,192,97257,1,0,0:0:0:0:
256,192,97308,1,0,0:0:0:0:
256,192,97358,1,8,0:0:0:0:
256,192,97409,1,8,0:0:0:0:
256,192,97460,1,0,0:0:0:0:
256,192,97561,1,8,0:0:0:0:
256,192,97611,1,8,0:0:0:0:
256,192,97662,1,0,0:0:0:0:
256,192,97763,1,8,0:0:0:0:
256,192,97864,1,0,0:0:0:0:
256,192,97966,1,0,0:0:0:0:
256,192,98016,1,0,0:0:0:0:
256,192,98067,1,8,0:0:0:0:
256,192,98168,1,0,0:0:0:0:
256,192,98269,1,8,0:0:0:0:
256,192,98303,1,8,0:0:0:0:
256,192,98337,1,0,0:0:0:0:
256,192,98370,1,0,0:0:0:0:
256,192,98421,1,8,0:0:0:0:
256,192,98455,1,8,0:0:0:0:
256,192,98489,1,0,0:0:0:0:
256,192,98522,1,0,0:0:0:0:
256,192,98573,1,8,0:0:0:0:
256,192,98674,1,4,0:0:0:0:
256,192,99079,1,0,0:0:0:0:
256,192,99180,1,8,0:0:0:0:
256,192,99382,1,8,0:0:0:0:
256,192,99483,1,8,0:0:0:0:
256,192,99888,1,12,0:0:0:0:
256,192,100293,1,0,0:0:0:0:
256,192,100394,1,0,0:0:0:0:
256,192,100495,1,0,0:0:0:0:
256,192,100596,1,8,0:0:0:0:
256,192,100697,1,0,0:0:0:0:
256,192,100799,1,8,0:0:0:0:
256,192,100849,1,8,0:0:0:0:
256,192,100900,1,0,0:0:0:0:
256,192,101001,1,0,0:0:0:0:
256,192,101102,1,8,0:0:0:0:
256,192,101912,1,0,0:0:0:0:
256,192,102316,1,0,0:0:0:0:
256,192,102519,1,0,0:0:0:0:
256,192,102721,1,8,0:0:0:0:
256,192,102923,1,8,0:0:0:0:
256,192,103025,1,8,0:0:0:0:
256,192,103126,1,8,0:0:0:0:
256,192,103151,1,8,0:0:0:0:
256,192,103227,1,8,0:0:0:0:
256,192,103252,1,8,0:0:0:0:
256,192,103328,1,8,0:0:0:0:
256,192,103353,1,8,0:0:0:0:
256,192,103429,1,8,0:0:0:0:
256,192,103455,1,8,0:0:0:0:
256,192,103530,1,0,0:0:0:0:
256,192,104340,1,8,0:0:0:0:
256,192,104441,1,8,0:0:0:0:
256,192,104542,1,0,0:0:0:0:
256,192,104643,1,0,0:0:0:0:
256,192,104846,1,0,0:0:0:0:
256,192,104947,1,8,0:0:0:0:
256,192,105048,1,8,0:0:0:0:
256,192,105149,1,0,0:0:0:0:
256,192,105554,1,8,0:0:0:0:
256,192,105655,1,8,0:0:0:0:
256,192,105756,1,0,0:0:0:0:
256,192,105858,1,0,0:0:0:0:
256,192,105959,1,8,0:0:0:0:
256,192,106060,1,0,0:0:0:0:
256,192,106111,1,0,0:0:0:0:
256,192,106161,1,0,0:0:0:0:
256,192,106262,1,8,0:0:0:0:
256,192,106364,1,0,0:0:0:0:
256,192,106414,1,0,0:0:0:0:
256,192,106465,1,0,0:0:0:0:
256,192,106566,1,8,0:0:0:0:
256,192,106667,1,0,0:0:0:0:
256,192,106768,1,4,0:0:0:0:
256,192,107578,1,8,0:0:0:0:
256,192,107679,1,0,0:0:0:0:
256,192,107780,1,0,0:0:0:0:
256,192,107881,1,8,0:0:0:0:
256,192,108084,1,8,0:0:0:0:
256,192,108185,1,0,0:0:0:0:
256,192,108286,1,8,0:0:0:0:
256,192,108337,1,8,0:0:0:0:
256,192,108387,1,4,0:0:0:0:
256,192,108691,1,8,0:0:0:0:
256,192,108994,1,8,0:0:0:0:
256,192,109197,1,8,0:0:0:0:
256,192,109399,1,0,0:0:0:0:
256,192,109500,1,8,0:0:0:0:
256,192,109601,1,0,0:0:0:0:
256,192,109703,1,8,0:0:0:0:
256,192,109753,1,8,0:0:0:0:
256,192,109804,1,8,0:0:0:0:
256,192,109905,1,8,0:0:0:0:
256,192,110006,1,4,0:0:0:0:
256,192,110107,1,0,0:0:0:0:
256,192,110208,1,8,0:0:0:0:
256,192,110310,1,0,0:0:0:0:
256,192,110411,1,8,0:0:0:0:
256,192,110512,1,8,0:0:0:0:
256,192,110613,1,0,0:0:0:0:
256,192,110714,1,8,0:0:0:0:
256,192,110815,1,0,0:0:0:0:
256,192,111018,1,8,0:0:0:0:
256,192,111119,1,8,0:0:0:0:
256,192,111220,1,0,0:0:0:0:
256,192,111254,1,0,0:0:0:0:
256,192,111288,1,0,0:0:0:0:
256,192,111321,1,0,0:0:0:0:
256,192,111625,1,4,0:0:0:0:
256,192,111726,1,0,0:0:0:0:
256,192,111827,1,8,0:0:0:0:
256,192,111928,1,0,0:0:0:0:
256,192,112030,1,8,0:0:0:0:
256,192,112063,1,8,0:0:0:0:
256,192,112097,1,8,0:0:0:0:
256,192,112131,1,0,0:0:0:0:
256,192,112232,1,8,0:0:0:0:
256,192,112434,1,8,0:0:0:0:
256,192,112536,1,0,0:0:0:0:
256,192,112586,1,0,0:0:0:0:
256,192,112637,1,0,0:0:0:0:
256,192,112738,1,8,0:0:0:0:
256,192,112839,1,0,0:0:0:0:
256,192,112890,1,0,0:0:0:0:
256,192,112940,1,8,0:0:0:0:
256,192,113041,1,8,0:0:0:0:
256,192,113143,1,0,0:0:0:0:
256,192,113244,1,4,0:0:0:0:
256,192,113345,1,8,0:0:0:0:
256,192,113396,1,8,0:0:0:0:
256,192,113446,1,0,0:0:0:0:
256,192,113497,1,0,0:0:0:0:
256,192,113547,1,8,0:0:0:0:
256,192,113598,1,0,0:0:0:0:
256,192,113649,1,8,0:0:0:0:
256,192,113750,1,0,0:0:0:0:
256,192,113800,1,8,0:0:0:0:
256,192,113851,1,0,0:0:0:0:
256,192,113952,1,8,0:0:0:0:
256,192,114053,1,0,0:0:0:0:
256,192,114087,1,0,0:0:0:0:
256,192,114121,1,0,0:0:0:0:
256,192,114154,1,8,0:0:0:0:
256,192,114205,1,8,0:0:0:0:
256,192,114256,1,0,0:0:0:0:
256,192,114357,1,8,0:0:0:0:
256,192,114458,1,0,0:0:0:0:
256,192,114509,1,0,0:0:0:0:
256,192,114559,1,8,0:0:0:0:
256,192,114610,1,0,0:0:0:0:
256,192,114660,1,8,0:0:0:0:
256,192,114711,1,8,0:0:0:0:
256,192,114762,1,0,0:0:0:0:
256,192,114863,1,8,0:0:0:0:
256,192,114896,1,8,0:0:0:0:
256,192,114930,1,8,0:0:0:0:
256,192,114964,1,0,0:0:0:0:
256,192,115014,1,0,0:0:0:0:
256,192,115065,1,8,0:0:0:0:
256,192,115116,1,8,0:0:0:0:
256,192,115166,1,0,0:0:0:0:
256,192,115200,1,0,0:0:0:0:
256,192,115234,1,0,0:0:0:0:
256,192,115267,1,8,0:0:0:0:
256,192,115369,1,0,0:0:0:0:
256,192,115470,1,8,0:0:0:0:
256,192,115571,1,0,0:0:0:0:
256,192,115672,1,8,0:0:0:0:
256,192,115723,1,8,0:0:0:0:
256,192,115773,1,0,0:0:0:0:
256,192,115875,1,0,0:0:0:0:
256,192,115976,1,8,0:0:0:0:
256,192,116026,1,8,0:0:0:0:
256,192,116077,1,0,0:0:0:0:
256,192,116178,1,8,0:0:0:0:
256,192,116279,1,0,0:0:0:0:
256,192,116313,1,8,0:0:0:0:
256,192,116347,1,8,0:0:0:0:
256,192,116380,1,0,0:0:0:0:
256,192,116482,1,8,0:0:0:0:
256,192,116583,1,0,0:0:0:0:
256,192,116684,1,8,0:0:0:0:
256,192,116735,1,8,0:0:0:0:
256,192,116785,1,0,0:0:0:0:
256,192,116886,1,8,0:0:0:0:
256,192,116987,1,0,0:0:0:0:
256,192,117089,1,8,0:0:0:0:
256,192,117139,1,0,0:0:0:0:
256,192,117190,1,0,0:0:0:0:
256,192,117291,1,8,0:0:0:0:
256,192,117392,1,0,0:0:0:0:
256,192,117493,1,8,0:0:0:0:
256,192,117544,1,8,0:0:0:0:
256,192,117595,1,0,0:0:0:0:
256,192,117696,1,8,0:0:0:0:
256,192,117797,1,0,0:0:0:0:
256,192,117898,1,8,0:0:0:0:
256,192,117949,1,0,0:0:0:0:
256,192,117999,1,0,0:0:0:0:
256,192,118100,1,8,0:0:0:0:
256,192,118151,1,8,0:0:0:0:
256,192,118202,1,0,0:0:0:0:
256,192,118303,1,0,0:0:0:0:
256,192,118404,1,8,0:0:0:0:
256,192,118455,1,0,0:0:0:0:
256,192,118505,1,8,0:0:0:0:
256,192,118606,1,0,0:0:0:0:
256,192,118708,1,8,0:0:0:0:
256,192,118809,1,0,0:0:0:0:
256,192,118910,1,8,0:0:0:0:
256,192,118944,1,8,0:0:0:0:
256,192,118977,1,8,0:0:0:0:
256,192,119011,1,0,0:0:0:0:
256,192,119062,1,0,0:0:0:0:
256,192,119112,1,8,0:0:0:0:
256,192,119146,1,8,0:0:0:0:
256,192,119180,1,8,0:0:0:0:
256,192,119213,1,0,0:0:0:0:
256,192,119315,1,8,0:0:0:0:
256,192,119365,1,8,0:0:0:0:
256,192,119416,1,0,0:0:0:0:
256,192,119466,1,8,0:0:0:0:
256,192,119517,1,0,0:0:0:0:
256,192,119551,1,0,0:0:0:0:
256,192,119584,1,0,0:0:0:0:
256,192,119618,1,8,0:0:0:0:
256,192,119719,1,0,0:0:0:0:
256,192,119821,1,0,0:0:0:0:
256,192,119922,1,8,0:0:0:0:
256,192,120023,1,8,0:0:0:0:
256,192,120124,1,0,0:0:0:0:
256,192,120175,1,0,0:0:0:0:
256,192,120225,1,0,0:0:0:0:
256,192,120326,1,8,0:0:0:0:
256,192,120428,1,0,0:0:0:0:
256,192,120529,1,0,0:0:0:0:
256,192,120579,1,0,0:0:0:0:
256,192,120630,1,8,0:0:0:0:
256,192,120731,1,8,0:0:0:0:
256,192,120832,1,0,0:0:0:0:
256,192,120934,1,8,0:0:0:0:
256,192,120984,1,0,0:0:0:0:
256,192,121035,1,8,0:0:0:0:
256,192,121085,1,8,0:0:0:0:
256,192,121136,1,0,0:0:0:0:
256,192,121237,1,8,0:0:0:0:
256,192,121338,1,0,0:0:0:0:
256,192,121389,1,0,0:0:0:0:
256,192,121439,1,0,0:0:0:0:
256,192,121541,1,8,0:0:0:0:
256,192,121642,1,0,0:0:0:0:
256,192,121692,1,0,0:0:0:0:
256,192,121743,1,0,0:0:0:0:
256,192,121844,1,8,0:0:0:0:
256,192,121945,1,0,0:0:0:0:
256,192,121996,1,0,0:0:0:0:
256,192,122047,1,8,0:0:0:0:
256,192,122148,1,0,0:0:0:0:
256,192,122198,1,0,0:0:0:0:
256,192,122249,1,8,0:0:0:0:
256,192,122299,1,0,0:0:0:0:
256,192,122350,1,8,0:0:0:0:
256,192,122401,1,8,0:0:0:0:
256,192,122451,1,0,0:0:0:0:
256,192,122502,1,8,0:0:0:0:
256,192,122552,1,0,0:0:0:0:
256,192,122603,1,0,0:0:0:0:
256,192,122654,1,8,0:0:0:0:
256,192,122704,1,8,0:0:0:0:
256,192,122755,1,0,0:0:0:0:
256,192,122856,1,8,0:0:0:0:
256,192,122957,1,4,0:0:0:0:
256,192,123058,1,4,0:0:0:0:
256,192,123159,1,4,0:0:0:0:
256,192,123261,1,4,0:0:0:0:
256,192,123362,1,8,0:0:0:0:
256,192,123767,1,4,0:0:0:0:
256,192,123868,1,4,0:0:0:0:
256,192,123969,1,4,0:0:0:0:
256,192,124171,1,8,0:0:0:0:
256,192,124576,1,4,0:0:0:0:
256,192,124677,1,0,0:0:0:0:
256,192,124728,1,0,0:0:0:0:
256,192,124778,1,0,0:0:0:0:
256,192,124880,1,8,0:0:0:0:
256,192,124981,1,0,0:0:0:0:
256,192,125031,1,8,0:0:0:0:
256,192,125082,1,0,0:0:0:0:
256,192,125183,1,8,0:0:0:0:
256,192,125234,1,8,0:0:0:0:
256,192,125284,1,0,0:0:0:0:
256,192,125385,1,8,0:0:0:0:
256,192,125436,1,8,0:0:0:0:
256,192,125487,1,0,0:0:0:0:
256,192,125537,1,8,0:0:0:0:
256,192,125588,1,0,0:0:0:0:
256,192,125638,1,0,0:0:0:0:
256,192,125689,1,8,0:0:0:0:
256,192,125740,1,8,0:0:0:0:
256,192,125790,1,0,0:0:0:0:
256,192,125841,1,8,0:0:0:0:
256,192,125891,1,8,0:0:0:0:
256,192,125942,1,8,0:0:0:0:
256,192,125993,1,0,0:0:0:0:
256,192,129433,1,0,0:0:0:0:
256,192,129534,1,0,0:0:0:0:
256,192,129635,1,0,0:0:0:0:
256,192,129736,1,0,0:0:0:0:
256,192,129837,1,8,0:0:0:0:
256,192,129939,1,8,0:0:0:0:
256,192,130040,1,0,0:0:0:0:
256,192,130141,1,8,0:0:0:0:
256,192,130343,1,0,0:0:0:0:
256,192,130444,1,8,0:0:0:0:
256,192,130546,1,8,0:0:0:0:
256,192,130647,1,0,0:0:0:0:
256,192,130849,1,8,0:0:0:0:
256,192,131052,1,0,0:0:0:0:
256,192,131254,1,8,0:0:0:0:
256,192,131355,1,0,0:0:0:0:
256,192,131557,1,8,0:0:0:0:
256,192,131659,1,8,0:0:0:0:
256,192,131760,1,8,0:0:0:0:
256,192,131861,1,0,0:0:0:0:
256,192,131962,1,0,0:0:0:0:
256,192,132063,1,8,0:0:0:0:
256,192,132165,1,8,0:0:0:0:
256,192,132266,1,0,0:0:0:0:
256,192,132367,1,0,0:0:0:0:
256,192,132468,1,8,0:0:0:0:
256,192,132569,1,0,0:0:0:0:
256,192,132670,1,8,0:0:0:0:
256,192,132772,1,8,0:0:0:0:
256,192,132873,1,8,0:0:0:0:
256,192,132974,1,0,0:0:0:0:
256,192,133176,1,0,0:0:0:0:
256,192,133379,1,8,0:0:0:0:
256,192,133682,1,8,0:0:0:0:
256,192,133885,1,0,0:0:0:0:
256,192,134087,1,8,0:0:0:0:
256,192,134289,1,0,0:0:0:0:
256,192,134391,1,8,0:0:0:0:
256,192,134593,1,0,0:0:0:0:
256,192,134694,1,8,0:0:0:0:
256,192,134795,1,0,0:0:0:0:
256,192,134896,1,0,0:0:0:0:
256,192,134998,1,8,0:0:0:0:
256,192,135200,1,0,0:0:0:0:
256,192,135301,1,8,0:0:0:0:
256,192,135402,1,8,0:0:0:0:
256,192,135504,1,0,0:0:0:0:
256,192,135605,1,0,0:0:0:0:
256,192,135706,1,0,0:0:0:0:
256,192,135807,1,8,0:0:0:0:
256,192,135908,1,0,0:0:0:0:
256,192,136009,1,0,0:0:0:0:
256,192,136111,1,0,0:0:0:0:
256,192,136212,1,0,0:0:0:0:
256,192,136313,1,8,0:0:0:0:
256,192,136414,1,0,0:0:0:0:
256,192,136515,1,8,0:0:0:0:
256,192,136616,1,8,0:0:0:0:
256,192,136819,1,0,0:0:0:0:
256,192,136920,1,8,0:0:0:0:
256,192,137122,1,0,0:0:0:0:
256,192,137325,1,8,0:0:0:0:
256,192,137527,1,0,0:0:0:0:
256,192,137729,1,8,0:0:0:0:
256,192,137831,1,0,0:0:0:0:
256,192,138134,1,8,0:0:0:0:
256,192,138202,1,8,0:0:0:0:
256,192,138269,1,8,0:0:0:0:
256,192,138337,1,0,0:0:0:0:
256,192,138404,1,0,0:0:0:0:
256,192,138471,1,0,0:0:0:0:
256,192,138539,1,8,0:0:0:0:
256,192,138606,1,8,0:0:0:0:
256,192,138674,1,8,0:0:0:0:
256,192,138741,1,0,0:0:0:0:
256,192,138809,1,0,0:0:0:0:
256,192,138876,1,8,0:0:0:0:
256,192,138944,1,0,0:0:0:0:
256,192,139011,1,8,0:0:0:0:
256,192,139079,1,8,0:0:0:0:
256,192,139146,1,4,0:0:0:0:
256,192,139348,1,4,0:0:0:0:
256,192,139551,1,8,0:0:0:0:
256,192,139652,1,8,0:0:0:0:
256,192,139753,1,0,0:0:0:0:
256,192,139854,1,8,0:0:0:0:
256,192,139955,1,4,0:0:0:0:
256,192,140158,1,4,0:0:0:0:
256,192,140360,1,0,0:0:0:0:
256,192,140461,1,0,0:0:0:0:
256,192,140563,1,8,0:0:0:0:
256,192,140664,1,0,0:0:0:0:
256,192,140765,1,12,0:0:0:0:
256,192,140967,1,12,0:0:0:0:
256,192,141170,1,0,0:0:0:0:
256,192,141271,1,8,0:0:0:0:
256,192,141372,1,8,0:0:0:0:
256,192,141473,1,0,0:0:0:0:
256,192,141574,1,4,0:0:0:0:
256,192,141777,1,4,0:0:0:0:
256,192,141979,1,8,0:0:0:0:
256,192,142030,1,8,0:0:0:0:
256,192,142080,1,8,0:0:0:0:
256,192,142131,1,8,0:0:0:0:
256,192,142181,1,8,0:0:0:0:
256,192,142232,1,8,0:0:0:0:
256,192,142283,1,8,0:0:0:0:
256,192,142333,1,8,0:0:0:0:
256,192,142384,8,0,146431,0:0:0:0:
256,192,149062,5,0,0:0:0:0:
256,192,149264,1,8,0:0:0:0:
256,192,149466,1,8,0:0:0:0:
256,192,149669,1,0,0:0:0:0:
256,192,149719,1,0,0:0:0:0:
256,192,149770,1,0,0:0:0:0:
256,192,149821,1,0,0:0:0:0:
256,192,149871,1,8,0:0:0:0:
256,192,149922,1,8,0:0:0:0:
256,192,149972,1,0,0:0:0:0:
256,192,150023,1,0,0:0:0:0:
256,192,150073,1,8,0:0:0:0:
256,192,150124,1,0,0:0:0:0:
256,192,150175,1,8,0:0:0:0:
256,192,150225,1,8,0:0:0:0:
256,192,150276,1,0,0:0:0:0:
256,192,150478,1,4,0:0:0:0:
256,192,150681,1,0,0:0:0:0:
256,192,150883,1,8,0:0:0:0:
256,192,150934,1,8,0:0:0:0:
256,192,150984,1,8,0:0:0:0:
256,192,151085,1,0,0:0:0:0:
256,192,151186,1,0,0:0:0:0:
256,192,151288,1,8,0:0:0:0:
256,192,151490,1,0,0:0:0:0:
256,192,151895,1,0,0:0:0:0:
256,192,152097,1,8,0:0:0:0:
256,192,152299,1,0,0:0:0:0:
256,192,152401,1,8,0:0:0:0:
256,192,152502,1,0,0:0:0:0:
256,192,152704,1,0,0:0:0:0:
256,192,152907,1,8,0:0:0:0:
256,192,153109,1,8,0:0:0:0:
256,192,153210,1,8,0:0:0:0:
256,192,153412,1,8,0:0:0:0:
256,192,153514,1,0,0:0:0:0:
256,192,153615,1,8,0:0:0:0:
256,192,153716,1,0,0:0:0:0:
256,192,153918,1,0,0:0:0:0:
256,192,154121,1,0,0:0:0:0:
256,192,154222,1,0,0:0:0:0:
256,192,154323,1,8,0:0:0:0:
256,192,154525,1,0,0:0:0:0:
256,192,154627,1,8,0:0:0:0:
256,192,154829,1,8,0:0:0:0:
256,192,154930,1,8,0:0:0:0:
256,192,155031,1,8,0:0:0:0:
256,192,155133,1,0,0:0:0:0:
256,192,155335,1,4,0:0:0:0:
256,192,155537,1,8,0:0:0:0:
256,192,155638,1,4,0:0:0:0:
256,192,155841,1,8,0:0:0:0:
256,192,155942,1,4,0:0:0:0:
256,192,156144,1,8,0:0:0:0:
256,192,156246,1,4,0:0:0:0:
256,192,156448,1,8,0:0:0:0:
256,192,156549,1,4,0:0:0:0:
256,192,156650,1,4,0:0:0:0:
256,192,156751,1,12,0:0:0:0:
256,192,156853,1,12,0:0:0:0:
256,192,156954,1,0,0:0:0:0:
256,192,157156,1,0,0:0:0:0:
256,192,157358,1,8,0:0:0:0:
256,192,157409,1,8,0:0:0:0:
256,192,157460,1,8,0:0:0:0:
256,192,157561,1,8,0:0:0:0:
256,192,157662,1,8,0:0:0:0:
256,192,157763,1,0,0:0:0:0:
256,192,157966,1,0,0:0:0:0:
256,192,158067,1,8,0:0:0:0:
256,192,158269,1,0,0:0:0:0:
256,192,158370,1,8,0:0:0:0:
256,192,158471,1,8,0:0:0:0:
256,192,158573,1,0,0:0:0:0:
256,192,158775,1,8,0:0:0:0:
256,192,158876,1,8,0:0:0:0:
256,192,158977,1,0,0:0:0:0:
256,192,159180,1,8,0:0:0:0:
256,192,159281,1,0,0:0:0:0:
256,192,159382,1,0,0:0:0:0:
256,192,159483,1,8,0:0:0:0:
256,192,159534,1,8,0:0:0:0:
256,192,159584,1,0,0:0:0:0:
256,192,159686,1,8,0:0:0:0:
256,192,159736,1,8,0:0:0:0:
256,192,159787,1,0,0:0:0:0:
256,192,159888,1,0,0:0:0:0:
256,192,159989,1,8,0:0:0:0:
256,192,160090,1,8,0:0:0:0:
256,192,160192,1,0,0:0:0:0:
256,192,160394,1,0,0:0:0:0:
256,192,160596,1,8,0:0:0:0:
256,192,160697,1,8,0:0:0:0:
256,192,160900,1,0,0:0:0:0:
256,192,161001,1,8,0:0:0:0:
256,192,161102,1,8,0:0:0:0:
256,192,161203,1,8,0:0:0:0:
256,192,161406,1,0,0:0:0:0:
256,192,161507,1,0,0:0:0:0:
256,192,161608,1,8,0:0:0:0:
256,192,161810,1,4,0:0:0:0:
256,192,162013,1,8,0:0:0:0:
256,192,162114,1,4,0:0:0:0:
256,192,162316,1,8,0:0:0:0:
256,192,162418,1,4,0:0:0:0:
256,192,162620,1,8,0:0:0:0:
256,192,162721,1,4,0:0:0:0:
256,192,162923,1,8,0:0:0:0:
256,192,163025,1,4,0:0:0:0:
256,192,163126,1,4,0:0:0:0:
256,192,163227,1,12,0:0:0:0:
256,192,163328,1,12,0:0:0:0:
256,192,163429,1,0,0:0:0:0:
256,192,163530,1,0,0:0:0:0:
256,192,163632,1,0,0:0:0:0:
256,192,163834,1,8,0:0:0:0:
256,192,163935,1,0,0:0:0:0:
256,192,164036,1,0,0:0:0:0:
256,192,164138,1,0,0:0:0:0:
256,192,164239,1,8,0:0:0:0:
256,192,164542,1,0,0:0:0:0:
256,192,164745,1,0,0:0:0:0:
256,192,164846,1,8,0:0:0:0:
256,192,164947,1,8,0:0:0:0:
256,192,165048,1,0,0:0:0:0:
256,192,165149,1,8,0:0:0:0:
256,192,165251,1,0,0:0:0:0:
256,192,165453,1,8,0:0:0:0:
256,192,165655,1,0,0:0:0:0:
256,192,165756,1,0,0:0:0:0:
256,192,165858,1,8,0:0:0:0:
256,192,165959,1,8,0:0:0:0:
256,192,166161,1,0,0:0:0:0:
256,192,166364,1,8,0:0:0:0:
256,192,166465,1,8,0:0:0:0:
256,192,166566,1,8,0:0:0:0:
256,192,166667,1,0,0:0:0:0:
256,192,166768,1,8,0:0:0:0:
256,192,166819,1,0,0:0:0:0:
256,192,166869,1,0,0:0:0:0:
256,192,166971,1,0,0:0:0:0:
256,192,167072,1,8,0:0:0:0:
256,192,167274,1,0,0:0:0:0:
256,192,167375,1,0,0:0:0:0:
256,192,167477,1,8,0:0:0:0:
256,192,167679,1,0,0:0:0:0:
256,192,167881,1,0,0:0:0:0:
256,192,167982,1,0,0:0:0:0:
256,192,168084,1,0,0:0:0:0:
256,192,168286,1,8,0:0:0:0:
256,192,168387,1,8,0:0:0:0:
256,192,168488,1,8,0:0:0:0:
256,192,168590,1,8,0:0:0:0:
256,192,168691,1,4,0:0:0:0:
256,192,168893,1,8,0:0:0:0:
256,192,168994,1,8,0:0:0:0:
256,192,169095,1,8,0:0:0:0:
256,192,169197,1,4,0:0:0:0:
256,192,169399,1,8,0:0:0:0:
256,192,169500,1,8,0:0:0:0:
256,192,169601,1,8,0:0:0:0:
256,192,169703,1,4,0:0:0:0:
256,192,169905,1,8,0:0:0:0:
256,192,170006,1,8,0:0:0:0:
256,192,170107,1,8,0:0:0:0:
256,192,170208,1,4,0:0:0:0:
256,192,170411,1,8,0:0:0:0:
256,192,170512,1,8,0:0:0:0:
256,192,170613,1,8,0:0:0:0:
256,192,170714,1,4,0:0:0:0:
256,192,170815,1,4,0:0:0:0:
256,192,170917,1,12,0:0:0:0:
256,192,171018,1,12,0:0:0:0:
256,192,171119,1,0,0:0:0:0:
256,192,171220,1,8,0:0:0:0:
256,192,171271,1,8,0:0:0:0:
256,192,171321,1,0,0:0:0:0:
256,192,171423,1,8,0:0:0:0:
256,192,171524,1,0,0:0:0:0:
256,192,171625,1,0,0:0:0:0:
256,192,171726,1,8,0:0:0:0:
256,192,171827,1,0,0:0:0:0:
256,192,171928,1,8,0:0:0:0:
256,192,172080,1,8,0:0:0:0:
256,192,172232,1,8,0:0:0:0:
256,192,172333,1,0,0:0:0:0:
256,192,172485,1,0,0:0:0:0:
256,192,172637,1,0,0:0:0:0:
256,192,172738,1,0,0:0:0:0:
256,192,172873,1,8,0:0:0:0:
256,192,173008,1,8,0:0:0:0:
256,192,173143,1,0,0:0:0:0:
256,192,173412,1,8,0:0:0:0:
256,192,173547,1,0,0:0:0:0:
256,192,173649,1,0,0:0:0:0:
256,192,173750,1,8,0:0:0:0:
256,192,173952,1,0,0:0:0:0:
256,192,174053,1,0,0:0:0:0:
256,192,174104,1,0,0:0:0:0:
256,192,174154,1,8,0:0:0:0:
256,192,174205,1,0,0:0:0:0:
256,192,174256,1,8,0:0:0:0:
256,192,174357,1,0,0:0:0:0:
256,192,174492,1,8,0:0:0:0:
256,192,174627,1,8,0:0:0:0:
256,192,174762,1,0,0:0:0:0:
256,192,174896,1,0,0:0:0:0:
256,192,175031,1,8,0:0:0:0:
256,192,175166,1,0,0:0:0:0:
256,192,175234,1,0,0:0:0:0:
256,192,175301,1,8,0:0:0:0:
256,192,175470,1,8,0:0:0:0:
256,192,175571,1,0,0:0:0:0:
256,192,175706,1,0,0:0:0:0:
256,192,175841,1,8,0:0:0:0:
256,192,175976,1,0,0:0:0:0:
256,192,176111,1,8,0:0:0:0:
256,192,176246,1,8,0:0:0:0:
256,192,176313,1,0,0:0:0:0:
256,192,176380,1,0,0:0:0:0:
256,192,176650,1,8,0:0:0:0:
256,192,176785,1,0,0:0:0:0:
256,192,177055,1,0,0:0:0:0:
256,192,177190,1,0,0:0:0:0:
256,192,177325,1,8,0:0:0:0:
256,192,177460,1,0,0:0:0:0:
256,192,177595,1,8,0:0:0:0:
256,192,177729,1,8,0:0:0:0:
256,192,177864,1,8,0:0:0:0:
256,192,177999,1,4,0:0:0:0:
256,192,178134,1,0,0:0:0:0:
256,192,178269,1,8,0:0:0:0:
256,192,178404,1,8,0:0:0:0:
256,192,178539,1,4,0:0:0:0:
256,192,178674,1,8,0:0:0:0:
256,192,178809,1,8,0:0:0:0:
256,192,178944,1,8,0:0:0:0:
256,192,179079,1,4,0:0:0:0:
256,192,179213,1,0,0:0:0:0:
256,192,179348,1,8,0:0:0:0:
256,192,179483,1,8,0:0:0:0:
256,192,179618,1,4,0:0:0:0:
256,192,179753,1,8,0:0:0:0:
256,192,179888,1,8,0:0:0:0:
256,192,180023,1,8,0:0:0:0:
256,192,180158,1,4,0:0:0:0:
256,192,180293,1,0,0:0:0:0:
256,192,180428,1,8,0:0:0:0:
256,192,180563,1,8,0:0:0:0:
256,192,180697,1,4,0:0:0:0:
256,192,180832,1,8,0:0:0:0:
256,192,180900,1,8,0:0:0:0:
256,192,180967,1,4,0:0:0:0:
256,192,181102,1,8,0:0:0:0:
256,192,181170,1,8,0:0:0:0:
256,192,181237,1,4,0:0:0:0:
256,192,181507,1,4,0:0:0:0:
256,192,181777,1,4,0:0:0:0:
256,192,182047,1,8,0:0:0:0:
256,192,182316,1,8,0:0:0:0:
256,192,182384,1,8,0:0:0:0:
256,192,182451,1,0,0:0:0:0:
256,192,182721,1,0,0:0:0:0:
256,192,182856,1,8,0:0:0:0:
256,192,182991,1,8,0:0:0:0:
256,192,183126,1,8,0:0:0:0:
256,192,183261,1,0,0:0:0:0:
256,192,183530,1,8,0:0:0:0:
256,192,183665,1,0,0:0:0:0:
256,192,183800,1,0,0:0:0:0:
256,192,183935,1,8,0:0:0:0:
256,192,184070,1,0,0:0:0:0:
256,192,184205,1,8,0:0:0:0:
256,192,184340,1,8,0:0:0:0:
256,192,184475,1,4,0:0:0:0:
256,192,184677,1,8,0:0:0:0:
256,192,184778,1,4,0:0:0:0:
256,192,184981,1,8,0:0:0:0:
256,192,185082,1,4,0:0:0:0:
256,192,185284,1,8,0:0:0:0:
256,192,185385,1,4,0:0:0:0:
256,192,185588,1,8,0:0:0:0:
256,192,185689,1,4,0:0:0:0:
256,192,185790,1,4,0:0:0:0:
256,192,185891,1,12,0:0:0:0:
256,192,185993,1,12,0:0:0:0:
256,192,186094,1,4,0:0:0:0:
256,192,186296,1,8,0:0:0:0:
256,192,186397,1,4,0:0:0:0:
256,192,186600,1,8,0:0:0:0:
256,192,186701,1,4,0:0:0:0:
256,192,186903,1,8,0:0:0:0:
256,192,187004,1,4,0:0:0:0:
256,192,187207,1,8,0:0:0:0:
256,192,187308,1,4,0:0:0:0:
256,192,187409,1,4,0:0:0:0:
256,192,187510,1,12,0:0:0:0:
256,192,187611,1,12,0:0:0:0:
256,192,187713,1,4,0:0:0:0:
256,192,187915,1,0,0:0:0:0:
256,192,188016,1,12,0:0:0:0:
256,192,188219,1,0,0:0:0:0:
256,192,188320,1,12,0:0:0:0:
256,192,188522,1,0,0:0:0:0:
256,192,188623,1,12,0:0:0:0:
256,192,188826,1,8,0:0:0:0:
256,192,188927,1,4,0:0:0:0:
256,192,189028,1,4,0:0:0:0:
256,192,189129,1,12,0:0:0:0:
256,192,189230,1,12,0:0:0:0:
256,192,189332,1,0,0:0:0:0:
256,192,189635,1,0,0:0:0:0:
256,192,189939,1,8,0:0:0:0:
256,192,190343,1,8,0:0:0:0:
256,192,190411,1,8,0:0:0:0:
256,192,190478,1,8,0:0:0:0:
256,192,190546,1,0,0:0:0:0:
256,192,190748,1,0,0:0:0:0:
256,192,190950,1,8,0:0:0:0:
256,192,191254,1,0,0:0:0:0:
256,192,191557,1,0,0:0:0:0:
256,192,191962,1,8,0:0:0:0:
256,192,191979,1,8,0:0:0:0:
256,192,192569,1,0,0:0:0:0:
256,192,192873,1,8,0:0:0:0:
256,192,193176,1,8,0:0:0:0:
256,192,193581,1,0,0:0:0:0:
256,192,193783,1,8,0:0:0:0:
256,192,193986,1,8,0:0:0:0:
256,192,194087,1,0,0:0:0:0:
256,192,194188,1,8,0:0:0:0:
256,192,194492,1,8,0:0:0:0:
256,192,194795,1,0,0:0:0:0:
256,192,195200,1,8,0:0:0:0:
256,192,195301,1,8,0:0:0:0:
256,192,195402,1,0,0:0:0:0:
256,192,195504,1,0,0:0:0:0:
256,192,195605,1,0,0:0:0:0:
256,192,195706,1,8,0:0:0:0:
256,192,195807,1,0,0:0:0:0:
256,192,195908,1,8,0:0:0:0:
256,192,196111,1,0,0:0:0:0:
256,192,196212,1,8,0:0:0:0:
256,192,196313,1,8,0:0:0:0:
256,192,196414,1,0,0:0:0:0:
256,192,196515,1,8,0:0:0:0:
256,192,196616,1,0,0:0:0:0:
256,192,196718,1,8,0:0:0:0:
256,192,196819,1,8,0:0:0:0:
256,192,197021,1,8,0:0:0:0:
256,192,197122,1,0,0:0:0:0:
256,192,197224,1,8,0:0:0:0:
256,192,197325,1,8,0:0:0:0:
256,192,197426,1,0,0:0:0:0:
256,192,197527,1,8,0:0:0:0:
256,192,197729,1,0,0:0:0:0:
256,192,197831,1,8,0:0:0:0:
256,192,197898,1,0,0:0:0:0:
256,192,197966,1,0,0:0:0:0:
256,192,198033,1,8,0:0:0:0:
256,192,198134,1,8,0:0:0:0:
256,192,198235,1,0,0:0:0:0:
256,192,198337,1,0,0:0:0:0:
256,192,198438,1,8,0:0:0:0:
256,192,198539,1,0,0:0:0:0:
256,192,198640,1,8,0:0:0:0:
256,192,198741,1,8,0:0:0:0:
256,192,198842,1,8,0:0:0:0:
256,192,198944,1,0,0:0:0:0:
256,192,199045,1,0,0:0:0:0:
256,192,199146,1,8,0:0:0:0:
256,192,199348,1,0,0:0:0:0:
256,192,199450,1,8,0:0:0:0:
256,192,199551,1,8,0:0:0:0:
256,192,199652,1,0,0:0:0:0:
256,192,199753,1,0,0:0:0:0:
256,192,199854,1,8,0:0:0:0:
256,192,199955,1,0,0:0:0:0:
256,192,200057,1,8,0:0:0:0:
256,192,200259,1,0,0:0:0:0:
256,192,200360,1,8,0:0:0:0:
256,192,200461,1,0,0:0:0:0:
256,192,200563,1,0,0:0:0:0:
256,192,200664,1,8,0:0:0:0:
256,192,200765,1,8,0:0:0:0:
256,192,200967,1,8,0:0:0:0:
256,192,201068,1,0,0:0:0:0:
256,192,201136,1,0,0:0:0:0:
256,192,201203,1,0,0:0:0:0:
256,192,201271,1,8,0:0:0:0:
256,192,201372,1,8,0:0:0:0:
256,192,201473,1,0,0:0:0:0:
256,192,201574,1,0,0:0:0:0:
256,192,201676,1,8,0:0:0:0:
256,192,201878,1,0,0:0:0:0:
256,192,201979,1,0,0:0:0:0:
256,192,202080,1,0,0:0:0:0:
256,192,202283,1,4,0:0:0:0:
256,192,202384,1,0,0:0:0:0:
256,192,202485,1,8,0:0:0:0:
256,192,202687,1,8,0:0:0:0:
256,192,202890,1,0,0:0:0:0:
256,192,203092,1,0,0:0:0:0:
256,192,203193,1,0,0:0:0:0:
256,192,203294,1,8,0:0:0:0:
256,192,203497,1,8,0:0:0:0:
256,192,203699,1,0,0:0:0:0:
256,192,203901,1,0,0:0:0:0:
256,192,204003,1,8,0:0:0:0:
256,192,204104,1,8,0:0:0:0:
256,192,204306,1,8,0:0:0:0:
256,192,204407,1,8,0:0:0:0:
256,192,204509,1,0,0:0:0:0:
256,192,204610,1,8,0:0:0:0:
256,192,204711,1,8,0:0:0:0:
256,192,204812,1,0,0:0:0:0:
256,192,204913,1,8,0:0:0:0:
256,192,205014,1,0,0:0:0:0:
256,192,205116,1,8,0:0:0:0:
256,192,205217,1,0,0:0:0:0:
256,192,205267,1,0,0:0:0:0:
256,192,205318,1,8,0:0:0:0:
256,192,205419,1,8,0:0:0:0:
256,192,205520,1,4,0:0:0:0:
256,192,205622,1,0,0:0:0:0:
256,192,205723,1,8,0:0:0:0:
256,192,205925,1,8,0:0:0:0:
256,192,206127,1,0,0:0:0:0:
256,192,206330,1,0,0:0:0:0:
256,192,206431,1,0,0:0:0:0:
256,192,206532,1,8,0:0:0:0:
256,192,206735,1,8,0:0:0:0:
256,192,206937,1,8,0:0:0:0:
256,192,207240,1,0,0:0:0:0:
256,192,207342,1,0,0:0:0:0:
256,192,207443,1,0,0:0:0:0:
256,192,207544,1,8,0:0:0:0:
256,192,207645,1,0,0:0:0:0:
256,192,207746,1,0,0:0:0:0:
256,192,207848,1,8,0:0:0:0:
256,192,207949,1,0,0:0:0:0:
256,192,208050,1,0,0:0:0:0:
256,192,208151,1,8,0:0:0:0:
256,192,208252,1,8,0:0:0:0:
256,192,208353,1,0,0:0:0:0:
256,192,208455,1,8,0:0:0:0:
256,192,208505,1,8,0:0:0:0:
256,192,208556,1,0,0:0:0:0:
256,192,208657,1,8,0:0:0:0:
256,192,208758,1,4,0:0:0:0:
256,192,208859,1,0,0:0:0:0:
256,192,208961,1,8,0:0:0:0:
256,192,209163,1,8,0:0:0:0:
256,192,209365,1,0,0:0:0:0:
256,192,209568,1,0,0:0:0:0:
256,192,209669,1,0,0:0:0:0:
256,192,209770,1,8,0:0:0:0:
256,192,209972,1,0,0:0:0:0:
256,192,210175,1,8,0:0:0:0:
256,192,210377,1,4,0:0:0:0:
256,192,210782,1,12,0:0:0:0:
256,192,211186,1,4,0:0:0:0:
256,192,211288,1,12,0:0:0:0:
256,192,211389,1,12,0:0:0:0:
256,192,211591,1,12,0:0:0:0:
256,192,211794,1,4,0:0:0:0:
256,192,211996,1,4,0:0:0:0:
256,192,212097,1,0,0:0:0:0:
256,192,212198,1,8,0:0:0:0:
256,192,212401,1,8,0:0:0:0:
256,192,212603,1,0,0:0:0:0:
256,192,212805,1,0,0:0:0:0:
256,192,212907,1,8,0:0:0:0:
256,192,213008,1,8,0:0:0:0:
256,192,213210,1,8,0:0:0:0:
256,192,213412,1,0,0:0:0:0:
256,192,215234,1,0,0:0:0:0:
256,192,215638,1,8,0:0:0:0:
256,192,215841,1,0,0:0:0:0:
256,192,215942,1,8,0:0:0:0:
256,192,216144,1,8,0:0:0:0:
256,192,216347,1,0,0:0:0:0:
256,192,216448,1,8,0:0:0:0:
256,192,216549,1,8,0:0:0:0:
256,192,216650,1,0,0:0:0:0:
256,192,216752,1,0,0:0:0:0:
256,192,216853,1,0,0:0:0:0:
256,192,217055,1,0,0:0:0:0:
256,192,217257,1,8,0:0:0:0:
256,192,217358,1,8,0:0:0:0:
256,192,217460,1,0,0:0:0:0:
256,192,217561,1,8,0:0:0:0:
256,192,217763,1,0,0:0:0:0:
256,192,217864,1,8,0:0:0:0:
256,192,217966,1,8,0:0:0:0:
256,192,218067,1,0,0:0:0:0:
256,192,218168,1,0,0:0:0:0:
256,192,218269,1,8,0:0:0:0:
256,192,218370,1,0,0:0:0:0:
256,192,218471,1,0,0:0:0:0:
256,192,218573,1,0,0:0:0:0:
256,192,218674,1,8,0:0:0:0:
256,192,218876,1,8,0:0:0:0:
256,192,219079,1,0,0:0:0:0:
256,192,219281,1,0,0:0:0:0:
256,192,219382,1,0,0:0:0:0:
256,192,219483,1,8,0:0:0:0:
256,192,219686,1,0,0:0:0:0:
256,192,219888,1,8,0:0:0:0:
256,192,220090,1,8,0:0:0:0:
256,192,220192,1,0,0:0:0:0:
256,192,220293,1,8,0:0:0:0:
256,192,220495,1,0,0:0:0:0:
256,192,220697,1,8,0:0:0:0:
256,192,220799,1,8,0:0:0:0:
256,192,220900,1,0,0:0:0:0:
256,192,221001,1,0,0:0:0:0:
256,192,221102,1,8,0:0:0:0:
256,192,221305,1,8,0:0:0:0:
256,192,221507,1,0,0:0:0:0:
256,192,221709,1,4,0:0:0:0:
256,192,221810,1,8,0:0:0:0:
256,192,221861,1,8,0:0:0:0:
256,192,221912,1,0,0:0:0:0:
256,192,222013,1,8,0:0:0:0:
256,192,222114,1,0,0:0:0:0:
256,192,222165,1,0,0:0:0:0:
256,192,222215,1,8,0:0:0:0:
256,192,222316,1,8,0:0:0:0:
256,192,222519,1,4,0:0:0:0:
256,192,222620,1,8,0:0:0:0:
256,192,222670,1,8,0:0:0:0:
256,192,222721,1,0,0:0:0:0:
256,192,222772,1,0,0:0:0:0:
256,192,222822,1,8,0:0:0:0:
256,192,222923,1,0,0:0:0:0:
256,192,222974,1,0,0:0:0:0:
256,192,223025,1,8,0:0:0:0:
256,192,223075,1,0,0:0:0:0:
256,192,223126,1,8,0:0:0:0:
256,192,223328,1,4,0:0:0:0:
256,192,223429,1,8,0:0:0:0:
256,192,223463,1,8,0:0:0:0:
256,192,223497,1,8,0:0:0:0:
256,192,223530,1,0,0:0:0:0:
256,192,223632,1,8,0:0:0:0:
256,192,223733,1,0,0:0:0:0:
256,192,223767,1,0,0:0:0:0:
256,192,223800,1,0,0:0:0:0:
256,192,223834,1,8,0:0:0:0:
256,192,223935,1,8,0:0:0:0:
256,192,224138,1,4,0:0:0:0:
256,192,224239,1,8,0:0:0:0:
256,192,224289,1,8,0:0:0:0:
256,192,224340,1,0,0:0:0:0:
256,192,224441,1,8,0:0:0:0:
256,192,224542,1,0,0:0:0:0:
256,192,224576,1,0,0:0:0:0:
256,192,224610,1,0,0:0:0:0:
256,192,224643,1,8,0:0:0:0:
256,192,224694,1,0,0:0:0:0:
256,192,224745,1,8,0:0:0:0:
256,192,224947,1,4,0:0:0:0:
256,192,225048,1,8,0:0:0:0:
256,192,225099,1,8,0:0:0:0:
256,192,225149,1,0,0:0:0:0:
256,192,225251,1,8,0:0:0:0:
256,192,225352,1,0,0:0:0:0:
256,192,225402,1,0,0:0:0:0:
256,192,225453,1,8,0:0:0:0:
256,192,225504,1,0,0:0:0:0:
256,192,225554,1,8,0:0:0:0:
256,192,225605,1,8,0:0:0:0:
256,192,225655,1,0,0:0:0:0:
256,192,225756,1,8,0:0:0:0:
256,192,225858,1,0,0:0:0:0:
256,192,225908,1,0,0:0:0:0:
256,192,225959,1,8,0:0:0:0:
256,192,226060,1,0,0:0:0:0:
256,192,226161,1,8,0:0:0:0:
256,192,226212,1,8,0:0:0:0:
256,192,226262,1,0,0:0:0:0:
256,192,226313,1,0,0:0:0:0:
256,192,226364,1,8,0:0:0:0:
256,192,226414,1,8,0:0:0:0:
256,192,226465,1,0,0:0:0:0:
256,192,226566,1,8,0:0:0:0:
256,192,226616,1,8,0:0:0:0:
256,192,226667,1,0,0:0:0:0:
256,192,226768,1,8,0:0:0:0:
256,192,226819,1,8,0:0:0:0:
256,192,226869,1,0,0:0:0:0:
256,192,226971,1,8,0:0:0:0:
256,192,227021,1,0,0:0:0:0:
256,192,227072,1,0,0:0:0:0:
256,192,227173,1,8,0:0:0:0:
256,192,227224,1,0,0:0:0:0:
256,192,227274,1,0,0:0:0:0:
256,192,227375,1,8,0:0:0:0:
256,192,227426,1,8,0:0:0:0:
256,192,227477,1,0,0:0:0:0:
256,192,227527,1,8,0:0:0:0:
256,192,227578,1,0,0:0:0:0:
256,192,227628,1,0,0:0:0:0:
256,192,227679,1,8,0:0:0:0:
256,192,227729,1,8,0:0:0:0:
256,192,227780,1,0,0:0:0:0:
256,192,227831,1,8,0:0:0:0:
256,192,227881,1,0,0:0:0:0:
256,192,227932,1,0,0:0:0:0:
256,192,227982,1,8,0:0:0:0:
256,192,228033,1,0,0:0:0:0:
256,192,228084,1,8,0:0:0:0:
256,192,228117,1,8,0:0:0:0:
256,192,228151,1,8,0:0:0:0:
256,192,228185,1,0,0:0:0:0:
256,192,229804,1,8,0:0:0:0:
256,192,229905,1,0,0:0:0:0:
256,192,230006,1,0,0:0:0:0:
256,192,230107,1,8,0:0:0:0:
256,192,230208,1,0,0:0:0:0:
256,192,230310,1,0,0:0:0:0:
256,192,230411,1,8,0:0:0:0:
256,192,230512,1,8,0:0:0:0:
256,192,230613,1,0,0:0:0:0:
256,192,230714,1,8,0:0:0:0:
256,192,230765,1,8,0:0:0:0:
256,192,230815,1,0,0:0:0:0:
256,192,230917,1,0,0:0:0:0:
256,192,231018,1,12,0:0:0:0:
256,192,231423,1,4,0:0:0:0:
256,192,231524,1,8,0:0:0:0:
256,192,231574,1,8,0:0:0:0:
256,192,231625,1,0,0:0:0:0:
256,192,231726,1,8,0:0:0:0:
256,192,231827,1,0,0:0:0:0:
256,192,231878,1,0,0:0:0:0:
256,192,231928,1,8,0:0:0:0:
256,192,231979,1,0,0:0:0:0:
256,192,232030,1,8,0:0:0:0:
256,192,232080,1,8,0:0:0:0:
256,192,232131,1,0,0:0:0:0:
256,192,232232,1,8,0:0:0:0:
256,192,232333,1,0,0:0:0:0:
256,192,232384,1,8,0:0:0:0:
256,192,232434,1,8,0:0:0:0:
256,192,232536,1,0,0:0:0:0:
256,192,232637,1,8,0:0:0:0:
256,192,232687,1,8,0:0:0:0:
256,192,232738,1,0,0:0:0:0:
256,192,232789,1,8,0:0:0:0:
256,192,232839,1,0,0:0:0:0:
256,192,232890,1,0,0:0:0:0:
256,192,232940,1,8,0:0:0:0:
256,192,232991,1,8,0:0:0:0:
256,192,233041,1,0,0:0:0:0:
256,192,233143,1,8,0:0:0:0:
256,192,233193,1,8,0:0:0:0:
256,192,233244,1,0,0:0:0:0:
256,192,233345,1,8,0:0:0:0:
256,192,233446,1,0,0:0:0:0:
256,192,233497,1,0,0:0:0:0:
256,192,233547,1,8,0:0:0:0:
256,192,233598,1,0,0:0:0:0:
256,192,233649,1,8,0:0:0:0:
256,192,233699,1,8,0:0:0:0:
256,192,233750,1,0,0:0:0:0:
256,192,233800,1,0,0:0:0:0:
256,192,233851,1,8,0:0:0:0:
256,192,233952,1,0,0:0:0:0:
256,192,234154,1,0,0:0:0:0:
256,192,234357,1,8,0:0:0:0:
256,192,234458,1,8,0:0:0:0:
256,192,234559,1,8,0:0:0:0:
256,192,234660,1,0,0:0:0:0:
256,192,234711,1,0,0:0:0:0:
256,192,234762,1,8,0:0:0:0:
256,192,234812,1,0,0:0:0:0:
256,192,234863,1,8,0:0:0:0:
256,192,234913,1,8,0:0:0:0:
256,192,234964,1,0,0:0:0:0:
256,192,235014,1,0,0:0:0:0:
256,192,235065,1,8,0:0:0:0:
256,192,235166,1,0,0:0:0:0:
256,192,235267,1,8,0:0:0:0:
256,192,235318,1,8,0:0:0:0:
256,192,235369,1,0,0:0:0:0:
256,192,235470,1,8,0:0:0:0:
256,192,235520,1,8,0:0:0:0:
256,192,235571,1,0,0:0:0:0:
256,192,235622,1,8,0:0:0:0:
256,192,235672,1,0,0:0:0:0:
256,192,235723,1,0,0:0:0:0:
256,192,235773,1,8,0:0:0:0:
256,192,235824,1,0,0:0:0:0:
256,192,235875,1,8,0:0:0:0:
256,192,235976,1,0,0:0:0:0:
256,192,236077,1,8,0:0:0:0:
256,192,236127,1,0,0:0:0:0:
256,192,236178,1,0,0:0:0:0:
256,192,236279,1,8,0:0:0:0:
256,192,236330,1,8,0:0:0:0:
256,192,236380,1,0,0:0:0:0:
256,192,236482,1,0,0:0:0:0:
256,192,236583,1,8,0:0:0:0:
256,192,236633,1,8,0:0:0:0:
256,192,236684,1,0,0:0:0:0:
256,192,236785,1,0,0:0:0:0:
256,192,236886,1,8,0:0:0:0:
256,192,236937,1,0,0:0:0:0:
256,192,236987,1,0,0:0:0:0:
256,192,237089,1,0,0:0:0:0:
256,192,237190,1,8,0:0:0:0:
256,192,237240,1,8,0:0:0:0:
256,192,237291,1,0,0:0:0:0:
256,192,237392,1,8,0:0:0:0:
256,192,237443,1,0,0:0:0:0:
256,192,237493,1,8,0:0:0:0:
256,192,237544,1,8,0:0:0:0:
256,192,237595,1,0,0:0:0:0:
256,192,237696,1,8,0:0:0:0:
256,192,237898,1,0,0:0:0:0:
256,192,237999,1,8,0:0:0:0:
256,192,238033,1,8,0:0:0:0:
256,192,238067,1,8,0:0:0:0:
256,192,238100,1,0,0:0:0:0:
256,192,238151,1,0,0:0:0:0:
256,192,238202,1,8,0:0:0:0:
256,192,238303,1,0,0:0:0:0:
256,192,238353,1,0,0:0:0:0:
256,192,238404,1,8,0:0:0:0:
256,192,238455,1,8,0:0:0:0:
256,192,238505,1,0,0:0:0:0:
256,192,238606,1,8,0:0:0:0:
256,192,238708,1,0,0:0:0:0:
256,192,238758,5,0,0:0:0:0:
256,192,238809,1,8,0:0:0:0:
256,192,238859,1,0,0:0:0:0:
256,192,238910,1,8,0:0:0:0:
256,192,238944,1,0,0:0:0:0:
256,192,238977,1,0,0:0:0:0:
256,192,239011,1,8,0:0:0:0:
256,192,239112,1,0,0:0:0:0:
256,192,239213,1,8,0:0:0:0:
256,192,239264,1,8,0:0:0:0:
256,192,239315,1,0,0:0:0:0:
256,192,239365,1,0,0:0:0:0:
256,192,239416,1,8,0:0:0:0:
256,192,239450,1,8,0:0:0:0:
256,192,239483,1,8,0:0:0:0:
256,192,239517,1,0,0:0:0:0:
256,192,239618,1,8,0:0:0:0:
256,192,239669,1,8,0:0:0:0:
256,192,239719,1,0,0:0:0:0:
256,192,239770,1,0,0:0:0:0:
256,192,239821,1,8,0:0:0:0:
256,192,239854,1,8,0:0:0:0:
256,192,239888,1,8,0:0:0:0:
256,192,239922,1,0,0:0:0:0:
256,192,239972,1,0,0:0:0:0:
256,192,240023,1,8,0:0:0:0:
256,192,240073,1,8,0:0:0:0:
256,192,240124,1,0,0:0:0:0:
256,192,240158,1,0,0:0:0:0:
256,192,240192,1,0,0:0:0:0:
256,192,240225,1,8,0:0:0:0:
256,192,240326,1,0,0:0:0:0:
256,192,240428,1,8,0:0:0:0:
256,192,240478,1,8,0:0:0:0:
256,192,240529,1,0,0:0:0:0:
256,192,240630,1,8,0:0:0:0:
256,192,240681,1,8,0:0:0:0:
256,192,240731,1,0,0:0:0:0:
256,192,240832,1,0,0:0:0:0:
256,192,240934,1,8,0:0:0:0:
256,192,241136,1,0,0:0:0:0:
256,192,241186,1,0,0:0:0:0:
256,192,241237,1,8,0:0:0:0:
256,192,241288,1,0,0:0:0:0:
256,192,241338,1,8,0:0:0:0:
256,192,241389,1,8,0:0:0:0:
256,192,241439,1,0,0:0:0:0:
256,192,241490,1,8,0:0:0:0:
256,192,241541,1,0,0:0:0:0:
256,192,241591,1,0,0:0:0:0:
256,192,241642,1,8,0:0:0:0:
256,192,241692,1,8,0:0:0:0:
256,192,241743,1,0,0:0:0:0:
256,192,241844,1,8,0:0:0:0:
256,192,241945,1,8,0:0:0:0:
256,192,241996,1,0,0:0:0:0:
256,192,242047,1,0,0:0:0:0:
256,192,242097,1,0,0:0:0:0:
256,192,242148,1,8,0:0:0:0:
256,192,242198,1,8,0:0:0:0:
256,192,242249,1,0,0:0:0:0:
256,192,242299,1,8,0:0:0:0:
256,192,242350,1,0,0:0:0:0:
256,192,242401,1,0,0:0:0:0:
256,192,242451,1,8,0:0:0:0:
256,192,242502,1,8,0:0:0:0:
256,192,242552,1,0,0:0:0:0:
256,192,242654,1,8,0:0:0:0:
256,192,242755,1,0,0:0:0:0:
256,192,242805,1,0,0:0:0:0:
256,192,242856,1,8,0:0:0:0:
256,192,242957,1,8,0:0:0:0:
256,192,243058,1,0,0:0:0:0:
256,192,243109,1,0,0:0:0:0:
256,192,243159,1,8,0:0:0:0:
256,192,243261,1,8,0:0:0:0:
256,192,243362,1,0,0:0:0:0:
256,192,243412,1,8,0:0:0:0:
256,192,243463,1,8,0:0:0:0:
256,192,243564,1,8,0:0:0:0:
256,192,243665,1,0,0:0:0:0:
256,192,243767,1,8,0:0:0:0:
256,192,243817,1,8,0:0:0:0:
256,192,243868,1,0,0:0:0:0:
256,192,243969,1,8,0:0:0:0:
256,192,244002,1,8,0:0:0:0:
256,192,244036,1,8,0:0:0:0:
256,192,244070,1,0,0:0:0:0:
256,192,244120,1,0,0:0:0:0:
256,192,244171,1,8,0:0:0:0:
256,192,244205,1,0,0:0:0:0:
256,192,244238,1,0,0:0:0:0:
256,192,244272,1,8,0:0:0:0:
256,192,244323,1,0,0:0:0:0:
256,192,244374,1,8,0:0:0:0:
256,192,244475,1,0,0:0:0:0:
256,192,244525,1,0,0:0:0:0:
256,192,244576,1,0,0:0:0:0:
256,192,244677,1,0,0:0:0:0:
256,192,244778,1,8,0:0:0:0:
256,192,244880,1,0,0:0:0:0:
256,192,244930,1,0,0:0:0:0:
256,192,244981,1,8,0:0:0:0:
256,192,245082,1,0,0:0:0:0:
256,192,245183,1,8,0:0:0:0:
256,192,245284,1,0,0:0:0:0:
256,192,245335,1,8,0:0:0:0:
256,192,245385,1,0,0:0:0:0:
256,192,245487,1,0,0:0:0:0:
256,192,245588,1,8,0:0:0:0:
256,192,245689,1,0,0:0:0:0:
256,192,245740,1,0,0:0:0:0:
256,192,245790,1,8,0:0:0:0:
256,192,245841,1,8,0:0:0:0:
256,192,245891,1,0,0:0:0:0:
256,192,245942,1,8,0:0:0:0:
256,192,245993,1,0,0:0:0:0:
256,192,246397,1,0,0:0:0:0:
256,192,246802,1,0,0:0:0:0:
256,192,247207,1,0,0:0:0:0:
256,192,247510,1,0,0:0:0:0:
256,192,247611,1,0,0:0:0:0:
256,192,247713,1,8,0:0:0:0:
256,192,247763,1,8,0:0:0:0:
256,192,247814,1,0,0:0:0:0:
256,192,247915,1,8,0:0:0:0:
256,192,248016,1,0,0:0:0:0:
256,192,248117,1,8,0:0:0:0:
256,192,248168,1,8,0:0:0:0:
256,192,248219,1,0,0:0:0:0:
256,192,248269,1,0,0:0:0:0:
256,192,248320,1,8,0:0:0:0:
256,192,248421,1,0,0:0:0:0:
256,192,248522,1,8,0:0:0:0:
256,192,248573,1,8,0:0:0:0:
256,192,248623,1,0,0:0:0:0:
256,192,248724,1,8,0:0:0:0:
256,192,248826,1,0,0:0:0:0:
256,192,248876,1,0,0:0:0:0:
256,192,248927,1,8,0:0:0:0:
256,192,248977,1,0,0:0:0:0:
256,192,249028,1,8,0:0:0:0:
256,192,249079,1,8,0:0:0:0:
256,192,249129,1,0,0:0:0:0:
256,192,249180,1,8,0:0:0:0:
256,192,249230,1,0,0:0:0:0:
256,192,249635,1,0,0:0:0:0:
256,192,250040,1,0,0:0:0:0:
256,192,250343,1,0,0:0:0:0:
256,192,250444,1,12,0:0:0:0:
256,192,250849,1,0,0:0:0:0:
256,192,250950,1,0,0:0:0:0:
256,192,251052,1,8,0:0:0:0:
256,192,251153,1,0,0:0:0:0:
256,192,251254,1,8,0:0:0:0:
256,192,251355,1,8,0:0:0:0:
256,192,251456,1,8,0:0:0:0:
256,192,251557,1,0,0:0:0:0:
256,192,251659,1,8,0:0:0:0:
256,192,251861,1,8,0:0:0:0:
256,192,251962,1,0,0:0:0:0:
256,192,252063,1,8,0:0:0:0:
256,192,252266,1,0,0:0:0:0:
256,192,252468,1,8,0:0:0:0:
256,192,252670,1,0,0:0:0:0:
256,192,252772,1,8,0:0:0:0:
256,192,252974,1,8,0:0:0:0:
256,192,253278,1,0,0:0:0:0:
256,192,253480,1,8,0:0:0:0:
256,192,253547,1,0,0:0:0:0:
256,192,253615,1,0,0:0:0:0:
256,192,253682,1,8,0:0:0:0:
256,192,254087,1,4,0:0:0:0:
256,192,254188,1,0,0:0:0:0:
256,192,254289,1,8,0:0:0:0:
256,192,254391,1,0,0:0:0:0:
256,192,254492,1,8,0:0:0:0:
256,192,254542,1,8,0:0:0:0:
256,192,254593,1,0,0:0:0:0:
256,192,254694,1,8,0:0:0:0:
256,192,254795,1,0,0:0:0:0:
256,192,254896,1,0,0:0:0:0:
256,192,254998,1,0,0:0:0:0:
256,192,255099,1,8,0:0:0:0:
256,192,255200,1,0,0:0:0:0:
256,192,255301,1,8,0:0:0:0:
256,192,255352,1,8,0:0:0:0:
256,192,255402,1,0,0:0:0:0:
256,192,255453,1,0,0:0:0:0:
256,192,255504,1,8,0:0:0:0:
256,192,255605,1,8,0:0:0:0:
256,192,255706,1,0,0:0:0:0:
256,192,255756,1,0,0:0:0:0:
256,192,255807,1,8,0:0:0:0:
256,192,255908,1,8,0:0:0:0:
256,192,256009,1,0,0:0:0:0:
256,192,256060,1,0,0:0:0:0:
256,192,256111,1,8,0:0:0:0:
256,192,256212,1,8,0:0:0:0:
256,192,256313,1,0,0:0:0:0:
256,192,256364,1,8,0:0:0:0:
256,192,256414,1,8,0:0:0:0:
256,192,256515,1,0,0:0:0:0:
256,192,256616,1,8,0:0:0:0:
256,192,256667,1,8,0:0:0:0:
256,192,256718,1,0,0:0:0:0:
256,192,256768,1,0,0:0:0:0:
256,192,256819,1,8,0:0:0:0:
256,192,256869,1,8,0:0:0:0:
256,192,256920,1,0,0:0:0:0:
256,192,257021,1,0,0:0:0:0:
256,192,257122,1,8,0:0:0:0:
256,192,257325,1,0,0:0:0:0:
256,192,257376,1,0,0:0:0:0:
256,192,257426,1,8,0:0:0:0:
256,192,257477,1,0,0:0:0:0:
256,192,257527,1,8,0:0:0:0:
256,192,257578,1,8,0:0:0:0:
256,192,257629,1,0,0:0:0:0:
256,192,257679,1,8,0:0:0:0:
256,192,257730,1,0,0:0:0:0:
256,192,257780,1,0,0:0:0:0:
256,192,257831,1,8,0:0:0:0:
256,192,257882,1,0,0:0:0:0:
256,192,257932,1,8,0:0:0:0:
256,192,257983,1,8,0:0:0:0:
256,192,258033,1,0,0:0:0:0:
256,192,258135,1,8,0:0:0:0:
256,192,258185,1,8,0:0:0:0:
256,192,258236,1,0,0:0:0:0:
256,192,258286,1,8,0:0:0:0:
256,192,258337,1,0,0:0:0:0:
256,192,258388,1,0,0:0:0:0:
256,192,258438,1,8,0:0:0:0:
256,192,258489,1,0,0:0:0:0:
256,192,258539,1,8,0:0:0:0:
256,192,258590,1,8,0:0:0:0:
256,192,258640,1,0,0:0:0:0:
256,192,258691,1,8,0:0:0:0:
256,192,258742,1,0,0:0:0:0:
256,192,258792,1,0,0:0:0:0:
256,192,258843,1,8,0:0:0:0:
256,192,258944,1,0,0:0:0:0:
256,192,258995,1,0,0:0:0:0:
256,192,259045,1,8,0:0:0:0:
256,192,259096,1,8,0:0:0:0:
256,192,259146,1,0,0:0:0:0:
256,192,259197,1,8,0:0:0:0:
256,192,259248,1,8,0:0:0:0:
256,192,259298,1,8,0:0:0:0:
256,192,259349,1,0,0:0:0:0:
256,192,259399,1,0,0:0:0:0:
256,192,259450,1,8,0:0:0:0:
256,192,259500,1,0,0:0:0:0:
256,192,259551,1,8,0:0:0:0:
256,192,259602,1,8,0:0:0:0:
256,192,259652,1,0,0:0:0:0:
256,192,259703,1,8,0:0:0:0:
256,192,259753,1,0,0:0:0:0:
256,192,259854,1,0,0:0:0:0:
256,192,260057,1,0,0:0:0:0:
256,192,260259,1,0,0:0:0:0:
256,192,260360,1,8,0:0:0:0:
256,192,260461,1,8,0:0:0:0:
256,192,260563,1,0,0:0:0:0:
256,192,260613,1,0,0:0:0:0:
256,192,260664,1,8,0:0:0:0:
256,192,260715,1,0,0:0:0:0:
256,192,260765,1,8,0:0:0:0:
256,192,260816,1,8,0:0:0:0:
256,192,260866,1,0,0:0:0:0:
256,192,260917,1,8,0:0:0:0:
256,192,260968,1,0,0:0:0:0:
256,192,261018,1,0,0:0:0:0:
256,192,261069,1,8,0:0:0:0:
256,192,261119,1,8,0:0:0:0:
256,192,261170,1,0,0:0:0:0:
256,192,261271,1,8,0:0:0:0:
256,192,261372,1,8,0:0:0:0:
256,192,261423,1,0,0:0:0:0:
256,192,261474,1,0,0:0:0:0:
256,192,261524,1,0,0:0:0:0:
256,192,261575,1,8,0:0:0:0:
256,192,261625,1,8,0:0:0:0:
256,192,261676,1,0,0:0:0:0:
256,192,261726,1,8,0:0:0:0:
256,192,261777,1,0,0:0:0:0:
256,192,261828,1,0,0:0:0:0:
256,192,261878,1,8,0:0:0:0:
256,192,261929,1,8,0:0:0:0:
256,192,261979,1,0,0:0:0:0:
256,192,262080,1,8,0:0:0:0:
256,192,262181,1,8,0:0:0:0:
256,192,262232,1,8,0:0:0:0:
256,192,262283,1,0,0:0:0:0:
256,192,262333,1,0,0:0:0:0:
256,192,262384,1,8,0:0:0:0:
256,192,262485,1,0,0:0:0:0:
256,192,262586,1,8,0:0:0:0:
256,192,262620,1,0,0:0:0:0:
256,192,262654,1,0,0:0:0:0:
256,192,262687,1,8,0:0:0:0:
256,192,262738,1,8,0:0:0:0:
256,192,262789,1,0,0:0:0:0:
256,192,262890,1,0,0:0:0:0:
256,192,262991,1,8,0:0:0:0:
256,192,263041,1,8,0:0:0:0:
256,192,263092,1,8,0:0:0:0:
256,192,263193,1,0,0:0:0:0:
256,192,263396,1,0,0:0:0:0:
256,192,263800,1,8,0:0:0:0:
256,192,263851,1,8,0:0:0:0:
256,192,263901,1,0,0:0:0:0:
256,192,263952,1,8,0:0:0:0:
256,192,264003,1,0,0:0:0:0:
256,192,264053,1,0,0:0:0:0:
256,192,264104,1,8,0:0:0:0:
256,192,264154,1,8,0:0:0:0:
256,192,264205,1,0,0:0:0:0:
256,192,264256,1,0,0:0:0:0:
256,192,264306,1,8,0:0:0:0:
256,192,264357,1,0,0:0:0:0:
256,192,264407,1,8,0:0:0:0:
256,192,264458,1,8,0:0:0:0:
256,192,264509,1,0,0:0:0:0:
256,192,264559,1,8,0:0:0:0:
256,192,264610,1,0,0:0:0:0:
256,192,264660,1,0,0:0:0:0:
256,192,264711,1,8,0:0:0:0:
256,192,264762,1,8,0:0:0:0:
256,192,264812,1,0,0:0:0:0:
256,192,264863,1,8,0:0:0:0:
256,192,264913,1,8,0:0:0:0:
256,192,264964,1,8,0:0:0:0:
256,192,265014,1,0,0:0:0:0:
256,192,265065,1,0,0:0:0:0:
256,192,265116,1,8,0:0:0:0:
256,192,265166,1,0,0:0:0:0:
256,192,265217,1,8,0:0:0:0:
256,192,265267,1,8,0:0:0:0:
256,192,265318,1,0,0:0:0:0:
256,192,265369,1,0,0:0:0:0:
256,192,265419,1,8,0:0:0:0:
256,192,265470,1,0,0:0:0:0:
256,192,265520,1,8,0:0:0:0:
256,192,265571,1,8,0:0:0:0:
256,192,265622,1,0,0:0:0:0:
256,192,265672,1,0,0:0:0:0:
256,192,265723,1,8,0:0:0:0:
256,192,265773,1,8,0:0:0:0:
256,192,265824,1,8,0:0:0:0:
256,192,265875,1,0,0:0:0:0:
256,192,265925,1,8,0:0:0:0:
256,192,265976,1,8,0:0:0:0:
256,192,266026,1,0,0:0:0:0:
256,192,266077,1,0,0:0:0:0:
256,192,266127,1,8,0:0:0:0:
256,192,266229,1,0,0:0:0:0:
256,192,266330,1,0,0:0:0:0:
256,192,266431,1,0,0:0:0:0:
256,192,266532,1,0,0:0:0:0:
256,192,266633,1,8,0:0:0:0:
256,192,266684,1,8,0:0:0:0:
256,192,266735,1,8,0:0:0:0:
256,192,266785,1,8,0:0:0:0:
256,192,266836,1,0,0:0:0:0:
256,192,266937,1,8,0:0:0:0:
256,192,267038,1,0,0:0:0:0:
256,192,267089,1,0,0:0:0:0:
256,192,267139,1,8,0:0:0:0:
256,192,267190,1,8,0:0:0:0:
256,192,267240,1,0,0:0:0:0:
256,192,267291,1,8,0:0:0:0:
256,192,267342,1,8,0:0:0:0:
256,192,267392,1,8,0:0:0:0:
256,192,267443,1,0,0:0:0:0:
256,192,267493,1,0,0:0:0:0:
256,192,267544,1,8,0:0:0:0:
256,192,267595,1,0,0:0:0:0:
256,192,267645,1,8,0:0:0:0:
256,192,267696,1,8,0:0:0:0:
256,192,267746,1,0,0:0:0:0:
256,192,267797,1,8,0:0:0:0:
256,192,267848,1,0,0:0:0:0:
256,192,267898,1,0,0:0:0:0:
256,192,267949,1,8,0:0:0:0:
256,192,267999,1,8,0:0:0:0:
256,192,268050,1,0,0:0:0:0:
256,192,268100,1,8,0:0:0:0:
256,192,268151,1,0,0:0:0:0:
256,192,268202,1,8,0:0:0:0:
256,192,268252,1,0,0:0:0:0:
256,192,268303,1,0,0:0:0:0:
256,192,268353,1,8,0:0:0:0:
256,192,268404,1,0,0:0:0:0:
256,192,268455,1,8,0:0:0:0:
256,192,268505,1,8,0:0:0:0:
256,192,268556,1,0,0:0:0:0:
256,192,268606,1,8,0:0:0:0:
256,192,268657,1,0,0:0:0:0:
256,192,268758,1,8,0:0:0:0:
256,192,268961,1,0,0:0:0:0:
256,192,269062,1,8,0:0:0:0:
256,192,269264,1,0,0:0:0:0:
256,192,269365,1,8,0:0:0:0:
256,192,269568,1,0,0:0:0:0:
256,192,269669,1,8,0:0:0:0:
256,192,269871,1,8,0:0:0:0:
256,192,269972,1,0,0:0:0:0:
256,192,270073,1,8,0:0:0:0:
256,192,270124,1,8,0:0:0:0:
256,192,270175,1,8,0:0:0:0:
256,192,270276,1,4,0:0:0:0:
256,192,270377,1,8,0:0:0:0:
256,192,270428,1,8,0:0:0:0:
256,192,270478,1,0,0:0:0:0:
256,192,270579,1,8,0:0:0:0:
256,192,270681,1,0,0:0:0:0:
256,192,270782,1,8,0:0:0:0:
256,192,270832,1,8,0:0:0:0:
256,192,270883,1,0,0:0:0:0:
256,192,270984,1,8,0:0:0:0:
256,192,271085,1,0,0:0:0:0:
256,192,271186,1,8,0:0:0:0:
256,192,271237,1,8,0:0:0:0:
256,192,271288,1,0,0:0:0:0:
256,192,271338,1,0,0:0:0:0:
256,192,271389,1,8,0:0:0:0:
256,192,271490,1,0,0:0:0:0:
256,192,271591,1,8,0:0:0:0:
256,192,271642,1,0,0:0:0:0:
256,192,271692,1,8,0:0:0:0:
256,192,271794,1,8,0:0:0:0:
256,192,271895,1,0,0:0:0:0:
256,192,271996,1,0,0:0:0:0:
256,192,272097,1,8,0:0:0:0:
256,192,272299,1,0,0:0:0:0:
256,192,272502,1,8,0:0:0:0:
256,192,272704,1,4,0:0:0:0:
256,192,272907,1,8,0:0:0:0:
256,192,273008,1,0,0:0:0:0:
256,192,273210,1,0,0:0:0:0:
256,192,273311,1,8,0:0:0:0:
256,192,273514,1,4,0:0:0:0:
256,192,273615,1,8,0:0:0:0:
256,192,273716,1,8,0:0:0:0:
256,192,273918,1,0,0:0:0:0:
256,192,274121,1,8,0:0:0:0:
256,192,274188,1,8,0:0:0:0:
256,192,274256,1,8,0:0:0:0:
256,192,274323,1,0,0:0:0:0:
256,192,274424,1,0,0:0:0:0:
256,192,274525,1,8,0:0:0:0:
256,192,274728,1,8,0:0:0:0:
256,192,274778,1,8,0:0:0:0:
256,192,274829,1,8,0:0:0:0:
256,192,274880,1,8,0:0:0:0:
256,192,274930,1,8,0:0:0:0:
256,192,274981,1,8,0:0:0:0:
256,192,275031,1,8,0:0:0:0:
256,192,275082,1,8,0:0:0:0:
256,192,275133,1,0,0:0:0:0:
256,192,275234,1,0,0:0:0:0:
256,192,275284,1,0,0:0:0:0:
256,192,275335,1,8,0:0:0:0:
256,192,275436,1,0,0:0:0:0:
256,192,275537,1,0,0:0:0:0:
256,192,275588,1,0,0:0:0:0:
256,192,275638,1,8,0:0:0:0:
256,192,275740,1,0,0:0:0:0:
256,192,275841,1,8,0:0:0:0:
256,192,275891,1,8,0:0:0:0:
256,192,275942,1,0,0:0:0:0:
256,192,276043,1,8,0:0:0:0:
256,192,276144,1,0,0:0:0:0:
256,192,276195,1,0,0:0:0:0:
256,192,276246,1,8,0:0:0:0:
256,192,276296,1,0,0:0:0:0:
256,192,276347,1,8,0:0:0:0:
256,192,276397,1,8,0:0:0:0:
256,192,276448,1,0,0:0:0:0:
256,192,276498,1,0,0:0:0:0:
256,192,276549,1,8,0:0:0:0:
256,192,276650,1,8,0:0:0:0:
256,192,276751,1,0,0:0:0:0:
256,192,276853,1,0,0:0:0:0:
256,192,276954,1,8,0:0:0:0:
256,192,277156,1,8,0:0:0:0:
256,192,277257,1,0,0:0:0:0:
256,192,277358,1,8,0:0:0:0:
256,192,277460,1,8,0:0:0:0:
256,192,277561,1,4,0:0:0:0:
256,192,277966,1,8,0:0:0:0:
256,192,278067,1,0,0:0:0:0:
256,192,278269,1,0,0:0:0:0:
256,192,278370,1,4,0:0:0:0:
256,192,278471,1,0,0:0:0:0:
256,192,278573,1,8,0:0:0:0:
256,192,278775,1,8,0:0:0:0:
256,192,278977,1,0,0:0:0:0:
256,192,279180,1,0,0:0:0:0:
256,192,279281,1,0,0:0:0:0:
256,192,279382,1,0,0:0:0:0:
256,192,279483,1,0,0:0:0:0:
256,192,279584,1,8,0:0:0:0:
256,192,279686,1,8,0:0:0:0:
256,192,279787,1,0,0:0:0:0:
256,192,279888,1,8,0:0:0:0:
256,192,279989,1,0,0:0:0:0:
256,192,280090,1,8,0:0:0:0:
256,192,280141,1,8,0:0:0:0:
256,192,280192,1,8,0:0:0:0:
256,192,280293,1,8,0:0:0:0:
256,192,280394,1,0,0:0:0:0:
256,192,280596,1,8,0:0:0:0:
256,192,280799,1,8,0:0:0:0:
256,192,281001,1,0,0:0:0:0:
256,192,281102,1,0,0:0:0:0:
256,192,281305,1,8,0:0:0:0:
256,192,281608,1,4,0:0:0:0:
256,192,281709,1,12,0:0:0:0:
256,192,281912,1,4,0:0:0:0:
256,192,282013,1,12,0:0:0:0:
256,192,282215,1,4,0:0:0:0:
256,192,282316,1,12,0:0:0:0:
256,192,282519,1,4,0:0:0:0:
256,192,282620,1,12,0:0:0:0:
256,192,282721,1,12,0:0:0:0:
256,192,282822,1,4,0:0:0:0:
256,192,282923,1,4,0:0:0:0:
256,192,283025,1,12,0:0:0:0:
256,192,283227,1,12,0:0:0:0:
256,192,283328,1,12,0:0:0:0:
256,192,283530,1,12,0:0:0:0:
256,192,283632,1,12,0:0:0:0:
256,192,283834,1,4,0:0:0:0:
256,192,283935,1,12,0:0:0:0:
256,192,284138,1,4,0:0:0:0:
256,192,284239,1,12,0:0:0:0:
256,192,284340,1,12,0:0:0:0:
256,192,284441,1,4,0:0:0:0:
256,192,284542,1,4,0:0:0:0:
256,192,284643,1,12,0:0:0:0:
256,192,284745,1,4,0:0:0:0:
256,192,284846,1,12,0:0:0:0:
256,192,285048,1,12,0:0:0:0:
256,192,285251,1,12,0:0:0:0:
256,192,285453,1,4,0:0:0:0:
