osu file format v14

[General]
AudioFilename: audio.ogg
AudioLeadIn: 0
PreviewTime: 68196
Countdown: 0
SampleSet: Normal
StackLeniency: 0.7
Mode: 1
LetterboxInBreaks: 0
WidescreenStoryboard: 0

[Editor]
Bookmarks: 238,4237,9571,13571,14904,25571,36237,46904,57571,62904,68237,69571,90904,96237,101570,112237,122903,133570,136237,146903,157570,160237,181570,192236,202903,208236,212236,213403
DistanceSpacing: 0.3
BeatDivisor: 4
GridSize: 32
TimelineZoom: 4.099998

[Metadata]
Title:HUG AND KILL
TitleUnicode:HUG AND KILL
Artist:Kobaryo
ArtistUnicode:Kobaryo
Creator:KyeX
Version:CRY AND DIE
Source:
Tags:paz08 trollocat miyoi midnaait reficul electronic instrumental mixpeed psycho filth records action hardcore speedcore speed fa featured artist mappers' mappers guild mpg mg
BeatmapID:3796183
BeatmapSetID:1848009

[Difficulty]
HPDrainRate:2.7
CircleSize:3
OverallDifficulty:9.3
ApproachRate:10
SliderMultiplier:1.4
SliderTickRate:1

[Events]
//Background and Video events
0,0,"93331755_p0.jpg",0,0
//Break Periods
2,91061,95744
//Storyboard Layer 0 (Background)
//Storyboard Layer 1 (Fail)
//Storyboard Layer 2 (Pass)
//Storyboard Layer 3 (Foreground)
//Storyboard Layer 4 (Overlay)
//Storyboard Sound Samples

[TimingPoints]
195,333.333333333333,4,1,0,80,1,0
4184,-100,4,1,0,80,0,0
4518,-98.73846,4,1,0,81,0,0
4684,-98.117386,4,1,0,81,0,0
5018,-96.87959,4,1,0,82,0,0
5184,-96.270226,4,1,0,82,0,0
5518,-95.055725,4,1,0,83,0,0
5684,-94.457825,4,1,0,83,0,0
6018,-93.2662,4,1,0,84,0,0
6351,-92.093094,4,1,0,85,0,0
6518,-91.51035,4,1,0,85,0,0
6684,-90.93475,4,1,0,85,0,0
6851,-90.359344,4,1,0,86,0,0
7184,-89.22281,4,1,0,86,0,0
7351,-88.658226,4,1,0,87,0,0
7684,-87.54309,4,1,0,87,0,0
7851,-86.989136,4,1,0,88,0,0
8018,-86.43869,4,1,0,88,0,0
8101,-86.16641,4,1,0,88,0,0
8184,-85.89499,4,1,0,89,0,0
8351,-85.35147,4,1,0,89,0,0
8518,-84.81138,4,1,0,89,0,0
8684,-84.27792,4,1,0,90,0,0
8768,-84.009254,4,1,0,90,0,0
8851,-83.74464,4,1,0,90,0,0
9018,-83.214714,4,1,0,90,0,0
9184,-82.6913,4,1,0,91,0,0
9268,-82.42769,4,1,0,91,0,0
9351,-82.168045,4,1,0,91,0,0
9434,-81.90922,4,1,0,91,0,0
9518,-81.6481,4,1,0,91,0,0
9684,-81.13454,4,1,0,92,0,0
9768,-80.87589,4,1,0,92,0,0
9851,-80.62114,4,1,0,92,0,0
10018,-80.11099,4,1,0,93,0,0
10184,-79.60709,4,1,0,93,0,0
10351,-79.103355,4,1,0,93,0,0
10434,-78.85418,4,1,0,93,0,0
10518,-78.602806,4,1,0,94,0,0
10684,-78.1084,4,1,0,94,0,0
10851,-77.61415,4,1,0,94,0,0
10934,-77.36967,4,1,0,94,0,0
11018,-77.123024,4,1,0,95,0,0
11184,-76.63792,4,1,0,95,0,0
11351,-76.15298,4,1,0,95,0,0
11434,-75.91309,4,1,0,96,0,0
11518,-75.6711,4,1,0,96,0,0
11684,-75.19512,4,1,0,96,0,0
11768,-74.95542,4,1,0,96,0,0
11851,-74.719315,4,1,0,96,0,0
11934,-74.48395,4,1,0,97,0,0
12018,-74.246506,4,1,0,97,0,0
12184,-73.779495,4,1,0,97,0,0
12351,-73.31264,4,1,0,97,0,0
12435,-73.078926,4,1,0,98,0,0
12518,-72.84873,4,1,0,98,0,0
12685,-72.387764,4,1,0,98,0,0
12851,-71.93244,4,1,0,99,0,0
13018,-71.47727,4,1,0,99,0,0
13101,-71.25212,4,1,0,99,0,0
13185,-71.02499,4,1,0,99,0,0
13351,-70.57824,4,1,0,100,0,0
13434,-70.35592,4,1,0,100,0,0
13518,-70.13163,4,1,0,100,0,0
13685,-69.68786,4,1,0,100,0,0
13851,-69.24952,4,1,0,100,0,0
14018,-68.811325,4,1,0,100,0,0
14185,-68.37591,4,1,0,100,0,0
14351,-67.94582,4,1,0,100,0,0
14518,-67.515884,4,1,0,100,0,0
14601,-67.30321,4,1,0,100,0,0
14685,-67.08865,4,1,0,100,0,0
14768,-66.87733,4,1,0,100,0,0
14861,-66.666664,4,1,0,100,0,1
24018,-66.666664,4,1,0,100,0,1
24101,-66.55117,4,1,0,100,0,1
24184,-66.34102,4,1,0,100,0,1
24268,-66.06729,4,1,0,100,0,1
24351,-65.74968,4,1,0,100,0,1
24434,-65.39324,4,1,0,100,0,1
24518,-64.9988,4,1,0,100,0,1
24601,-64.58023,4,1,0,100,0,1
24684,-64.13667,4,1,0,100,0,1
24768,-63.665443,4,1,0,100,0,1
24851,-63.18047,4,1,0,100,0,1
24934,-62.67858,4,1,0,100,0,1
25018,-62.15557,4,1,0,100,0,1
25059,-61.89538,4,1,0,100,0,1
25101,-61.625782,4,1,0,100,0,1
25184,-61.08476,4,1,0,100,0,1
25226,-60.807213,4,1,0,100,0,1
25268,-60.527367,4,1,0,100,0,1
25309,-60.252155,4,1,0,100,0,1
25351,-59.968304,4,1,0,100,0,1
25393,-59.68267,4,1,0,100,0,1
25434,-59.402267,4,1,0,100,0,1
25476,-59.113564,4,1,0,100,0,1
25518,-58.82353,4,1,0,100,0,1
25601,-66.6666666666667,4,1,0,100,0,1
33184,-66.666664,4,1,0,100,0,1
33267,-66.60536,4,1,0,100,0,1
33351,-66.49201,4,1,0,100,0,1
33434,-66.34745,4,1,0,100,0,1
33517,-66.1772,4,1,0,100,0,1
33601,-65.98279,4,1,0,100,0,1
33684,-65.77163,4,1,0,100,0,1
33768,-65.540825,4,1,0,100,0,1
33850,-65.30058,4,1,0,100,0,1
33934,-65.04065,4,1,0,100,0,1
34018,-64.76796,4,1,0,100,0,1
34100,-64.490524,4,1,0,100,0,1
34184,-64.19577,4,1,0,100,0,1
34267,-63.894894,4,1,0,100,0,1
34351,-63.581455,4,1,0,100,0,1
34434,-63.263626,4,1,0,100,0,1
34517,-62.938385,4,1,0,100,0,1
34601,-62.602295,4,1,0,100,0,1
34684,-62.263943,4,1,0,100,0,1
34767,-61.91988,4,1,0,100,0,1
34850,-61.570614,4,1,0,100,0,1
34934,-61.212303,4,1,0,100,0,1
35017,-60.85393,4,1,0,100,0,1
35059,-60.671085,4,1,0,100,0,1
35100,-60.491665,4,1,0,100,0,1
35143,-60.30259,4,1,0,100,0,1
35184,-60.121464,4,1,0,100,0,1
35267,-59.752525,4,1,0,100,0,1
35350,-59.38079,4,1,0,100,0,1
35393,-59.187218,4,1,0,100,0,1
35434,-59.002068,4,1,0,100,0,1
35476,-58.81187,4,1,0,100,0,1
35517,-58.625698,4,1,0,100,0,1
35601,-58.2429,4,1,0,100,0,1
35684,-57.86308,4,1,0,100,0,1
35767,-57.481945,4,1,0,100,0,1
35850,-57.09974,4,1,0,100,0,1
35892,-56.90601,4,1,0,100,0,1
35934,-56.71209,4,1,0,100,0,1
35975,-56.522644,4,1,0,100,0,1
36017,-56.328445,4,1,0,100,0,1
36059,-56.13415,4,1,0,100,0,1
36100,-55.94441,4,1,0,100,0,1
36142,-55.749996,4,1,0,100,0,1
36194,-55.555557,4,1,0,100,0,0
36518,-83.33333,4,1,0,100,0,0
36851,-84.08909,4,1,0,100,0,0
37018,-84.73451,4,1,0,100,0,0
37351,-86.4058,4,1,0,100,0,0
37518,-87.42216,4,1,0,100,0,0
37684,-88.5477,4,1,0,100,0,0
37851,-89.79707,4,1,0,100,0,0
38018,-91.166725,4,1,0,100,0,0
38351,-94.27595,4,1,0,100,0,0
38518,-96.03804,4,1,0,100,0,0
38684,-97.93499,4,1,0,100,0,0
38851,-100,4,1,0,100,0,0
40684,-83.3333333333333,4,1,0,100,0,0
41518,-90.9090909090909,4,1,0,100,0,0
41851,-100,4,1,0,100,0,0
45518,-100,4,1,0,100,0,0
45684,-97.755104,4,1,0,100,0,0
45768,-96.63842,4,1,0,100,0,0
45851,-95.54755,4,1,0,100,0,0
46018,-93.38983,4,1,0,100,0,0
46101,-92.33563,4,1,0,100,0,0
46184,-91.293335,4,1,0,100,0,0
46351,-89.23169,4,1,0,100,0,0
46434,-88.22443,4,1,0,100,0,0
46518,-87.21661,4,1,0,100,0,0
46601,-86.23209,4,1,0,100,0,0
46684,-85.2587,4,1,0,100,0,0
46768,-84.284744,4,1,0,100,0,0
46851,-83.33333,4,1,0,100,0,0
56518,-83.33333,4,1,0,100,0,0
56601,-82.78153,4,1,0,100,0,0
56684,-82.23339,4,1,0,100,0,0
56768,-81.68234,4,1,0,100,0,0
56851,-81.14149,4,1,0,100,0,0
56934,-80.60421,4,1,0,100,0,0
57018,-80.06407,4,1,0,100,0,0
57101,-79.53392,4,1,0,100,0,0
57184,-79.007286,4,1,0,100,0,0
57268,-78.47786,4,1,0,100,0,0
57351,-77.95821,4,1,0,100,0,0
57434,-77.44202,4,1,0,100,0,0
57518,-76.923065,4,1,0,100,0,0
57601,-100,4,1,0,90,0,0
65517,-100,4,1,0,90,0,0
65684,-99.883835,4,1,0,90,0,0
65851,-99.53413,4,1,0,90,0,0
65934,-99.27486,4,1,0,90,0,0
66101,-98.58566,4,1,0,90,0,0
66267,-97.68686,4,1,0,90,0,0
66351,-97.15453,4,1,0,90,0,0
66517,-95.957855,4,1,0,90,0,0
66601,-95.28293,4,1,0,90,0,0
66684,-94.57294,4,1,0,90,0,0
66768,-93.81294,4,1,0,90,0,0
66851,-93.023254,4,1,0,90,0,0
66934,-92.19729,4,1,0,90,0,0
67017,-91.33731,4,1,0,90,0,0
67184,-89.49076,4,1,0,90,0,0
67267,-88.56484,4,1,0,90,0,0
67434,-86.583824,4,1,0,90,0,0
67601,-84.520966,4,1,0,90,0,0
67684,-83.47078,4,1,0,90,0,0
67767,-82.40686,4,1,0,90,0,0
67851,-81.31822,4,1,0,90,0,0
67934,-80.23274,4,1,0,90,0,0
68017,-79.13943,4,1,0,90,0,0
68101,-78.026794,4,1,0,90,0,0
68184,-76.92308,4,1,0,90,0,0
69188,-80,4,1,0,90,0,0
69528,166.666666666667,4,1,0,100,1,1
90861,333.333333333333,4,1,0,100,1,0
90861,-50,4,1,0,100,0,0
92171,-55.553818,4,1,0,93,0,0
93505,-66.67167,4,1,0,85,0,0
94838,-83.337234,4,1,0,77,0,0
96184,-99.999985,4,1,0,70,0,0
96517,-99.973366,4,1,0,72,0,0
96684,-99.92874,4,1,0,73,0,0
97017,-99.751564,4,1,0,75,0,0
97184,-99.61078,4,1,0,76,0,0
97351,-99.43103,4,1,0,77,0,0
97517,-99.211075,4,1,0,78,0,0
97851,-98.63487,4,1,0,79,0,0
98017,-98.2785,4,1,0,80,0,0
98350,-97.416885,4,1,0,82,0,0
98517,-96.909325,4,1,0,83,0,0
98684,-96.350746,4,1,0,84,0,0
98850,-95.74486,4,1,0,85,0,0
99184,-94.37378,4,1,0,87,0,0
99350,-93.61805,4,1,0,88,0,0
99684,-91.95309,4,1,0,90,0,0
99851,-91.05105,4,1,0,91,0,0
100017,-90.110664,4,1,0,92,0,0
100100,-89.6247,4,1,0,92,0,0
100184,-89.12253,4,1,0,93,0,0
100350,-88.10054,4,1,0,93,0,0
100517,-87.03465,4,1,0,94,0,0
100684,-85.9333,4,1,0,95,0,0
100850,-84.80586,4,1,0,96,0,0
101017,-83.64136,4,1,0,97,0,0
101184,-82.44915,4,1,0,98,0,0
101350,-81.23932,4,1,0,99,0,0
101434,-80.61856,4,1,0,100,0,0
101517,-80,4,1,0,100,0,0
111184,-80,4,1,0,100,0,0
111267,-79.49061,4,1,0,100,0,0
111350,-78.98446,4,1,0,100,0,0
111434,-78.47549,4,1,0,100,0,0
111517,-77.9758,4,1,0,100,0,0
111600,-77.479294,4,1,0,100,0,0
111684,-76.98004,4,1,0,100,0,0
111767,-76.48987,4,1,0,100,0,0
111850,-76.00283,4,1,0,100,0,0
111934,-75.51308,4,1,0,100,0,0
112017,-75.03225,4,1,0,100,0,0
112100,-74.55449,4,1,0,100,0,0
112184,-74.074066,4,1,0,100,0,0
121350,-74.074066,4,1,0,100,0,0
121433,-73.64347,4,1,0,100,0,0
121516,-73.215385,4,1,0,100,0,0
121600,-72.784676,4,1,0,100,0,0
121683,-72.36158,4,1,0,100,0,0
121766,-71.94094,4,1,0,100,0,0
121850,-71.51773,4,1,0,100,0,0
121933,-71.102,4,1,0,100,0,0
122016,-70.68868,4,1,0,100,0,0
122100,-70.27283,4,1,0,100,0,0
122184,-69.859436,4,1,0,100,0,0
122255,-69.51191,4,1,0,100,0,0
122350,-69.049614,4,1,0,100,0,0
122423,-68.69646,4,1,0,100,0,0
122517,-68.244385,4,1,0,100,0,0
122600,-67.84768,4,1,0,100,0,0
122683,-67.453285,4,1,0,100,0,0
122766,-67.06118,4,1,0,100,0,0
122850,-66.666664,4,1,0,100,0,0
122934,-95.2380952380952,4,1,0,95,0,0
129683,-95.2381,4,1,0,95,0,0
129849,-95.23732,4,1,0,95,0,0
129933,-95.23543,4,1,0,95,0,0
130099,-95.22575,4,1,0,95,0,0
130266,-95.20407,4,1,0,95,0,0
130350,-95.18711,4,1,0,95,0,0
130516,-95.138756,4,1,0,95,0,0
130683,-95.06626,4,1,0,95,0,0
130766,-95.019875,4,1,0,95,0,0
130849,-94.96586,4,1,0,95,0,0
131016,-94.831795,4,1,0,95,0,0
131183,-94.66005,4,1,0,95,0,0
131266,-94.55934,4,1,0,95,0,0
131433,-94.32319,4,1,0,95,0,0
131599,-94.04077,4,1,0,95,0,0
131683,-93.87855,4,1,0,95,0,0
131849,-93.517586,4,1,0,95,0,0
131933,-93.31365,4,1,0,95,0,0
132016,-93.0976,4,1,0,95,0,0
132100,-92.86384,4,1,0,95,0,0
132183,-92.61761,4,1,0,95,0,0
132266,-92.3559,4,1,0,95,0,0
132349,-92.07844,4,1,0,95,0,0
132518,-91.46377,4,1,0,95,0,0
132599,-91.14513,4,1,0,95,0,0
132766,-90.43811,4,1,0,95,0,0
132933,-89.662994,4,1,0,95,0,0
133016,-89.252266,4,1,0,95,0,0
133099,-88.824585,4,1,0,95,0,0
133183,-88.374535,4,1,0,95,0,0
133266,-87.912895,4,1,0,95,0,0
133349,-87.434494,4,1,0,95,0,0
133433,-86.93341,4,1,0,95,0,0
133516,-86.42173,4,1,0,95,0,0
133600,-85.88732,4,1,0,95,0,0
133684,-85.33651,4,1,0,95,0,0
133767,-84.77637,4,1,0,95,0,0
133850,-84.20076,4,1,0,95,0,0
133934,-83.60279,4,1,0,95,0,0
134017,-82.99703,4,1,0,95,0,0
134100,-82.37686,4,1,0,95,0,0
134184,-81.73493,4,1,0,95,0,0
134267,-81.086975,4,1,0,95,0,0
134350,-80.42587,4,1,0,95,0,0
134434,-79.74392,4,1,0,95,0,0
134517,-79.05783,4,1,0,95,0,0
134600,-78.3601,4,1,0,95,0,0
134684,-77.64264,4,1,0,95,0,0
134767,-76.92308,4,1,0,95,0,0
134850,-76.92308,4,1,0,80,0,0
136184,-125,4,1,0,80,0,0
141517,-125,4,1,0,80,0,0
141850,-124.908714,4,1,0,80,0,0
142184,-124.56546,4,1,0,80,0,0
142350,-124.28515,4,1,0,80,0,0
142684,-123.48342,4,1,0,80,0,0
143017,-122.35651,4,1,0,80,0,0
143184,-121.66672,4,1,0,80,0,0
143517,-120.0454,4,1,0,80,0,0
143850,-118.10669,4,1,0,80,0,0
144184,-115.86227,4,1,0,80,0,0
144350,-114.64271,4,1,0,81,0,0
144517,-113.35088,4,1,0,82,0,0
144600,-112.68583,4,1,0,82,0,0
144767,-111.304,4,1,0,83,0,0
144934,-109.86735,4,1,0,84,0,0
145017,-109.134285,4,1,0,84,0,0
145100,-108.38933,4,1,0,85,0,0
145184,-107.623856,4,1,0,85,0,0
145350,-106.07927,4,1,0,86,0,0
145517,-104.48647,4,1,0,87,0,0
145684,-102.85929,4,1,0,88,0,0
145767,-102.039185,4,1,0,88,0,0
145934,-100.369026,4,1,0,89,0,0
146100,-98.68595,4,1,0,90,0,0
146184,-97.82693,4,1,0,90,0,0
146850,-90.90909,4,1,0,100,0,0
156184,-90.90909,4,1,0,100,0,0
156350,-90.40724,4,1,0,100,0,0
156517,-89.90517,4,1,0,100,0,0
156684,-89.405876,4,1,0,100,0,0
156850,-88.91233,4,1,0,100,0,0
156934,-88.66362,4,1,0,100,0,0
157017,-88.41856,4,1,0,100,0,0
157100,-88.174164,4,1,0,100,0,0
157184,-87.92753,4,1,0,100,0,0
157350,-87.44214,4,1,0,100,0,0
157434,-87.19754,4,1,0,100,0,0
157517,-86.956535,4,1,0,95,0,0
157684,-87.619576,4,1,0,95,0,0
157850,-88.283676,4,1,0,95,0,0
157934,-88.62164,4,1,0,95,0,0
158100,-89.29332,4,1,0,95,0,0
158267,-89.97419,4,1,0,95,0,0
158350,-90.31451,4,1,0,95,0,0
158434,-90.66025,4,1,0,95,0,0
158517,-91.00317,4,1,0,95,0,0
158684,-91.697075,4,1,0,95,0,0
158850,-92.392075,4,1,0,95,0,0
159017,-93.09656,4,1,0,95,0,0
159100,-93.44871,4,1,0,95,0,0
159267,-94.16125,4,1,0,95,0,0
159434,-94.879234,4,1,0,95,0,0
159517,-95.23811,4,1,0,95,0,0
159851,-80.0000104159994,4,1,0,95,0,0
160194,166.666666666667,4,1,0,100,1,1
170444,-100,4,1,0,100,0,1
170476,-99.75101,4,1,0,100,0,1
170518,-99.50264,4,1,0,100,0,1
170559,-99.26078,4,1,0,100,0,1
170601,-99.013626,4,1,0,100,0,1
170643,-98.767105,4,1,0,100,0,1
170684,-98.52703,4,1,0,100,0,1
170726,-98.28171,4,1,0,100,0,1
170768,-98.036995,4,1,0,100,0,1
170809,-97.7987,4,1,0,100,0,1
170850,-97.560974,4,1,0,100,0,1
178267,-97.560974,4,1,0,100,0,1
178309,-97.39177,4,1,0,100,0,1
178350,-97.226845,4,1,0,100,0,1
178392,-97.0582,4,1,0,100,0,1
178434,-96.889854,4,1,0,100,0,1
178475,-96.7258,4,1,0,100,0,1
178517,-96.55803,4,1,0,100,0,1
178559,-96.39055,4,1,0,100,0,1
178600,-96.22733,4,1,0,100,0,1
178642,-96.06043,4,1,0,100,0,1
178684,-95.893814,4,1,0,100,0,1
178725,-95.73144,4,1,0,100,0,1
178767,-95.56539,4,1,0,100,0,1
178809,-95.399635,4,1,0,100,0,1
178860,-95.35788,4,1,0,100,0,0
179511,-103.0112,4,1,0,100,0,0
180021,-110.42287,4,1,0,100,0,0
180104,-111.58085,4,1,0,100,0,0
180188,-112.76517,4,1,0,100,0,0
180354,-115.14267,4,1,0,100,0,0
180521,-117.58508,4,1,0,100,0,0
180688,-120.07931,4,1,0,100,0,0
180854,-122.61103,4,1,0,100,0,0
181021,-125.21186,4,1,0,100,0,0
181188,-127.867874,4,1,0,100,0,0
181229,-128.52852,4,1,0,100,0,0
181271,-129.2088,4,1,0,100,0,0
181313,-129.8927,4,1,0,100,0,0
181354,-130.5638,4,1,0,100,0,0
181438,-131.9496,4,1,0,100,0,0
181527,333.333333333333,4,1,0,100,1,0
181527,-66.666664,4,1,0,100,0,0
190683,-66.666664,4,1,0,100,0,0
190766,-66.55117,4,1,0,100,0,0
190849,-66.34102,4,1,0,100,0,0
190933,-66.06729,4,1,0,100,0,0
191016,-65.74968,4,1,0,100,0,0
191099,-65.39324,4,1,0,100,0,0
191183,-64.9988,4,1,0,100,0,0
191239,-64.7193,4,1,0,100,0,0
191294,-64.43323,4,1,0,100,0,0
191349,-64.13667,4,1,0,100,0,0
191433,-63.665443,4,1,0,100,0,0
191516,-63.18047,4,1,0,100,0,0
191572,-62.84357,4,1,0,100,0,0
191628,-62.499638,4,1,0,100,0,0
191683,-62.15557,4,1,0,100,0,0
191766,-61.625782,4,1,0,100,0,0
191849,-61.08476,4,1,0,100,0,0
191905,-60.714176,4,1,0,100,0,0
191961,-60.339626,4,1,0,100,0,0
192016,-59.968304,4,1,0,100,0,0
192072,-59.58709,4,1,0,100,0,0
192128,-59.203075,4,1,0,100,0,0
192183,-58.82353,4,1,0,100,0,0
192267,-72.7272727272727,4,1,0,100,0,0
197516,-72.72727,4,1,0,100,0,0
197600,-72.727066,4,1,0,100,0,0
197683,-72.72613,4,1,0,100,0,0
197766,-72.72414,4,1,0,100,0,0
197850,-72.72079,4,1,0,100,0,0
197933,-72.71597,4,1,0,100,0,0
198016,-72.70949,4,1,0,100,0,0
198100,-72.70106,4,1,0,100,0,0
198183,-72.690735,4,1,0,100,0,0
198266,-72.67829,4,1,0,100,0,0
198350,-72.66342,4,1,0,100,0,0
198433,-72.64634,4,1,0,100,0,0
198516,-72.6268,4,1,0,100,0,0
198600,-72.604385,4,1,0,100,0,0
198683,-72.579544,4,1,0,100,0,0
198766,-72.551926,4,1,0,100,0,0
198850,-72.52105,4,1,0,100,0,0
198933,-72.48757,4,1,0,100,0,0
199016,-72.45106,4,1,0,100,0,0
199100,-72.41093,4,1,0,100,0,0
199183,-72.36805,4,1,0,100,0,0
199266,-72.321915,4,1,0,100,0,0
199350,-72.27183,4,1,0,100,0,0
199433,-72.2189,4,1,0,100,0,0
199516,-72.16251,4,1,0,100,0,0
199600,-72.10186,4,1,0,100,0,0
199683,-72.03832,4,1,0,100,0,0
199766,-71.97115,4,1,0,100,0,0
199850,-71.89942,4,1,0,100,0,0
199933,-71.82479,4,1,0,100,0,0
200016,-71.74637,4,1,0,100,0,0
200100,-71.663124,4,1,0,100,0,0
200183,-71.57699,4,1,0,100,0,0
200266,-71.48695,4,1,0,100,0,0
200350,-71.39184,4,1,0,100,0,0
200433,-71.29387,4,1,0,100,0,0
200516,-71.19192,4,1,0,100,0,0
200600,-71.084656,4,1,0,100,0,0
200683,-70.97461,4,1,0,100,0,0
200766,-70.86052,4,1,0,100,0,0
200850,-70.740906,4,1,0,100,0,0
200933,-70.618614,4,1,0,100,0,0
201016,-70.49223,4,1,0,100,0,0
201100,-70.360146,4,1,0,100,0,0
201183,-70.2255,4,1,0,100,0,0
201266,-70.086754,4,1,0,100,0,0
201350,-69.942154,4,1,0,100,0,0
201433,-69.79514,4,1,0,100,0,0
201516,-69.64402,4,1,0,100,0,0
201600,-69.486916,4,1,0,100,0,0
201683,-69.327576,4,1,0,100,0,0
201766,-69.16417,4,1,0,100,0,0
201850,-68.99467,4,1,0,100,0,0
201933,-68.82311,4,1,0,100,0,0
202016,-68.647545,4,1,0,100,0,0
202100,-68.4658,4,1,0,100,0,0
202183,-68.28222,4,1,0,100,0,0
202266,-68.0947,4,1,0,100,0,0
202350,-67.90094,4,1,0,100,0,0
202433,-67.70559,4,1,0,100,0,0
202516,-67.506386,4,1,0,100,0,0
202600,-67.300896,4,1,0,100,0,0
202683,-67.09407,4,1,0,100,0,0
202766,-66.883514,4,1,0,100,0,0
202850,-66.666664,4,1,0,80,0,0
203183,-98.73846,4,1,0,81,0,0
203349,-98.117386,4,1,0,81,0,0
203683,-96.87959,4,1,0,82,0,0
203849,-96.270226,4,1,0,82,0,0
204183,-95.055725,4,1,0,83,0,0
204349,-94.457825,4,1,0,83,0,0
204683,-93.2662,4,1,0,84,0,0
205016,-92.093094,4,1,0,85,0,0
205183,-91.51035,4,1,0,85,0,0
205349,-90.93475,4,1,0,85,0,0
205516,-90.359344,4,1,0,86,0,0
205849,-89.22281,4,1,0,86,0,0
206016,-88.658226,4,1,0,87,0,0
206349,-87.54309,4,1,0,87,0,0
206516,-86.989136,4,1,0,88,0,0
206683,-86.43869,4,1,0,88,0,0
206766,-86.16641,4,1,0,88,0,0
206849,-85.89499,4,1,0,89,0,0
207016,-85.35147,4,1,0,89,0,0
207183,-84.81138,4,1,0,89,0,0
207349,-84.27792,4,1,0,90,0,0
207433,-84.009254,4,1,0,90,0,0
207516,-83.74464,4,1,0,90,0,0
207683,-83.214714,4,1,0,90,0,0
207849,-82.6913,4,1,0,91,0,0
207933,-82.42769,4,1,0,91,0,0
208016,-82.168045,4,1,0,91,0,0
208099,-81.90922,4,1,0,91,0,0
208183,-81.6481,4,1,0,91,0,0
208349,-81.13454,4,1,0,92,0,0
208433,-80.87589,4,1,0,92,0,0
208516,-80.62114,4,1,0,92,0,0
208683,-80.11099,4,1,0,93,0,0
208849,-79.60709,4,1,0,93,0,0
209016,-79.103355,4,1,0,93,0,0
209099,-78.85418,4,1,0,93,0,0
209183,-78.602806,4,1,0,94,0,0
209349,-78.1084,4,1,0,94,0,0
209516,-77.61415,4,1,0,94,0,0
209599,-77.36967,4,1,0,94,0,0
209683,-77.123024,4,1,0,95,0,0
209849,-76.63792,4,1,0,95,0,0
210016,-76.15298,4,1,0,95,0,0
210099,-75.91309,4,1,0,96,0,0
210183,-75.6711,4,1,0,96,0,0
210349,-75.19512,4,1,0,96,0,0
210433,-74.95542,4,1,0,96,0,0
210516,-74.719315,4,1,0,96,0,0
210599,-74.48395,4,1,0,97,0,0
210683,-74.246506,4,1,0,97,0,0
210849,-73.779495,4,1,0,97,0,0
211016,-73.31264,4,1,0,97,0,0
211100,-73.078926,4,1,0,98,0,0
211183,-72.84873,4,1,0,98,0,0
211350,-72.387764,4,1,0,98,0,0
211516,-71.93244,4,1,0,99,0,0
211683,-71.47727,4,1,0,99,0,0
211766,-71.25212,4,1,0,99,0,0
211850,-71.02499,4,1,0,99,0,0
212016,-70.57824,4,1,0,100,0,0
212099,-70.35592,4,1,0,100,0,0
212183,-70.13163,4,1,0,100,0,0
212350,-69.68786,4,1,0,100,0,0
212516,-69.24952,4,1,0,100,0,0
212683,-68.811325,4,1,0,100,0,0
212850,-68.37591,4,1,0,100,0,0
213016,-67.94582,4,1,0,100,0,0
213183,-67.515884,4,1,0,100,0,0
213350,-67.08865,4,1,0,100,0,0

[HitObjects]
256,192,4194,5,0,0:0:0:0:
256,192,4528,1,8,0:0:0:0:
256,192,4694,1,0,0:0:0:0:
256,192,5028,1,0,0:0:0:0:
256,192,5194,1,8,0:0:0:0:
256,192,5528,1,8,0:0:0:0:
256,192,5694,1,0,0:0:0:0:
256,192,6028,1,8,0:0:0:0:
256,192,6361,1,8,0:0:0:0:
256,192,6528,1,8,0:0:0:0:
256,192,6694,1,0,0:0:0:0:
256,192,6861,1,0,0:0:0:0:
256,192,7194,1,8,0:0:0:0:
256,192,7361,1,0,0:0:0:0:
256,192,7694,1,0,0:0:0:0:
256,192,7861,1,8,0:0:0:0:
256,192,8028,1,0,0:0:0:0:
256,192,8111,1,0,0:0:0:0:
256,192,8194,1,8,0:0:0:0:
256,192,8361,1,8,0:0:0:0:
256,192,8528,1,0,0:0:0:0:
256,192,8694,1,8,0:0:0:0:
256,192,8778,1,8,0:0:0:0:
256,192,8861,1,0,0:0:0:0:
256,192,9028,1,8,0:0:0:0:
256,192,9194,1,0,0:0:0:0:
256,192,9278,1,8,0:0:0:0:
256,192,9361,1,0,0:0:0:0:
256,192,9444,1,0,0:0:0:0:
256,192,9528,1,8,0:0:0:0:
256,192,9694,1,0,0:0:0:0:
256,192,9778,1,0,0:0:0:0:
256,192,9861,1,8,0:0:0:0:
256,192,10028,1,8,0:0:0:0:
256,192,10194,1,0,0:0:0:0:
256,192,10361,1,8,0:0:0:0:
256,192,10444,1,0,0:0:0:0:
256,192,10528,1,8,0:0:0:0:
256,192,10694,1,8,0:0:0:0:
256,192,10861,1,0,0:0:0:0:
256,192,10944,1,8,0:0:0:0:
256,192,11028,1,0,0:0:0:0:
256,192,11194,1,8,0:0:0:0:
256,192,11361,1,8,0:0:0:0:
256,192,11444,1,0,0:0:0:0:
256,192,11528,1,0,0:0:0:0:
256,192,11694,1,8,0:0:0:0:
256,192,11778,1,0,0:0:0:0:
256,192,11861,1,8,0:0:0:0:
256,192,11944,1,8,0:0:0:0:
256,192,12028,1,0,0:0:0:0:
256,192,12194,1,8,0:0:0:0:
256,192,12361,1,0,0:0:0:0:
256,192,12444,1,0,0:0:0:0:
256,192,12528,1,8,0:0:0:0:
256,192,12694,1,8,0:0:0:0:
256,192,12861,1,0,0:0:0:0:
256,192,13028,1,8,0:0:0:0:
256,192,13111,1,0,0:0:0:0:
256,192,13194,1,8,0:0:0:0:
256,192,13361,1,8,0:0:0:0:
256,192,13444,1,8,0:0:0:0:
256,192,13528,1,4,0:0:0:0:
256,192,13694,1,8,0:0:0:0:
256,192,13861,1,8,0:0:0:0:
256,192,14028,1,4,0:0:0:0:
256,192,14194,1,8,0:0:0:0:
256,192,14361,1,8,0:0:0:0:
256,192,14528,1,8,0:0:0:0:
256,192,14611,1,8,0:0:0:0:
256,192,14694,1,0,0:0:0:0:
256,192,14778,1,0,0:0:0:0:
256,192,14861,1,12,0:0:0:0:
256,192,15028,1,0,0:0:0:0:
256,192,15194,1,8,0:0:0:0:
256,192,15278,1,8,0:0:0:0:
256,192,15444,1,0,0:0:0:0:
256,192,15611,1,8,0:0:0:0:
256,192,15694,1,0,0:0:0:0:
256,192,15861,1,8,0:0:0:0:
256,192,16028,1,0,0:0:0:0:
256,192,16111,1,0,0:0:0:0:
256,192,16194,1,8,0:0:0:0:
256,192,16361,1,0,0:0:0:0:
256,192,16528,1,8,0:0:0:0:
256,192,16611,1,0,0:0:0:0:
256,192,16778,1,8,0:0:0:0:
256,192,16944,1,0,0:0:0:0:
256,192,17028,1,8,0:0:0:0:
256,192,17194,1,8,0:0:0:0:
256,192,17278,1,8,0:0:0:0:
256,192,17361,1,0,0:0:0:0:
256,192,17444,1,0,0:0:0:0:
256,192,17528,1,8,0:0:0:0:
256,192,17694,1,0,0:0:0:0:
256,192,17861,1,8,0:0:0:0:
256,192,17944,1,8,0:0:0:0:
256,192,18111,1,0,0:0:0:0:
256,192,18278,1,8,0:0:0:0:
256,192,18361,1,0,0:0:0:0:
256,192,18444,1,0,0:0:0:0:
256,192,18528,1,8,0:0:0:0:
256,192,18694,1,0,0:0:0:0:
256,192,18861,1,0,0:0:0:0:
256,192,18944,1,8,0:0:0:0:
256,192,19028,1,0,0:0:0:0:
256,192,19111,1,0,0:0:0:0:
256,192,19194,1,8,0:0:0:0:
256,192,19361,1,0,0:0:0:0:
256,192,19444,1,0,0:0:0:0:
256,192,19611,1,8,0:0:0:0:
256,192,19778,1,0,0:0:0:0:
256,192,19861,1,8,0:0:0:0:
256,192,19944,1,8,0:0:0:0:
256,192,20028,1,0,0:0:0:0:
256,192,20111,1,0,0:0:0:0:
256,192,20194,1,12,0:0:0:0:
256,192,20361,1,0,0:0:0:0:
256,192,20528,1,8,0:0:0:0:
256,192,20611,1,8,0:0:0:0:
256,192,20778,1,0,0:0:0:0:
256,192,20944,1,8,0:0:0:0:
256,192,21028,1,0,0:0:0:0:
256,192,21194,1,8,0:0:0:0:
256,192,21361,1,0,0:0:0:0:
256,192,21444,1,0,0:0:0:0:
256,192,21528,1,8,0:0:0:0:
256,192,21694,1,0,0:0:0:0:
256,192,21861,1,8,0:0:0:0:
256,192,21944,1,0,0:0:0:0:
256,192,22111,1,8,0:0:0:0:
256,192,22278,1,0,0:0:0:0:
256,192,22361,1,8,0:0:0:0:
256,192,22528,1,8,0:0:0:0:
256,192,22611,1,8,0:0:0:0:
256,192,22694,1,8,0:0:0:0:
256,192,22778,1,0,0:0:0:0:
256,192,22861,1,8,0:0:0:0:
256,192,23028,1,0,0:0:0:0:
256,192,23194,1,8,0:0:0:0:
256,192,23278,1,8,0:0:0:0:
256,192,23444,1,0,0:0:0:0:
256,192,23611,1,8,0:0:0:0:
256,192,23694,1,8,0:0:0:0:
256,192,23778,1,0,0:0:0:0:
256,192,23861,1,8,0:0:0:0:
256,192,24028,1,0,0:0:0:0:
256,192,24111,1,0,0:0:0:0:
256,192,24194,1,8,0:0:0:0:
256,192,24278,1,8,0:0:0:0:
256,192,24361,1,0,0:0:0:0:
256,192,24444,1,0,0:0:0:0:
256,192,24528,1,8,0:0:0:0:
256,192,24611,1,0,0:0:0:0:
256,192,24694,1,8,0:0:0:0:
256,192,24778,1,8,0:0:0:0:
256,192,24861,1,0,0:0:0:0:
256,192,24944,1,8,0:0:0:0:
256,192,25028,1,0,0:0:0:0:
256,192,25069,1,0,0:0:0:0:
256,192,25111,1,0,0:0:0:0:
256,192,25194,1,8,0:0:0:0:
256,192,25236,1,8,0:0:0:0:
256,192,25278,1,0,0:0:0:0:
256,192,25319,1,0,0:0:0:0:
256,192,25361,1,8,0:0:0:0:
256,192,25403,1,8,0:0:0:0:
256,192,25444,1,8,0:0:0:0:
256,192,25486,1,8,0:0:0:0:
256,192,25528,1,0,0:0:0:0:
256,192,25694,1,0,0:0:0:0:
256,192,25861,1,8,0:0:0:0:
256,192,25944,1,8,0:0:0:0:
256,192,26111,1,0,0:0:0:0:
256,192,26278,1,8,0:0:0:0:
256,192,26361,1,0,0:0:0:0:
256,192,26444,1,0,0:0:0:0:
256,192,26528,1,8,0:0:0:0:
256,192,26694,1,0,0:0:0:0:
256,192,26778,1,0,0:0:0:0:
256,192,26861,1,8,0:0:0:0:
256,192,27028,1,0,0:0:0:0:
256,192,27194,1,8,0:0:0:0:
256,192,27278,1,0,0:0:0:0:
256,192,27444,1,8,0:0:0:0:
256,192,27611,1,0,0:0:0:0:
256,192,27694,1,8,0:0:0:0:
256,192,27861,1,8,0:0:0:0:
256,192,27944,1,8,0:0:0:0:
256,192,28028,1,0,0:0:0:0:
256,192,28111,1,0,0:0:0:0:
256,192,28194,1,8,0:0:0:0:
256,192,28361,1,0,0:0:0:0:
256,192,28528,1,8,0:0:0:0:
256,192,28611,1,8,0:0:0:0:
256,192,28778,1,0,0:0:0:0:
256,192,28944,1,8,0:0:0:0:
256,192,29028,1,0,0:0:0:0:
256,192,29111,1,0,0:0:0:0:
256,192,29194,1,8,0:0:0:0:
256,192,29361,1,0,0:0:0:0:
256,192,29528,1,0,0:0:0:0:
256,192,29611,1,8,0:0:0:0:
256,192,29694,1,0,0:0:0:0:
256,192,29778,1,0,0:0:0:0:
256,192,29861,1,8,0:0:0:0:
256,192,30028,1,0,0:0:0:0:
256,192,30111,1,0,0:0:0:0:
256,192,30278,1,8,0:0:0:0:
256,192,30444,1,0,0:0:0:0:
256,192,30528,1,8,0:0:0:0:
256,192,30611,1,8,0:0:0:0:
256,192,30694,1,0,0:0:0:0:
256,192,30778,1,0,0:0:0:0:
256,192,30861,1,12,0:0:0:0:
256,192,31028,1,0,0:0:0:0:
256,192,31194,1,8,0:0:0:0:
256,192,31278,1,8,0:0:0:0:
256,192,31444,1,0,0:0:0:0:
256,192,31611,1,8,0:0:0:0:
256,192,31694,1,0,0:0:0:0:
256,192,31778,1,0,0:0:0:0:
256,192,31861,1,8,0:0:0:0:
256,192,32028,1,0,0:0:0:0:
256,192,32111,1,0,0:0:0:0:
256,192,32194,1,8,0:0:0:0:
256,192,32361,1,0,0:0:0:0:
256,192,32528,1,8,0:0:0:0:
256,192,32611,1,8,0:0:0:0:
256,192,32694,1,0,0:0:0:0:
256,192,32778,1,8,0:0:0:0:
256,192,32944,1,0,0:0:0:0:
256,192,33028,1,8,0:0:0:0:
256,192,33194,1,8,0:0:0:0:
256,192,33278,1,8,0:0:0:0:
256,192,33361,1,8,0:0:0:0:
256,192,33444,1,0,0:0:0:0:
256,192,33528,1,8,0:0:0:0:
256,192,33611,1,8,0:0:0:0:
256,192,33694,1,0,0:0:0:0:
256,192,33778,1,0,0:0:0:0:
256,192,33861,1,8,0:0:0:0:
256,192,33944,1,0,0:0:0:0:
256,192,34028,1,8,0:0:0:0:
256,192,34111,1,8,0:0:0:0:
256,192,34194,1,0,0:0:0:0:
256,192,34278,1,8,0:0:0:0:
256,192,34361,1,0,0:0:0:0:
256,192,34444,1,0,0:0:0:0:
256,192,34528,1,8,0:0:0:0:
256,192,34611,1,8,0:0:0:0:
256,192,34694,1,0,0:0:0:0:
256,192,34778,1,0,0:0:0:0:
256,192,34861,1,8,0:0:0:0:
256,192,34944,1,0,0:0:0:0:
256,192,35028,1,8,0:0:0:0:
256,192,35069,1,8,0:0:0:0:
256,192,35111,1,8,0:0:0:0:
256,192,35153,1,8,0:0:0:0:
256,192,35194,1,0,0:0:0:0:
256,192,35278,1,0,0:0:0:0:
256,192,35361,1,8,0:0:0:0:
256,192,35403,1,8,0:0:0:0:
256,192,35444,1,8,0:0:0:0:
256,192,35486,1,8,0:0:0:0:
256,192,35528,1,0,0:0:0:0:
256,192,35611,1,0,0:0:0:0:
256,192,35694,1,8,0:0:0:0:
256,192,35778,1,0,0:0:0:0:
256,192,35861,1,8,0:0:0:0:
256,192,35903,1,8,0:0:0:0:
256,192,35944,1,0,0:0:0:0:
256,192,35986,1,0,0:0:0:0:
256,192,36028,1,8,0:0:0:0:
256,192,36069,1,8,0:0:0:0:
256,192,36111,1,8,0:0:0:0:
256,192,36153,1,8,0:0:0:0:
256,192,36194,1,0,0:0:0:0:
256,192,36528,1,8,0:0:0:0:
256,192,36861,1,8,0:0:0:0:
256,192,37028,1,0,0:0:0:0:
256,192,37361,1,0,0:0:0:0:
256,192,37694,1,8,0:0:0:0:
256,192,37861,1,0,0:0:0:0:
256,192,38028,1,0,0:0:0:0:
256,192,38361,1,0,0:0:0:0:
256,192,38528,1,8,0:0:0:0:
256,192,38694,1,8,0:0:0:0:
256,192,38861,1,0,0:0:0:0:
256,192,39194,1,0,0:0:0:0:
256,192,39528,1,8,0:0:0:0:
256,192,39694,1,0,0:0:0:0:
256,192,40028,1,0,0:0:0:0:
256,192,40194,1,0,0:0:0:0:
256,192,40528,1,0,0:0:0:0:
256,192,40694,1,12,0:0:0:0:
256,192,41028,1,12,0:0:0:0:
256,192,41194,1,12,0:0:0:0:
256,192,41528,1,4,0:0:0:0:
256,192,41861,1,8,0:0:0:0:
256,192,42194,1,8,0:0:0:0:
256,192,42361,1,0,0:0:0:0:
256,192,42694,1,0,0:0:0:0:
256,192,43028,1,8,0:0:0:0:
256,192,43194,1,0,0:0:0:0:
256,192,43361,1,0,0:0:0:0:
256,192,43694,1,0,0:0:0:0:
256,192,43861,1,8,0:0:0:0:
256,192,44028,1,8,0:0:0:0:
256,192,44194,1,0,0:0:0:0:
256,192,44528,1,8,0:0:0:0:
256,192,44861,1,0,0:0:0:0:
256,192,45028,1,8,0:0:0:0:
256,192,45361,1,0,0:0:0:0:
256,192,45528,1,8,0:0:0:0:
256,192,45694,1,0,0:0:0:0:
256,192,45778,1,0,0:0:0:0:
256,192,45861,1,8,0:0:0:0:
256,192,46028,1,0,0:0:0:0:
256,192,46111,1,0,0:0:0:0:
256,192,46194,1,8,0:0:0:0:
256,192,46361,1,0,0:0:0:0:
256,192,46444,1,0,0:0:0:0:
256,192,46528,1,8,0:0:0:0:
256,192,46611,1,0,0:0:0:0:
256,192,46694,1,8,0:0:0:0:
256,192,46778,1,8,0:0:0:0:
256,192,46861,1,4,0:0:0:0:
256,192,47028,1,0,0:0:0:0:
256,192,47194,1,8,0:0:0:0:
256,192,47278,1,0,0:0:0:0:
256,192,47361,1,0,0:0:0:0:
256,192,47444,1,8,0:0:0:0:
256,192,47611,1,0,0:0:0:0:
256,192,47694,1,8,0:0:0:0:
256,192,47861,1,8,0:0:0:0:
256,192,47944,1,8,0:0:0:0:
256,192,48028,1,0,0:0:0:0:
256,192,48111,1,0,0:0:0:0:
256,192,48194,1,8,0:0:0:0:
256,192,48361,1,0,0:0:0:0:
256,192,48528,1,8,0:0:0:0:
256,192,48611,1,8,0:0:0:0:
256,192,48778,1,8,0:0:0:0:
256,192,48944,1,0,0:0:0:0:
256,192,49028,1,8,0:0:0:0:
256,192,49111,1,8,0:0:0:0:
256,192,49194,1,0,0:0:0:0:
256,192,49278,1,0,0:0:0:0:
256,192,49361,1,8,0:0:0:0:
256,192,49444,1,0,0:0:0:0:
256,192,49528,1,8,0:0:0:0:
256,192,49694,1,0,0:0:0:0:
256,192,49861,1,8,0:0:0:0:
256,192,49944,1,8,0:0:0:0:
256,192,50028,1,0,0:0:0:0:
256,192,50111,1,8,0:0:0:0:
256,192,50278,1,0,0:0:0:0:
256,192,50361,1,8,0:0:0:0:
256,192,50528,1,8,0:0:0:0:
256,192,50611,1,8,0:0:0:0:
256,192,50694,1,0,0:0:0:0:
256,192,50778,1,0,0:0:0:0:
256,192,50861,1,8,0:0:0:0:
256,192,51028,1,0,0:0:0:0:
256,192,51194,1,8,0:0:0:0:
256,192,51278,1,8,0:0:0:0:
256,192,51444,1,0,0:0:0:0:
256,192,51611,1,8,0:0:0:0:
256,192,51694,1,0,0:0:0:0:
256,192,51861,1,8,0:0:0:0:
256,192,51944,1,8,0:0:0:0:
256,192,52028,1,0,0:0:0:0:
256,192,52111,1,0,0:0:0:0:
256,192,52194,1,12,0:0:0:0:
256,192,52361,1,0,0:0:0:0:
256,192,52528,1,8,0:0:0:0:
256,192,52611,1,0,0:0:0:0:
256,192,52694,1,0,0:0:0:0:
256,192,52778,1,8,0:0:0:0:
256,192,52944,1,0,0:0:0:0:
256,192,53028,1,8,0:0:0:0:
256,192,53194,1,8,0:0:0:0:
256,192,53278,1,8,0:0:0:0:
256,192,53361,1,0,0:0:0:0:
256,192,53444,1,0,0:0:0:0:
256,192,53528,1,8,0:0:0:0:
256,192,53694,1,0,0:0:0:0:
256,192,53861,1,8,0:0:0:0:
256,192,53944,1,8,0:0:0:0:
256,192,54111,1,8,0:0:0:0:
256,192,54278,1,0,0:0:0:0:
256,192,54361,1,8,0:0:0:0:
256,192,54444,1,8,0:0:0:0:
256,192,54528,1,0,0:0:0:0:
256,192,54611,1,0,0:0:0:0:
256,192,54694,1,8,0:0:0:0:
256,192,54778,1,0,0:0:0:0:
256,192,54861,1,8,0:0:0:0:
256,192,55028,1,0,0:0:0:0:
256,192,55194,1,8,0:0:0:0:
256,192,55278,1,8,0:0:0:0:
256,192,55361,1,0,0:0:0:0:
256,192,55444,1,8,0:0:0:0:
256,192,55611,1,0,0:0:0:0:
256,192,55694,1,8,0:0:0:0:
256,192,55861,1,8,0:0:0:0:
256,192,55944,1,8,0:0:0:0:
256,192,56028,1,0,0:0:0:0:
256,192,56111,1,0,0:0:0:0:
256,192,56194,1,8,0:0:0:0:
256,192,56361,1,0,0:0:0:0:
256,192,56528,1,8,0:0:0:0:
256,192,56611,1,8,0:0:0:0:
256,192,56694,1,0,0:0:0:0:
256,192,56778,1,8,0:0:0:0:
256,192,56861,1,0,0:0:0:0:
256,192,56944,1,0,0:0:0:0:
256,192,57028,1,8,0:0:0:0:
256,192,57111,1,0,0:0:0:0:
256,192,57194,1,8,0:0:0:0:
256,192,57278,1,8,0:0:0:0:
256,192,57361,1,0,0:0:0:0:
256,192,57444,1,0,0:0:0:0:
256,192,57528,1,8,0:0:0:0:
256,192,58028,1,8,0:0:0:0:
256,192,58111,1,8,0:0:0:0:
256,192,58194,1,0,0:0:0:0:
256,192,58361,1,8,0:0:0:0:
256,192,58528,1,0,0:0:0:0:
256,192,58694,1,8,0:0:0:0:
256,192,59028,1,0,0:0:0:0:
256,192,59194,1,8,0:0:0:0:
256,192,59278,1,0,0:0:0:0:
256,192,59444,1,8,0:0:0:0:
256,192,59611,1,8,0:0:0:0:
256,192,59694,1,0,0:0:0:0:
256,192,59861,1,8,0:0:0:0:
256,192,60028,1,0,0:0:0:0:
256,192,60194,1,8,0:0:0:0:
256,192,60361,1,0,0:0:0:0:
256,192,60528,1,8,0:0:0:0:
256,192,60611,1,0,0:0:0:0:
256,192,60778,1,8,0:0:0:0:
256,192,60944,1,0,0:0:0:0:
256,192,61028,1,8,0:0:0:0:
256,192,61194,1,8,0:0:0:0:
256,192,61278,1,0,0:0:0:0:
256,192,61361,1,8,0:0:0:0:
256,192,61528,1,8,0:0:0:0:
256,192,61694,1,0,0:0:0:0:
256,192,61778,1,0,0:0:0:0:
256,192,61861,1,8,0:0:0:0:
256,192,61944,1,0,0:0:0:0:
256,192,62111,1,8,0:0:0:0:
256,192,62278,1,0,0:0:0:0:
256,192,62361,1,8,0:0:0:0:
256,192,62444,1,0,0:0:0:0:
256,192,62528,1,8,0:0:0:0:
256,192,62611,1,8,0:0:0:0:
256,192,62694,1,0,0:0:0:0:
256,192,62778,1,0,0:0:0:0:
256,192,62861,1,8,0:0:0:0:
256,192,63028,1,0,0:0:0:0:
256,192,63194,1,8,0:0:0:0:
256,192,63361,1,8,0:0:0:0:
256,192,63444,1,8,0:0:0:0:
256,192,63528,1,0,0:0:0:0:
256,192,63694,1,8,0:0:0:0:
256,192,63861,1,0,0:0:0:0:
256,192,64028,1,8,0:0:0:0:
256,192,64361,1,0,0:0:0:0:
256,192,64528,1,8,0:0:0:0:
256,192,64611,1,0,0:0:0:0:
256,192,64778,1,8,0:0:0:0:
256,192,64944,1,8,0:0:0:0:
256,192,65028,1,0,0:0:0:0:
256,192,65194,1,8,0:0:0:0:
256,192,65361,1,0,0:0:0:0:
256,192,65444,1,0,0:0:0:0:
256,192,65528,1,8,0:0:0:0:
256,192,65694,1,0,0:0:0:0:
256,192,65861,1,0,0:0:0:0:
256,192,65944,1,8,0:0:0:0:
256,192,66111,1,8,0:0:0:0:
256,192,66278,1,0,0:0:0:0:
256,192,66361,1,8,0:0:0:0:
256,192,66528,1,8,0:0:0:0:
256,192,66611,1,0,0:0:0:0:
256,192,66694,1,8,0:0:0:0:
256,192,66778,1,8,0:0:0:0:
256,192,66861,1,8,0:0:0:0:
256,192,66944,1,8,0:0:0:0:
256,192,67028,1,0,0:0:0:0:
256,192,67194,1,8,0:0:0:0:
256,192,67278,1,0,0:0:0:0:
256,192,67444,1,8,0:0:0:0:
256,192,67611,1,8,0:0:0:0:
256,192,67694,1,0,0:0:0:0:
256,192,67778,1,0,0:0:0:0:
256,192,67861,1,8,0:0:0:0:
256,192,67944,1,8,0:0:0:0:
256,192,68028,1,0,0:0:0:0:
256,192,68111,1,0,0:0:0:0:
256,192,68194,1,8,0:0:0:0:
256,192,69194,1,12,0:0:0:0:
256,192,69528,1,8,0:0:0:0:
256,192,69611,1,0,0:0:0:0:
256,192,69653,1,0,0:0:0:0:
256,192,69694,1,8,0:0:0:0:
256,192,69778,1,0,0:0:0:0:
256,192,69861,1,8,0:0:0:0:
256,192,69903,1,0,0:0:0:0:
256,192,69944,1,8,0:0:0:0:
256,192,69986,1,8,0:0:0:0:
256,192,70028,1,0,0:0:0:0:
256,192,70111,1,8,0:0:0:0:
256,192,70153,1,0,0:0:0:0:
256,192,70194,1,0,0:0:0:0:
256,192,70278,1,8,0:0:0:0:
256,192,70319,1,8,0:0:0:0:
256,192,70361,1,8,0:0:0:0:
256,192,70403,1,8,0:0:0:0:
256,192,70444,1,0,0:0:0:0:
256,192,70486,1,0,0:0:0:0:
256,192,70528,1,8,0:0:0:0:
256,192,70569,1,0,0:0:0:0:
256,192,70611,1,0,0:0:0:0:
256,192,70653,1,0,0:0:0:0:
256,192,70694,1,8,0:0:0:0:
256,192,70778,1,0,0:0:0:0:
256,192,70861,1,8,0:0:0:0:
256,192,70903,1,8,0:0:0:0:
256,192,70944,1,0,0:0:0:0:
256,192,70986,1,0,0:0:0:0:
256,192,71028,1,8,0:0:0:0:
256,192,71111,1,0,0:0:0:0:
256,192,71194,1,8,0:0:0:0:
256,192,71236,1,0,0:0:0:0:
256,192,71278,1,8,0:0:0:0:
256,192,71319,1,8,0:0:0:0:
256,192,71361,1,0,0:0:0:0:
256,192,71444,1,8,0:0:0:0:
256,192,71486,1,8,0:0:0:0:
256,192,71528,1,8,0:0:0:0:
256,192,71611,1,0,0:0:0:0:
256,192,71653,1,0,0:0:0:0:
256,192,71694,1,8,0:0:0:0:
256,192,71736,1,0,0:0:0:0:
256,192,71778,1,0,0:0:0:0:
256,192,71819,1,0,0:0:0:0:
256,192,71861,1,8,0:0:0:0:
256,192,71903,1,8,0:0:0:0:
256,192,71944,1,0,0:0:0:0:
256,192,71986,1,0,0:0:0:0:
256,192,72028,1,8,0:0:0:0:
256,192,72111,1,0,0:0:0:0:
256,192,72194,1,8,0:0:0:0:
256,192,72236,1,0,0:0:0:0:
256,192,72278,1,0,0:0:0:0:
256,192,72319,1,0,0:0:0:0:
256,192,72361,1,8,0:0:0:0:
256,192,72444,1,0,0:0:0:0:
256,192,72528,1,8,0:0:0:0:
256,192,72569,1,0,0:0:0:0:
256,192,72611,1,8,0:0:0:0:
256,192,72653,1,8,0:0:0:0:
256,192,72694,1,0,0:0:0:0:
256,192,72778,1,0,0:0:0:0:
256,192,72819,1,0,0:0:0:0:
256,192,72861,1,8,0:0:0:0:
256,192,72944,1,0,0:0:0:0:
256,192,72986,1,0,0:0:0:0:
256,192,73028,1,8,0:0:0:0:
256,192,73069,1,0,0:0:0:0:
256,192,73111,1,8,0:0:0:0:
256,192,73153,1,8,0:0:0:0:
256,192,73194,1,0,0:0:0:0:
256,192,73236,1,8,0:0:0:0:
256,192,73278,1,0,0:0:0:0:
256,192,73319,1,0,0:0:0:0:
256,192,73361,1,8,0:0:0:0:
256,192,73444,1,0,0:0:0:0:
256,192,73528,1,8,0:0:0:0:
256,192,73569,1,0,0:0:0:0:
256,192,73611,1,0,0:0:0:0:
256,192,73653,1,0,0:0:0:0:
256,192,73694,1,8,0:0:0:0:
256,192,73778,1,0,0:0:0:0:
256,192,73861,1,0,0:0:0:0:
256,192,73903,1,0,0:0:0:0:
256,192,73944,1,8,0:0:0:0:
256,192,73986,1,8,0:0:0:0:
256,192,74028,1,0,0:0:0:0:
256,192,74111,1,8,0:0:0:0:
256,192,74153,1,8,0:0:0:0:
256,192,74194,1,8,0:0:0:0:
256,192,74278,1,0,0:0:0:0:
256,192,74319,1,0,0:0:0:0:
256,192,74361,1,8,0:0:0:0:
256,192,74403,1,8,0:0:0:0:
256,192,74444,1,0,0:0:0:0:
256,192,74486,1,0,0:0:0:0:
256,192,74528,1,8,0:0:0:0:
256,192,74569,1,0,0:0:0:0:
256,192,74611,1,8,0:0:0:0:
256,192,74653,1,8,0:0:0:0:
256,192,74694,1,0,0:0:0:0:
256,192,74736,1,0,0:0:0:0:
256,192,74778,1,0,0:0:0:0:
256,192,74819,1,0,0:0:0:0:
256,192,74861,1,8,0:0:0:0:
256,192,74944,1,0,0:0:0:0:
256,192,74986,1,0,0:0:0:0:
256,192,75028,1,8,0:0:0:0:
256,192,75111,1,0,0:0:0:0:
256,192,75194,1,8,0:0:0:0:
256,192,75236,1,0,0:0:0:0:
256,192,75278,1,8,0:0:0:0:
256,192,75319,1,8,0:0:0:0:
256,192,75361,1,0,0:0:0:0:
256,192,75444,1,8,0:0:0:0:
256,192,75486,1,0,0:0:0:0:
256,192,75528,1,0,0:0:0:0:
256,192,75611,1,8,0:0:0:0:
256,192,75653,1,8,0:0:0:0:
256,192,75694,1,8,0:0:0:0:
256,192,75736,1,8,0:0:0:0:
256,192,75778,1,0,0:0:0:0:
256,192,75819,1,0,0:0:0:0:
256,192,75861,1,8,0:0:0:0:
256,192,75903,1,0,0:0:0:0:
256,192,75944,1,0,0:0:0:0:
256,192,75986,1,0,0:0:0:0:
256,192,76028,1,8,0:0:0:0:
256,192,76111,1,0,0:0:0:0:
256,192,76194,1,8,0:0:0:0:
256,192,76236,1,8,0:0:0:0:
256,192,76278,1,0,0:0:0:0:
256,192,76319,1,0,0:0:0:0:
256,192,76361,1,8,0:0:0:0:
256,192,76444,1,0,0:0:0:0:
256,192,76528,1,8,0:0:0:0:
256,192,76569,1,0,0:0:0:0:
256,192,76611,1,8,0:0:0:0:
256,192,76653,1,8,0:0:0:0:
256,192,76694,1,0,0:0:0:0:
256,192,76778,1,8,0:0:0:0:
256,192,76819,1,0,0:0:0:0:
256,192,76861,1,0,0:0:0:0:
256,192,76944,1,8,0:0:0:0:
256,192,76986,1,8,0:0:0:0:
256,192,77028,1,0,0:0:0:0:
256,192,77069,1,8,0:0:0:0:
256,192,77111,1,0,0:0:0:0:
256,192,77153,1,0,0:0:0:0:
256,192,77194,1,8,0:0:0:0:
256,192,77236,1,8,0:0:0:0:
256,192,77278,1,0,0:0:0:0:
256,192,77319,1,0,0:0:0:0:
256,192,77361,1,8,0:0:0:0:
256,192,77444,1,0,0:0:0:0:
256,192,77528,1,8,0:0:0:0:
256,192,77569,1,8,0:0:0:0:
256,192,77611,1,8,0:0:0:0:
256,192,77653,1,8,0:0:0:0:
256,192,77694,1,0,0:0:0:0:
256,192,77778,1,0,0:0:0:0:
256,192,77861,1,8,0:0:0:0:
256,192,77903,1,0,0:0:0:0:
256,192,77944,1,8,0:0:0:0:
256,192,77986,1,8,0:0:0:0:
256,192,78028,1,0,0:0:0:0:
256,192,78111,1,8,0:0:0:0:
256,192,78153,1,8,0:0:0:0:
256,192,78194,1,8,0:0:0:0:
256,192,78278,1,0,0:0:0:0:
256,192,78319,1,0,0:0:0:0:
256,192,78361,1,8,0:0:0:0:
256,192,78403,1,8,0:0:0:0:
256,192,78444,1,8,0:0:0:0:
256,192,78486,1,0,0:0:0:0:
256,192,78528,1,8,0:0:0:0:
256,192,78569,1,8,0:0:0:0:
256,192,78611,1,0,0:0:0:0:
256,192,78653,1,0,0:0:0:0:
256,192,78694,1,8,0:0:0:0:
256,192,78778,1,0,0:0:0:0:
256,192,78861,1,8,0:0:0:0:
256,192,78903,1,8,0:0:0:0:
256,192,78944,1,0,0:0:0:0:
256,192,79028,1,8,0:0:0:0:
256,192,79069,1,0,0:0:0:0:
256,192,79111,1,8,0:0:0:0:
256,192,79153,1,8,0:0:0:0:
256,192,79194,1,0,0:0:0:0:
256,192,79278,1,0,0:0:0:0:
256,192,79319,1,0,0:0:0:0:
256,192,79361,1,8,0:0:0:0:
256,192,79444,1,0,0:0:0:0:
256,192,79528,1,8,0:0:0:0:
256,192,79569,1,8,0:0:0:0:
256,192,79611,1,0,0:0:0:0:
256,192,79653,1,0,0:0:0:0:
256,192,79694,1,8,0:0:0:0:
256,192,79736,1,8,0:0:0:0:
256,192,79778,1,8,0:0:0:0:
256,192,79819,1,8,0:0:0:0:
256,192,79861,1,0,0:0:0:0:
256,192,79903,1,0,0:0:0:0:
256,192,79944,1,0,0:0:0:0:
256,192,79986,1,0,0:0:0:0:
256,192,80028,1,8,0:0:0:0:
256,192,80069,1,8,0:0:0:0:
256,192,80111,1,0,0:0:0:0:
256,192,80153,1,0,0:0:0:0:
256,192,80194,1,8,0:0:0:0:
256,192,80278,1,0,0:0:0:0:
256,192,80319,1,0,0:0:0:0:
256,192,80361,1,8,0:0:0:0:
256,192,80444,1,0,0:0:0:0:
256,192,80528,1,8,0:0:0:0:
256,192,80569,1,0,0:0:0:0:
256,192,80611,1,8,0:0:0:0:
256,192,80653,1,8,0:0:0:0:
256,192,80694,1,0,0:0:0:0:
256,192,80778,1,8,0:0:0:0:
256,192,80819,1,0,0:0:0:0:
256,192,80861,1,0,0:0:0:0:
256,192,80944,1,8,0:0:0:0:
256,192,80986,1,8,0:0:0:0:
256,192,81028,1,8,0:0:0:0:
256,192,81069,1,8,0:0:0:0:
256,192,81111,1,0,0:0:0:0:
256,192,81153,1,0,0:0:0:0:
256,192,81194,1,8,0:0:0:0:
256,192,81236,1,0,0:0:0:0:
256,192,81278,1,0,0:0:0:0:
256,192,81319,1,0,0:0:0:0:
256,192,81361,1,8,0:0:0:0:
256,192,81444,1,0,0:0:0:0:
256,192,81528,1,8,0:0:0:0:
256,192,81569,1,8,0:0:0:0:
256,192,81611,1,0,0:0:0:0:
256,192,81653,1,0,0:0:0:0:
256,192,81694,1,8,0:0:0:0:
256,192,81778,1,0,0:0:0:0:
256,192,81861,1,8,0:0:0:0:
256,192,81903,1,0,0:0:0:0:
256,192,81944,1,8,0:0:0:0:
256,192,81986,1,8,0:0:0:0:
256,192,82028,1,0,0:0:0:0:
256,192,82111,1,8,0:0:0:0:
256,192,82153,1,8,0:0:0:0:
256,192,82194,1,8,0:0:0:0:
256,192,82278,1,0,0:0:0:0:
256,192,82319,1,0,0:0:0:0:
256,192,82361,1,8,0:0:0:0:
256,192,82403,1,0,0:0:0:0:
256,192,82444,1,0,0:0:0:0:
256,192,82486,1,0,0:0:0:0:
256,192,82528,1,8,0:0:0:0:
256,192,82569,1,8,0:0:0:0:
256,192,82611,1,0,0:0:0:0:
256,192,82653,1,0,0:0:0:0:
256,192,82694,1,8,0:0:0:0:
256,192,82778,1,0,0:0:0:0:
256,192,82861,1,8,0:0:0:0:
256,192,82903,1,0,0:0:0:0:
256,192,82944,1,0,0:0:0:0:
256,192,82986,1,0,0:0:0:0:
256,192,83028,1,8,0:0:0:0:
256,192,83111,1,0,0:0:0:0:
256,192,83194,1,8,0:0:0:0:
256,192,83236,1,0,0:0:0:0:
256,192,83278,1,8,0:0:0:0:
256,192,83319,1,8,0:0:0:0:
256,192,83361,1,0,0:0:0:0:
256,192,83444,1,0,0:0:0:0:
256,192,83486,1,0,0:0:0:0:
256,192,83528,1,8,0:0:0:0:
256,192,83611,1,0,0:0:0:0:
256,192,83653,1,0,0:0:0:0:
256,192,83694,1,8,0:0:0:0:
256,192,83736,1,0,0:0:0:0:
256,192,83778,1,8,0:0:0:0:
256,192,83819,1,8,0:0:0:0:
256,192,83861,1,0,0:0:0:0:
256,192,83903,1,8,0:0:0:0:
256,192,83944,1,0,0:0:0:0:
256,192,83986,1,0,0:0:0:0:
256,192,84028,1,8,0:0:0:0:
256,192,84111,1,0,0:0:0:0:
256,192,84194,1,8,0:0:0:0:
256,192,84236,1,0,0:0:0:0:
256,192,84278,1,0,0:0:0:0:
256,192,84319,1,0,0:0:0:0:
256,192,84361,1,8,0:0:0:0:
256,192,84444,1,0,0:0:0:0:
256,192,84528,1,0,0:0:0:0:
256,192,84569,1,0,0:0:0:0:
256,192,84611,1,8,0:0:0:0:
256,192,84653,1,8,0:0:0:0:
256,192,84694,1,0,0:0:0:0:
256,192,84778,1,8,0:0:0:0:
256,192,84819,1,8,0:0:0:0:
256,192,84861,1,8,0:0:0:0:
256,192,84944,1,0,0:0:0:0:
256,192,84986,1,0,0:0:0:0:
256,192,85028,1,8,0:0:0:0:
256,192,85069,1,8,0:0:0:0:
256,192,85111,1,0,0:0:0:0:
256,192,85153,1,0,0:0:0:0:
256,192,85194,1,8,0:0:0:0:
256,192,85236,1,0,0:0:0:0:
256,192,85278,1,8,0:0:0:0:
256,192,85319,1,8,0:0:0:0:
256,192,85361,1,0,0:0:0:0:
256,192,85403,1,0,0:0:0:0:
256,192,85444,1,0,0:0:0:0:
256,192,85486,1,0,0:0:0:0:
256,192,85528,1,8,0:0:0:0:
256,192,85611,1,0,0:0:0:0:
256,192,85653,1,0,0:0:0:0:
256,192,85694,1,8,0:0:0:0:
256,192,85778,1,0,0:0:0:0:
256,192,85861,1,8,0:0:0:0:
256,192,85903,1,0,0:0:0:0:
256,192,85944,1,8,0:0:0:0:
256,192,85986,1,8,0:0:0:0:
256,192,86028,1,0,0:0:0:0:
256,192,86111,1,8,0:0:0:0:
256,192,86153,1,0,0:0:0:0:
256,192,86194,1,0,0:0:0:0:
256,192,86278,1,8,0:0:0:0:
256,192,86319,1,8,0:0:0:0:
256,192,86361,1,8,0:0:0:0:
256,192,86403,1,8,0:0:0:0:
256,192,86444,1,0,0:0:0:0:
256,192,86486,1,0,0:0:0:0:
256,192,86528,1,8,0:0:0:0:
256,192,86569,1,0,0:0:0:0:
256,192,86611,1,0,0:0:0:0:
256,192,86653,1,0,0:0:0:0:
256,192,86694,1,8,0:0:0:0:
256,192,86778,1,0,0:0:0:0:
256,192,86861,1,8,0:0:0:0:
256,192,86903,1,8,0:0:0:0:
256,192,86944,1,0,0:0:0:0:
256,192,86986,1,0,0:0:0:0:
256,192,87028,1,8,0:0:0:0:
256,192,87111,1,0,0:0:0:0:
256,192,87194,1,8,0:0:0:0:
256,192,87236,1,0,0:0:0:0:
256,192,87278,1,8,0:0:0:0:
256,192,87319,1,8,0:0:0:0:
256,192,87361,1,0,0:0:0:0:
256,192,87444,1,8,0:0:0:0:
256,192,87486,1,0,0:0:0:0:
256,192,87528,1,0,0:0:0:0:
256,192,87611,1,8,0:0:0:0:
256,192,87653,1,8,0:0:0:0:
256,192,87694,1,0,0:0:0:0:
256,192,87736,1,8,0:0:0:0:
256,192,87778,1,0,0:0:0:0:
256,192,87819,1,0,0:0:0:0:
256,192,87861,1,8,0:0:0:0:
256,192,87903,1,8,0:0:0:0:
256,192,87944,1,0,0:0:0:0:
256,192,87986,1,0,0:0:0:0:
256,192,88028,1,8,0:0:0:0:
256,192,88111,1,0,0:0:0:0:
256,192,88194,1,8,0:0:0:0:
256,192,88236,1,0,0:0:0:0:
256,192,88278,1,8,0:0:0:0:
256,192,88319,1,0,0:0:0:0:
256,192,88361,1,8,0:0:0:0:
256,192,88444,1,0,0:0:0:0:
256,192,88528,1,8,0:0:0:0:
256,192,88569,1,0,0:0:0:0:
256,192,88611,1,8,0:0:0:0:
256,192,88653,1,8,0:0:0:0:
256,192,88694,1,0,0:0:0:0:
256,192,88778,1,8,0:0:0:0:
256,192,88819,1,8,0:0:0:0:
256,192,88861,1,8,0:0:0:0:
256,192,88944,1,0,0:0:0:0:
256,192,88986,1,0,0:0:0:0:
256,192,89028,1,8,0:0:0:0:
256,192,89069,1,8,0:0:0:0:
256,192,89111,1,8,0:0:0:0:
256,192,89153,1,0,0:0:0:0:
256,192,89194,1,8,0:0:0:0:
256,192,89236,1,8,0:0:0:0:
256,192,89278,1,0,0:0:0:0:
256,192,89319,1,0,0:0:0:0:
256,192,89361,1,8,0:0:0:0:
256,192,89444,1,0,0:0:0:0:
256,192,89528,1,8,0:0:0:0:
256,192,89569,1,8,0:0:0:0:
256,192,89611,1,0,0:0:0:0:
256,192,89694,1,8,0:0:0:0:
256,192,89736,1,8,0:0:0:0:
256,192,89778,1,8,0:0:0:0:
256,192,89819,1,8,0:0:0:0:
256,192,89861,1,0,0:0:0:0:
256,192,89944,1,0,0:0:0:0:
256,192,89986,1,0,0:0:0:0:
256,192,90028,1,8,0:0:0:0:
256,192,90069,1,8,0:0:0:0:
256,192,90111,1,8,0:0:0:0:
256,192,90153,1,8,0:0:0:0:
256,192,90194,1,0,0:0:0:0:
256,192,90278,1,0,0:0:0:0:
256,192,90319,1,0,0:0:0:0:
256,192,90361,1,8,0:0:0:0:
256,192,90444,1,0,0:0:0:0:
256,192,90486,1,0,0:0:0:0:
256,192,90528,1,8,0:0:0:0:
256,192,90569,1,8,0:0:0:0:
256,192,90611,1,0,0:0:0:0:
256,192,90653,1,0,0:0:0:0:
256,192,90694,1,8,0:0:0:0:
256,192,90736,1,8,0:0:0:0:
256,192,90778,1,8,0:0:0:0:
256,192,90819,1,8,0:0:0:0:
256,192,90861,1,0,0:0:0:0:
256,192,96194,5,0,0:0:0:0:
256,192,96527,1,0,0:0:0:0:
256,192,96694,1,8,0:0:0:0:
256,192,97027,1,8,0:0:0:0:
256,192,97194,1,0,0:0:0:0:
256,192,97361,1,8,0:0:0:0:
256,192,97527,1,0,0:0:0:0:
256,192,97861,1,0,0:0:0:0:
256,192,98027,1,8,0:0:0:0:
256,192,98360,1,0,0:0:0:0:
256,192,98527,1,8,0:0:0:0:
256,192,98694,1,8,0:0:0:0:
256,192,98860,1,0,0:0:0:0:
256,192,99194,1,0,0:0:0:0:
256,192,99360,1,8,0:0:0:0:
256,192,99694,1,8,0:0:0:0:
256,192,99860,1,0,0:0:0:0:
256,192,100027,1,8,0:0:0:0:
256,192,100110,1,8,0:0:0:0:
256,192,100194,1,0,0:0:0:0:
256,192,100360,1,8,0:0:0:0:
256,192,100527,1,8,0:0:0:0:
256,192,100694,1,0,0:0:0:0:
256,192,100860,1,8,0:0:0:0:
256,192,101027,1,8,0:0:0:0:
256,192,101194,1,0,0:0:0:0:
256,192,101360,1,8,0:0:0:0:
256,192,101444,1,8,0:0:0:0:
256,192,101527,1,4,0:0:0:0:
256,192,101694,1,0,0:0:0:0:
256,192,101860,1,8,0:0:0:0:
256,192,101944,1,0,0:0:0:0:
256,192,102027,1,0,0:0:0:0:
256,192,102110,1,8,0:0:0:0:
256,192,102277,1,0,0:0:0:0:
256,192,102360,1,8,0:0:0:0:
256,192,102527,1,8,0:0:0:0:
256,192,102610,1,8,0:0:0:0:
256,192,102694,1,0,0:0:0:0:
256,192,102777,1,0,0:0:0:0:
256,192,102860,1,8,0:0:0:0:
256,192,103027,1,0,0:0:0:0:
256,192,103194,1,8,0:0:0:0:
256,192,103277,1,8,0:0:0:0:
256,192,103444,1,8,0:0:0:0:
256,192,103610,1,0,0:0:0:0:
256,192,103694,1,8,0:0:0:0:
256,192,103777,1,8,0:0:0:0:
256,192,103860,1,0,0:0:0:0:
256,192,103944,1,0,0:0:0:0:
256,192,104027,1,8,0:0:0:0:
256,192,104110,1,0,0:0:0:0:
256,192,104194,1,8,0:0:0:0:
256,192,104360,1,0,0:0:0:0:
256,192,104527,1,8,0:0:0:0:
256,192,104610,1,8,0:0:0:0:
256,192,104694,1,0,0:0:0:0:
256,192,104777,1,8,0:0:0:0:
256,192,104944,1,0,0:0:0:0:
256,192,105027,1,8,0:0:0:0:
256,192,105194,1,8,0:0:0:0:
256,192,105277,1,8,0:0:0:0:
256,192,105360,1,0,0:0:0:0:
256,192,105444,1,0,0:0:0:0:
256,192,105527,1,8,0:0:0:0:
256,192,105694,1,0,0:0:0:0:
256,192,105860,1,8,0:0:0:0:
256,192,105944,1,8,0:0:0:0:
256,192,106110,1,0,0:0:0:0:
256,192,106277,1,8,0:0:0:0:
256,192,106360,1,0,0:0:0:0:
256,192,106527,1,8,0:0:0:0:
256,192,106610,1,8,0:0:0:0:
256,192,106694,1,0,0:0:0:0:
256,192,106777,1,0,0:0:0:0:
256,192,106860,1,12,0:0:0:0:
256,192,107027,1,0,0:0:0:0:
256,192,107194,1,8,0:0:0:0:
256,192,107277,1,0,0:0:0:0:
256,192,107360,1,0,0:0:0:0:
256,192,107444,1,8,0:0:0:0:
256,192,107610,1,0,0:0:0:0:
256,192,107694,1,8,0:0:0:0:
256,192,107860,1,8,0:0:0:0:
256,192,107944,1,8,0:0:0:0:
256,192,108027,1,0,0:0:0:0:
256,192,108110,1,0,0:0:0:0:
256,192,108194,1,8,0:0:0:0:
256,192,108360,1,0,0:0:0:0:
256,192,108527,1,8,0:0:0:0:
256,192,108610,1,8,0:0:0:0:
256,192,108777,1,8,0:0:0:0:
256,192,108944,1,0,0:0:0:0:
256,192,109027,1,8,0:0:0:0:
256,192,109110,1,8,0:0:0:0:
256,192,109194,1,0,0:0:0:0:
256,192,109277,1,0,0:0:0:0:
256,192,109360,1,8,0:0:0:0:
256,192,109444,1,0,0:0:0:0:
256,192,109527,1,8,0:0:0:0:
256,192,109694,1,0,0:0:0:0:
256,192,109860,1,8,0:0:0:0:
256,192,109944,1,8,0:0:0:0:
256,192,110027,1,0,0:0:0:0:
256,192,110110,1,8,0:0:0:0:
256,192,110277,1,0,0:0:0:0:
256,192,110360,1,8,0:0:0:0:
256,192,110527,1,8,0:0:0:0:
256,192,110610,1,8,0:0:0:0:
256,192,110694,1,0,0:0:0:0:
256,192,110777,1,0,0:0:0:0:
256,192,110860,1,8,0:0:0:0:
256,192,111027,1,0,0:0:0:0:
256,192,111194,1,8,0:0:0:0:
256,192,111277,1,8,0:0:0:0:
256,192,111360,1,0,0:0:0:0:
256,192,111444,1,8,0:0:0:0:
256,192,111527,1,0,0:0:0:0:
256,192,111610,1,0,0:0:0:0:
256,192,111694,1,8,0:0:0:0:
256,192,111777,1,0,0:0:0:0:
256,192,111860,1,8,0:0:0:0:
256,192,111944,1,8,0:0:0:0:
256,192,112027,1,0,0:0:0:0:
256,192,112110,1,0,0:0:0:0:
256,192,112194,1,12,0:0:0:0:
256,192,112360,1,0,0:0:0:0:
256,192,112527,1,8,0:0:0:0:
256,192,112610,1,8,0:0:0:0:
256,192,112777,1,0,0:0:0:0:
256,192,112944,1,8,0:0:0:0:
256,192,113027,1,0,0:0:0:0:
256,192,113194,1,8,0:0:0:0:
256,192,113360,1,0,0:0:0:0:
256,192,113444,1,0,0:0:0:0:
256,192,113527,1,8,0:0:0:0:
256,192,113694,1,0,0:0:0:0:
256,192,113860,1,8,0:0:0:0:
256,192,113944,1,0,0:0:0:0:
256,192,114110,1,8,0:0:0:0:
256,192,114277,1,0,0:0:0:0:
256,192,114360,1,8,0:0:0:0:
256,192,114527,1,8,0:0:0:0:
256,192,114610,1,8,0:0:0:0:
256,192,114694,1,0,0:0:0:0:
256,192,114777,1,0,0:0:0:0:
256,192,114860,1,8,0:0:0:0:
256,192,115027,1,0,0:0:0:0:
256,192,115194,1,8,0:0:0:0:
256,192,115277,1,8,0:0:0:0:
256,192,115444,1,0,0:0:0:0:
256,192,115610,1,8,0:0:0:0:
256,192,115694,1,0,0:0:0:0:
256,192,115777,1,0,0:0:0:0:
256,192,115860,1,8,0:0:0:0:
256,192,116027,1,0,0:0:0:0:
256,192,116194,1,0,0:0:0:0:
256,192,116277,1,8,0:0:0:0:
256,192,116360,1,0,0:0:0:0:
256,192,116444,1,0,0:0:0:0:
256,192,116527,1,8,0:0:0:0:
256,192,116694,1,0,0:0:0:0:
256,192,116777,1,0,0:0:0:0:
256,192,116944,1,8,0:0:0:0:
256,192,117110,1,0,0:0:0:0:
256,192,117194,1,8,0:0:0:0:
256,192,117277,1,8,0:0:0:0:
256,192,117360,1,0,0:0:0:0:
256,192,117444,1,0,0:0:0:0:
256,192,117527,1,12,0:0:0:0:
256,192,117694,1,0,0:0:0:0:
256,192,117860,1,8,0:0:0:0:
256,192,117944,1,8,0:0:0:0:
256,192,118110,1,0,0:0:0:0:
256,192,118277,1,8,0:0:0:0:
256,192,118360,1,0,0:0:0:0:
256,192,118527,1,8,0:0:0:0:
256,192,118694,1,0,0:0:0:0:
256,192,118777,1,0,0:0:0:0:
256,192,118860,1,8,0:0:0:0:
256,192,119027,1,0,0:0:0:0:
256,192,119194,1,8,0:0:0:0:
256,192,119277,1,0,0:0:0:0:
256,192,119444,1,8,0:0:0:0:
256,192,119610,1,0,0:0:0:0:
256,192,119694,1,8,0:0:0:0:
256,192,119860,1,8,0:0:0:0:
256,192,119944,1,8,0:0:0:0:
256,192,120027,1,8,0:0:0:0:
256,192,120110,1,0,0:0:0:0:
256,192,120194,1,8,0:0:0:0:
256,192,120360,1,0,0:0:0:0:
256,192,120527,1,8,0:0:0:0:
256,192,120610,1,8,0:0:0:0:
256,192,120777,1,0,0:0:0:0:
256,192,120944,1,8,0:0:0:0:
256,192,121027,1,8,0:0:0:0:
256,192,121110,1,0,0:0:0:0:
256,192,121194,1,8,0:0:0:0:
256,192,121360,1,0,0:0:0:0:
256,192,121444,1,0,0:0:0:0:
256,192,121527,1,8,0:0:0:0:
256,192,121610,1,8,0:0:0:0:
256,192,121694,1,0,0:0:0:0:
256,192,121777,1,0,0:0:0:0:
256,192,121860,1,8,0:0:0:0:
256,192,121944,1,0,0:0:0:0:
256,192,122027,1,8,0:0:0:0:
256,192,122110,1,8,0:0:0:0:
256,192,122194,1,0,0:0:0:0:
256,192,122277,1,0,0:0:0:0:
256,192,122360,1,0,0:0:0:0:
256,192,122444,1,0,0:0:0:0:
256,192,122527,1,8,0:0:0:0:
256,192,122610,1,8,0:0:0:0:
256,192,122694,1,8,0:0:0:0:
256,192,122777,1,8,0:0:0:0:
256,192,122860,1,0,0:0:0:0:
256,192,123194,1,0,0:0:0:0:
256,192,123360,1,0,0:0:0:0:
256,192,123444,1,8,0:0:0:0:
256,192,123527,1,8,0:0:0:0:
256,192,123694,1,8,0:0:0:0:
256,192,123860,1,0,0:0:0:0:
256,192,124027,1,0,0:0:0:0:
256,192,124360,1,0,0:0:0:0:
256,192,124527,1,0,0:0:0:0:
256,192,124610,1,8,0:0:0:0:
256,192,124777,1,8,0:0:0:0:
256,192,124944,1,8,0:0:0:0:
256,192,125027,1,0,0:0:0:0:
256,192,125194,1,8,0:0:0:0:
256,192,125360,1,8,0:0:0:0:
256,192,125527,1,0,0:0:0:0:
256,192,125860,1,0,0:0:0:0:
256,192,126027,1,0,0:0:0:0:
256,192,126110,1,0,0:0:0:0:
256,192,126194,1,8,0:0:0:0:
256,192,126360,1,8,0:0:0:0:
256,192,126527,1,0,0:0:0:0:
256,192,126694,1,8,0:0:0:0:
256,192,127027,1,0,0:0:0:0:
256,192,127194,1,8,0:0:0:0:
256,192,127277,1,0,0:0:0:0:
256,192,127444,1,0,0:0:0:0:
256,192,127610,1,8,0:0:0:0:
256,192,127694,1,0,0:0:0:0:
256,192,127777,1,0,0:0:0:0:
256,192,127860,1,8,0:0:0:0:
256,192,127944,1,0,0:0:0:0:
256,192,128027,1,8,0:0:0:0:
256,192,128110,1,0,0:0:0:0:
256,192,128194,1,8,0:0:0:0:
256,192,128527,1,0,0:0:0:0:
256,192,128694,1,8,0:0:0:0:
256,192,128777,1,8,0:0:0:0:
256,192,128860,1,0,0:0:0:0:
256,192,129027,1,8,0:0:0:0:
256,192,129194,1,0,0:0:0:0:
256,192,129360,1,8,0:0:0:0:
256,192,129694,1,0,0:0:0:0:
256,192,129860,1,8,0:0:0:0:
256,192,129944,1,0,0:0:0:0:
256,192,130110,1,8,0:0:0:0:
256,192,130277,1,8,0:0:0:0:
256,192,130360,1,0,0:0:0:0:
256,192,130527,1,8,0:0:0:0:
256,192,130694,1,0,0:0:0:0:
256,192,130777,1,0,0:0:0:0:
256,192,130860,1,8,0:0:0:0:
256,192,131027,1,0,0:0:0:0:
256,192,131194,1,0,0:0:0:0:
256,192,131277,1,8,0:0:0:0:
256,192,131444,1,8,0:0:0:0:
256,192,131610,1,0,0:0:0:0:
256,192,131694,1,8,0:0:0:0:
256,192,131860,1,8,0:0:0:0:
256,192,131944,1,0,0:0:0:0:
256,192,132027,1,8,0:0:0:0:
256,192,132110,1,8,0:0:0:0:
256,192,132194,1,8,0:0:0:0:
256,192,132277,1,8,0:0:0:0:
256,192,132360,1,0,0:0:0:0:
256,192,132527,1,8,0:0:0:0:
256,192,132610,1,0,0:0:0:0:
256,192,132777,1,8,0:0:0:0:
256,192,132944,1,8,0:0:0:0:
256,192,133027,1,0,0:0:0:0:
256,192,133110,1,0,0:0:0:0:
256,192,133194,1,8,0:0:0:0:
256,192,133277,1,8,0:0:0:0:
256,192,133360,1,0,0:0:0:0:
256,192,133444,1,0,0:0:0:0:
256,192,133527,1,8,0:0:0:0:
256,192,133610,1,8,0:0:0:0:
256,192,133694,1,8,0:0:0:0:
256,192,133777,1,0,0:0:0:0:
256,192,133860,1,8,0:0:0:0:
256,192,133944,1,8,0:0:0:0:
256,192,134027,1,0,0:0:0:0:
256,192,134110,1,8,0:0:0:0:
256,192,134194,1,0,0:0:0:0:
256,192,134277,1,0,0:0:0:0:
256,192,134360,1,8,0:0:0:0:
256,192,134444,1,0,0:0:0:0:
256,192,134527,1,8,0:0:0:0:
256,192,134610,1,8,0:0:0:0:
256,192,134694,1,8,0:0:0:0:
256,192,134777,1,0,0:0:0:0:
256,192,134860,12,0,135860,0:0:0:0:
256,192,136194,5,4,0:0:0:0:
256,192,136527,1,8,0:0:0:0:
256,192,136860,1,0,0:0:0:0:
256,192,137027,1,8,0:0:0:0:
256,192,137360,1,0,0:0:0:0:
256,192,137694,1,8,0:0:0:0:
256,192,137860,1,0,0:0:0:0:
256,192,138027,1,0,0:0:0:0:
256,192,138194,1,8,0:0:0:0:
256,192,138527,1,8,0:0:0:0:
256,192,138860,1,0,0:0:0:0:
256,192,139194,1,8,0:0:0:0:
256,192,139527,1,8,0:0:0:0:
256,192,139694,1,0,0:0:0:0:
256,192,140027,1,8,0:0:0:0:
256,192,140360,1,8,0:0:0:0:
256,192,140527,1,8,0:0:0:0:
256,192,140694,1,0,0:0:0:0:
256,192,140860,1,8,0:0:0:0:
256,192,141194,1,8,0:0:0:0:
256,192,141527,1,0,0:0:0:0:
256,192,141860,1,8,0:0:0:0:
256,192,142194,1,0,0:0:0:0:
256,192,142360,1,8,0:0:0:0:
256,192,142694,1,0,0:0:0:0:
256,192,143027,1,8,0:0:0:0:
256,192,143194,1,0,0:0:0:0:
256,192,143527,1,8,0:0:0:0:
256,192,143860,1,8,0:0:0:0:
256,192,144194,1,0,0:0:0:0:
256,192,144360,1,8,0:0:0:0:
256,192,144527,1,8,0:0:0:0:
256,192,144610,1,0,0:0:0:0:
256,192,144777,1,8,0:0:0:0:
256,192,144944,1,8,0:0:0:0:
256,192,145027,1,0,0:0:0:0:
256,192,145110,1,0,0:0:0:0:
256,192,145194,1,8,0:0:0:0:
256,192,145360,1,0,0:0:0:0:
256,192,145527,1,8,0:0:0:0:
256,192,145694,1,0,0:0:0:0:
256,192,145777,1,8,0:0:0:0:
256,192,145944,1,0,0:0:0:0:
256,192,146110,1,8,0:0:0:0:
256,192,146194,1,8,0:0:0:0:
256,192,146860,1,0,0:0:0:0:
256,192,147027,1,8,0:0:0:0:
256,192,147194,1,8,0:0:0:0:
256,192,147277,1,0,0:0:0:0:
256,192,147444,1,8,0:0:0:0:
256,192,147610,1,0,0:0:0:0:
256,192,147694,1,8,0:0:0:0:
256,192,147777,1,8,0:0:0:0:
256,192,147860,1,0,0:0:0:0:
256,192,148027,1,8,0:0:0:0:
256,192,148194,1,0,0:0:0:0:
256,192,148360,1,8,0:0:0:0:
256,192,148527,1,8,0:0:0:0:
256,192,148610,1,0,0:0:0:0:
256,192,148777,1,8,0:0:0:0:
256,192,148944,1,8,0:0:0:0:
256,192,149027,1,0,0:0:0:0:
256,192,149110,1,0,0:0:0:0:
256,192,149194,1,8,0:0:0:0:
256,192,149360,1,8,0:0:0:0:
256,192,149527,1,0,0:0:0:0:
256,192,149694,1,8,0:0:0:0:
256,192,149860,1,0,0:0:0:0:
256,192,149944,1,8,0:0:0:0:
256,192,150110,1,0,0:0:0:0:
256,192,150277,1,0,0:0:0:0:
256,192,150360,1,8,0:0:0:0:
256,192,150444,1,0,0:0:0:0:
256,192,150527,1,8,0:0:0:0:
256,192,150694,1,8,0:0:0:0:
256,192,150860,1,0,0:0:0:0:
256,192,151027,1,8,0:0:0:0:
256,192,151194,1,0,0:0:0:0:
256,192,151277,1,0,0:0:0:0:
256,192,151444,1,8,0:0:0:0:
256,192,151610,1,8,0:0:0:0:
256,192,151694,1,0,0:0:0:0:
256,192,151777,1,0,0:0:0:0:
256,192,151860,1,8,0:0:0:0:
256,192,151944,1,0,0:0:0:0:
256,192,152027,1,8,0:0:0:0:
256,192,152110,1,8,0:0:0:0:
256,192,152194,1,0,0:0:0:0:
256,192,152360,1,8,0:0:0:0:
256,192,152527,1,8,0:0:0:0:
256,192,152610,1,0,0:0:0:0:
256,192,152777,1,8,0:0:0:0:
256,192,152944,1,0,0:0:0:0:
256,192,153027,1,8,0:0:0:0:
256,192,153110,1,8,0:0:0:0:
256,192,153194,1,0,0:0:0:0:
256,192,153360,1,8,0:0:0:0:
256,192,153527,1,0,0:0:0:0:
256,192,153694,1,8,0:0:0:0:
256,192,153860,1,8,0:0:0:0:
256,192,153944,1,0,0:0:0:0:
256,192,154110,1,8,0:0:0:0:
256,192,154277,1,8,0:0:0:0:
256,192,154360,1,0,0:0:0:0:
256,192,154444,1,0,0:0:0:0:
256,192,154527,1,8,0:0:0:0:
256,192,154694,1,8,0:0:0:0:
256,192,154860,1,0,0:0:0:0:
256,192,155027,1,8,0:0:0:0:
256,192,155194,1,0,0:0:0:0:
256,192,155277,1,0,0:0:0:0:
256,192,155444,1,8,0:0:0:0:
256,192,155610,1,8,0:0:0:0:
256,192,155694,1,8,0:0:0:0:
256,192,155777,1,0,0:0:0:0:
256,192,155860,1,8,0:0:0:0:
256,192,156027,1,0,0:0:0:0:
256,192,156110,1,0,0:0:0:0:
256,192,156194,1,8,0:0:0:0:
256,192,156360,1,8,0:0:0:0:
256,192,156527,1,8,0:0:0:0:
256,192,156694,1,0,0:0:0:0:
256,192,156860,1,8,0:0:0:0:
256,192,156944,1,8,0:0:0:0:
256,192,157027,1,0,0:0:0:0:
256,192,157110,1,0,0:0:0:0:
256,192,157194,1,8,0:0:0:0:
256,192,157360,1,0,0:0:0:0:
256,192,157444,1,0,0:0:0:0:
256,192,157527,1,8,0:0:0:0:
256,192,157694,1,0,0:0:0:0:
256,192,157860,1,8,0:0:0:0:
256,192,157944,1,0,0:0:0:0:
256,192,158110,1,8,0:0:0:0:
256,192,158277,1,8,0:0:0:0:
256,192,158360,1,8,0:0:0:0:
256,192,158444,1,0,0:0:0:0:
256,192,158527,1,8,0:0:0:0:
256,192,158694,1,0,0:0:0:0:
256,192,158860,1,8,0:0:0:0:
256,192,159027,1,0,0:0:0:0:
256,192,159110,1,8,0:0:0:0:
256,192,159277,1,0,0:0:0:0:
256,192,159444,1,8,0:0:0:0:
256,192,159527,1,8,0:0:0:0:
256,192,159860,1,12,0:0:0:0:
256,192,160194,1,8,0:0:0:0:
256,192,160277,1,0,0:0:0:0:
256,192,160319,1,0,0:0:0:0:
256,192,160360,1,8,0:0:0:0:
256,192,160444,1,0,0:0:0:0:
256,192,160527,1,8,0:0:0:0:
256,192,160569,1,0,0:0:0:0:
256,192,160610,1,8,0:0:0:0:
256,192,160652,1,8,0:0:0:0:
256,192,160694,1,0,0:0:0:0:
256,192,160777,1,8,0:0:0:0:
256,192,160819,1,0,0:0:0:0:
256,192,160860,1,0,0:0:0:0:
256,192,160944,1,8,0:0:0:0:
256,192,160985,1,8,0:0:0:0:
256,192,161027,1,8,0:0:0:0:
256,192,161069,1,8,0:0:0:0:
256,192,161110,1,0,0:0:0:0:
256,192,161152,1,0,0:0:0:0:
256,192,161194,1,8,0:0:0:0:
256,192,161235,1,0,0:0:0:0:
256,192,161277,1,0,0:0:0:0:
256,192,161319,1,0,0:0:0:0:
256,192,161360,1,8,0:0:0:0:
256,192,161444,1,0,0:0:0:0:
256,192,161527,1,8,0:0:0:0:
256,192,161569,1,8,0:0:0:0:
256,192,161610,1,0,0:0:0:0:
256,192,161652,1,0,0:0:0:0:
256,192,161694,1,8,0:0:0:0:
256,192,161777,1,0,0:0:0:0:
256,192,161860,1,8,0:0:0:0:
256,192,161902,1,0,0:0:0:0:
256,192,161944,1,8,0:0:0:0:
256,192,161985,1,8,0:0:0:0:
256,192,162027,1,0,0:0:0:0:
256,192,162110,1,8,0:0:0:0:
256,192,162152,1,8,0:0:0:0:
256,192,162194,1,8,0:0:0:0:
256,192,162277,1,0,0:0:0:0:
256,192,162319,1,0,0:0:0:0:
256,192,162360,1,8,0:0:0:0:
256,192,162402,1,0,0:0:0:0:
256,192,162444,1,0,0:0:0:0:
256,192,162485,1,0,0:0:0:0:
256,192,162527,1,8,0:0:0:0:
256,192,162569,1,8,0:0:0:0:
256,192,162610,1,0,0:0:0:0:
256,192,162652,1,0,0:0:0:0:
256,192,162694,1,8,0:0:0:0:
256,192,162777,1,0,0:0:0:0:
256,192,162860,1,8,0:0:0:0:
256,192,162902,1,0,0:0:0:0:
256,192,162944,1,0,0:0:0:0:
256,192,162985,1,0,0:0:0:0:
256,192,163027,1,8,0:0:0:0:
256,192,163110,1,0,0:0:0:0:
256,192,163194,1,8,0:0:0:0:
256,192,163235,1,0,0:0:0:0:
256,192,163277,1,8,0:0:0:0:
256,192,163319,1,8,0:0:0:0:
256,192,163360,1,0,0:0:0:0:
256,192,163444,1,0,0:0:0:0:
256,192,163485,1,0,0:0:0:0:
256,192,163527,1,8,0:0:0:0:
256,192,163610,1,0,0:0:0:0:
256,192,163652,1,0,0:0:0:0:
256,192,163694,1,8,0:0:0:0:
256,192,163735,1,0,0:0:0:0:
256,192,163777,1,8,0:0:0:0:
256,192,163819,1,8,0:0:0:0:
256,192,163860,1,0,0:0:0:0:
256,192,163902,1,8,0:0:0:0:
256,192,163944,1,0,0:0:0:0:
256,192,163985,1,0,0:0:0:0:
256,192,164027,1,8,0:0:0:0:
256,192,164110,1,0,0:0:0:0:
256,192,164194,1,8,0:0:0:0:
256,192,164235,1,0,0:0:0:0:
256,192,164277,1,0,0:0:0:0:
256,192,164319,1,0,0:0:0:0:
256,192,164360,1,8,0:0:0:0:
256,192,164444,1,0,0:0:0:0:
256,192,164527,1,0,0:0:0:0:
256,192,164569,1,0,0:0:0:0:
256,192,164610,1,8,0:0:0:0:
256,192,164652,1,8,0:0:0:0:
256,192,164694,1,0,0:0:0:0:
256,192,164777,1,8,0:0:0:0:
256,192,164819,1,8,0:0:0:0:
256,192,164860,1,8,0:0:0:0:
256,192,164944,1,0,0:0:0:0:
256,192,164985,1,0,0:0:0:0:
256,192,165027,1,8,0:0:0:0:
256,192,165069,1,8,0:0:0:0:
256,192,165110,1,0,0:0:0:0:
256,192,165152,1,0,0:0:0:0:
256,192,165194,1,8,0:0:0:0:
256,192,165235,1,0,0:0:0:0:
256,192,165277,1,8,0:0:0:0:
256,192,165319,1,8,0:0:0:0:
256,192,165360,1,0,0:0:0:0:
256,192,165402,1,0,0:0:0:0:
256,192,165444,1,0,0:0:0:0:
256,192,165485,1,0,0:0:0:0:
256,192,165527,1,8,0:0:0:0:
256,192,165610,1,0,0:0:0:0:
256,192,165652,1,0,0:0:0:0:
256,192,165694,1,8,0:0:0:0:
256,192,165777,1,0,0:0:0:0:
256,192,165860,1,8,0:0:0:0:
256,192,165902,1,0,0:0:0:0:
256,192,165944,1,8,0:0:0:0:
256,192,165985,1,8,0:0:0:0:
256,192,166027,1,0,0:0:0:0:
256,192,166110,1,8,0:0:0:0:
256,192,166152,1,0,0:0:0:0:
256,192,166194,1,0,0:0:0:0:
256,192,166277,1,8,0:0:0:0:
256,192,166319,1,8,0:0:0:0:
256,192,166360,1,8,0:0:0:0:
256,192,166402,1,8,0:0:0:0:
256,192,166444,1,0,0:0:0:0:
256,192,166485,1,0,0:0:0:0:
256,192,166527,1,8,0:0:0:0:
256,192,166569,1,0,0:0:0:0:
256,192,166610,1,0,0:0:0:0:
256,192,166652,1,0,0:0:0:0:
256,192,166694,1,8,0:0:0:0:
256,192,166777,1,0,0:0:0:0:
256,192,166860,1,8,0:0:0:0:
256,192,166902,1,8,0:0:0:0:
256,192,166944,1,0,0:0:0:0:
256,192,166985,1,0,0:0:0:0:
256,192,167027,1,8,0:0:0:0:
256,192,167110,1,0,0:0:0:0:
256,192,167194,1,8,0:0:0:0:
256,192,167235,1,0,0:0:0:0:
256,192,167277,1,8,0:0:0:0:
256,192,167319,1,8,0:0:0:0:
256,192,167360,1,0,0:0:0:0:
256,192,167444,1,8,0:0:0:0:
256,192,167485,1,0,0:0:0:0:
256,192,167527,1,0,0:0:0:0:
256,192,167610,1,8,0:0:0:0:
256,192,167652,1,8,0:0:0:0:
256,192,167694,1,0,0:0:0:0:
256,192,167735,1,8,0:0:0:0:
256,192,167777,1,0,0:0:0:0:
256,192,167819,1,0,0:0:0:0:
256,192,167860,1,8,0:0:0:0:
256,192,167902,1,8,0:0:0:0:
256,192,167944,1,0,0:0:0:0:
256,192,167985,1,0,0:0:0:0:
256,192,168027,1,8,0:0:0:0:
256,192,168110,1,0,0:0:0:0:
256,192,168194,1,8,0:0:0:0:
256,192,168235,1,0,0:0:0:0:
256,192,168277,1,8,0:0:0:0:
256,192,168319,1,0,0:0:0:0:
256,192,168360,1,8,0:0:0:0:
256,192,168444,1,0,0:0:0:0:
256,192,168527,1,8,0:0:0:0:
256,192,168569,1,0,0:0:0:0:
256,192,168610,1,8,0:0:0:0:
256,192,168652,1,8,0:0:0:0:
256,192,168694,1,0,0:0:0:0:
256,192,168777,1,8,0:0:0:0:
256,192,168819,1,8,0:0:0:0:
256,192,168860,1,8,0:0:0:0:
256,192,168944,1,0,0:0:0:0:
256,192,168985,1,0,0:0:0:0:
256,192,169027,1,8,0:0:0:0:
256,192,169069,1,8,0:0:0:0:
256,192,169110,1,8,0:0:0:0:
256,192,169152,1,0,0:0:0:0:
256,192,169194,1,8,0:0:0:0:
256,192,169235,1,8,0:0:0:0:
256,192,169277,1,0,0:0:0:0:
256,192,169319,1,0,0:0:0:0:
256,192,169360,1,8,0:0:0:0:
256,192,169444,1,0,0:0:0:0:
256,192,169527,1,8,0:0:0:0:
256,192,169569,1,8,0:0:0:0:
256,192,169610,1,0,0:0:0:0:
256,192,169694,1,8,0:0:0:0:
256,192,169735,1,8,0:0:0:0:
256,192,169777,1,8,0:0:0:0:
256,192,169819,1,8,0:0:0:0:
256,192,169860,1,0,0:0:0:0:
256,192,169944,1,0,0:0:0:0:
256,192,169985,1,0,0:0:0:0:
256,192,170027,1,8,0:0:0:0:
256,192,170069,1,8,0:0:0:0:
256,192,170110,1,8,0:0:0:0:
256,192,170152,1,8,0:0:0:0:
256,192,170194,1,0,0:0:0:0:
256,192,170277,1,0,0:0:0:0:
256,192,170319,1,0,0:0:0:0:
256,192,170360,1,8,0:0:0:0:
256,192,170444,1,0,0:0:0:0:
256,192,170485,1,0,0:0:0:0:
256,192,170527,1,8,0:0:0:0:
256,192,170569,1,8,0:0:0:0:
256,192,170610,1,0,0:0:0:0:
256,192,170652,1,0,0:0:0:0:
256,192,170694,1,8,0:0:0:0:
256,192,170735,1,8,0:0:0:0:
256,192,170777,1,8,0:0:0:0:
256,192,170819,1,8,0:0:0:0:
256,192,170860,1,0,0:0:0:0:
256,192,170944,1,0,0:0:0:0:
256,192,170985,1,0,0:0:0:0:
256,192,171027,1,8,0:0:0:0:
256,192,171069,1,8,0:0:0:0:
256,192,171110,1,0,0:0:0:0:
256,192,171194,1,8,0:0:0:0:
256,192,171235,1,0,0:0:0:0:
256,192,171277,1,8,0:0:0:0:
256,192,171319,1,8,0:0:0:0:
256,192,171360,1,0,0:0:0:0:
256,192,171444,1,8,0:0:0:0:
256,192,171485,1,0,0:0:0:0:
256,192,171527,1,0,0:0:0:0:
256,192,171610,1,8,0:0:0:0:
256,192,171652,1,8,0:0:0:0:
256,192,171694,1,8,0:0:0:0:
256,192,171735,1,8,0:0:0:0:
256,192,171777,1,0,0:0:0:0:
256,192,171819,1,0,0:0:0:0:
256,192,171860,1,8,0:0:0:0:
256,192,171902,1,0,0:0:0:0:
256,192,171944,1,0,0:0:0:0:
256,192,171985,1,0,0:0:0:0:
256,192,172027,1,8,0:0:0:0:
256,192,172110,1,0,0:0:0:0:
256,192,172194,1,8,0:0:0:0:
256,192,172235,1,8,0:0:0:0:
256,192,172277,1,0,0:0:0:0:
256,192,172319,1,0,0:0:0:0:
256,192,172360,1,8,0:0:0:0:
256,192,172402,1,8,0:0:0:0:
256,192,172444,1,0,0:0:0:0:
256,192,172527,1,8,0:0:0:0:
256,192,172569,1,0,0:0:0:0:
256,192,172610,1,8,0:0:0:0:
256,192,172652,1,8,0:0:0:0:
256,192,172694,1,0,0:0:0:0:
256,192,172777,1,8,0:0:0:0:
256,192,172819,1,8,0:0:0:0:
256,192,172860,1,8,0:0:0:0:
256,192,172944,1,0,0:0:0:0:
256,192,172985,1,0,0:0:0:0:
256,192,173027,1,8,0:0:0:0:
256,192,173069,1,0,0:0:0:0:
256,192,173110,1,0,0:0:0:0:
256,192,173152,1,0,0:0:0:0:
256,192,173194,1,8,0:0:0:0:
256,192,173235,1,8,0:0:0:0:
256,192,173277,1,0,0:0:0:0:
256,192,173319,1,0,0:0:0:0:
256,192,173360,1,8,0:0:0:0:
256,192,173444,1,0,0:0:0:0:
256,192,173527,1,8,0:0:0:0:
256,192,173569,1,0,0:0:0:0:
256,192,173610,1,0,0:0:0:0:
256,192,173652,1,0,0:0:0:0:
256,192,173694,1,8,0:0:0:0:
256,192,173735,1,8,0:0:0:0:
256,192,173777,1,0,0:0:0:0:
256,192,173860,1,8,0:0:0:0:
256,192,173902,1,0,0:0:0:0:
256,192,173944,1,8,0:0:0:0:
256,192,173985,1,8,0:0:0:0:
256,192,174027,1,0,0:0:0:0:
256,192,174110,1,0,0:0:0:0:
256,192,174152,1,0,0:0:0:0:
256,192,174194,1,8,0:0:0:0:
256,192,174277,1,0,0:0:0:0:
256,192,174319,1,0,0:0:0:0:
256,192,174360,1,8,0:0:0:0:
256,192,174402,1,0,0:0:0:0:
256,192,174444,1,8,0:0:0:0:
256,192,174485,1,8,0:0:0:0:
256,192,174527,1,0,0:0:0:0:
256,192,174569,1,8,0:0:0:0:
256,192,174610,1,0,0:0:0:0:
256,192,174652,1,0,0:0:0:0:
256,192,174694,1,8,0:0:0:0:
256,192,174777,1,0,0:0:0:0:
256,192,174860,1,8,0:0:0:0:
256,192,174902,1,0,0:0:0:0:
256,192,174944,1,0,0:0:0:0:
256,192,174985,1,0,0:0:0:0:
256,192,175027,1,8,0:0:0:0:
256,192,175069,1,8,0:0:0:0:
256,192,175110,1,0,0:0:0:0:
256,192,175194,1,0,0:0:0:0:
256,192,175235,1,0,0:0:0:0:
256,192,175277,1,8,0:0:0:0:
256,192,175319,1,8,0:0:0:0:
256,192,175360,1,0,0:0:0:0:
256,192,175444,1,8,0:0:0:0:
256,192,175485,1,8,0:0:0:0:
256,192,175527,1,8,0:0:0:0:
256,192,175610,1,0,0:0:0:0:
256,192,175652,1,0,0:0:0:0:
256,192,175694,1,8,0:0:0:0:
256,192,175735,1,8,0:0:0:0:
256,192,175777,1,0,0:0:0:0:
256,192,175819,1,0,0:0:0:0:
256,192,175860,1,8,0:0:0:0:
256,192,175902,1,0,0:0:0:0:
256,192,175944,1,8,0:0:0:0:
256,192,175985,1,8,0:0:0:0:
256,192,176027,1,0,0:0:0:0:
256,192,176069,1,0,0:0:0:0:
256,192,176110,1,0,0:0:0:0:
256,192,176152,1,0,0:0:0:0:
256,192,176194,1,8,0:0:0:0:
256,192,176277,1,0,0:0:0:0:
256,192,176319,1,0,0:0:0:0:
256,192,176360,1,8,0:0:0:0:
256,192,176402,1,8,0:0:0:0:
256,192,176444,1,0,0:0:0:0:
256,192,176527,1,8,0:0:0:0:
256,192,176569,1,0,0:0:0:0:
256,192,176610,1,8,0:0:0:0:
256,192,176652,1,8,0:0:0:0:
256,192,176694,1,0,0:0:0:0:
256,192,176777,1,8,0:0:0:0:
256,192,176819,1,0,0:0:0:0:
256,192,176860,1,0,0:0:0:0:
256,192,176944,1,8,0:0:0:0:
256,192,176985,1,8,0:0:0:0:
256,192,177027,1,8,0:0:0:0:
256,192,177069,1,8,0:0:0:0:
256,192,177110,1,0,0:0:0:0:
256,192,177152,1,0,0:0:0:0:
256,192,177194,1,8,0:0:0:0:
256,192,177235,1,0,0:0:0:0:
256,192,177277,1,0,0:0:0:0:
256,192,177319,1,0,0:0:0:0:
256,192,177360,1,8,0:0:0:0:
256,192,177444,1,0,0:0:0:0:
256,192,177527,1,8,0:0:0:0:
256,192,177569,1,8,0:0:0:0:
256,192,177610,1,0,0:0:0:0:
256,192,177652,1,0,0:0:0:0:
256,192,177694,1,8,0:0:0:0:
256,192,177735,1,8,0:0:0:0:
256,192,177777,1,0,0:0:0:0:
256,192,177860,1,8,0:0:0:0:
256,192,177902,1,0,0:0:0:0:
256,192,177944,1,8,0:0:0:0:
256,192,177985,1,8,0:0:0:0:
256,192,178027,1,0,0:0:0:0:
256,192,178110,1,8,0:0:0:0:
256,192,178152,1,8,0:0:0:0:
256,192,178194,1,8,0:0:0:0:
256,192,178277,1,0,0:0:0:0:
256,192,178319,1,0,0:0:0:0:
256,192,178360,1,8,0:0:0:0:
256,192,178402,1,0,0:0:0:0:
256,192,178444,1,0,0:0:0:0:
256,192,178485,1,0,0:0:0:0:
256,192,178527,1,8,0:0:0:0:
256,192,178569,1,8,0:0:0:0:
256,192,178610,1,0,0:0:0:0:
256,192,178652,1,0,0:0:0:0:
256,192,178694,1,8,0:0:0:0:
256,192,178735,1,8,0:0:0:0:
256,192,178777,1,8,0:0:0:0:
256,192,178819,1,8,0:0:0:0:
256,192,178860,1,0,0:0:0:0:
256,192,180027,1,8,0:0:0:0:
256,192,180110,1,8,0:0:0:0:
256,192,180194,1,0,0:0:0:0:
256,192,180360,1,8,0:0:0:0:
256,192,180527,1,8,0:0:0:0:
256,192,180694,1,0,0:0:0:0:
256,192,180860,1,8,0:0:0:0:
256,192,181027,1,8,0:0:0:0:
256,192,181194,1,0,0:0:0:0:
256,192,181235,1,0,0:0:0:0:
256,192,181277,1,0,0:0:0:0:
256,192,181319,1,0,0:0:0:0:
256,192,181360,1,8,0:0:0:0:
256,192,181444,1,8,0:0:0:0:
256,192,181527,1,4,0:0:0:0:
256,192,181693,1,0,0:0:0:0:
256,192,181860,1,8,0:0:0:0:
256,192,181943,1,8,0:0:0:0:
256,192,182110,1,0,0:0:0:0:
256,192,182277,1,8,0:0:0:0:
256,192,182360,1,0,0:0:0:0:
256,192,182527,1,8,0:0:0:0:
256,192,182693,1,0,0:0:0:0:
256,192,182777,1,0,0:0:0:0:
256,192,182860,1,8,0:0:0:0:
256,192,183027,1,0,0:0:0:0:
256,192,183193,1,8,0:0:0:0:
256,192,183277,1,0,0:0:0:0:
256,192,183443,1,8,0:0:0:0:
256,192,183610,1,0,0:0:0:0:
256,192,183693,1,8,0:0:0:0:
256,192,183860,1,8,0:0:0:0:
256,192,183943,1,8,0:0:0:0:
256,192,184027,1,0,0:0:0:0:
256,192,184110,1,0,0:0:0:0:
256,192,184193,1,8,0:0:0:0:
256,192,184360,1,0,0:0:0:0:
256,192,184527,1,8,0:0:0:0:
256,192,184610,1,8,0:0:0:0:
256,192,184777,1,0,0:0:0:0:
256,192,184943,1,8,0:0:0:0:
256,192,185027,1,0,0:0:0:0:
256,192,185110,1,0,0:0:0:0:
256,192,185193,1,8,0:0:0:0:
256,192,185360,1,0,0:0:0:0:
256,192,185527,1,0,0:0:0:0:
256,192,185610,1,8,0:0:0:0:
256,192,185693,1,0,0:0:0:0:
256,192,185777,1,0,0:0:0:0:
256,192,185860,1,8,0:0:0:0:
256,192,186027,1,0,0:0:0:0:
256,192,186110,1,0,0:0:0:0:
256,192,186277,1,8,0:0:0:0:
256,192,186443,1,0,0:0:0:0:
256,192,186527,1,8,0:0:0:0:
256,192,186610,1,8,0:0:0:0:
256,192,186693,1,0,0:0:0:0:
256,192,186777,1,0,0:0:0:0:
256,192,186860,1,12,0:0:0:0:
256,192,187027,1,0,0:0:0:0:
256,192,187193,1,8,0:0:0:0:
256,192,187277,1,8,0:0:0:0:
256,192,187443,1,0,0:0:0:0:
256,192,187610,1,8,0:0:0:0:
256,192,187693,1,0,0:0:0:0:
256,192,187860,1,8,0:0:0:0:
256,192,188027,1,0,0:0:0:0:
256,192,188110,1,0,0:0:0:0:
256,192,188193,1,8,0:0:0:0:
256,192,188360,1,0,0:0:0:0:
256,192,188527,1,8,0:0:0:0:
256,192,188610,1,0,0:0:0:0:
256,192,188777,1,8,0:0:0:0:
256,192,188943,1,0,0:0:0:0:
256,192,189027,1,8,0:0:0:0:
256,192,189193,1,8,0:0:0:0:
256,192,189277,1,8,0:0:0:0:
256,192,189360,1,8,0:0:0:0:
256,192,189443,1,0,0:0:0:0:
256,192,189527,1,8,0:0:0:0:
256,192,189693,1,0,0:0:0:0:
256,192,189860,1,8,0:0:0:0:
256,192,189943,1,8,0:0:0:0:
256,192,190110,1,0,0:0:0:0:
256,192,190277,1,8,0:0:0:0:
256,192,190360,1,8,0:0:0:0:
256,192,190443,1,0,0:0:0:0:
256,192,190527,1,8,0:0:0:0:
256,192,190693,1,0,0:0:0:0:
256,192,190777,1,0,0:0:0:0:
256,192,190860,1,8,0:0:0:0:
256,192,190943,1,8,0:0:0:0:
256,192,191027,1,0,0:0:0:0:
256,192,191110,1,0,0:0:0:0:
256,192,191193,1,8,0:0:0:0:
256,192,191249,1,8,0:0:0:0:
256,192,191304,1,8,0:0:0:0:
256,192,191360,1,0,0:0:0:0:
256,192,191443,1,0,0:0:0:0:
256,192,191527,1,8,0:0:0:0:
256,192,191582,1,0,0:0:0:0:
256,192,191638,1,0,0:0:0:0:
256,192,191693,1,8,0:0:0:0:
256,192,191777,1,0,0:0:0:0:
256,192,191860,1,8,0:0:0:0:
256,192,191915,1,8,0:0:0:0:
256,192,191971,1,8,0:0:0:0:
256,192,192027,1,0,0:0:0:0:
256,192,192082,1,0,0:0:0:0:
256,192,192138,1,0,0:0:0:0:
256,192,192193,1,8,0:0:0:0:
256,192,192360,1,0,0:0:0:0:
256,192,192527,1,8,0:0:0:0:
256,192,192610,1,8,0:0:0:0:
256,192,192777,1,0,0:0:0:0:
256,192,192943,1,8,0:0:0:0:
256,192,193027,1,0,0:0:0:0:
256,192,193110,1,0,0:0:0:0:
256,192,193193,1,8,0:0:0:0:
256,192,193277,1,8,0:0:0:0:
256,192,193360,1,0,0:0:0:0:
256,192,193443,1,0,0:0:0:0:
256,192,193527,1,8,0:0:0:0:
256,192,193693,1,0,0:0:0:0:
256,192,193860,1,8,0:0:0:0:
256,192,193943,1,0,0:0:0:0:
256,192,194027,1,0,0:0:0:0:
256,192,194110,1,8,0:0:0:0:
256,192,194277,1,8,0:0:0:0:
256,192,194360,1,0,0:0:0:0:
256,192,194527,1,8,0:0:0:0:
256,192,194610,1,8,0:0:0:0:
256,192,194693,1,0,0:0:0:0:
256,192,194777,1,0,0:0:0:0:
256,192,194860,1,8,0:0:0:0:
256,192,195027,1,0,0:0:0:0:
256,192,195110,1,0,0:0:0:0:
256,192,195193,1,8,0:0:0:0:
256,192,195277,1,0,0:0:0:0:
256,192,195443,1,0,0:0:0:0:
256,192,195527,1,8,0:0:0:0:
256,192,195693,1,0,0:0:0:0:
256,192,195776,1,8,0:0:0:0:
256,192,195860,1,8,0:0:0:0:
256,192,195943,1,0,0:0:0:0:
256,192,196110,1,8,0:0:0:0:
256,192,196193,1,8,0:0:0:0:
256,192,196360,1,0,0:0:0:0:
256,192,196526,1,8,0:0:0:0:
256,192,196610,1,8,0:0:0:0:
256,192,196693,1,0,0:0:0:0:
256,192,196776,1,8,0:0:0:0:
256,192,196860,1,0,0:0:0:0:
256,192,196943,1,0,0:0:0:0:
256,192,197026,1,8,0:0:0:0:
256,192,197110,1,0,0:0:0:0:
256,192,197193,1,0,0:0:0:0:
256,192,197276,1,8,0:0:0:0:
256,192,197360,1,0,0:0:0:0:
256,192,197443,1,0,0:0:0:0:
256,192,197526,1,8,0:0:0:0:
256,192,197610,1,8,0:0:0:0:
256,192,197693,1,0,0:0:0:0:
256,192,197776,1,0,0:0:0:0:
256,192,197860,1,8,0:0:0:0:
256,192,197943,1,0,0:0:0:0:
256,192,198026,1,0,0:0:0:0:
256,192,198110,1,0,0:0:0:0:
256,192,198193,1,8,0:0:0:0:
256,192,198276,1,0,0:0:0:0:
256,192,198360,1,0,0:0:0:0:
256,192,198443,1,0,0:0:0:0:
256,192,198526,1,8,0:0:0:0:
256,192,198610,1,0,0:0:0:0:
256,192,198693,1,0,0:0:0:0:
256,192,198776,1,0,0:0:0:0:
256,192,198860,1,8,0:0:0:0:
256,192,198943,1,8,0:0:0:0:
256,192,199026,1,8,0:0:0:0:
256,192,199110,1,0,0:0:0:0:
256,192,199193,1,8,0:0:0:0:
256,192,199276,1,8,0:0:0:0:
256,192,199360,1,8,0:0:0:0:
256,192,199443,1,0,0:0:0:0:
256,192,199526,1,8,0:0:0:0:
256,192,199610,1,8,0:0:0:0:
256,192,199693,1,0,0:0:0:0:
256,192,199776,1,8,0:0:0:0:
256,192,199860,1,8,0:0:0:0:
256,192,199943,1,0,0:0:0:0:
256,192,200026,1,8,0:0:0:0:
256,192,200110,1,8,0:0:0:0:
256,192,200193,1,0,0:0:0:0:
256,192,200276,1,0,0:0:0:0:
256,192,200360,1,8,0:0:0:0:
256,192,200443,1,0,0:0:0:0:
256,192,200526,1,8,0:0:0:0:
256,192,200610,1,8,0:0:0:0:
256,192,200693,1,0,0:0:0:0:
256,192,200776,1,0,0:0:0:0:
256,192,200860,1,8,0:0:0:0:
256,192,200943,1,0,0:0:0:0:
256,192,201026,1,8,0:0:0:0:
256,192,201110,1,0,0:0:0:0:
256,192,201193,1,8,0:0:0:0:
256,192,201276,1,0,0:0:0:0:
256,192,201360,1,0,0:0:0:0:
256,192,201443,1,0,0:0:0:0:
256,192,201526,1,8,0:0:0:0:
256,192,201610,1,8,0:0:0:0:
256,192,201693,1,0,0:0:0:0:
256,192,201776,1,0,0:0:0:0:
256,192,201860,1,8,0:0:0:0:
256,192,201943,1,0,0:0:0:0:
256,192,202026,1,8,0:0:0:0:
256,192,202110,1,8,0:0:0:0:
256,192,202193,1,0,0:0:0:0:
256,192,202276,1,8,0:0:0:0:
256,192,202360,1,0,0:0:0:0:
256,192,202443,1,0,0:0:0:0:
256,192,202526,1,8,0:0:0:0:
256,192,202610,1,8,0:0:0:0:
256,192,202693,1,8,0:0:0:0:
256,192,202776,1,8,0:0:0:0:
256,192,202860,1,0,0:0:0:0:
256,192,203193,1,8,0:0:0:0:
256,192,203360,1,0,0:0:0:0:
256,192,203693,1,0,0:0:0:0:
256,192,203860,1,8,0:0:0:0:
256,192,204193,1,8,0:0:0:0:
256,192,204360,1,0,0:0:0:0:
256,192,204693,1,8,0:0:0:0:
256,192,205026,1,8,0:0:0:0:
256,192,205193,1,8,0:0:0:0:
256,192,205360,1,0,0:0:0:0:
256,192,205526,1,0,0:0:0:0:
256,192,205860,1,8,0:0:0:0:
256,192,206026,1,0,0:0:0:0:
256,192,206360,1,0,0:0:0:0:
256,192,206526,1,8,0:0:0:0:
256,192,206693,1,0,0:0:0:0:
256,192,206776,1,0,0:0:0:0:
256,192,206860,1,8,0:0:0:0:
256,192,207026,1,8,0:0:0:0:
256,192,207193,1,0,0:0:0:0:
256,192,207360,1,8,0:0:0:0:
256,192,207443,1,8,0:0:0:0:
256,192,207526,1,0,0:0:0:0:
256,192,207693,1,8,0:0:0:0:
256,192,207860,1,0,0:0:0:0:
256,192,207943,1,8,0:0:0:0:
256,192,208026,1,0,0:0:0:0:
256,192,208110,1,0,0:0:0:0:
256,192,208193,1,8,0:0:0:0:
256,192,208360,1,0,0:0:0:0:
256,192,208443,1,0,0:0:0:0:
256,192,208526,1,8,0:0:0:0:
256,192,208693,1,8,0:0:0:0:
256,192,208860,1,0,0:0:0:0:
256,192,209026,1,8,0:0:0:0:
256,192,209110,1,0,0:0:0:0:
256,192,209193,1,8,0:0:0:0:
256,192,209360,1,8,0:0:0:0:
256,192,209526,1,0,0:0:0:0:
256,192,209610,1,8,0:0:0:0:
256,192,209693,1,0,0:0:0:0:
256,192,209860,1,8,0:0:0:0:
256,192,210026,1,8,0:0:0:0:
256,192,210110,1,0,0:0:0:0:
256,192,210193,1,0,0:0:0:0:
256,192,210360,1,8,0:0:0:0:
256,192,210443,1,0,0:0:0:0:
256,192,210526,1,8,0:0:0:0:
256,192,210610,1,8,0:0:0:0:
256,192,210693,1,0,0:0:0:0:
256,192,210860,1,8,0:0:0:0:
256,192,211026,1,0,0:0:0:0:
256,192,211110,1,0,0:0:0:0:
256,192,211193,1,8,0:0:0:0:
256,192,211360,1,8,0:0:0:0:
256,192,211526,1,0,0:0:0:0:
256,192,211693,1,8,0:0:0:0:
256,192,211776,1,0,0:0:0:0:
256,192,211860,1,8,0:0:0:0:
256,192,212026,1,8,0:0:0:0:
256,192,212110,1,8,0:0:0:0:
256,192,212193,1,4,0:0:0:0:
256,192,212360,1,8,0:0:0:0:
256,192,212526,1,8,0:0:0:0:
256,192,212693,1,4,0:0:0:0:
256,192,212860,1,8,0:0:0:0:
256,192,213026,1,8,0:0:0:0:
256,192,213193,1,4,0:0:0:0:
256,192,213360,1,12,0:0:0:0:
