osu file format v14

[General]
AudioFilename: audio.mp3
AudioLeadIn: 0
PreviewTime: 183688
Countdown: 0
SampleSet: None
StackLeniency: 0.7
Mode: 1
LetterboxInBreaks: 0
WidescreenStoryboard: 0

[Editor]
DistanceSpacing: 1.5
BeatDivisor: 4
GridSize: 32
TimelineZoom: 2.229728

[Metadata]
Title:Galaxy Friends
TitleUnicode:Galaxy Friends
Artist:Kobaryo
ArtistUnicode:Kobaryo
Creator:Intensity
Version:Inner Oni
Source:
Tags:HARDCORE SYNDROME X C90
BeatmapID:1128386
BeatmapSetID:532506

[Difficulty]
HPDrainRate:5
CircleSize:4
OverallDifficulty:7
ApproachRate:10
SliderMultiplier:1.40383973668099
SliderTickRate:1

[Events]
//Background and Video events
0,0,"bggggggggggggggg.png",0,0
//Break Periods
//Storyboard Layer 0 (Background)
//Storyboard Layer 1 (Fail)
//Storyboard Layer 2 (Pass)
//Storyboard Layer 3 (Foreground)
//Storyboard Sound Samples

[TimingPoints]
6412,400,4,1,0,80,1,0
12812,-80,4,1,0,80,0,0
14412,-66.6666666666667,4,1,0,80,0,0
16012,-50,4,1,0,80,0,0
18812,-25,4,1,0,80,0,0
19212,200,4,1,0,80,1,0
31612,-66.6666666666667,4,1,0,80,0,0
32012,-100,4,1,0,80,0,0
34612,-125,4,1,0,80,0,0
34812,-166.666666666667,4,1,0,80,0,0
35012,-250,4,1,0,80,0,0
35212,-100,4,1,0,80,0,0
37812,-125,4,1,0,80,0,0
38012,-66.6666666666667,4,1,0,80,0,0
38412,-100,4,1,0,80,0,0
41012,-125,4,1,0,80,0,0
41212,-166.666666666667,4,1,0,80,0,0
41412,-250,4,1,0,80,0,0
41612,-100,4,1,0,80,0,0
44012,-50,4,1,0,80,0,0
44412,-200,4,1,0,80,0,0
44812,400,4,1,0,80,1,0
51212,-66.6666666666667,4,1,0,80,0,0
54412,-50,4,1,0,80,0,0
57212,-66.6666666666667,4,1,0,80,0,0
62412,-100,4,1,0,80,0,0
64012,-50,4,1,0,80,0,0
70412,200,4,1,0,80,1,0
82412,-66.6666666666667,4,1,0,80,0,0
82812,-100,4,1,0,80,0,0
83212,400,4,1,0,80,1,0
86412,-76.9230769230769,4,1,0,80,0,0
89612,-142.857142857143,4,1,0,80,0,0
92812,200,4,1,0,80,1,0
96012,300,4,1,0,80,1,0
114612,-76.9230769230769,4,1,0,80,0,0
124812,-125,4,1,0,80,0,0
129612,-100,4,1,0,80,0,0
130812,-83.3333333333333,4,1,0,80,0,0
132012,-71.4285714285714,4,1,0,80,0,0
133812,-83.3333333333333,4,1,0,80,0,0
134412,-76.9230769230769,4,1,0,80,0,0
139212,-100,4,1,0,80,0,0
141612,-66.6666666666667,4,1,0,80,0,0
144012,290.909090909091,4,1,0,80,1,0
144012,-200,4,1,0,80,0,0
144593,282.352941176471,4,1,0,80,1,0
144593,-200,4,1,0,80,0,0
145157,274.285714285714,4,1,0,80,1,0
145157,-200,4,1,0,80,0,0
145705,266.666666666667,4,1,0,80,1,0
145705,-200,4,1,0,80,0,0
146238,259.459459459459,4,1,0,80,1,0
146238,-200,4,1,0,80,0,0
146756,252.631578947368,4,1,0,80,1,0
146756,-200,4,1,0,80,0,0
147261,246.153846153846,4,1,0,80,1,0
147261,-200,4,1,0,80,0,0
147753,240,4,1,0,80,1,0
147753,-200,4,1,0,80,0,0
148233,234.146341463415,4,1,0,80,1,0
148233,-200,4,1,0,80,0,0
148701,228.571428571429,4,1,0,80,1,0
148701,-200,4,1,0,80,0,0
149158,223.255813953488,4,1,0,80,1,0
149158,-200,4,1,0,80,0,0
149604,218.181818181818,4,1,0,80,1,0
149604,-200,4,1,0,80,0,0
150040,213.333333333333,4,1,0,80,1,0
150040,-200,4,1,0,80,0,0
150466,208.695652173913,4,1,0,80,1,0
150466,-200,4,1,0,80,0,0
150883,204.255319148936,4,1,0,80,1,0
150883,-200,4,1,0,80,0,0
151291,200,4,1,0,80,1,0
151291,-200,4,1,0,80,0,0
151688,200,4,1,0,80,1,0
151691,-200,4,1,0,80,0,0
153288,-133.333333333333,4,1,0,80,0,0
154888,-100,4,1,0,80,0,0
158088,-125,4,1,0,80,0,0
177288,-100,4,1,0,80,0,0
180488,-83.3333333333333,4,1,0,80,0,0
183288,-66.6666666666667,4,1,0,80,0,0
183688,-100,4,1,0,80,0,0
209288,-200,4,1,0,80,0,0

[HitObjects]
256,192,812,12,4,4012,0:0:0:0:
256,192,6412,5,4,0:0:0:0:
256,192,6812,1,8,0:0:0:0:
256,192,7212,1,8,0:0:0:0:
256,192,7612,1,8,0:0:0:0:
256,192,8012,1,8,0:0:0:0:
256,192,8412,1,8,0:0:0:0:
256,192,8812,1,8,0:0:0:0:
256,192,9212,1,8,0:0:0:0:
256,192,9612,1,8,0:0:0:0:
256,192,10012,1,8,0:0:0:0:
256,192,10412,1,8,0:0:0:0:
256,192,10812,1,8,0:0:0:0:
256,192,11212,1,8,0:0:0:0:
256,192,11612,1,8,0:0:0:0:
256,192,12012,1,8,0:0:0:0:
256,192,12212,1,0,0:0:0:0:
256,192,12412,1,8,0:0:0:0:
256,192,12612,1,8,0:0:0:0:
256,192,12812,1,4,0:0:0:0:
256,192,13212,1,8,0:0:0:0:
256,192,13512,1,0,0:0:0:0:
256,192,13712,1,0,0:0:0:0:
256,192,13812,1,0,0:0:0:0:
256,192,14012,1,8,0:0:0:0:
256,192,14412,1,4,0:0:0:0:
256,192,14612,1,0,0:0:0:0:
256,192,14712,1,0,0:0:0:0:
256,192,14812,1,8,0:0:0:0:
256,192,15112,1,0,0:0:0:0:
256,192,15312,1,0,0:0:0:0:
256,192,15412,1,0,0:0:0:0:
256,192,15612,1,8,0:0:0:0:
256,192,15745,1,0,0:0:0:0:
256,192,15878,1,0,0:0:0:0:
256,192,16012,1,4,0:0:0:0:
256,192,16112,2,0,L|156:192,25,69.779991784096
256,192,18812,1,12,0:0:0:0:
256,192,19212,1,4,0:0:0:0:
256,192,19312,1,0,0:0:0:0:
256,192,19412,1,8,0:0:0:0:
256,192,19512,1,8,0:0:0:0:
256,192,19612,1,0,0:0:0:0:
256,192,19712,1,8,0:0:0:0:
256,192,19912,1,8,0:0:0:0:
256,192,20112,1,8,0:0:0:0:
256,192,20212,1,0,0:0:0:0:
256,192,20412,1,0,0:0:0:0:
256,192,20512,1,0,0:0:0:0:
256,192,20612,1,8,0:0:0:0:
256,192,20712,1,8,0:0:0:0:
256,192,20812,1,4,0:0:0:0:
256,192,20912,1,4,0:0:0:0:
256,192,21012,1,8,0:0:0:0:
256,192,21112,1,8,0:0:0:0:
256,192,21212,1,0,0:0:0:0:
256,192,21312,1,8,0:0:0:0:
256,192,21412,1,4,0:0:0:0:
256,192,21512,1,12,0:0:0:0:
256,192,21712,1,4,0:0:0:0:
256,192,21812,1,12,0:0:0:0:
256,192,22012,1,12,0:0:0:0:
256,192,22112,1,4,0:0:0:0:
256,192,22212,1,8,0:0:0:0:
256,192,22262,1,8,0:0:0:0:
256,192,22312,1,8,0:0:0:0:
256,192,22362,1,8,0:0:0:0:
256,192,22412,1,0,0:0:0:0:
256,192,22512,1,0,0:0:0:0:
256,192,22612,1,8,0:0:0:0:
256,192,22712,1,8,0:0:0:0:
256,192,22812,1,0,0:0:0:0:
256,192,22912,1,8,0:0:0:0:
256,192,23012,1,0,0:0:0:0:
256,192,23112,1,8,0:0:0:0:
256,192,23312,1,8,0:0:0:0:
256,192,23412,1,0,0:0:0:0:
256,192,23612,1,0,0:0:0:0:
256,192,23812,1,8,0:0:0:0:
256,192,23912,1,8,0:0:0:0:
256,192,24012,1,12,0:0:0:0:
256,192,24112,1,4,0:0:0:0:
256,192,24212,1,4,0:0:0:0:
256,192,24312,1,4,0:0:0:0:
256,192,24412,1,12,0:0:0:0:
256,192,24512,1,12,0:0:0:0:
256,192,24612,1,4,0:0:0:0:
256,192,24712,1,12,0:0:0:0:
256,192,24912,1,12,0:0:0:0:
256,192,25012,1,12,0:0:0:0:
256,192,25112,1,0,0:0:0:0:
256,192,25212,1,8,0:0:0:0:
256,192,25312,1,0,0:0:0:0:
256,192,25412,1,8,0:0:0:0:
256,192,25462,1,8,0:0:0:0:
256,192,25512,1,8,0:0:0:0:
256,192,25562,1,8,0:0:0:0:
256,192,25612,1,0,0:0:0:0:
256,192,25712,1,0,0:0:0:0:
256,192,25812,1,8,0:0:0:0:
256,192,25912,1,8,0:0:0:0:
256,192,26012,1,0,0:0:0:0:
256,192,26112,1,8,0:0:0:0:
256,192,26312,1,8,0:0:0:0:
256,192,26512,1,8,0:0:0:0:
256,192,26612,1,0,0:0:0:0:
256,192,26812,1,0,0:0:0:0:
256,192,26912,1,0,0:0:0:0:
256,192,27012,1,8,0:0:0:0:
256,192,27112,1,8,0:0:0:0:
256,192,27212,1,4,0:0:0:0:
256,192,27312,1,4,0:0:0:0:
256,192,27412,1,8,0:0:0:0:
256,192,27512,1,8,0:0:0:0:
256,192,27612,1,0,0:0:0:0:
256,192,27712,1,8,0:0:0:0:
256,192,27812,1,4,0:0:0:0:
256,192,27912,1,12,0:0:0:0:
256,192,28112,1,4,0:0:0:0:
256,192,28212,1,12,0:0:0:0:
256,192,28412,1,12,0:0:0:0:
256,192,28512,1,4,0:0:0:0:
256,192,28612,1,8,0:0:0:0:
256,192,28662,1,8,0:0:0:0:
256,192,28712,1,8,0:0:0:0:
256,192,28762,1,8,0:0:0:0:
256,192,28812,1,0,0:0:0:0:
256,192,28912,1,0,0:0:0:0:
256,192,29012,1,8,0:0:0:0:
256,192,29112,1,8,0:0:0:0:
256,192,29212,1,0,0:0:0:0:
256,192,29312,1,8,0:0:0:0:
256,192,29412,1,0,0:0:0:0:
256,192,29512,1,8,0:0:0:0:
256,192,29612,1,0,0:0:0:0:
256,192,29712,1,8,0:0:0:0:
256,192,29812,1,8,0:0:0:0:
256,192,29912,1,0,0:0:0:0:
256,192,29962,1,0,0:0:0:0:
256,192,30012,1,8,0:0:0:0:
256,192,30062,1,8,0:0:0:0:
256,192,30112,1,8,0:0:0:0:
256,192,30162,1,8,0:0:0:0:
256,192,30212,1,0,0:0:0:0:
256,192,30312,1,8,0:0:0:0:
256,192,30412,1,12,0:0:0:0:
256,192,30612,1,0,0:0:0:0:
256,192,30812,1,0,0:0:0:0:
256,192,30912,1,8,0:0:0:0:
256,192,31112,1,8,0:0:0:0:
256,192,31312,1,8,0:0:0:0:
256,192,31412,1,0,0:0:0:0:
256,192,31612,1,8,0:0:0:0:
256,192,31645,1,8,0:0:0:0:
256,192,31678,1,8,0:0:0:0:
256,192,31712,1,8,0:0:0:0:
256,192,31812,1,8,0:0:0:0:
256,192,31845,1,8,0:0:0:0:
256,192,31878,1,8,0:0:0:0:
256,192,31912,1,8,0:0:0:0:
256,192,32012,1,0,0:0:0:0:
256,192,32112,1,0,0:0:0:0:
256,192,32212,1,8,0:0:0:0:
256,192,32245,1,8,0:0:0:0:
256,192,32312,1,0,0:0:0:0:
256,192,32412,1,8,0:0:0:0:
256,192,32445,1,8,0:0:0:0:
256,192,32512,1,8,0:0:0:0:
256,192,32545,1,8,0:0:0:0:
256,192,32612,1,0,0:0:0:0:
256,192,32712,1,8,0:0:0:0:
256,192,32745,1,8,0:0:0:0:
256,192,32812,1,0,0:0:0:0:
256,192,32912,1,8,0:0:0:0:
256,192,32945,1,8,0:0:0:0:
256,192,32978,1,8,0:0:0:0:
256,192,33012,1,8,0:0:0:0:
256,192,33112,1,0,0:0:0:0:
256,192,33212,1,8,0:0:0:0:
256,192,33245,1,8,0:0:0:0:
256,192,33278,1,8,0:0:0:0:
256,192,33312,1,8,0:0:0:0:
256,192,33412,1,0,0:0:0:0:
256,192,33512,1,8,0:0:0:0:
256,192,33545,1,8,0:0:0:0:
256,192,33578,1,8,0:0:0:0:
256,192,33612,1,0,0:0:0:0:
256,192,33712,1,8,0:0:0:0:
256,192,33762,1,8,0:0:0:0:
256,192,33812,1,8,0:0:0:0:
256,192,33912,1,0,0:0:0:0:
256,192,34012,1,8,0:0:0:0:
256,192,34045,1,8,0:0:0:0:
256,192,34078,1,8,0:0:0:0:
256,192,34112,1,8,0:0:0:0:
256,192,34212,1,0,0:0:0:0:
256,192,34262,1,0,0:0:0:0:
256,192,34312,1,0,0:0:0:0:
256,192,34362,1,0,0:0:0:0:
256,192,34412,1,8,0:0:0:0:
256,192,34612,1,8,0:0:0:0:
256,192,34812,1,8,0:0:0:0:
256,192,35012,1,8,0:0:0:0:
256,192,35212,1,0,0:0:0:0:
256,192,35312,1,0,0:0:0:0:
256,192,35412,1,8,0:0:0:0:
256,192,35445,1,8,0:0:0:0:
256,192,35512,1,0,0:0:0:0:
256,192,35612,1,8,0:0:0:0:
256,192,35645,1,8,0:0:0:0:
256,192,35712,1,8,0:0:0:0:
256,192,35745,1,8,0:0:0:0:
256,192,35812,1,0,0:0:0:0:
256,192,35912,1,8,0:0:0:0:
256,192,35945,1,8,0:0:0:0:
256,192,36012,1,0,0:0:0:0:
256,192,36112,1,8,0:0:0:0:
256,192,36145,1,8,0:0:0:0:
256,192,36178,1,8,0:0:0:0:
256,192,36212,1,8,0:0:0:0:
256,192,36312,1,0,0:0:0:0:
256,192,36412,1,8,0:0:0:0:
256,192,36445,1,8,0:0:0:0:
256,192,36478,1,8,0:0:0:0:
256,192,36512,1,8,0:0:0:0:
256,192,36612,1,0,0:0:0:0:
256,192,36712,1,8,0:0:0:0:
256,192,36745,1,8,0:0:0:0:
256,192,36778,1,8,0:0:0:0:
256,192,36812,1,0,0:0:0:0:
256,192,36912,1,8,0:0:0:0:
256,192,36962,1,8,0:0:0:0:
256,192,37012,1,8,0:0:0:0:
256,192,37112,1,0,0:0:0:0:
256,192,37212,1,8,0:0:0:0:
256,192,37245,1,8,0:0:0:0:
256,192,37278,1,8,0:0:0:0:
256,192,37312,1,8,0:0:0:0:
256,192,37412,1,0,0:0:0:0:
256,192,37462,1,0,0:0:0:0:
256,192,37512,1,0,0:0:0:0:
256,192,37562,1,0,0:0:0:0:
256,192,37612,1,8,0:0:0:0:
256,192,37812,1,8,0:0:0:0:
256,192,38012,2,0,L|128:192,1,104.669991668987
256,192,38212,2,0,L|128:192,1,104.669991668987
256,192,38412,1,0,0:0:0:0:
256,192,38512,1,0,0:0:0:0:
256,192,38612,1,8,0:0:0:0:
256,192,38645,1,8,0:0:0:0:
256,192,38712,1,0,0:0:0:0:
256,192,38812,1,8,0:0:0:0:
256,192,38845,1,8,0:0:0:0:
256,192,38912,1,8,0:0:0:0:
256,192,38945,1,8,0:0:0:0:
256,192,39012,1,0,0:0:0:0:
256,192,39112,1,8,0:0:0:0:
256,192,39145,1,8,0:0:0:0:
256,192,39212,1,0,0:0:0:0:
256,192,39312,1,8,0:0:0:0:
256,192,39345,1,8,0:0:0:0:
256,192,39378,1,8,0:0:0:0:
256,192,39412,1,8,0:0:0:0:
256,192,39512,1,0,0:0:0:0:
256,192,39612,1,8,0:0:0:0:
256,192,39645,1,8,0:0:0:0:
256,192,39678,1,8,0:0:0:0:
256,192,39712,1,8,0:0:0:0:
256,192,39812,1,0,0:0:0:0:
256,192,39912,1,8,0:0:0:0:
256,192,39945,1,8,0:0:0:0:
256,192,39978,1,8,0:0:0:0:
256,192,40012,1,0,0:0:0:0:
256,192,40112,1,8,0:0:0:0:
256,192,40162,1,8,0:0:0:0:
256,192,40212,1,8,0:0:0:0:
256,192,40312,1,0,0:0:0:0:
256,192,40412,1,8,0:0:0:0:
256,192,40445,1,8,0:0:0:0:
256,192,40478,1,8,0:0:0:0:
256,192,40512,1,8,0:0:0:0:
256,192,40612,1,0,0:0:0:0:
256,192,40662,1,0,0:0:0:0:
256,192,40712,1,0,0:0:0:0:
256,192,40762,1,0,0:0:0:0:
256,192,40812,1,8,0:0:0:0:
256,192,41012,1,8,0:0:0:0:
256,192,41212,1,8,0:0:0:0:
256,192,41412,1,8,0:0:0:0:
256,192,41612,1,0,0:0:0:0:
256,192,41712,1,0,0:0:0:0:
256,192,41812,1,8,0:0:0:0:
256,192,41845,1,8,0:0:0:0:
256,192,41912,1,0,0:0:0:0:
256,192,42012,1,8,0:0:0:0:
256,192,42045,1,8,0:0:0:0:
256,192,42112,1,8,0:0:0:0:
256,192,42145,1,8,0:0:0:0:
256,192,42212,1,0,0:0:0:0:
256,192,42312,1,8,0:0:0:0:
256,192,42345,1,8,0:0:0:0:
256,192,42412,1,0,0:0:0:0:
256,192,42512,1,8,0:0:0:0:
256,192,42545,1,8,0:0:0:0:
256,192,42578,1,8,0:0:0:0:
256,192,42612,1,8,0:0:0:0:
256,192,42712,1,0,0:0:0:0:
256,192,42812,1,8,0:0:0:0:
256,192,42845,1,8,0:0:0:0:
256,192,42912,1,8,0:0:0:0:
256,192,42946,1,8,0:0:0:0:
256,192,43012,1,0,0:0:0:0:
256,192,43112,1,8,0:0:0:0:
256,192,43145,1,8,0:0:0:0:
256,192,43178,1,8,0:0:0:0:
256,192,43212,1,0,0:0:0:0:
256,192,43412,1,8,0:0:0:0:
256,192,43612,1,8,0:0:0:0:
256,192,43812,1,0,0:0:0:0:
256,192,44012,1,12,0:0:0:0:
256,192,44412,1,8,0:0:0:0:
256,192,44612,1,8,0:0:0:0:
256,192,44712,1,8,0:0:0:0:
256,192,44812,1,4,0:0:0:0:
256,192,45212,1,8,0:0:0:0:
256,192,45612,1,8,0:0:0:0:
256,192,46012,1,8,0:0:0:0:
256,192,46412,1,8,0:0:0:0:
256,192,46812,1,8,0:0:0:0:
256,192,47212,1,8,0:0:0:0:
256,192,47612,1,8,0:0:0:0:
256,192,48012,1,8,0:0:0:0:
256,192,48412,1,8,0:0:0:0:
256,192,48812,1,8,0:0:0:0:
256,192,49212,1,8,0:0:0:0:
256,192,49612,1,8,0:0:0:0:
256,192,50012,1,8,0:0:0:0:
256,192,50412,1,8,0:0:0:0:
256,192,50812,1,8,0:0:0:0:
256,192,51212,1,0,0:0:0:0:
256,192,51312,1,0,0:0:0:0:
256,192,51412,1,8,0:0:0:0:
256,192,51512,1,8,0:0:0:0:
256,192,51712,1,8,0:0:0:0:
256,192,51812,1,0,0:0:0:0:
256,192,51912,1,8,0:0:0:0:
256,192,52112,1,0,0:0:0:0:
256,192,52212,1,8,0:0:0:0:
256,192,52312,1,8,0:0:0:0:
256,192,52512,1,8,0:0:0:0:
256,192,52612,1,0,0:0:0:0:
256,192,52712,1,8,0:0:0:0:
256,192,52912,1,0,0:0:0:0:
256,192,53012,1,8,0:0:0:0:
256,192,53112,1,8,0:0:0:0:
256,192,53312,1,8,0:0:0:0:
256,192,53412,1,0,0:0:0:0:
256,192,53512,1,8,0:0:0:0:
256,192,53712,1,0,0:0:0:0:
256,192,53812,1,8,0:0:0:0:
256,192,53912,1,8,0:0:0:0:
256,192,54112,1,8,0:0:0:0:
256,192,54212,1,0,0:0:0:0:
256,192,54312,1,8,0:0:0:0:
256,192,54412,1,0,0:0:0:0:
256,192,54462,1,0,0:0:0:0:
256,192,54512,1,0,0:0:0:0:
256,192,54562,1,0,0:0:0:0:
256,192,54612,1,0,0:0:0:0:
256,192,54662,1,0,0:0:0:0:
256,192,54712,1,0,0:0:0:0:
256,192,54762,1,0,0:0:0:0:
256,192,54812,1,0,0:0:0:0:
256,192,54862,1,0,0:0:0:0:
256,192,54912,1,0,0:0:0:0:
256,192,54962,1,0,0:0:0:0:
256,192,55012,1,0,0:0:0:0:
256,192,55062,1,0,0:0:0:0:
256,192,55112,1,0,0:0:0:0:
256,192,55162,1,0,0:0:0:0:
256,192,55212,1,0,0:0:0:0:
256,192,55262,1,0,0:0:0:0:
256,192,55312,1,0,0:0:0:0:
256,192,55362,1,0,0:0:0:0:
256,192,55412,1,0,0:0:0:0:
256,192,55462,1,0,0:0:0:0:
256,192,55512,1,0,0:0:0:0:
256,192,55562,1,0,0:0:0:0:
256,192,55612,1,0,0:0:0:0:
256,192,55662,1,0,0:0:0:0:
256,192,55712,1,0,0:0:0:0:
256,192,55762,1,0,0:0:0:0:
256,192,55812,1,0,0:0:0:0:
256,192,55862,1,0,0:0:0:0:
256,192,55912,1,0,0:0:0:0:
256,192,55962,1,0,0:0:0:0:
256,192,57212,1,8,0:0:0:0:
256,192,57412,1,8,0:0:0:0:
256,192,57512,1,8,0:0:0:0:
256,192,57612,1,4,0:0:0:0:
256,192,58012,1,12,0:0:0:0:
256,192,58412,1,4,0:0:0:0:
256,192,58812,1,12,0:0:0:0:
256,192,59212,1,4,0:0:0:0:
256,192,59412,1,8,0:0:0:0:
256,192,59612,1,12,0:0:0:0:
256,192,59812,1,0,0:0:0:0:
256,192,60012,1,4,0:0:0:0:
256,192,60212,1,8,0:0:0:0:
256,192,60412,1,12,0:0:0:0:
256,192,60512,1,0,0:0:0:0:
256,192,60612,1,8,0:0:0:0:
256,192,60812,1,4,0:0:0:0:
256,192,61012,1,0,0:0:0:0:
256,192,61212,1,12,0:0:0:0:
256,192,61612,1,4,0:0:0:0:
256,192,62012,1,12,0:0:0:0:
256,192,62412,1,0,0:0:0:0:
256,192,62512,1,0,0:0:0:0:
256,192,62612,1,8,0:0:0:0:
256,192,62712,1,0,0:0:0:0:
256,192,62912,1,8,0:0:0:0:
256,192,63012,1,0,0:0:0:0:
256,192,63112,1,8,0:0:0:0:
256,192,63212,1,0,0:0:0:0:
256,192,63312,1,0,0:0:0:0:
256,192,63412,1,12,0:0:0:0:
256,192,63612,1,12,0:0:0:0:
256,192,64012,1,4,0:0:0:0:
256,192,64412,1,4,0:0:0:0:
256,192,64812,1,4,0:0:0:0:
256,192,65212,1,4,0:0:0:0:
256,192,65612,1,4,0:0:0:0:
256,192,65812,1,8,0:0:0:0:
256,192,66012,1,4,0:0:0:0:
256,192,66212,1,8,0:0:0:0:
256,192,66412,1,4,0:0:0:0:
256,192,66612,1,8,0:0:0:0:
256,192,66812,1,4,0:0:0:0:
256,192,67012,1,4,0:0:0:0:
256,192,67212,1,4,0:0:0:0:
256,192,67412,1,0,0:0:0:0:
256,192,67612,1,12,0:0:0:0:
256,192,68012,1,4,0:0:0:0:
256,192,68412,1,4,0:0:0:0:
256,192,68812,1,4,0:0:0:0:
256,192,69212,1,12,0:0:0:0:
256,192,69612,1,12,0:0:0:0:
256,192,70012,1,12,0:0:0:0:
256,192,70412,1,4,0:0:0:0:
256,192,70612,1,8,0:0:0:0:
256,192,70712,1,0,0:0:0:0:
256,192,70912,1,8,0:0:0:0:
256,192,71112,1,8,0:0:0:0:
256,192,71212,1,0,0:0:0:0:
256,192,71312,1,0,0:0:0:0:
256,192,71412,1,8,0:0:0:0:
256,192,71512,1,0,0:0:0:0:
256,192,71712,1,8,0:0:0:0:
256,192,71912,1,8,0:0:0:0:
256,192,72012,1,0,0:0:0:0:
256,192,72212,1,8,0:0:0:0:
256,192,72312,1,0,0:0:0:0:
256,192,72512,1,8,0:0:0:0:
256,192,72712,1,8,0:0:0:0:
256,192,72812,1,12,0:0:0:0:
256,192,73012,1,4,0:0:0:0:
256,192,73212,1,12,0:0:0:0:
256,192,73412,1,0,0:0:0:0:
256,192,73462,1,0,0:0:0:0:
256,192,73512,1,0,0:0:0:0:
256,192,73562,1,0,0:0:0:0:
256,192,73612,1,0,0:0:0:0:
256,192,73712,1,0,0:0:0:0:
256,192,73812,1,8,0:0:0:0:
256,192,74012,1,0,0:0:0:0:
256,192,74112,1,0,0:0:0:0:
256,192,74212,1,8,0:0:0:0:
256,192,74412,1,0,0:0:0:0:
256,192,74512,1,0,0:0:0:0:
256,192,74612,1,8,0:0:0:0:
256,192,74812,1,0,0:0:0:0:
256,192,74912,1,0,0:0:0:0:
256,192,75012,1,8,0:0:0:0:
256,192,75112,1,0,0:0:0:0:
256,192,75212,1,0,0:0:0:0:
256,192,75312,1,8,0:0:0:0:
256,192,75412,1,8,0:0:0:0:
256,192,75612,1,0,0:0:0:0:
256,192,75712,1,0,0:0:0:0:
256,192,75812,1,8,0:0:0:0:
256,192,76012,1,0,0:0:0:0:
256,192,76112,1,8,0:0:0:0:
256,192,76212,1,0,0:0:0:0:
256,192,76312,1,0,0:0:0:0:
256,192,76412,1,8,0:0:0:0:
256,192,76512,1,0,0:0:0:0:
256,192,76612,1,8,0:0:0:0:
256,192,76712,1,8,0:0:0:0:
256,192,76762,1,8,0:0:0:0:
256,192,76812,1,0,0:0:0:0:
256,192,76912,1,0,0:0:0:0:
256,192,77012,1,8,0:0:0:0:
256,192,77112,1,0,0:0:0:0:
256,192,77212,1,8,0:0:0:0:
256,192,77312,1,0,0:0:0:0:
256,192,77412,1,8,0:0:0:0:
256,192,77512,1,8,0:0:0:0:
256,192,77612,1,0,0:0:0:0:
256,192,77712,1,0,0:0:0:0:
256,192,77812,1,8,0:0:0:0:
256,192,77912,1,0,0:0:0:0:
256,192,78012,1,8,0:0:0:0:
256,192,78112,1,0,0:0:0:0:
256,192,78212,1,8,0:0:0:0:
256,192,78312,1,8,0:0:0:0:
256,192,78412,1,8,0:0:0:0:
256,192,78462,1,0,0:0:0:0:
256,192,78512,1,0,0:0:0:0:
256,192,78562,1,0,0:0:0:0:
256,192,78612,1,8,0:0:0:0:
256,192,78662,1,0,0:0:0:0:
256,192,78712,1,0,0:0:0:0:
256,192,78762,1,0,0:0:0:0:
256,192,78812,1,8,0:0:0:0:
256,192,78862,1,8,0:0:0:0:
256,192,78912,1,8,0:0:0:0:
256,192,78962,1,8,0:0:0:0:
256,192,79012,1,0,0:0:0:0:
256,192,79062,1,8,0:0:0:0:
256,192,79112,1,8,0:0:0:0:
256,192,79162,1,8,0:0:0:0:
256,192,79212,1,8,0:0:0:0:
256,192,79262,1,0,0:0:0:0:
256,192,79312,1,0,0:0:0:0:
256,192,79362,1,0,0:0:0:0:
256,192,79412,1,8,0:0:0:0:
256,192,79462,1,0,0:0:0:0:
256,192,79512,1,0,0:0:0:0:
256,192,79562,1,0,0:0:0:0:
256,192,79612,1,8,0:0:0:0:
256,192,79662,1,8,0:0:0:0:
256,192,79712,1,8,0:0:0:0:
256,192,79762,1,8,0:0:0:0:
256,192,79812,1,0,0:0:0:0:
256,192,79862,1,8,0:0:0:0:
256,192,79912,1,8,0:0:0:0:
256,192,79962,1,8,0:0:0:0:
256,192,80012,1,0,0:0:0:0:
256,192,80112,1,0,0:0:0:0:
256,192,80212,1,8,0:0:0:0:
256,192,80312,1,0,0:0:0:0:
256,192,80412,1,8,0:0:0:0:
256,192,80512,1,8,0:0:0:0:
256,192,80612,1,0,0:0:0:0:
256,192,80662,1,0,0:0:0:0:
256,192,80712,1,0,0:0:0:0:
256,192,80762,1,0,0:0:0:0:
256,192,80812,1,0,0:0:0:0:
256,192,80912,1,8,0:0:0:0:
256,192,80945,1,8,0:0:0:0:
256,192,81012,1,0,0:0:0:0:
256,192,81112,1,8,0:0:0:0:
256,192,81145,1,8,0:0:0:0:
256,192,81212,1,0,0:0:0:0:
256,192,81262,1,8,0:0:0:0:
256,192,81312,1,0,0:0:0:0:
256,192,81362,1,0,0:0:0:0:
256,192,81412,1,8,0:0:0:0:
256,192,81445,1,8,0:0:0:0:
256,192,81478,1,8,0:0:0:0:
256,192,81512,1,8,0:0:0:0:
256,192,81612,1,4,0:0:0:0:
256,192,82012,1,12,0:0:0:0:
256,192,82412,1,4,0:0:0:0:
256,192,82612,1,4,0:0:0:0:
256,192,82812,1,8,0:0:0:0:
256,192,83012,1,8,0:0:0:0:
256,192,83112,1,8,0:0:0:0:
256,192,83212,1,4,0:0:0:0:
256,192,84012,1,8,0:0:0:0:
256,192,84812,1,0,0:0:0:0:
256,192,85412,1,0,0:0:0:0:
256,192,85612,1,8,0:0:0:0:
256,192,86412,1,12,0:0:0:0:
256,192,86812,1,0,0:0:0:0:
256,192,87012,1,8,0:0:0:0:
256,192,87112,1,8,0:0:0:0:
256,192,87212,1,8,0:0:0:0:
256,192,87612,1,8,0:0:0:0:
256,192,87812,1,0,0:0:0:0:
256,192,88012,1,8,0:0:0:0:
256,192,88312,1,0,0:0:0:0:
256,192,88412,1,8,0:0:0:0:
256,192,88612,1,0,0:0:0:0:
256,192,88812,1,8,0:0:0:0:
256,192,89012,1,0,0:0:0:0:
256,192,89212,1,12,0:0:0:0:
256,192,89612,1,0,0:0:0:0:
256,192,90212,1,0,0:0:0:0:
256,192,90412,1,8,0:0:0:0:
256,192,90812,1,0,0:0:0:0:
256,192,91212,1,0,0:0:0:0:
256,192,91512,1,8,0:0:0:0:
256,192,91812,1,0,0:0:0:0:
256,192,92012,1,8,0:0:0:0:
256,192,92412,1,4,0:0:0:0:
256,192,92812,1,8,0:0:0:0:
256,192,92862,1,8,0:0:0:0:
256,192,92912,1,8,0:0:0:0:
256,192,92962,1,8,0:0:0:0:
256,192,93012,1,0,0:0:0:0:
256,192,93062,1,0,0:0:0:0:
256,192,93112,1,0,0:0:0:0:
256,192,93162,1,0,0:0:0:0:
256,192,93212,1,0,0:0:0:0:
256,192,93312,1,8,0:0:0:0:
256,192,93412,1,0,0:0:0:0:
256,192,93512,1,0,0:0:0:0:
256,192,93612,1,8,0:0:0:0:
256,192,93662,1,0,0:0:0:0:
256,192,93712,1,8,0:0:0:0:
256,192,93745,1,8,0:0:0:0:
256,192,93812,1,0,0:0:0:0:
256,192,93845,1,0,0:0:0:0:
256,192,93912,1,8,0:0:0:0:
256,192,93962,1,8,0:0:0:0:
256,192,94012,1,0,0:0:0:0:
256,192,94062,1,8,0:0:0:0:
256,192,94112,1,0,0:0:0:0:
256,192,94162,1,0,0:0:0:0:
256,192,94212,1,8,0:0:0:0:
256,192,94262,1,8,0:0:0:0:
256,192,94312,1,8,0:0:0:0:
256,192,94362,1,8,0:0:0:0:
256,192,94412,1,0,0:0:0:0:
256,192,94512,1,8,0:0:0:0:
256,192,94612,1,0,0:0:0:0:
256,192,94712,1,0,0:0:0:0:
256,192,94912,1,0,0:0:0:0:
256,192,95012,1,8,0:0:0:0:
256,192,95112,1,0,0:0:0:0:
256,192,95212,1,12,0:0:0:0:
256,192,95412,1,4,0:0:0:0:
256,192,95612,1,8,0:0:0:0:
256,192,95812,1,8,0:0:0:0:
256,192,95912,1,8,0:0:0:0:
256,192,96012,1,0,0:0:0:0:
256,192,96199,1,8,0:0:0:0:
256,192,96387,1,8,0:0:0:0:
256,192,96612,1,0,0:0:0:0:
256,192,96799,1,8,0:0:0:0:
256,192,96987,1,8,0:0:0:0:
256,192,97212,1,0,0:0:0:0:
256,192,97399,1,8,0:0:0:0:
256,192,97587,1,8,0:0:0:0:
256,192,97812,1,0,0:0:0:0:
256,192,97999,1,8,0:0:0:0:
256,192,98187,1,8,0:0:0:0:
256,192,98412,1,0,0:0:0:0:
256,192,98599,1,8,0:0:0:0:
256,192,98787,1,8,0:0:0:0:
256,192,99012,1,0,0:0:0:0:
256,192,99199,1,8,0:0:0:0:
256,192,99387,1,8,0:0:0:0:
256,192,99612,1,0,0:0:0:0:
256,192,99799,1,8,0:0:0:0:
256,192,99987,1,8,0:0:0:0:
256,192,100212,1,0,0:0:0:0:
256,192,100399,1,8,0:0:0:0:
256,192,100587,1,8,0:0:0:0:
256,192,100812,1,0,0:0:0:0:
256,192,100980,1,8,0:0:0:0:
256,192,101149,1,8,0:0:0:0:
256,192,101412,1,0,0:0:0:0:
256,192,101580,1,8,0:0:0:0:
256,192,101768,1,8,0:0:0:0:
256,192,102012,1,0,0:0:0:0:
256,192,102180,1,8,0:0:0:0:
256,192,102330,1,8,0:0:0:0:
256,192,102612,1,0,0:0:0:0:
256,192,102762,1,8,0:0:0:0:
256,192,102912,1,8,0:0:0:0:
256,192,103212,1,0,0:0:0:0:
256,192,103362,1,8,0:0:0:0:
256,192,103512,1,8,0:0:0:0:
256,192,103812,1,0,0:0:0:0:
256,192,103962,1,8,0:0:0:0:
256,192,104112,1,8,0:0:0:0:
256,192,104412,1,0,0:0:0:0:
256,192,104561,1,8,0:0:0:0:
256,192,104712,1,8,0:0:0:0:
256,192,105012,1,0,0:0:0:0:
256,192,105162,1,8,0:0:0:0:
256,192,105312,1,8,0:0:0:0:
256,192,105612,1,4,0:0:0:0:
256,192,105762,1,8,0:0:0:0:
256,192,105912,1,0,0:0:0:0:
256,192,106062,1,8,0:0:0:0:
256,192,106212,1,8,0:0:0:0:
256,192,106362,1,8,0:0:0:0:
256,192,106512,1,0,0:0:0:0:
256,192,106662,1,8,0:0:0:0:
256,192,106812,1,0,0:0:0:0:
256,192,106962,1,8,0:0:0:0:
256,192,107112,1,8,0:0:0:0:
256,192,107262,1,8,0:0:0:0:
256,192,107412,1,0,0:0:0:0:
256,192,107562,1,8,0:0:0:0:
256,192,107712,1,8,0:0:0:0:
256,192,107862,1,8,0:0:0:0:
256,192,108012,1,4,0:0:0:0:
256,192,108162,1,8,0:0:0:0:
256,192,108312,1,0,0:0:0:0:
256,192,108462,1,8,0:0:0:0:
256,192,108612,1,8,0:0:0:0:
256,192,108762,1,8,0:0:0:0:
256,192,108912,1,0,0:0:0:0:
256,192,109062,1,8,0:0:0:0:
256,192,109212,1,0,0:0:0:0:
256,192,109362,1,8,0:0:0:0:
256,192,109512,1,8,0:0:0:0:
256,192,109662,1,8,0:0:0:0:
256,192,109812,1,0,0:0:0:0:
256,192,109962,1,8,0:0:0:0:
256,192,110112,1,8,0:0:0:0:
256,192,110262,1,8,0:0:0:0:
256,192,110412,1,0,0:0:0:0:
256,192,110562,1,8,0:0:0:0:
256,192,110712,1,0,0:0:0:0:
256,192,110862,1,8,0:0:0:0:
256,192,111012,1,0,0:0:0:0:
256,192,111162,1,8,0:0:0:0:
256,192,111312,1,0,0:0:0:0:
256,192,111462,1,8,0:0:0:0:
256,192,111612,1,0,0:0:0:0:
256,192,111762,1,8,0:0:0:0:
256,192,111912,1,0,0:0:0:0:
256,192,112062,1,8,0:0:0:0:
256,192,112212,1,0,0:0:0:0:
256,192,112362,1,8,0:0:0:0:
256,192,112512,1,0,0:0:0:0:
256,192,112662,1,8,0:0:0:0:
256,192,112812,1,0,0:0:0:0:
256,192,112887,1,8,0:0:0:0:
256,192,112962,1,0,0:0:0:0:
256,192,113037,1,8,0:0:0:0:
256,192,113112,1,0,0:0:0:0:
256,192,113187,1,0,0:0:0:0:
256,192,113262,1,0,0:0:0:0:
256,192,113337,1,0,0:0:0:0:
256,192,113412,1,0,0:0:0:0:
256,192,113487,1,8,0:0:0:0:
256,192,113562,1,0,0:0:0:0:
256,192,113637,1,8,0:0:0:0:
256,192,113712,1,0,0:0:0:0:
256,192,113787,1,0,0:0:0:0:
256,192,113862,1,0,0:0:0:0:
256,192,113937,1,0,0:0:0:0:
256,192,114612,1,8,0:0:0:0:
256,192,114912,1,8,0:0:0:0:
256,192,115062,1,8,0:0:0:0:
256,192,115212,1,4,0:0:0:0:
256,192,115362,1,8,0:0:0:0:
256,192,115437,1,8,0:0:0:0:
256,192,115512,1,0,0:0:0:0:
256,192,115662,1,8,0:0:0:0:
256,192,115812,1,0,0:0:0:0:
256,192,115962,1,8,0:0:0:0:
256,192,116112,1,0,0:0:0:0:
256,192,116187,1,8,0:0:0:0:
256,192,116262,1,8,0:0:0:0:
256,192,116412,1,0,0:0:0:0:
256,192,116562,1,8,0:0:0:0:
256,192,116637,1,8,0:0:0:0:
256,192,116712,1,0,0:0:0:0:
256,192,116862,1,8,0:0:0:0:
256,192,117012,1,0,0:0:0:0:
256,192,117162,1,0,0:0:0:0:
256,192,117237,1,0,0:0:0:0:
256,192,117312,1,8,0:0:0:0:
256,192,117462,1,0,0:0:0:0:
256,192,117612,1,0,0:0:0:0:
256,192,117762,1,0,0:0:0:0:
256,192,117837,1,0,0:0:0:0:
256,192,117912,1,0,0:0:0:0:
256,192,117987,1,0,0:0:0:0:
256,192,118062,1,8,0:0:0:0:
256,192,118212,1,0,0:0:0:0:
256,192,118362,1,8,0:0:0:0:
256,192,118512,1,8,0:0:0:0:
256,192,118587,1,0,0:0:0:0:
256,192,118662,1,0,0:0:0:0:
256,192,118812,1,0,0:0:0:0:
256,192,118962,1,0,0:0:0:0:
256,192,119037,1,0,0:0:0:0:
256,192,119112,1,8,0:0:0:0:
256,192,119262,1,0,0:0:0:0:
256,192,119412,1,8,0:0:0:0:
256,192,119562,1,0,0:0:0:0:
256,192,119712,1,12,0:0:0:0:
256,192,120012,1,4,0:0:0:0:
256,192,120162,1,8,0:0:0:0:
256,192,120237,1,8,0:0:0:0:
256,192,120312,1,0,0:0:0:0:
256,192,120462,1,8,0:0:0:0:
256,192,120612,1,0,0:0:0:0:
256,192,120762,1,8,0:0:0:0:
256,192,120912,1,0,0:0:0:0:
256,192,120987,1,8,0:0:0:0:
256,192,121062,1,8,0:0:0:0:
256,192,121212,1,0,0:0:0:0:
256,192,121362,1,8,0:0:0:0:
256,192,121437,1,8,0:0:0:0:
256,192,121512,1,0,0:0:0:0:
256,192,121662,1,8,0:0:0:0:
256,192,121812,1,0,0:0:0:0:
256,192,121887,1,0,0:0:0:0:
256,192,121962,1,0,0:0:0:0:
256,192,122037,1,0,0:0:0:0:
256,192,122112,1,8,0:0:0:0:
256,192,122262,1,0,0:0:0:0:
256,192,122412,1,0,0:0:0:0:
256,192,122562,1,8,0:0:0:0:
256,192,122637,1,8,0:0:0:0:
256,192,122712,1,0,0:0:0:0:
256,192,122862,1,8,0:0:0:0:
256,192,123012,1,0,0:0:0:0:
256,192,123162,1,8,0:0:0:0:
256,192,123312,1,8,0:0:0:0:
256,192,123387,1,0,0:0:0:0:
256,192,123462,1,0,0:0:0:0:
256,192,123612,1,8,0:0:0:0:
256,192,123687,1,8,0:0:0:0:
256,192,123762,1,0,0:0:0:0:
256,192,123912,1,8,0:0:0:0:
256,192,123987,1,8,0:0:0:0:
256,192,124062,1,0,0:0:0:0:
256,192,124212,1,8,0:0:0:0:
256,192,124362,1,0,0:0:0:0:
256,192,124512,1,8,0:0:0:0:
256,192,124662,1,8,0:0:0:0:
256,192,124812,1,4,0:0:0:0:
256,192,125112,1,0,0:0:0:0:
256,192,125262,1,0,0:0:0:0:
256,192,125412,1,8,0:0:0:0:
256,192,125712,1,0,0:0:0:0:
256,192,125862,1,0,0:0:0:0:
256,192,126162,1,0,0:0:0:0:
256,192,126312,1,0,0:0:0:0:
256,192,126462,1,8,0:0:0:0:
256,192,126612,1,0,0:0:0:0:
256,192,126912,1,8,0:0:0:0:
256,192,127062,1,0,0:0:0:0:
256,192,127212,1,0,0:0:0:0:
256,192,127512,1,0,0:0:0:0:
256,192,127662,1,0,0:0:0:0:
256,192,127812,1,8,0:0:0:0:
256,192,127962,1,8,0:0:0:0:
256,192,128112,1,0,0:0:0:0:
256,192,128262,1,0,0:0:0:0:
256,192,128412,1,8,0:0:0:0:
256,192,128562,1,0,0:0:0:0:
256,192,128712,1,0,0:0:0:0:
256,192,128862,1,8,0:0:0:0:
256,192,129012,1,0,0:0:0:0:
256,192,129162,1,0,0:0:0:0:
256,192,129312,1,8,0:0:0:0:
256,192,129462,1,0,0:0:0:0:
256,192,129612,1,12,0:0:0:0:
256,192,129762,1,0,0:0:0:0:
256,192,129912,1,0,0:0:0:0:
256,192,130062,1,0,0:0:0:0:
256,192,130212,1,8,0:0:0:0:
256,192,130362,1,0,0:0:0:0:
256,192,130512,1,0,0:0:0:0:
256,192,130662,1,0,0:0:0:0:
256,192,130812,1,12,0:0:0:0:
256,192,130962,1,0,0:0:0:0:
256,192,131112,1,0,0:0:0:0:
256,192,131262,1,0,0:0:0:0:
256,192,131412,1,8,0:0:0:0:
256,192,131562,1,0,0:0:0:0:
256,192,131712,1,4,0:0:0:0:
256,192,131862,1,4,0:0:0:0:
256,192,132012,1,8,0:0:0:0:
256,192,132087,1,8,0:0:0:0:
256,192,132162,1,0,0:0:0:0:
256,192,132237,1,0,0:0:0:0:
256,192,132312,1,8,0:0:0:0:
256,192,132387,1,0,0:0:0:0:
256,192,132462,1,8,0:0:0:0:
256,192,132537,1,8,0:0:0:0:
256,192,132612,1,8,0:0:0:0:
256,192,132687,1,8,0:0:0:0:
256,192,132762,1,0,0:0:0:0:
256,192,132837,1,0,0:0:0:0:
256,192,132912,1,8,0:0:0:0:
256,192,132987,1,0,0:0:0:0:
256,192,133062,1,8,0:0:0:0:
256,192,133137,1,8,0:0:0:0:
256,192,133812,1,8,0:0:0:0:
256,192,134112,1,8,0:0:0:0:
256,192,134262,1,8,0:0:0:0:
256,192,134412,1,4,0:0:0:0:
256,192,134562,1,8,0:0:0:0:
256,192,134637,1,8,0:0:0:0:
256,192,134712,1,0,0:0:0:0:
256,192,134862,1,8,0:0:0:0:
256,192,135012,1,0,0:0:0:0:
256,192,135087,1,0,0:0:0:0:
256,192,135162,1,8,0:0:0:0:
256,192,135312,1,0,0:0:0:0:
256,192,135462,1,8,0:0:0:0:
256,192,135612,1,0,0:0:0:0:
256,192,135762,1,8,0:0:0:0:
256,192,135837,1,8,0:0:0:0:
256,192,135912,1,0,0:0:0:0:
256,192,136062,1,8,0:0:0:0:
256,192,136212,1,0,0:0:0:0:
256,192,136362,1,8,0:0:0:0:
256,192,136437,1,8,0:0:0:0:
256,192,136512,1,0,0:0:0:0:
256,192,136662,1,8,0:0:0:0:
256,192,136812,1,0,0:0:0:0:
256,192,136887,1,0,0:0:0:0:
256,192,136962,1,8,0:0:0:0:
256,192,137112,1,0,0:0:0:0:
256,192,137262,1,8,0:0:0:0:
256,192,137412,1,0,0:0:0:0:
256,192,137562,1,8,0:0:0:0:
256,192,137637,1,8,0:0:0:0:
256,192,137712,1,0,0:0:0:0:
256,192,137862,1,8,0:0:0:0:
256,192,138012,1,4,0:0:0:0:
256,192,139212,1,12,0:0:0:0:
256,192,139362,1,0,0:0:0:0:
256,192,139437,1,0,0:0:0:0:
256,192,139512,1,8,0:0:0:0:
256,192,139662,1,0,0:0:0:0:
256,192,139812,1,0,0:0:0:0:
256,192,139887,1,0,0:0:0:0:
256,192,139962,1,8,0:0:0:0:
256,192,140112,1,0,0:0:0:0:
256,192,140262,1,8,0:0:0:0:
256,192,140412,1,0,0:0:0:0:
256,192,140562,1,0,0:0:0:0:
256,192,140637,1,0,0:0:0:0:
256,192,140712,1,8,0:0:0:0:
256,192,140862,1,0,0:0:0:0:
256,192,141012,1,0,0:0:0:0:
256,192,141087,1,0,0:0:0:0:
256,192,141162,1,8,0:0:0:0:
256,192,141312,1,0,0:0:0:0:
256,192,141462,1,8,0:0:0:0:
256,192,141612,1,12,0:0:0:0:
256,192,141762,1,0,0:0:0:0:
256,192,141837,1,0,0:0:0:0:
256,192,141912,1,8,0:0:0:0:
256,192,141987,1,8,0:0:0:0:
256,192,142062,1,0,0:0:0:0:
256,192,142212,1,0,0:0:0:0:
256,192,142287,1,0,0:0:0:0:
256,192,142362,1,8,0:0:0:0:
256,192,142437,1,8,0:0:0:0:
256,192,142512,1,0,0:0:0:0:
256,192,142587,1,0,0:0:0:0:
256,192,142662,1,8,0:0:0:0:
256,192,142812,1,8,0:0:0:0:
256,192,142887,1,0,0:0:0:0:
256,192,142962,1,8,0:0:0:0:
256,192,143037,1,0,0:0:0:0:
256,192,143112,1,8,0:0:0:0:
256,192,143187,1,0,0:0:0:0:
256,192,143262,1,8,0:0:0:0:
256,192,143337,1,0,0:0:0:0:
256,192,143412,1,8,0:0:0:0:
256,192,143462,1,8,0:0:0:0:
256,192,143562,1,0,0:0:0:0:
256,192,143712,1,0,0:0:0:0:
256,192,143762,1,0,0:0:0:0:
256,192,143862,1,8,0:0:0:0:
256,192,143912,1,8,0:0:0:0:
256,192,144012,1,0,0:0:0:0:
256,192,144157,1,0,0:0:0:0:
256,192,144302,1,8,0:0:0:0:
256,192,144593,1,0,0:0:0:0:
256,192,144734,1,0,0:0:0:0:
256,192,144875,1,8,0:0:0:0:
256,192,145157,1,0,0:0:0:0:
256,192,145294,1,0,0:0:0:0:
256,192,145431,1,8,0:0:0:0:
256,192,145705,1,0,0:0:0:0:
256,192,145838,1,0,0:0:0:0:
256,192,145971,1,8,0:0:0:0:
256,192,146238,1,0,0:0:0:0:
256,192,146367,1,0,0:0:0:0:
256,192,146497,1,8,0:0:0:0:
256,192,146756,1,0,0:0:0:0:
256,192,146882,1,0,0:0:0:0:
256,192,147008,1,8,0:0:0:0:
256,192,147261,1,0,0:0:0:0:
256,192,147384,1,0,0:0:0:0:
256,192,147507,1,8,0:0:0:0:
256,192,147753,1,0,0:0:0:0:
256,192,147873,1,0,0:0:0:0:
256,192,147993,1,8,0:0:0:0:
256,192,148233,1,0,0:0:0:0:
256,192,148350,1,0,0:0:0:0:
256,192,148467,1,8,0:0:0:0:
256,192,148701,1,0,0:0:0:0:
256,192,148815,1,0,0:0:0:0:
256,192,148929,1,8,0:0:0:0:
256,192,149158,1,0,0:0:0:0:
256,192,149269,1,0,0:0:0:0:
256,192,149381,1,8,0:0:0:0:
256,192,149604,1,0,0:0:0:0:
256,192,149713,1,0,0:0:0:0:
256,192,149822,1,8,0:0:0:0:
256,192,150040,1,0,0:0:0:0:
256,192,150146,1,0,0:0:0:0:
256,192,150253,1,8,0:0:0:0:
256,192,150466,1,0,0:0:0:0:
256,192,150570,1,0,0:0:0:0:
256,192,150674,1,8,0:0:0:0:
256,192,150883,1,0,0:0:0:0:
256,192,150985,1,0,0:0:0:0:
256,192,151087,1,8,0:0:0:0:
256,192,151291,1,0,0:0:0:0:
256,192,151391,1,0,0:0:0:0:
256,192,151491,1,8,0:0:0:0:
256,192,151688,1,4,0:0:0:0:
256,192,152088,1,8,0:0:0:0:
256,192,152388,1,0,0:0:0:0:
256,192,152588,1,0,0:0:0:0:
256,192,152688,1,0,0:0:0:0:
256,192,152888,1,8,0:0:0:0:
256,192,153288,1,4,0:0:0:0:
256,192,153488,1,0,0:0:0:0:
256,192,153588,1,0,0:0:0:0:
256,192,153688,1,8,0:0:0:0:
256,192,153988,1,0,0:0:0:0:
256,192,154188,1,0,0:0:0:0:
256,192,154288,1,0,0:0:0:0:
256,192,154488,1,8,0:0:0:0:
256,192,154621,1,0,0:0:0:0:
256,192,154754,1,0,0:0:0:0:
256,192,154888,1,4,0:0:0:0:
256,192,154988,2,0,L|183:191,25,69.779991784096
256,192,157688,1,12,0:0:0:0:
256,192,158088,1,4,0:0:0:0:
256,192,158188,1,0,0:0:0:0:
256,192,158288,1,8,0:0:0:0:
256,192,158488,1,8,0:0:0:0:
256,192,158688,1,0,0:0:0:0:
256,192,158788,1,8,0:0:0:0:
256,192,158988,1,0,0:0:0:0:
256,192,159088,1,8,0:0:0:0:
256,192,159288,1,8,0:0:0:0:
256,192,159488,1,0,0:0:0:0:
256,192,159588,1,8,0:0:0:0:
256,192,159788,1,0,0:0:0:0:
256,192,159888,1,8,0:0:0:0:
256,192,160088,1,8,0:0:0:0:
256,192,160288,1,0,0:0:0:0:
256,192,160388,1,8,0:0:0:0:
256,192,160588,1,0,0:0:0:0:
256,192,160688,1,8,0:0:0:0:
256,192,160888,1,8,0:0:0:0:
256,192,161088,1,8,0:0:0:0:
256,192,161188,1,8,0:0:0:0:
256,192,161288,1,0,0:0:0:0:
256,192,161388,1,0,0:0:0:0:
256,192,161488,1,8,0:0:0:0:
256,192,161688,1,8,0:0:0:0:
256,192,161888,1,0,0:0:0:0:
256,192,161988,1,8,0:0:0:0:
256,192,162188,1,0,0:0:0:0:
256,192,162288,1,8,0:0:0:0:
256,192,162488,1,8,0:0:0:0:
256,192,162688,1,0,0:0:0:0:
256,192,162788,1,8,0:0:0:0:
256,192,162988,1,0,0:0:0:0:
256,192,163088,1,8,0:0:0:0:
256,192,163288,1,8,0:0:0:0:
256,192,163488,1,0,0:0:0:0:
256,192,163588,1,8,0:0:0:0:
256,192,163788,1,0,0:0:0:0:
256,192,163888,1,8,0:0:0:0:
256,192,164088,1,8,0:0:0:0:
256,192,164188,1,8,0:0:0:0:
256,192,164288,1,0,0:0:0:0:
256,192,164388,1,8,0:0:0:0:
256,192,164488,1,4,0:0:0:0:
256,192,164588,1,0,0:0:0:0:
256,192,164688,1,8,0:0:0:0:
256,192,164888,1,8,0:0:0:0:
256,192,165088,1,0,0:0:0:0:
256,192,165188,1,8,0:0:0:0:
256,192,165388,1,0,0:0:0:0:
256,192,165488,1,8,0:0:0:0:
256,192,165688,1,8,0:0:0:0:
256,192,165888,1,0,0:0:0:0:
256,192,165988,1,8,0:0:0:0:
256,192,166188,1,0,0:0:0:0:
256,192,166288,1,8,0:0:0:0:
256,192,166488,1,8,0:0:0:0:
256,192,166688,1,0,0:0:0:0:
256,192,166788,1,8,0:0:0:0:
256,192,166988,1,0,0:0:0:0:
256,192,167088,1,8,0:0:0:0:
256,192,167288,1,8,0:0:0:0:
256,192,167488,1,8,0:0:0:0:
256,192,167588,1,8,0:0:0:0:
256,192,167688,1,0,0:0:0:0:
256,192,167788,1,0,0:0:0:0:
256,192,167888,1,8,0:0:0:0:
256,192,168088,1,8,0:0:0:0:
256,192,168288,1,0,0:0:0:0:
256,192,168388,1,8,0:0:0:0:
256,192,168588,1,0,0:0:0:0:
256,192,168688,1,8,0:0:0:0:
256,192,168888,1,8,0:0:0:0:
256,192,169088,1,0,0:0:0:0:
256,192,169188,1,8,0:0:0:0:
256,192,169388,1,0,0:0:0:0:
256,192,169488,1,8,0:0:0:0:
256,192,169688,1,8,0:0:0:0:
256,192,169888,1,0,0:0:0:0:
256,192,169988,1,8,0:0:0:0:
256,192,170188,1,0,0:0:0:0:
256,192,170288,1,8,0:0:0:0:
256,192,170488,1,8,0:0:0:0:
256,192,170588,1,8,0:0:0:0:
256,192,170688,1,0,0:0:0:0:
256,192,170788,1,8,0:0:0:0:
256,192,170888,1,4,0:0:0:0:
256,192,171288,1,8,0:0:0:0:
256,192,171588,1,0,0:0:0:0:
256,192,171688,1,8,0:0:0:0:
256,192,171788,1,0,0:0:0:0:
256,192,171888,1,0,0:0:0:0:
256,192,172088,1,8,0:0:0:0:
256,192,172288,1,0,0:0:0:0:
256,192,172388,1,0,0:0:0:0:
256,192,172488,1,4,0:0:0:0:
256,192,172788,1,0,0:0:0:0:
256,192,172888,1,8,0:0:0:0:
256,192,173188,1,0,0:0:0:0:
256,192,173288,1,4,0:0:0:0:
256,192,173388,1,8,0:0:0:0:
256,192,173488,1,0,0:0:0:0:
256,192,173688,1,8,0:0:0:0:
256,192,173888,1,0,0:0:0:0:
256,192,174088,1,4,0:0:0:0:
256,192,174488,1,8,0:0:0:0:
256,192,174788,1,0,0:0:0:0:
256,192,174888,1,8,0:0:0:0:
256,192,174988,1,0,0:0:0:0:
256,192,175088,1,0,0:0:0:0:
256,192,175288,1,8,0:0:0:0:
256,192,175488,1,0,0:0:0:0:
256,192,175588,1,0,0:0:0:0:
256,192,175688,1,4,0:0:0:0:
256,192,175988,1,0,0:0:0:0:
256,192,176088,1,8,0:0:0:0:
256,192,176388,1,0,0:0:0:0:
256,192,176488,1,4,0:0:0:0:
256,192,176588,1,8,0:0:0:0:
256,192,176688,1,0,0:0:0:0:
256,192,176888,1,8,0:0:0:0:
256,192,177088,1,0,0:0:0:0:
256,192,177288,1,0,0:0:0:0:
256,192,177388,1,0,0:0:0:0:
256,192,177488,1,0,0:0:0:0:
256,192,177588,1,0,0:0:0:0:
256,192,177688,1,8,0:0:0:0:
256,192,177788,1,0,0:0:0:0:
256,192,177888,1,0,0:0:0:0:
256,192,177988,1,0,0:0:0:0:
256,192,178088,1,8,0:0:0:0:
256,192,178188,1,0,0:0:0:0:
256,192,178288,1,0,0:0:0:0:
256,192,178388,1,0,0:0:0:0:
256,192,178488,1,8,0:0:0:0:
256,192,178588,1,0,0:0:0:0:
256,192,178688,1,0,0:0:0:0:
256,192,178788,1,0,0:0:0:0:
256,192,178888,1,0,0:0:0:0:
256,192,178988,1,0,0:0:0:0:
256,192,179088,1,0,0:0:0:0:
256,192,179188,1,0,0:0:0:0:
256,192,179288,1,8,0:0:0:0:
256,192,179388,1,0,0:0:0:0:
256,192,179488,1,0,0:0:0:0:
256,192,179588,1,0,0:0:0:0:
256,192,179688,1,8,0:0:0:0:
256,192,179788,1,0,0:0:0:0:
256,192,179888,1,0,0:0:0:0:
256,192,179988,1,0,0:0:0:0:
256,192,180088,1,8,0:0:0:0:
256,192,180188,1,0,0:0:0:0:
256,192,180288,1,0,0:0:0:0:
256,192,180388,1,0,0:0:0:0:
256,192,180488,1,0,0:0:0:0:
256,192,180538,1,0,0:0:0:0:
256,192,180588,1,0,0:0:0:0:
256,192,180638,1,0,0:0:0:0:
256,192,180688,1,0,0:0:0:0:
256,192,180738,1,0,0:0:0:0:
256,192,180788,1,0,0:0:0:0:
256,192,180838,1,0,0:0:0:0:
256,192,180888,1,8,0:0:0:0:
256,192,180938,1,0,0:0:0:0:
256,192,180988,1,0,0:0:0:0:
256,192,181038,1,0,0:0:0:0:
256,192,181088,1,0,0:0:0:0:
256,192,181138,1,0,0:0:0:0:
256,192,181188,1,0,0:0:0:0:
256,192,181238,1,0,0:0:0:0:
256,192,181288,1,8,0:0:0:0:
256,192,181338,1,0,0:0:0:0:
256,192,181388,1,0,0:0:0:0:
256,192,181438,1,0,0:0:0:0:
256,192,181488,1,0,0:0:0:0:
256,192,181538,1,0,0:0:0:0:
256,192,181588,1,0,0:0:0:0:
256,192,181638,1,0,0:0:0:0:
256,192,181688,1,8,0:0:0:0:
256,192,181738,1,0,0:0:0:0:
256,192,181788,1,0,0:0:0:0:
256,192,181838,1,0,0:0:0:0:
256,192,181888,1,0,0:0:0:0:
256,192,181938,1,0,0:0:0:0:
256,192,181988,1,0,0:0:0:0:
256,192,182038,1,0,0:0:0:0:
256,192,183288,1,12,0:0:0:0:
256,192,183688,1,4,0:0:0:0:
256,192,183788,1,8,0:0:0:0:
256,192,183888,1,8,0:0:0:0:
256,192,183988,1,0,0:0:0:0:
256,192,184088,1,8,0:0:0:0:
256,192,184188,1,0,0:0:0:0:
256,192,184288,1,8,0:0:0:0:
256,192,184388,1,8,0:0:0:0:
256,192,184488,1,0,0:0:0:0:
256,192,184588,1,8,0:0:0:0:
256,192,184688,1,8,0:0:0:0:
256,192,184788,1,0,0:0:0:0:
256,192,184888,1,8,0:0:0:0:
256,192,184988,1,0,0:0:0:0:
256,192,185088,1,12,0:0:0:0:
256,192,185188,1,12,0:0:0:0:
256,192,185288,1,0,0:0:0:0:
256,192,185388,1,8,0:0:0:0:
256,192,185488,1,8,0:0:0:0:
256,192,185588,1,0,0:0:0:0:
256,192,185688,1,8,0:0:0:0:
256,192,185788,1,0,0:0:0:0:
256,192,185888,1,8,0:0:0:0:
256,192,185988,1,8,0:0:0:0:
256,192,186088,1,4,0:0:0:0:
256,192,186188,1,4,0:0:0:0:
256,192,186288,1,12,0:0:0:0:
256,192,186488,1,8,0:0:0:0:
256,192,186538,1,0,0:0:0:0:
256,192,186588,1,0,0:0:0:0:
256,192,186638,1,0,0:0:0:0:
256,192,186688,1,8,0:0:0:0:
256,192,186888,1,4,0:0:0:0:
256,192,186988,1,8,0:0:0:0:
256,192,187088,1,8,0:0:0:0:
256,192,187188,1,0,0:0:0:0:
256,192,187288,1,8,0:0:0:0:
256,192,187388,1,0,0:0:0:0:
256,192,187488,1,8,0:0:0:0:
256,192,187588,1,8,0:0:0:0:
256,192,187688,1,0,0:0:0:0:
256,192,187788,1,8,0:0:0:0:
256,192,187888,1,8,0:0:0:0:
256,192,187988,1,0,0:0:0:0:
256,192,188088,1,8,0:0:0:0:
256,192,188188,1,0,0:0:0:0:
256,192,188288,1,12,0:0:0:0:
256,192,188388,1,12,0:0:0:0:
256,192,188488,1,4,0:0:0:0:
256,192,188688,1,8,0:0:0:0:
256,192,188788,1,0,0:0:0:0:
256,192,188888,1,8,0:0:0:0:
256,192,188938,1,8,0:0:0:0:
256,192,188988,1,0,0:0:0:0:
256,192,189088,1,0,0:0:0:0:
256,192,189188,1,0,0:0:0:0:
256,192,189288,1,12,0:0:0:0:
256,192,189488,1,4,0:0:0:0:
256,192,189688,1,8,0:0:0:0:
256,192,189738,1,8,0:0:0:0:
256,192,189788,1,0,0:0:0:0:
256,192,189888,1,8,0:0:0:0:
256,192,189938,1,8,0:0:0:0:
256,192,189988,1,0,0:0:0:0:
256,192,190088,1,4,0:0:0:0:
256,192,190188,1,8,0:0:0:0:
256,192,190288,1,8,0:0:0:0:
256,192,190388,1,0,0:0:0:0:
256,192,190488,1,8,0:0:0:0:
256,192,190588,1,0,0:0:0:0:
256,192,190688,1,8,0:0:0:0:
256,192,190788,1,8,0:0:0:0:
256,192,190888,1,0,0:0:0:0:
256,192,190988,1,8,0:0:0:0:
256,192,191088,1,8,0:0:0:0:
256,192,191188,1,0,0:0:0:0:
256,192,191288,1,8,0:0:0:0:
256,192,191388,1,0,0:0:0:0:
256,192,191488,1,12,0:0:0:0:
256,192,191588,1,12,0:0:0:0:
256,192,191688,1,0,0:0:0:0:
256,192,191788,1,8,0:0:0:0:
256,192,191888,1,8,0:0:0:0:
256,192,191988,1,0,0:0:0:0:
256,192,192088,1,8,0:0:0:0:
256,192,192188,1,0,0:0:0:0:
256,192,192288,1,8,0:0:0:0:
256,192,192388,1,8,0:0:0:0:
256,192,192488,1,4,0:0:0:0:
256,192,192588,1,4,0:0:0:0:
256,192,192688,1,12,0:0:0:0:
256,192,192888,1,8,0:0:0:0:
256,192,192938,1,0,0:0:0:0:
256,192,192988,1,0,0:0:0:0:
256,192,193038,1,0,0:0:0:0:
256,192,193088,1,8,0:0:0:0:
256,192,193288,1,4,0:0:0:0:
256,192,193388,1,12,0:0:0:0:
256,192,193488,1,8,0:0:0:0:
256,192,193588,1,0,0:0:0:0:
256,192,193688,1,8,0:0:0:0:
256,192,193788,1,0,0:0:0:0:
256,192,193888,1,8,0:0:0:0:
256,192,193988,1,8,0:0:0:0:
256,192,194088,1,0,0:0:0:0:
256,192,194138,1,0,0:0:0:0:
256,192,194188,1,8,0:0:0:0:
256,192,194288,1,8,0:0:0:0:
256,192,194388,1,0,0:0:0:0:
256,192,194488,1,8,0:0:0:0:
256,192,194588,1,0,0:0:0:0:
256,192,194688,1,8,0:0:0:0:
256,192,194738,1,8,0:0:0:0:
256,192,194788,1,8,0:0:0:0:
256,192,194838,1,8,0:0:0:0:
256,192,194888,1,0,0:0:0:0:
256,192,194988,1,0,0:0:0:0:
256,192,195088,1,0,0:0:0:0:
256,192,195188,1,0,0:0:0:0:
256,192,195288,1,8,0:0:0:0:
256,192,195388,1,8,0:0:0:0:
256,192,195488,1,8,0:0:0:0:
256,192,195588,1,8,0:0:0:0:
256,192,195788,1,0,0:0:0:0:
256,192,195888,1,8,0:0:0:0:
256,192,196088,1,12,0:0:0:0:
256,192,196288,1,0,0:0:0:0:
256,192,196388,1,8,0:0:0:0:
256,192,196488,1,4,0:0:0:0:
256,192,196588,1,0,0:0:0:0:
256,192,196688,1,8,0:0:0:0:
256,192,196788,1,0,0:0:0:0:
256,192,196888,1,0,0:0:0:0:
256,192,196988,1,0,0:0:0:0:
256,192,197088,1,8,0:0:0:0:
256,192,197188,1,0,0:0:0:0:
256,192,197238,1,0,0:0:0:0:
256,192,197288,1,0,0:0:0:0:
256,192,197388,1,0,0:0:0:0:
256,192,197488,1,8,0:0:0:0:
256,192,197588,1,0,0:0:0:0:
256,192,197688,1,0,0:0:0:0:
256,192,197788,1,0,0:0:0:0:
256,192,197838,1,0,0:0:0:0:
256,192,197888,1,8,0:0:0:0:
256,192,197988,1,0,0:0:0:0:
256,192,198038,1,0,0:0:0:0:
256,192,198088,1,0,0:0:0:0:
256,192,198188,1,0,0:0:0:0:
256,192,198288,1,8,0:0:0:0:
256,192,198388,1,0,0:0:0:0:
256,192,198488,1,0,0:0:0:0:
256,192,198588,1,0,0:0:0:0:
256,192,198688,1,8,0:0:0:0:
256,192,198788,1,0,0:0:0:0:
256,192,198838,1,0,0:0:0:0:
256,192,198888,1,8,0:0:0:0:
256,192,198988,1,8,0:0:0:0:
256,192,199088,1,0,0:0:0:0:
256,192,199138,1,0,0:0:0:0:
256,192,199188,1,8,0:0:0:0:
256,192,199238,1,8,0:0:0:0:
256,192,199288,1,0,0:0:0:0:
256,192,199388,1,8,0:0:0:0:
256,192,199488,1,8,0:0:0:0:
256,192,199521,1,8,0:0:0:0:
256,192,199554,1,8,0:0:0:0:
256,192,199588,1,8,0:0:0:0:
256,192,199688,1,4,0:0:0:0:
256,192,199788,1,0,0:0:0:0:
256,192,199888,1,8,0:0:0:0:
256,192,199988,1,0,0:0:0:0:
256,192,200088,1,0,0:0:0:0:
256,192,200188,1,0,0:0:0:0:
256,192,200288,1,8,0:0:0:0:
256,192,200388,1,0,0:0:0:0:
256,192,200438,1,0,0:0:0:0:
256,192,200488,1,0,0:0:0:0:
256,192,200588,1,0,0:0:0:0:
256,192,200688,1,8,0:0:0:0:
256,192,200788,1,0,0:0:0:0:
256,192,200888,1,0,0:0:0:0:
256,192,200988,1,0,0:0:0:0:
256,192,201038,1,0,0:0:0:0:
256,192,201088,1,8,0:0:0:0:
256,192,201188,1,0,0:0:0:0:
256,192,201238,1,0,0:0:0:0:
256,192,201288,1,0,0:0:0:0:
256,192,201388,1,0,0:0:0:0:
256,192,201438,1,0,0:0:0:0:
256,192,201488,1,8,0:0:0:0:
256,192,201588,1,0,0:0:0:0:
256,192,201638,1,0,0:0:0:0:
256,192,201688,1,0,0:0:0:0:
256,192,201788,1,0,0:0:0:0:
256,192,201838,1,0,0:0:0:0:
256,192,201888,1,8,0:0:0:0:
256,192,201988,1,0,0:0:0:0:
256,192,202038,1,0,0:0:0:0:
256,192,202088,1,8,0:0:0:0:
256,192,202188,1,8,0:0:0:0:
256,192,202288,1,0,0:0:0:0:
256,192,202338,1,0,0:0:0:0:
256,192,202388,1,8,0:0:0:0:
256,192,202438,1,8,0:0:0:0:
256,192,202488,1,0,0:0:0:0:
256,192,202588,1,8,0:0:0:0:
256,192,202688,1,8,0:0:0:0:
256,192,202721,1,8,0:0:0:0:
256,192,202754,1,8,0:0:0:0:
256,192,202788,1,8,0:0:0:0:
256,192,202838,1,8,0:0:0:0:
256,192,202888,1,0,0:0:0:0:
256,192,202938,1,0,0:0:0:0:
256,192,202988,1,8,0:0:0:0:
256,192,203038,1,8,0:0:0:0:
256,192,203088,1,0,0:0:0:0:
256,192,203188,1,8,0:0:0:0:
256,192,203221,1,8,0:0:0:0:
256,192,203288,1,8,0:0:0:0:
256,192,203338,1,8,0:0:0:0:
256,192,203388,1,0,0:0:0:0:
256,192,203488,1,8,0:0:0:0:
256,192,203521,1,8,0:0:0:0:
256,192,203554,1,8,0:0:0:0:
256,192,203588,1,8,0:0:0:0:
256,192,203638,1,8,0:0:0:0:
256,192,203688,1,0,0:0:0:0:
256,192,203738,1,0,0:0:0:0:
256,192,203788,1,0,0:0:0:0:
256,192,203838,1,0,0:0:0:0:
256,192,203888,1,8,0:0:0:0:
256,192,203921,1,8,0:0:0:0:
256,192,203988,1,0,0:0:0:0:
256,192,204021,1,0,0:0:0:0:
256,192,204088,1,4,0:0:0:0:
256,192,204288,1,4,0:0:0:0:
256,192,204488,1,8,0:0:0:0:
256,192,204521,1,8,0:0:0:0:
256,192,204554,1,8,0:0:0:0:
256,192,204588,1,8,0:0:0:0:
256,192,204688,1,0,0:0:0:0:
256,192,204788,1,8,0:0:0:0:
256,192,204821,1,8,0:0:0:0:
256,192,204854,1,8,0:0:0:0:
256,192,204888,1,0,0:0:0:0:
256,192,204938,1,0,0:0:0:0:
256,192,204988,1,0,0:0:0:0:
256,192,205038,1,0,0:0:0:0:
256,192,205088,1,8,0:0:0:0:
256,192,205121,1,8,0:0:0:0:
256,192,205188,1,0,0:0:0:0:
256,192,205221,1,0,0:0:0:0:
256,192,205288,1,8,0:0:0:0:
256,192,205338,1,8,0:0:0:0:
256,192,205388,1,0,0:0:0:0:
256,192,205488,1,8,0:0:0:0:
256,192,205521,1,8,0:0:0:0:
256,192,205588,1,0,0:0:0:0:
256,192,205638,1,8,0:0:0:0:
256,192,205688,1,8,0:0:0:0:
256,192,205721,1,8,0:0:0:0:
256,192,205788,1,0,0:0:0:0:
256,192,205821,1,0,0:0:0:0:
256,192,205888,1,8,0:0:0:0:
256,192,205921,1,8,0:0:0:0:
256,192,205988,1,8,0:0:0:0:
256,192,206021,1,8,0:0:0:0:
256,192,206088,1,0,0:0:0:0:
256,192,206188,1,0,0:0:0:0:
256,192,206288,1,8,0:0:0:0:
256,192,206313,1,8,0:0:0:0:
256,192,206338,1,8,0:0:0:0:
256,192,206388,1,0,0:0:0:0:
256,192,206488,1,8,0:0:0:0:
256,192,206521,1,8,0:0:0:0:
256,192,206588,1,8,0:0:0:0:
256,192,206621,1,8,0:0:0:0:
256,192,206688,1,0,0:0:0:0:
256,192,206788,1,8,0:0:0:0:
256,192,206821,1,8,0:0:0:0:
256,192,206854,1,8,0:0:0:0:
256,192,206888,1,0,0:0:0:0:
256,192,206988,1,8,0:0:0:0:
256,192,207021,1,8,0:0:0:0:
256,192,207054,1,8,0:0:0:0:
256,192,207088,1,8,0:0:0:0:
256,192,207188,1,0,0:0:0:0:
256,192,207288,1,8,0:0:0:0:
256,192,207321,1,8,0:0:0:0:
256,192,207388,1,8,0:0:0:0:
256,192,207421,1,8,0:0:0:0:
256,192,207488,1,0,0:0:0:0:
256,192,207588,1,8,0:0:0:0:
256,192,207621,1,8,0:0:0:0:
256,192,207654,1,8,0:0:0:0:
256,192,207688,1,4,0:0:0:0:
256,192,208088,1,12,0:0:0:0:
256,192,208488,1,12,0:0:0:0:
256,192,208888,1,12,0:0:0:0:
256,192,209288,1,4,0:0:0:0:
256,192,209688,1,8,0:0:0:0:
256,192,209988,1,0,0:0:0:0:
256,192,210188,1,0,0:0:0:0:
256,192,210288,1,0,0:0:0:0:
256,192,210488,1,8,0:0:0:0:
256,192,210888,1,0,0:0:0:0:
256,192,211088,1,0,0:0:0:0:
256,192,211188,1,0,0:0:0:0:
256,192,211288,1,8,0:0:0:0:
256,192,211588,1,0,0:0:0:0:
256,192,211788,1,0,0:0:0:0:
256,192,211888,1,0,0:0:0:0:
256,192,212088,1,8,0:0:0:0:
256,192,212288,1,0,0:0:0:0:
256,192,212488,1,0,0:0:0:0:
256,192,212888,1,8,0:0:0:0:
256,192,213188,1,0,0:0:0:0:
256,192,213388,1,0,0:0:0:0:
256,192,213488,1,0,0:0:0:0:
256,192,213688,1,8,0:0:0:0:
256,192,214088,1,0,0:0:0:0:
256,192,214288,1,0,0:0:0:0:
256,192,214388,1,0,0:0:0:0:
256,192,214488,1,8,0:0:0:0:
256,192,214788,1,0,0:0:0:0:
256,192,214988,1,0,0:0:0:0:
256,192,215088,1,0,0:0:0:0:
256,192,215288,1,8,0:0:0:0:
256,192,215488,1,0,0:0:0:0:
256,192,215688,1,4,0:0:0:0:
256,192,215888,1,0,0:0:0:0:
256,192,216088,1,8,0:0:0:0:
256,192,216388,1,0,0:0:0:0:
256,192,216588,1,0,0:0:0:0:
256,192,216688,1,0,0:0:0:0:
256,192,216888,1,8,0:0:0:0:
256,192,217288,1,0,0:0:0:0:
256,192,217488,1,0,0:0:0:0:
256,192,217588,1,0,0:0:0:0:
256,192,217688,1,8,0:0:0:0:
256,192,217988,1,0,0:0:0:0:
256,192,218188,1,0,0:0:0:0:
256,192,218288,1,0,0:0:0:0:
256,192,218488,1,8,0:0:0:0:
256,192,218688,1,0,0:0:0:0:
256,192,218888,1,0,0:0:0:0:
256,192,219288,1,8,0:0:0:0:
256,192,219588,1,0,0:0:0:0:
256,192,219788,1,0,0:0:0:0:
256,192,219888,1,0,0:0:0:0:
256,192,220088,1,8,0:0:0:0:
256,192,220488,1,0,0:0:0:0:
256,192,220688,1,0,0:0:0:0:
256,192,220788,1,0,0:0:0:0:
256,192,220888,1,8,0:0:0:0:
256,192,221188,1,0,0:0:0:0:
256,192,221388,1,0,0:0:0:0:
256,192,221488,1,0,0:0:0:0:
256,192,221688,1,8,0:0:0:0:
256,192,221888,1,0,0:0:0:0:
256,192,222088,1,4,0:0:0:0:
256,192,223688,1,0,0:0:0:0:
256,192,224488,1,8,0:0:0:0:
256,192,225288,1,8,0:0:0:0:
256,192,225488,1,0,0:0:0:0:
256,192,225688,1,8,0:0:0:0:
256,192,225888,1,8,0:0:0:0:
256,192,226888,1,0,0:0:0:0:
256,192,227088,1,0,0:0:0:0:
256,192,227288,1,8,0:0:0:0:
256,192,227488,1,8,0:0:0:0:
256,192,227688,1,8,0:0:0:0:
256,192,227888,1,0,0:0:0:0:
256,192,228088,1,8,0:0:0:0:
256,192,228288,1,8,0:0:0:0:
256,192,228488,1,0,0:0:0:0:
256,192,228688,1,0,0:0:0:0:
256,192,228888,1,8,0:0:0:0:
256,192,229088,1,0,0:0:0:0:
256,192,230088,1,0,0:0:0:0:
256,192,230288,1,8,0:0:0:0:
256,192,230488,1,8,0:0:0:0:
256,192,230688,1,0,0:0:0:0:
256,192,230888,1,8,0:0:0:0:
256,192,231088,1,0,0:0:0:0:
256,192,231288,1,8,0:0:0:0:
256,192,231688,1,0,0:0:0:0:
256,192,231888,1,0,0:0:0:0:
256,192,232088,1,8,0:0:0:0:
256,192,232288,1,8,0:0:0:0:
256,192,233288,1,0,0:0:0:0:
256,192,233488,1,8,0:0:0:0:
256,192,233688,1,0,0:0:0:0:
256,192,233888,1,8,0:0:0:0:
256,192,234888,1,4,0:0:0:0:
256,192,235088,12,0,239688,0:0:0:0:
