osu file format v14

[General]
AudioFilename: audio.mp3
AudioLeadIn: 0
PreviewTime: 184450
Countdown: 0
SampleSet: None
StackLeniency: 0.7
Mode: 1
LetterboxInBreaks: 0
WidescreenStoryboard: 0

[Editor]
DistanceSpacing: 0.1
BeatDivisor: 4
GridSize: 32
TimelineZoom: 4.899999

[Metadata]
Title:Eternal Ending
TitleUnicode:Eternal Ending
Artist:Kobaryo
ArtistUnicode:Kobaryo
Creator:taiko_maniac1811
Version:Maniac Oni
Source:
Tags:HARDCORE SYNDROME 11 TANO☆C * speedcore
BeatmapID:1393739
BeatmapSetID:658022

[Difficulty]
HPDrainRate:4
CircleSize:5
OverallDifficulty:6.5
ApproachRate:9
SliderMultiplier:1.4
SliderTickRate:1

[Events]
//Background and Video events
0,0,"bg.jpg",0,0
//Break Periods
//Storyboard Layer 0 (Background)
//Storyboard Layer 1 (Fail)
//Storyboard Layer 2 (Pass)
//Storyboard Layer 3 (Foreground)
//Storyboard Sound Samples

[TimingPoints]
888,600,4,1,0,75,1,8
5688,-83.3333333333333,4,1,0,75,0,8
8088,-71.4285714285714,4,1,0,75,0,8
10488,-62.5,4,1,0,75,0,8
12888,300,4,1,0,80,1,0
12888,-111.111111111111,4,1,0,80,0,0
17688,-111.111111111111,4,1,0,85,0,0
20088,-111.111111111111,4,1,0,90,0,0
22488,-100,4,1,0,95,0,0
41688,-111.111111111111,4,1,0,80,0,0
50838,-113.636363636364,4,1,0,80,0,0
51138,-117.647058823529,4,1,0,80,0,0
51288,-125,4,1,0,85,0,0
56088,-125,4,1,0,90,0,0
60888,-200,4,1,0,95,0,0
70488,-100,4,1,0,95,0,0
80088,-111.111111111111,4,1,0,80,0,0
84888,-111.111111111111,4,1,0,85,0,0
87288,-111.111111111111,4,1,0,90,0,0
88488,-111.111111111111,4,1,0,95,0,0
89238,-108.695652173913,4,1,0,95,0,0
89388,-106.382978723404,4,1,0,95,0,0
89538,-103.092783505155,4,1,0,95,0,0
89688,-100,4,1,0,100,0,0
94038,-98.0392156862745,4,1,0,100,0,0
94338,-95.2380952380952,4,1,0,100,0,0
94488,-90.9090909090909,4,1,0,100,0,0
98988,-33.3333333333333,4,1,0,100,0,0
99288,-80,4,1,0,95,0,1
108888,-80,4,1,0,100,0,1
118488,600,4,1,0,95,1,0
118488,-40,4,1,0,95,0,0
120888,-44.4444444444445,4,1,0,90,0,0
123288,-50,4,1,0,80,0,0
125688,-57.1428571428571,4,1,0,70,0,0
128088,-66.6666666666667,4,1,0,60,0,0
137688,300,4,1,0,80,1,0
137688,-200,4,1,0,80,0,0
147288,-142.857142857143,4,1,0,85,0,0
149688,-142.857142857143,4,1,0,90,0,0
152088,-142.857142857143,4,1,0,95,0,0
154488,-142.857142857143,4,1,0,100,0,0
155688,-142.857142857143,4,1,0,90,0,0
155989,-142.857142857143,4,1,0,80,0,0
156288,-142.857142857143,4,1,0,75,0,0
156588,-142.857142857143,4,1,0,70,0,0
156738,-142.857142857143,4,1,0,65,0,0
156888,150,4,1,0,60,1,0
156888,-285.714285714286,4,1,0,60,0,0
157488,-270.27027027027,4,1,0,60,0,0
158088,-250,4,1,0,65,0,0
158688,-238.095238095238,4,1,0,65,0,0
159288,-222.222222222222,4,1,0,70,0,0
159888,-212.765957446809,4,1,0,70,0,0
160488,-200,4,1,0,75,0,0
161088,-192.307692307692,4,1,0,75,0,0
161688,-181.818181818182,4,1,0,80,0,0
162288,-175.438596491228,4,1,0,80,0,0
162888,-166.666666666667,4,1,0,85,0,0
163488,-161.290322580645,4,1,0,85,0,0
164088,-153.846153846154,4,1,0,90,0,0
164688,-149.253731343284,4,1,0,90,0,0
165288,-142.857142857143,4,1,0,95,0,0
165888,-138.888888888889,4,1,0,95,0,0
166488,-133.333333333333,4,1,0,95,0,0
176088,-133.333333333333,4,1,0,100,0,1
176688,-133.333333333333,4,1,0,95,0,0
177288,-133.333333333333,4,1,0,100,0,1
177888,-133.333333333333,4,1,0,95,0,0
178488,-133.333333333333,4,1,0,100,0,1
179088,-133.333333333333,4,1,0,95,0,0
179688,-133.333333333333,4,1,0,100,0,1
180288,-133.333333333333,4,1,0,95,0,0
180888,-133.333333333333,4,1,0,100,0,1
184488,-133.333333333333,4,1,0,95,0,0
185088,-66.6666666666667,4,1,0,100,0,0
185388,-50,4,1,0,95,0,0
185688,-100,4,1,0,95,0,1
204888,-142.857142857143,4,1,0,90,0,0
206688,-142.857142857143,4,1,0,85,0,0
207888,-142.857142857143,4,1,0,80,0,0
208488,-142.857142857143,4,1,0,75,0,0
209088,-142.857142857143,4,1,0,70,0,0
209688,-142.857142857143,4,1,0,75,0,0
210288,-142.857142857143,4,1,0,80,0,0
210888,-142.857142857143,4,1,0,85,0,0
211488,-142.857142857143,4,1,0,90,0,0
212088,-142.857142857143,4,1,0,95,0,0
214488,-100,4,1,0,95,0,1
218988,-33.3333333333333,4,1,0,95,0,1
219288,-100,4,1,0,95,0,1
221688,-100,4,1,0,80,0,1
222888,-100,4,1,0,95,0,1
224088,-100,4,1,0,90,0,0
225888,-100,4,1,0,85,0,0
227088,-100,4,1,0,80,0,0
227688,-100,4,1,0,75,0,0
228288,-100,4,1,0,70,0,0
228888,-100,4,1,0,75,0,0
229488,-100,4,1,0,80,0,0
230088,-100,4,1,0,75,0,0
230688,-100,4,1,0,80,0,0
231288,-100,4,1,0,85,0,0
231588,-100,4,1,0,90,0,0
231888,-100,4,1,0,95,0,0
232188,-100,4,1,0,97,0,0
232488,-100,4,1,0,100,0,1
233688,-100,4,1,0,100,0,0

[HitObjects]
256,192,3288,5,0,0:0:0:0:
256,192,8088,1,0,0:0:0:0:
256,192,12888,1,0,0:0:0:0:
256,192,13038,1,8,0:0:0:0:
256,192,13188,1,8,0:0:0:0:
256,192,13338,1,0,0:0:0:0:
256,192,13488,1,8,0:0:0:0:
256,192,13638,1,0,0:0:0:0:
256,192,13788,1,8,0:0:0:0:
256,192,13938,1,8,0:0:0:0:
256,192,14088,1,8,0:0:0:0:
256,192,14238,1,0,0:0:0:0:
256,192,14388,1,8,0:0:0:0:
256,192,14538,1,0,0:0:0:0:
256,192,14688,1,8,0:0:0:0:
256,192,14838,1,0,0:0:0:0:
256,192,14988,1,8,0:0:0:0:
256,192,15138,1,0,0:0:0:0:
256,192,15288,1,0,0:0:0:0:
256,192,15438,1,8,0:0:0:0:
256,192,15588,1,8,0:0:0:0:
256,192,15738,1,0,0:0:0:0:
256,192,15888,1,8,0:0:0:0:
256,192,16038,1,0,0:0:0:0:
256,192,16188,1,8,0:0:0:0:
256,192,16338,1,8,0:0:0:0:
256,192,16488,1,8,0:0:0:0:
256,192,16638,1,0,0:0:0:0:
256,192,16788,1,8,0:0:0:0:
256,192,16938,1,0,0:0:0:0:
256,192,17088,1,8,0:0:0:0:
256,192,17238,1,0,0:0:0:0:
256,192,17388,1,8,0:0:0:0:
256,192,17538,1,0,0:0:0:0:
256,192,17688,1,0,0:0:0:0:
256,192,17838,1,8,0:0:0:0:
256,192,17913,1,8,0:0:0:0:
256,192,17988,1,8,0:0:0:0:
256,192,18138,1,0,0:0:0:0:
256,192,18288,1,8,0:0:0:0:
256,192,18438,1,0,0:0:0:0:
256,192,18513,1,8,0:0:0:0:
256,192,18588,1,8,0:0:0:0:
256,192,18738,1,8,0:0:0:0:
256,192,18888,1,8,0:0:0:0:
256,192,19038,1,0,0:0:0:0:
256,192,19188,1,8,0:0:0:0:
256,192,19338,1,0,0:0:0:0:
256,192,19413,1,0,0:0:0:0:
256,192,19488,1,8,0:0:0:0:
256,192,19638,1,0,0:0:0:0:
256,192,19788,1,8,0:0:0:0:
256,192,19938,1,0,0:0:0:0:
256,192,20088,1,0,0:0:0:0:
256,192,20238,1,8,0:0:0:0:
256,192,20313,1,8,0:0:0:0:
256,192,20388,1,8,0:0:0:0:
256,192,20538,1,0,0:0:0:0:
256,192,20613,1,8,0:0:0:0:
256,192,20688,1,8,0:0:0:0:
256,192,20838,1,0,0:0:0:0:
256,192,20988,1,8,0:0:0:0:
256,192,21063,1,8,0:0:0:0:
256,192,21138,1,8,0:0:0:0:
256,192,21288,1,0,0:0:0:0:
256,192,21363,1,0,0:0:0:0:
256,192,21438,1,8,0:0:0:0:
256,192,21588,1,0,0:0:0:0:
256,192,21738,1,8,0:0:0:0:
256,192,21813,1,8,0:0:0:0:
256,192,21888,1,0,0:0:0:0:
256,192,21938,1,0,0:0:0:0:
256,192,21988,1,0,0:0:0:0:
256,192,22038,1,0,0:0:0:0:
256,192,22088,1,0,0:0:0:0:
256,192,22138,1,0,0:0:0:0:
256,192,22188,1,8,0:0:0:0:
256,192,22488,1,8,0:0:0:0:
256,192,22563,1,8,0:0:0:0:
256,192,22638,1,0,0:0:0:0:
256,192,22788,1,8,0:0:0:0:
256,192,22938,1,0,0:0:0:0:
256,192,23013,1,8,0:0:0:0:
256,192,23088,1,0,0:0:0:0:
256,192,23238,1,8,0:0:0:0:
256,192,23388,1,0,0:0:0:0:
256,192,23463,1,0,0:0:0:0:
256,192,23538,1,8,0:0:0:0:
256,192,23688,1,8,0:0:0:0:
256,192,23763,1,8,0:0:0:0:
256,192,23838,1,0,0:0:0:0:
256,192,23988,1,8,0:0:0:0:
256,192,24138,1,0,0:0:0:0:
256,192,24213,1,8,0:0:0:0:
256,192,24288,1,0,0:0:0:0:
256,192,24363,1,0,0:0:0:0:
256,192,24438,1,0,0:0:0:0:
256,192,24513,1,0,0:0:0:0:
256,192,24588,1,8,0:0:0:0:
256,192,24888,1,8,0:0:0:0:
256,192,24963,1,8,0:0:0:0:
256,192,25038,1,0,0:0:0:0:
256,192,25188,1,8,0:0:0:0:
256,192,25338,1,0,0:0:0:0:
256,192,25413,1,8,0:0:0:0:
256,192,25488,1,0,0:0:0:0:
256,192,25638,1,8,0:0:0:0:
256,192,25788,1,0,0:0:0:0:
256,192,25863,1,0,0:0:0:0:
256,192,25938,1,8,0:0:0:0:
256,192,26088,1,8,0:0:0:0:
256,192,26163,1,8,0:0:0:0:
256,192,26238,1,0,0:0:0:0:
256,192,26388,1,8,0:0:0:0:
256,192,26538,1,0,0:0:0:0:
256,192,26613,1,8,0:0:0:0:
256,192,26688,1,8,0:0:0:0:
256,192,26763,1,0,0:0:0:0:
256,192,26838,1,0,0:0:0:0:
256,192,26913,1,0,0:0:0:0:
256,192,26988,1,8,0:0:0:0:
256,192,27288,1,8,0:0:0:0:
256,192,27363,1,8,0:0:0:0:
256,192,27438,1,0,0:0:0:0:
256,192,27588,1,8,0:0:0:0:
256,192,27738,1,0,0:0:0:0:
256,192,27813,1,8,0:0:0:0:
256,192,27888,1,0,0:0:0:0:
256,192,28038,1,8,0:0:0:0:
256,192,28188,1,0,0:0:0:0:
256,192,28263,1,0,0:0:0:0:
256,192,28338,1,8,0:0:0:0:
256,192,28488,1,8,0:0:0:0:
256,192,28563,1,8,0:0:0:0:
256,192,28638,1,0,0:0:0:0:
256,192,28788,1,8,0:0:0:0:
256,192,28938,1,0,0:0:0:0:
256,192,29013,1,8,0:0:0:0:
256,192,29088,1,8,0:0:0:0:
256,192,29163,1,8,0:0:0:0:
256,192,29238,1,0,0:0:0:0:
256,192,29313,1,0,0:0:0:0:
256,192,29388,1,8,0:0:0:0:
256,192,29438,1,8,0:0:0:0:
256,192,29488,1,8,0:0:0:0:
256,192,29538,1,8,0:0:0:0:
256,192,29588,1,8,0:0:0:0:
256,192,29638,1,8,0:0:0:0:
256,192,29688,1,0,0:0:0:0:
256,192,29763,1,8,0:0:0:0:
256,192,29838,1,0,0:0:0:0:
256,192,29988,1,8,0:0:0:0:
256,192,30138,1,0,0:0:0:0:
256,192,30188,1,8,0:0:0:0:
256,192,30238,1,8,0:0:0:0:
256,192,30288,1,0,0:0:0:0:
256,192,30438,1,8,0:0:0:0:
256,192,30588,1,0,0:0:0:0:
256,192,30663,1,8,0:0:0:0:
256,192,30738,1,0,0:0:0:0:
256,192,30888,1,8,0:0:0:0:
256,192,31038,1,0,0:0:0:0:
256,192,31088,1,8,0:0:0:0:
256,192,31138,1,8,0:0:0:0:
256,192,31188,1,0,0:0:0:0:
256,192,31338,1,8,0:0:0:0:
256,192,31488,1,0,0:0:0:0:
256,192,31563,1,8,0:0:0:0:
256,192,31638,1,0,0:0:0:0:
256,192,31788,1,8,0:0:0:0:
256,192,31838,1,8,0:0:0:0:
256,192,31888,1,8,0:0:0:0:
256,192,31938,1,8,0:0:0:0:
256,192,31988,1,8,0:0:0:0:
256,192,32038,1,8,0:0:0:0:
256,192,32088,1,0,0:0:0:0:
256,192,32238,1,0,0:0:0:0:
256,192,32388,1,8,0:0:0:0:
256,192,32463,1,8,0:0:0:0:
256,192,32538,1,0,0:0:0:0:
256,192,32688,1,8,0:0:0:0:
256,192,32838,1,0,0:0:0:0:
256,192,32913,1,8,0:0:0:0:
256,192,32988,1,0,0:0:0:0:
256,192,33138,1,0,0:0:0:0:
256,192,33288,1,8,0:0:0:0:
256,192,33363,1,8,0:0:0:0:
256,192,33438,1,0,0:0:0:0:
256,192,33588,1,8,0:0:0:0:
256,192,33738,1,0,0:0:0:0:
256,192,33813,1,8,0:0:0:0:
256,192,33888,1,0,0:0:0:0:
256,192,33963,1,0,0:0:0:0:
256,192,34038,1,8,0:0:0:0:
256,192,34113,1,0,0:0:0:0:
256,192,34188,1,8,0:0:0:0:
256,192,34488,1,0,0:0:0:0:
256,192,34563,1,8,0:0:0:0:
256,192,34638,1,0,0:0:0:0:
256,192,34788,1,8,0:0:0:0:
256,192,34863,1,8,0:0:0:0:
256,192,34938,1,0,0:0:0:0:
256,192,35088,1,8,0:0:0:0:
256,192,35238,1,0,0:0:0:0:
256,192,35288,1,8,0:0:0:0:
256,192,35338,1,8,0:0:0:0:
256,192,35388,1,0,0:0:0:0:
256,192,35538,1,0,0:0:0:0:
256,192,35688,1,8,0:0:0:0:
256,192,35763,1,8,0:0:0:0:
256,192,35838,1,0,0:0:0:0:
256,192,35988,1,8,0:0:0:0:
256,192,36138,1,0,0:0:0:0:
256,192,36213,1,8,0:0:0:0:
256,192,36288,1,8,0:0:0:0:
256,192,36363,1,0,0:0:0:0:
256,192,36438,1,8,0:0:0:0:
256,192,36488,1,0,0:0:0:0:
256,192,36538,1,0,0:0:0:0:
256,192,36588,1,8,0:0:0:0:
256,192,36888,1,0,0:0:0:0:
256,192,36963,1,8,0:0:0:0:
256,192,37038,1,0,0:0:0:0:
256,192,37188,1,8,0:0:0:0:
256,192,37263,1,8,0:0:0:0:
256,192,37338,1,0,0:0:0:0:
256,192,37488,1,8,0:0:0:0:
256,192,37638,1,0,0:0:0:0:
256,192,37688,1,8,0:0:0:0:
256,192,37738,1,8,0:0:0:0:
256,192,37788,1,0,0:0:0:0:
256,192,37938,1,0,0:0:0:0:
256,192,38088,1,8,0:0:0:0:
256,192,38138,1,8,0:0:0:0:
256,192,38188,1,8,0:0:0:0:
256,192,38238,1,0,0:0:0:0:
256,192,38388,1,8,0:0:0:0:
256,192,38538,1,0,0:0:0:0:
256,192,38613,1,8,0:0:0:0:
256,192,38688,1,8,0:0:0:0:
256,192,38763,1,8,0:0:0:0:
256,192,38838,1,0,0:0:0:0:
256,192,38913,1,0,0:0:0:0:
256,192,38988,1,8,0:0:0:0:
256,192,39038,1,8,0:0:0:0:
256,192,39088,1,8,0:0:0:0:
256,192,39138,1,8,0:0:0:0:
256,192,39188,1,8,0:0:0:0:
256,192,39238,1,8,0:0:0:0:
256,192,39288,1,0,0:0:0:0:
256,192,39363,1,8,0:0:0:0:
256,192,39438,1,0,0:0:0:0:
256,192,39588,1,8,0:0:0:0:
256,192,39738,1,0,0:0:0:0:
256,192,39788,1,8,0:0:0:0:
256,192,39838,1,8,0:0:0:0:
256,192,39888,1,0,0:0:0:0:
256,192,40038,1,8,0:0:0:0:
256,192,40188,1,0,0:0:0:0:
256,192,40263,1,8,0:0:0:0:
256,192,40338,1,0,0:0:0:0:
256,192,40488,1,8,0:0:0:0:
256,192,40638,1,0,0:0:0:0:
256,192,40688,1,8,0:0:0:0:
256,192,40738,1,8,0:0:0:0:
256,192,40788,1,0,0:0:0:0:
256,192,40938,1,8,0:0:0:0:
256,192,41088,1,0,0:0:0:0:
256,192,41163,1,8,0:0:0:0:
256,192,41238,1,0,0:0:0:0:
256,192,41313,1,0,0:0:0:0:
256,192,41388,1,8,0:0:0:0:
256,192,41688,1,0,0:0:0:0:
256,192,41988,1,0,0:0:0:0:
256,192,42288,1,0,0:0:0:0:
256,192,42588,1,8,0:0:0:0:
256,192,42738,1,0,0:0:0:0:
256,192,42888,1,0,0:0:0:0:
256,192,43188,1,0,0:0:0:0:
256,192,43488,1,8,0:0:0:0:
256,192,43788,1,8,0:0:0:0:
256,192,43938,1,0,0:0:0:0:
256,192,44088,1,0,0:0:0:0:
256,192,44388,1,8,0:0:0:0:
256,192,44538,1,0,0:0:0:0:
256,192,44838,1,0,0:0:0:0:
256,192,44988,1,8,0:0:0:0:
256,192,45288,1,0,0:0:0:0:
256,192,45588,1,0,0:0:0:0:
256,192,45888,1,0,0:0:0:0:
256,192,46188,1,8,0:0:0:0:
256,192,46488,1,0,0:0:0:0:
256,192,46788,1,8,0:0:0:0:
256,192,47088,1,8,0:0:0:0:
256,192,47313,1,8,0:0:0:0:
256,192,47538,1,8,0:0:0:0:
256,192,47688,1,0,0:0:0:0:
256,192,47988,1,8,0:0:0:0:
256,192,48288,1,0,0:0:0:0:
256,192,48588,1,0,0:0:0:0:
256,192,48888,1,8,0:0:0:0:
256,192,49188,1,0,0:0:0:0:
256,192,49488,1,8,0:0:0:0:
256,192,49713,1,8,0:0:0:0:
256,192,49938,1,8,0:0:0:0:
256,192,50088,1,0,0:0:0:0:
256,192,50388,1,8,0:0:0:0:
256,192,50688,1,0,0:0:0:0:
256,192,50913,1,0,0:0:0:0:
256,192,50988,1,8,0:0:0:0:
256,192,51138,1,0,0:0:0:0:
256,192,51288,1,0,0:0:0:0:
256,192,51438,1,0,0:0:0:0:
256,192,51513,1,0,0:0:0:0:
256,192,51588,1,8,0:0:0:0:
256,192,51738,1,0,0:0:0:0:
256,192,51888,1,0,0:0:0:0:
256,192,51963,1,0,0:0:0:0:
256,192,52038,1,0,0:0:0:0:
256,192,52188,1,8,0:0:0:0:
256,192,52338,1,0,0:0:0:0:
256,192,52488,1,8,0:0:0:0:
256,192,52563,1,8,0:0:0:0:
256,192,52638,1,0,0:0:0:0:
256,192,52788,1,8,0:0:0:0:
256,192,52938,1,0,0:0:0:0:
256,192,53013,1,0,0:0:0:0:
256,192,53088,1,8,0:0:0:0:
256,192,53163,1,0,0:0:0:0:
256,192,53238,1,0,0:0:0:0:
256,192,53388,1,8,0:0:0:0:
256,192,53538,1,0,0:0:0:0:
256,192,53688,1,0,0:0:0:0:
256,192,53763,1,0,0:0:0:0:
256,192,53913,1,8,0:0:0:0:
256,192,53988,1,0,0:0:0:0:
256,192,54138,1,8,0:0:0:0:
256,192,54288,1,0,0:0:0:0:
256,192,54363,1,0,0:0:0:0:
256,192,54438,1,8,0:0:0:0:
256,192,54513,1,8,0:0:0:0:
256,192,54588,1,0,0:0:0:0:
256,192,54738,1,8,0:0:0:0:
256,192,54888,1,0,0:0:0:0:
256,192,54963,1,8,0:0:0:0:
256,192,55113,1,8,0:0:0:0:
256,192,55188,1,0,0:0:0:0:
256,192,55338,1,8,0:0:0:0:
256,192,55488,1,0,0:0:0:0:
256,192,55563,1,8,0:0:0:0:
256,192,55638,1,8,0:0:0:0:
256,192,55713,1,8,0:0:0:0:
256,192,55788,1,0,0:0:0:0:
256,192,55938,1,8,0:0:0:0:
256,192,56088,1,0,0:0:0:0:
256,192,56163,1,0,0:0:0:0:
256,192,56238,1,0,0:0:0:0:
256,192,56388,1,8,0:0:0:0:
256,192,56538,1,0,0:0:0:0:
256,192,56688,1,8,0:0:0:0:
256,192,56763,1,0,0:0:0:0:
256,192,56913,1,8,0:0:0:0:
256,192,56988,1,0,0:0:0:0:
256,192,57138,1,8,0:0:0:0:
256,192,57288,1,0,0:0:0:0:
256,192,57363,1,8,0:0:0:0:
256,192,57438,1,0,0:0:0:0:
256,192,57588,1,8,0:0:0:0:
256,192,57738,1,0,0:0:0:0:
256,192,57813,1,0,0:0:0:0:
256,192,57888,1,8,0:0:0:0:
256,192,57963,1,0,0:0:0:0:
256,192,58038,1,0,0:0:0:0:
256,192,58113,1,0,0:0:0:0:
256,192,58188,1,8,0:0:0:0:
256,192,58338,1,0,0:0:0:0:
256,192,58488,1,8,0:0:0:0:
256,192,58563,1,8,0:0:0:0:
256,192,58638,1,0,0:0:0:0:
256,192,58788,1,8,0:0:0:0:
256,192,58938,1,0,0:0:0:0:
256,192,59088,1,8,0:0:0:0:
256,192,59163,1,8,0:0:0:0:
256,192,59313,1,8,0:0:0:0:
256,192,59388,1,0,0:0:0:0:
256,192,59538,1,8,0:0:0:0:
256,192,59688,1,0,0:0:0:0:
256,192,59763,1,0,0:0:0:0:
256,192,59838,1,0,0:0:0:0:
256,192,59988,1,8,0:0:0:0:
256,192,60138,1,0,0:0:0:0:
256,192,60288,2,0,L|448:192,1,168
256,192,60888,1,8,0:0:0:0:
256,192,61038,1,8,0:0:0:0:
256,192,61188,1,8,0:0:0:0:
256,192,61338,1,0,0:0:0:0:
256,192,61388,1,0,0:0:0:0:
256,192,61438,1,0,0:0:0:0:
256,192,61488,1,8,0:0:0:0:
256,192,61638,1,8,0:0:0:0:
256,192,61788,1,0,0:0:0:0:
256,192,61938,1,8,0:0:0:0:
256,192,62088,1,8,0:0:0:0:
256,192,62238,1,0,0:0:0:0:
256,192,62313,1,0,0:0:0:0:
256,192,62388,1,8,0:0:0:0:
256,192,62538,1,0,0:0:0:0:
256,192,62688,1,8,0:0:0:0:
256,192,62838,1,0,0:0:0:0:
256,192,62988,1,8,0:0:0:0:
256,192,63138,1,0,0:0:0:0:
256,192,63288,1,8,0:0:0:0:
256,192,63438,1,8,0:0:0:0:
256,192,63588,1,8,0:0:0:0:
256,192,63738,1,0,0:0:0:0:
256,192,63788,1,0,0:0:0:0:
256,192,63838,1,0,0:0:0:0:
256,192,63888,1,8,0:0:0:0:
256,192,64038,1,8,0:0:0:0:
256,192,64188,1,0,0:0:0:0:
256,192,64338,1,8,0:0:0:0:
256,192,64488,1,8,0:0:0:0:
256,192,64638,1,0,0:0:0:0:
256,192,64713,1,0,0:0:0:0:
256,192,64788,1,8,0:0:0:0:
256,192,64938,1,0,0:0:0:0:
256,192,65088,1,8,0:0:0:0:
256,192,65163,1,8,0:0:0:0:
256,192,65238,1,0,0:0:0:0:
256,192,65313,1,0,0:0:0:0:
256,192,65388,1,8,0:0:0:0:
256,192,65463,1,8,0:0:0:0:
256,192,65538,1,0,0:0:0:0:
256,192,65688,1,8,0:0:0:0:
256,192,65838,1,8,0:0:0:0:
256,192,65988,1,8,0:0:0:0:
256,192,66138,1,0,0:0:0:0:
256,192,66188,1,0,0:0:0:0:
256,192,66238,1,0,0:0:0:0:
256,192,66288,1,8,0:0:0:0:
256,192,66438,1,8,0:0:0:0:
256,192,66588,1,0,0:0:0:0:
256,192,66738,1,8,0:0:0:0:
256,192,66888,1,8,0:0:0:0:
256,192,67038,1,0,0:0:0:0:
256,192,67113,1,0,0:0:0:0:
256,192,67188,1,8,0:0:0:0:
256,192,67338,1,0,0:0:0:0:
256,192,67488,1,8,0:0:0:0:
256,192,67638,1,0,0:0:0:0:
256,192,67788,1,8,0:0:0:0:
256,192,67938,1,0,0:0:0:0:
256,192,68088,1,8,0:0:0:0:
256,192,68163,1,8,0:0:0:0:
256,192,68238,1,8,0:0:0:0:
256,192,68388,1,0,0:0:0:0:
256,192,68538,1,8,0:0:0:0:
256,192,68613,1,8,0:0:0:0:
256,192,68688,1,8,0:0:0:0:
256,192,68838,1,8,0:0:0:0:
256,192,68988,1,8,0:0:0:0:
256,192,69063,1,8,0:0:0:0:
256,192,69138,1,0,0:0:0:0:
256,192,69288,1,0,0:0:0:0:
256,192,69438,1,8,0:0:0:0:
256,192,69513,1,8,0:0:0:0:
256,192,69588,1,0,0:0:0:0:
256,192,69738,1,8,0:0:0:0:
256,192,69888,1,0,0:0:0:0:
256,192,69963,1,8,0:0:0:0:
256,192,70038,1,0,0:0:0:0:
256,192,70113,1,0,0:0:0:0:
256,192,70188,1,8,0:0:0:0:
256,192,70488,1,0,0:0:0:0:
256,192,70563,1,0,0:0:0:0:
256,192,70638,1,8,0:0:0:0:
256,192,70788,1,8,0:0:0:0:
256,192,70938,1,0,0:0:0:0:
256,192,71013,1,8,0:0:0:0:
256,192,71088,1,0,0:0:0:0:
256,192,71238,1,0,0:0:0:0:
256,192,71388,1,8,0:0:0:0:
256,192,71463,1,8,0:0:0:0:
256,192,71538,1,8,0:0:0:0:
256,192,71688,1,8,0:0:0:0:
256,192,71838,1,0,0:0:0:0:
256,192,71913,1,8,0:0:0:0:
256,192,71988,1,0,0:0:0:0:
256,192,72138,1,8,0:0:0:0:
256,192,72213,1,0,0:0:0:0:
256,192,72288,1,8,0:0:0:0:
256,192,72363,1,0,0:0:0:0:
256,192,72438,1,0,0:0:0:0:
256,192,72513,1,0,0:0:0:0:
256,192,72588,1,8,0:0:0:0:
256,192,72888,1,0,0:0:0:0:
256,192,72963,1,0,0:0:0:0:
256,192,73038,1,8,0:0:0:0:
256,192,73188,1,8,0:0:0:0:
256,192,73338,1,0,0:0:0:0:
256,192,73413,1,8,0:0:0:0:
256,192,73488,1,0,0:0:0:0:
256,192,73638,1,0,0:0:0:0:
256,192,73788,1,8,0:0:0:0:
256,192,73863,1,8,0:0:0:0:
256,192,73938,1,8,0:0:0:0:
256,192,74088,1,8,0:0:0:0:
256,192,74238,1,0,0:0:0:0:
256,192,74313,1,8,0:0:0:0:
256,192,74388,1,0,0:0:0:0:
256,192,74538,1,8,0:0:0:0:
256,192,74613,1,0,0:0:0:0:
256,192,74688,1,8,0:0:0:0:
256,192,74763,1,8,0:0:0:0:
256,192,74838,1,0,0:0:0:0:
256,192,74913,1,0,0:0:0:0:
256,192,74988,1,8,0:0:0:0:
256,192,75288,1,0,0:0:0:0:
256,192,75363,1,0,0:0:0:0:
256,192,75438,1,8,0:0:0:0:
256,192,75588,1,8,0:0:0:0:
256,192,75738,1,0,0:0:0:0:
256,192,75813,1,8,0:0:0:0:
256,192,75888,1,0,0:0:0:0:
256,192,76038,1,0,0:0:0:0:
256,192,76188,1,8,0:0:0:0:
256,192,76263,1,8,0:0:0:0:
256,192,76338,1,8,0:0:0:0:
256,192,76488,1,8,0:0:0:0:
256,192,76638,1,0,0:0:0:0:
256,192,76713,1,8,0:0:0:0:
256,192,76788,1,0,0:0:0:0:
256,192,76938,1,8,0:0:0:0:
256,192,77013,1,0,0:0:0:0:
256,192,77088,1,8,0:0:0:0:
256,192,77163,1,8,0:0:0:0:
256,192,77238,1,8,0:0:0:0:
256,192,77313,1,0,0:0:0:0:
256,192,77388,1,8,0:0:0:0:
256,192,77538,1,0,0:0:0:0:
256,192,77688,1,8,0:0:0:0:
256,192,77763,1,0,0:0:0:0:
256,192,77838,1,8,0:0:0:0:
256,192,77913,1,0,0:0:0:0:
256,192,77988,1,0,0:0:0:0:
256,192,78063,1,8,0:0:0:0:
256,192,78138,1,8,0:0:0:0:
256,192,78213,1,0,0:0:0:0:
256,192,78288,1,8,0:0:0:0:
256,192,78363,1,0,0:0:0:0:
256,192,78438,1,0,0:0:0:0:
256,192,78513,1,0,0:0:0:0:
256,192,78588,1,8,0:0:0:0:
256,192,78663,1,0,0:0:0:0:
256,192,78738,1,8,0:0:0:0:
256,192,78813,1,0,0:0:0:0:
256,192,78888,1,0,0:0:0:0:
256,192,78963,1,8,0:0:0:0:
256,192,79038,1,8,0:0:0:0:
256,192,79113,1,0,0:0:0:0:
256,192,79188,1,8,0:0:0:0:
256,192,79263,1,0,0:0:0:0:
256,192,79338,1,0,0:0:0:0:
256,192,79413,1,0,0:0:0:0:
256,192,79488,1,8,0:0:0:0:
256,192,79563,1,0,0:0:0:0:
256,192,79713,1,0,0:0:0:0:
256,192,79788,1,8,0:0:0:0:
256,192,80088,1,0,0:0:0:0:
256,192,80388,1,8,0:0:0:0:
256,192,80688,1,8,0:0:0:0:
256,192,80838,1,8,0:0:0:0:
256,192,81138,1,8,0:0:0:0:
256,192,81438,1,8,0:0:0:0:
256,192,81588,1,8,0:0:0:0:
256,192,81738,1,8,0:0:0:0:
256,192,82038,1,8,0:0:0:0:
256,192,82338,1,8,0:0:0:0:
256,192,82488,1,0,0:0:0:0:
256,192,82638,1,0,0:0:0:0:
256,192,82788,1,8,0:0:0:0:
256,192,83088,1,8,0:0:0:0:
256,192,83238,1,8,0:0:0:0:
256,192,83538,1,8,0:0:0:0:
256,192,83838,1,8,0:0:0:0:
256,192,83988,1,8,0:0:0:0:
256,192,84138,1,8,0:0:0:0:
256,192,84438,1,8,0:0:0:0:
256,192,84588,1,0,0:0:0:0:
256,192,84738,1,8,0:0:0:0:
256,192,84888,1,0,0:0:0:0:
256,192,85038,1,0,0:0:0:0:
256,192,85188,1,8,0:0:0:0:
256,192,85413,1,0,0:0:0:0:
256,192,85488,1,8,0:0:0:0:
256,192,85638,1,8,0:0:0:0:
256,192,85938,1,8,0:0:0:0:
256,192,86238,1,8,0:0:0:0:
256,192,86388,1,8,0:0:0:0:
256,192,86538,1,8,0:0:0:0:
256,192,86838,1,0,0:0:0:0:
256,192,86988,1,8,0:0:0:0:
256,192,87138,1,0,0:0:0:0:
256,192,87288,1,0,0:0:0:0:
256,192,87513,1,0,0:0:0:0:
256,192,87588,1,8,0:0:0:0:
256,192,87888,1,8,0:0:0:0:
256,192,88038,1,8,0:0:0:0:
256,192,88338,1,8,0:0:0:0:
256,192,88638,1,8,0:0:0:0:
256,192,88788,1,8,0:0:0:0:
256,192,88938,1,8,0:0:0:0:
256,192,89238,1,0,0:0:0:0:
256,192,89388,1,8,0:0:0:0:
256,192,89538,1,8,0:0:0:0:
256,192,89688,1,0,0:0:0:0:
256,192,89838,1,0,0:0:0:0:
256,192,89913,1,0,0:0:0:0:
256,192,89988,1,8,0:0:0:0:
256,192,90288,1,8,0:0:0:0:
256,192,90438,1,0,0:0:0:0:
256,192,90738,1,0,0:0:0:0:
256,192,91038,1,8,0:0:0:0:
256,192,91113,1,8,0:0:0:0:
256,192,91188,1,0,0:0:0:0:
256,192,91338,1,0,0:0:0:0:
256,192,91638,1,0,0:0:0:0:
256,192,91788,1,8,0:0:0:0:
256,192,91938,1,0,0:0:0:0:
256,192,92238,1,0,0:0:0:0:
256,192,92313,1,0,0:0:0:0:
256,192,92388,1,8,0:0:0:0:
256,192,92688,1,8,0:0:0:0:
256,192,92838,1,0,0:0:0:0:
256,192,93138,1,0,0:0:0:0:
256,192,93438,1,8,0:0:0:0:
256,192,93513,1,8,0:0:0:0:
256,192,93588,1,0,0:0:0:0:
256,192,93738,1,8,0:0:0:0:
256,192,94038,1,0,0:0:0:0:
256,192,94113,1,8,0:0:0:0:
256,192,94188,1,8,0:0:0:0:
256,192,94338,1,8,0:0:0:0:
256,192,94488,1,0,0:0:0:0:
256,192,94638,1,0,0:0:0:0:
256,192,94713,1,0,0:0:0:0:
256,192,94788,1,8,0:0:0:0:
256,192,94938,1,0,0:0:0:0:
256,192,95088,1,8,0:0:0:0:
256,192,95238,1,0,0:0:0:0:
256,192,95538,1,0,0:0:0:0:
256,192,95838,1,8,0:0:0:0:
256,192,95913,1,8,0:0:0:0:
256,192,95988,1,0,0:0:0:0:
256,192,96138,1,0,0:0:0:0:
256,192,96438,1,0,0:0:0:0:
256,192,96513,1,0,0:0:0:0:
256,192,96588,1,8,0:0:0:0:
256,192,96738,1,0,0:0:0:0:
256,192,96888,1,8,0:0:0:0:
256,192,97038,1,0,0:0:0:0:
256,192,97113,1,8,0:0:0:0:
256,192,97188,1,0,0:0:0:0:
256,192,97338,1,8,0:0:0:0:
256,192,97488,1,0,0:0:0:0:
256,192,97563,1,8,0:0:0:0:
256,192,97638,1,0,0:0:0:0:
256,192,97788,1,8,0:0:0:0:
256,192,97938,1,0,0:0:0:0:
256,192,98013,1,0,0:0:0:0:
256,192,98088,1,8,0:0:0:0:
256,192,98163,1,0,0:0:0:0:
256,192,98238,1,0,0:0:0:0:
256,192,98313,1,8,0:0:0:0:
256,192,98388,1,0,0:0:0:0:
256,192,98463,1,0,0:0:0:0:
256,192,98538,1,8,0:0:0:0:
256,192,98613,1,0,0:0:0:0:
256,192,98688,1,8,0:0:0:0:
256,192,98763,1,0,0:0:0:0:
256,192,98838,1,0,0:0:0:0:
256,192,98913,1,8,0:0:0:0:
256,192,98988,12,0,99138,0:0:0:0:
256,192,99288,5,0,0:0:0:0:
256,192,99338,1,8,0:0:0:0:
256,192,99388,1,0,0:0:0:0:
256,192,99438,1,0,0:0:0:0:
256,192,99513,1,0,0:0:0:0:
256,192,99588,1,0,0:0:0:0:
256,192,99738,1,0,0:0:0:0:
256,192,99888,1,0,0:0:0:0:
256,192,99963,1,0,0:0:0:0:
256,192,100038,1,8,0:0:0:0:
256,192,100113,1,0,0:0:0:0:
256,192,100188,1,0,0:0:0:0:
256,192,100338,1,8,0:0:0:0:
256,192,100488,1,0,0:0:0:0:
256,192,100538,1,8,0:0:0:0:
256,192,100588,1,8,0:0:0:0:
256,192,100638,1,0,0:0:0:0:
256,192,100713,1,0,0:0:0:0:
256,192,100788,1,0,0:0:0:0:
256,192,100938,1,0,0:0:0:0:
256,192,101088,1,0,0:0:0:0:
256,192,101163,1,0,0:0:0:0:
256,192,101238,1,8,0:0:0:0:
256,192,101388,1,0,0:0:0:0:
256,192,101538,1,8,0:0:0:0:
256,192,101613,1,0,0:0:0:0:
256,192,101688,1,0,0:0:0:0:
256,192,101738,1,8,0:0:0:0:
256,192,101788,1,0,0:0:0:0:
256,192,101838,1,0,0:0:0:0:
256,192,101913,1,0,0:0:0:0:
256,192,101988,1,0,0:0:0:0:
256,192,102138,1,0,0:0:0:0:
256,192,102288,1,0,0:0:0:0:
256,192,102363,1,0,0:0:0:0:
256,192,102438,1,8,0:0:0:0:
256,192,102513,1,8,0:0:0:0:
256,192,102588,1,0,0:0:0:0:
256,192,102738,1,8,0:0:0:0:
256,192,102888,1,0,0:0:0:0:
256,192,102938,1,8,0:0:0:0:
256,192,102988,1,8,0:0:0:0:
256,192,103038,1,0,0:0:0:0:
256,192,103113,1,0,0:0:0:0:
256,192,103188,1,0,0:0:0:0:
256,192,103338,1,0,0:0:0:0:
256,192,103488,1,0,0:0:0:0:
256,192,103563,1,0,0:0:0:0:
256,192,103638,1,8,0:0:0:0:
256,192,103788,1,0,0:0:0:0:
256,192,103938,1,8,0:0:0:0:
256,192,104013,1,8,0:0:0:0:
256,192,104088,1,0,0:0:0:0:
256,192,104138,1,8,0:0:0:0:
256,192,104188,1,0,0:0:0:0:
256,192,104238,1,0,0:0:0:0:
256,192,104313,1,0,0:0:0:0:
256,192,104388,1,0,0:0:0:0:
256,192,104538,1,0,0:0:0:0:
256,192,104688,1,0,0:0:0:0:
256,192,104763,1,0,0:0:0:0:
256,192,104838,1,8,0:0:0:0:
256,192,104913,1,0,0:0:0:0:
256,192,104988,1,0,0:0:0:0:
256,192,105138,1,8,0:0:0:0:
256,192,105288,1,0,0:0:0:0:
256,192,105338,1,8,0:0:0:0:
256,192,105388,1,8,0:0:0:0:
256,192,105438,1,0,0:0:0:0:
256,192,105513,1,0,0:0:0:0:
256,192,105588,1,0,0:0:0:0:
256,192,105738,1,0,0:0:0:0:
256,192,105888,1,0,0:0:0:0:
256,192,105963,1,0,0:0:0:0:
256,192,106038,1,8,0:0:0:0:
256,192,106188,1,0,0:0:0:0:
256,192,106338,1,8,0:0:0:0:
256,192,106413,1,8,0:0:0:0:
256,192,106488,1,0,0:0:0:0:
256,192,106638,1,0,0:0:0:0:
256,192,106788,1,8,0:0:0:0:
256,192,106838,1,8,0:0:0:0:
256,192,106888,1,8,0:0:0:0:
256,192,106938,1,8,0:0:0:0:
256,192,107088,1,0,0:0:0:0:
256,192,107238,1,8,0:0:0:0:
256,192,107388,1,0,0:0:0:0:
256,192,107438,1,0,0:0:0:0:
256,192,107488,1,0,0:0:0:0:
256,192,107538,1,0,0:0:0:0:
256,192,107688,1,8,0:0:0:0:
256,192,107838,1,0,0:0:0:0:
256,192,107988,1,12,0:0:0:0:
256,192,108138,1,12,0:0:0:0:
256,192,108438,1,4,0:0:0:0:
256,192,108588,1,12,0:0:0:0:
256,192,108738,1,4,0:0:0:0:
256,192,108888,1,8,0:0:0:0:
256,192,108938,1,0,0:0:0:0:
256,192,108988,1,8,0:0:0:0:
256,192,109038,1,8,0:0:0:0:
256,192,109113,1,8,0:0:0:0:
256,192,109188,1,8,0:0:0:0:
256,192,109338,1,8,0:0:0:0:
256,192,109488,1,8,0:0:0:0:
256,192,109563,1,8,0:0:0:0:
256,192,109638,1,0,0:0:0:0:
256,192,109713,1,8,0:0:0:0:
256,192,109788,1,8,0:0:0:0:
256,192,109938,1,0,0:0:0:0:
256,192,110088,1,8,0:0:0:0:
256,192,110138,1,0,0:0:0:0:
256,192,110188,1,0,0:0:0:0:
256,192,110238,1,8,0:0:0:0:
256,192,110313,1,8,0:0:0:0:
256,192,110388,1,8,0:0:0:0:
256,192,110538,1,8,0:0:0:0:
256,192,110688,1,8,0:0:0:0:
256,192,110763,1,8,0:0:0:0:
256,192,110838,1,0,0:0:0:0:
256,192,110988,1,8,0:0:0:0:
256,192,111138,1,0,0:0:0:0:
256,192,111213,1,8,0:0:0:0:
256,192,111288,1,8,0:0:0:0:
256,192,111338,1,0,0:0:0:0:
256,192,111388,1,8,0:0:0:0:
256,192,111438,1,8,0:0:0:0:
256,192,111513,1,8,0:0:0:0:
256,192,111588,1,8,0:0:0:0:
256,192,111738,1,8,0:0:0:0:
256,192,111888,1,8,0:0:0:0:
256,192,111963,1,8,0:0:0:0:
256,192,112038,1,0,0:0:0:0:
256,192,112113,1,0,0:0:0:0:
256,192,112188,1,8,0:0:0:0:
256,192,112338,1,0,0:0:0:0:
256,192,112488,1,8,0:0:0:0:
256,192,112538,1,0,0:0:0:0:
256,192,112588,1,0,0:0:0:0:
256,192,112638,1,8,0:0:0:0:
256,192,112713,1,8,0:0:0:0:
256,192,112788,1,8,0:0:0:0:
256,192,112938,1,8,0:0:0:0:
256,192,113088,1,8,0:0:0:0:
256,192,113163,1,8,0:0:0:0:
256,192,113238,1,0,0:0:0:0:
256,192,113388,1,8,0:0:0:0:
256,192,113538,1,0,0:0:0:0:
256,192,113613,1,0,0:0:0:0:
256,192,113688,1,8,0:0:0:0:
256,192,113738,1,0,0:0:0:0:
256,192,113788,1,0,0:0:0:0:
256,192,113838,1,8,0:0:0:0:
256,192,113913,1,8,0:0:0:0:
256,192,113988,1,8,0:0:0:0:
256,192,114138,1,8,0:0:0:0:
256,192,114288,1,8,0:0:0:0:
256,192,114363,1,8,0:0:0:0:
256,192,114438,1,0,0:0:0:0:
256,192,114513,1,8,0:0:0:0:
256,192,114588,1,8,0:0:0:0:
256,192,114738,1,0,0:0:0:0:
256,192,114888,1,8,0:0:0:0:
256,192,114938,1,0,0:0:0:0:
256,192,114988,1,8,0:0:0:0:
256,192,115038,1,8,0:0:0:0:
256,192,115113,1,8,0:0:0:0:
256,192,115188,1,8,0:0:0:0:
256,192,115338,1,8,0:0:0:0:
256,192,115488,1,8,0:0:0:0:
256,192,115563,1,8,0:0:0:0:
256,192,115638,1,0,0:0:0:0:
256,192,115788,1,8,0:0:0:0:
256,192,115938,1,0,0:0:0:0:
256,192,116013,1,0,0:0:0:0:
256,192,116088,1,8,0:0:0:0:
256,192,116238,1,8,0:0:0:0:
256,192,116388,1,0,0:0:0:0:
256,192,116438,1,0,0:0:0:0:
256,192,116488,1,0,0:0:0:0:
256,192,116538,1,0,0:0:0:0:
256,192,116688,1,8,0:0:0:0:
256,192,116838,1,0,0:0:0:0:
256,192,116988,1,8,0:0:0:0:
256,192,117038,1,8,0:0:0:0:
256,192,117088,1,8,0:0:0:0:
256,192,117138,1,8,0:0:0:0:
256,192,117288,1,0,0:0:0:0:
256,192,117438,1,8,0:0:0:0:
256,192,117588,1,4,0:0:0:0:
256,192,117738,1,4,0:0:0:0:
256,192,118038,1,12,0:0:0:0:
256,192,118188,1,4,0:0:0:0:
256,192,118338,1,12,0:0:0:0:
256,192,118488,12,0,125688,0:0:0:0:
256,192,128088,5,8,0:0:0:0:
256,192,128238,1,0,0:0:0:0:
256,192,128388,1,0,0:0:0:0:
256,192,128538,1,8,0:0:0:0:
256,192,128838,1,0,0:0:0:0:
256,192,128988,1,0,0:0:0:0:
256,192,129138,1,8,0:0:0:0:
256,192,129438,1,0,0:0:0:0:
256,192,129588,1,8,0:0:0:0:
256,192,129738,1,0,0:0:0:0:
256,192,129888,1,8,0:0:0:0:
256,192,130038,1,0,0:0:0:0:
256,192,130188,1,0,0:0:0:0:
256,192,130338,1,8,0:0:0:0:
256,192,130488,1,8,0:0:0:0:
256,192,130638,1,0,0:0:0:0:
256,192,130788,1,0,0:0:0:0:
256,192,130938,1,8,0:0:0:0:
256,192,131238,1,0,0:0:0:0:
256,192,131388,1,0,0:0:0:0:
256,192,131538,1,8,0:0:0:0:
256,192,131838,1,0,0:0:0:0:
256,192,131988,1,8,0:0:0:0:
256,192,132138,1,0,0:0:0:0:
256,192,132288,1,8,0:0:0:0:
256,192,132438,1,8,0:0:0:0:
256,192,132588,1,0,0:0:0:0:
256,192,132663,1,8,0:0:0:0:
256,192,132738,1,8,0:0:0:0:
256,192,132813,1,8,0:0:0:0:
256,192,132888,1,8,0:0:0:0:
256,192,133038,1,0,0:0:0:0:
256,192,133188,1,0,0:0:0:0:
256,192,133338,1,8,0:0:0:0:
256,192,133638,1,0,0:0:0:0:
256,192,133788,1,8,0:0:0:0:
256,192,133938,1,8,0:0:0:0:
256,192,134238,1,0,0:0:0:0:
256,192,134388,1,8,0:0:0:0:
256,192,134538,1,0,0:0:0:0:
256,192,134688,1,8,0:0:0:0:
256,192,134838,1,8,0:0:0:0:
256,192,134988,1,0,0:0:0:0:
256,192,135138,1,8,0:0:0:0:
256,192,135288,1,8,0:0:0:0:
256,192,135438,1,0,0:0:0:0:
256,192,135588,1,0,0:0:0:0:
256,192,135738,1,8,0:0:0:0:
256,192,136038,1,0,0:0:0:0:
256,192,136188,1,8,0:0:0:0:
256,192,136338,1,8,0:0:0:0:
256,192,136638,1,0,0:0:0:0:
256,192,136788,1,8,0:0:0:0:
256,192,136938,1,0,0:0:0:0:
256,192,137088,2,0,L|416:192,1,157.500006008148
256,192,137688,1,0,0:0:0:0:
256,192,138138,1,0,0:0:0:0:
256,192,138188,1,0,0:0:0:0:
256,192,138238,1,0,0:0:0:0:
256,192,138288,1,8,0:0:0:0:
256,192,138438,1,8,0:0:0:0:
256,192,138588,1,0,0:0:0:0:
256,192,139488,1,8,0:0:0:0:
256,192,140088,1,0,0:0:0:0:
256,192,140538,1,0,0:0:0:0:
256,192,140588,1,0,0:0:0:0:
256,192,140638,1,0,0:0:0:0:
256,192,140688,1,8,0:0:0:0:
256,192,140838,1,8,0:0:0:0:
256,192,140988,1,0,0:0:0:0:
256,192,141438,1,0,0:0:0:0:
256,192,141738,1,0,0:0:0:0:
256,192,141888,1,8,0:0:0:0:
256,192,142038,1,0,0:0:0:0:
256,192,142188,1,8,0:0:0:0:
256,192,142263,1,8,0:0:0:0:
256,192,142338,1,8,0:0:0:0:
256,192,142413,1,8,0:0:0:0:
256,192,142488,1,0,0:0:0:0:
256,192,142938,1,0,0:0:0:0:
256,192,142988,1,0,0:0:0:0:
256,192,143038,1,0,0:0:0:0:
256,192,143088,1,8,0:0:0:0:
256,192,143238,1,8,0:0:0:0:
256,192,143388,1,0,0:0:0:0:
256,192,144288,1,8,0:0:0:0:
256,192,144888,1,0,0:0:0:0:
256,192,145038,1,8,0:0:0:0:
256,192,145338,1,0,0:0:0:0:
256,192,145388,1,0,0:0:0:0:
256,192,145438,1,0,0:0:0:0:
256,192,145488,1,8,0:0:0:0:
256,192,145638,1,8,0:0:0:0:
256,192,145788,1,0,0:0:0:0:
256,192,146238,1,0,0:0:0:0:
256,192,146538,1,0,0:0:0:0:
256,192,146688,1,8,0:0:0:0:
256,192,146763,1,8,0:0:0:0:
256,192,146838,1,0,0:0:0:0:
256,192,146913,1,0,0:0:0:0:
256,192,146988,1,8,0:0:0:0:
256,192,147063,1,8,0:0:0:0:
256,192,147138,1,0,0:0:0:0:
256,192,147288,1,0,0:0:0:0:
256,192,147438,1,0,0:0:0:0:
256,192,147738,1,0,0:0:0:0:
256,192,147788,1,0,0:0:0:0:
256,192,147838,1,0,0:0:0:0:
256,192,147888,1,8,0:0:0:0:
256,192,148038,1,8,0:0:0:0:
256,192,148188,1,0,0:0:0:0:
256,192,148638,1,0,0:0:0:0:
256,192,148938,1,0,0:0:0:0:
256,192,149088,1,8,0:0:0:0:
256,192,149238,1,0,0:0:0:0:
256,192,149388,1,8,0:0:0:0:
256,192,149538,1,8,0:0:0:0:
256,192,149688,1,0,0:0:0:0:
256,192,149838,1,0,0:0:0:0:
256,192,150138,1,0,0:0:0:0:
256,192,150188,1,0,0:0:0:0:
256,192,150238,1,0,0:0:0:0:
256,192,150288,1,8,0:0:0:0:
256,192,150438,1,8,0:0:0:0:
256,192,150588,1,0,0:0:0:0:
256,192,151038,1,0,0:0:0:0:
256,192,151338,1,0,0:0:0:0:
256,192,151488,1,8,0:0:0:0:
256,192,151638,1,0,0:0:0:0:
256,192,151788,1,8,0:0:0:0:
256,192,151863,1,8,0:0:0:0:
256,192,151938,1,8,0:0:0:0:
256,192,152013,1,8,0:0:0:0:
256,192,152088,1,0,0:0:0:0:
256,192,152238,1,0,0:0:0:0:
256,192,152538,1,0,0:0:0:0:
256,192,152588,1,0,0:0:0:0:
256,192,152638,1,0,0:0:0:0:
256,192,152688,1,8,0:0:0:0:
256,192,152838,1,8,0:0:0:0:
256,192,152988,1,0,0:0:0:0:
256,192,153438,1,0,0:0:0:0:
256,192,153738,1,0,0:0:0:0:
256,192,153888,1,8,0:0:0:0:
256,192,154038,1,0,0:0:0:0:
256,192,154188,1,8,0:0:0:0:
256,192,154338,1,8,0:0:0:0:
256,192,154488,1,0,0:0:0:0:
256,192,154638,1,8,0:0:0:0:
256,192,154938,1,0,0:0:0:0:
256,192,154988,1,0,0:0:0:0:
256,192,155038,1,0,0:0:0:0:
256,192,155088,1,8,0:0:0:0:
256,192,155238,1,8,0:0:0:0:
256,192,155388,1,0,0:0:0:0:
256,192,155838,1,0,0:0:0:0:
256,192,156138,1,0,0:0:0:0:
256,192,156188,1,0,0:0:0:0:
256,192,156238,1,0,0:0:0:0:
256,192,156288,1,8,0:0:0:0:
256,192,156438,1,8,0:0:0:0:
256,192,156588,1,0,0:0:0:0:
256,192,156738,1,0,0:0:0:0:
256,192,156888,1,0,0:0:0:0:
256,192,161688,12,0,166188,0:0:0:0:
256,192,166488,5,8,0:0:0:0:
256,192,166638,1,0,0:0:0:0:
256,192,166788,1,8,0:0:0:0:
256,192,166938,1,0,0:0:0:0:
256,192,167088,1,8,0:0:0:0:
256,192,167163,1,0,0:0:0:0:
256,192,167313,1,8,0:0:0:0:
256,192,167388,1,0,0:0:0:0:
256,192,167463,1,0,0:0:0:0:
256,192,167538,1,8,0:0:0:0:
256,192,167613,1,8,0:0:0:0:
256,192,167688,1,0,0:0:0:0:
256,192,167838,1,8,0:0:0:0:
256,192,167988,1,0,0:0:0:0:
256,192,168138,1,8,0:0:0:0:
256,192,168288,1,0,0:0:0:0:
256,192,168363,1,8,0:0:0:0:
256,192,168513,1,8,0:0:0:0:
256,192,168588,1,0,0:0:0:0:
256,192,168663,1,0,0:0:0:0:
256,192,168738,1,8,0:0:0:0:
256,192,168888,1,8,0:0:0:0:
256,192,169038,1,0,0:0:0:0:
256,192,169188,1,8,0:0:0:0:
256,192,169338,1,0,0:0:0:0:
256,192,169488,1,8,0:0:0:0:
256,192,169563,1,0,0:0:0:0:
256,192,169713,1,8,0:0:0:0:
256,192,169788,1,0,0:0:0:0:
256,192,169863,1,0,0:0:0:0:
256,192,169938,1,8,0:0:0:0:
256,192,170013,1,8,0:0:0:0:
256,192,170088,1,0,0:0:0:0:
256,192,170163,1,8,0:0:0:0:
256,192,170238,1,8,0:0:0:0:
256,192,170313,1,0,0:0:0:0:
256,192,170388,1,8,0:0:0:0:
256,192,170463,1,0,0:0:0:0:
256,192,170538,1,8,0:0:0:0:
256,192,170613,1,0,0:0:0:0:
256,192,170688,1,0,0:0:0:0:
256,192,170763,1,8,0:0:0:0:
256,192,170838,1,0,0:0:0:0:
256,192,170913,1,0,0:0:0:0:
256,192,170988,1,8,0:0:0:0:
256,192,171063,1,0,0:0:0:0:
256,192,171138,1,0,0:0:0:0:
256,192,171213,1,8,0:0:0:0:
256,192,171288,1,0,0:0:0:0:
256,192,171438,1,8,0:0:0:0:
256,192,171588,1,0,0:0:0:0:
256,192,171738,1,8,0:0:0:0:
256,192,171888,1,0,0:0:0:0:
256,192,171963,1,8,0:0:0:0:
256,192,172113,1,0,0:0:0:0:
256,192,172188,1,8,0:0:0:0:
256,192,172263,1,8,0:0:0:0:
256,192,172338,1,0,0:0:0:0:
256,192,172413,1,0,0:0:0:0:
256,192,172488,1,8,0:0:0:0:
256,192,172638,1,0,0:0:0:0:
256,192,172788,1,8,0:0:0:0:
256,192,172938,1,0,0:0:0:0:
256,192,173088,1,8,0:0:0:0:
256,192,173163,1,0,0:0:0:0:
256,192,173313,1,0,0:0:0:0:
256,192,173388,1,8,0:0:0:0:
256,192,173463,1,8,0:0:0:0:
256,192,173538,1,0,0:0:0:0:
256,192,173688,1,0,0:0:0:0:
256,192,173838,1,8,0:0:0:0:
256,192,173988,1,0,0:0:0:0:
256,192,174138,1,8,0:0:0:0:
256,192,174288,1,0,0:0:0:0:
256,192,174363,1,8,0:0:0:0:
256,192,174513,1,0,0:0:0:0:
256,192,174588,1,8,0:0:0:0:
256,192,174663,1,8,0:0:0:0:
256,192,174738,1,0,0:0:0:0:
256,192,174813,1,0,0:0:0:0:
256,192,174888,1,8,0:0:0:0:
256,192,174963,1,8,0:0:0:0:
256,192,175038,1,8,0:0:0:0:
256,192,175113,1,0,0:0:0:0:
256,192,175188,1,8,0:0:0:0:
256,192,175263,1,0,0:0:0:0:
256,192,175338,1,8,0:0:0:0:
256,192,175413,1,0,0:0:0:0:
256,192,175488,1,8,0:0:0:0:
256,192,175563,1,8,0:0:0:0:
256,192,175638,1,0,0:0:0:0:
256,192,175713,1,8,0:0:0:0:
256,192,175788,1,8,0:0:0:0:
256,192,175863,1,0,0:0:0:0:
256,192,175938,1,8,0:0:0:0:
256,192,176088,1,4,0:0:0:0:
256,192,176388,1,4,0:0:0:0:
256,192,176688,1,0,0:0:0:0:
256,192,176838,1,0,0:0:0:0:
256,192,176913,1,0,0:0:0:0:
256,192,176988,1,8,0:0:0:0:
256,192,177063,1,0,0:0:0:0:
256,192,177138,1,8,0:0:0:0:
256,192,177288,1,4,0:0:0:0:
256,192,177588,1,4,0:0:0:0:
256,192,177888,1,0,0:0:0:0:
256,192,178038,1,0,0:0:0:0:
256,192,178113,1,8,0:0:0:0:
256,192,178188,1,8,0:0:0:0:
256,192,178263,1,0,0:0:0:0:
256,192,178338,1,8,0:0:0:0:
256,192,178488,1,4,0:0:0:0:
256,192,178788,1,4,0:0:0:0:
256,192,179088,1,0,0:0:0:0:
256,192,179238,1,0,0:0:0:0:
256,192,179313,1,0,0:0:0:0:
256,192,179388,1,8,0:0:0:0:
256,192,179463,1,0,0:0:0:0:
256,192,179538,1,8,0:0:0:0:
256,192,179688,1,4,0:0:0:0:
256,192,179988,1,4,0:0:0:0:
256,192,180288,1,0,0:0:0:0:
256,192,180438,1,0,0:0:0:0:
256,192,180513,1,8,0:0:0:0:
256,192,180588,1,8,0:0:0:0:
256,192,180663,1,0,0:0:0:0:
256,192,180738,1,8,0:0:0:0:
256,192,180888,1,4,0:0:0:0:
256,192,181188,1,4,0:0:0:0:
256,192,181488,1,4,0:0:0:0:
256,192,181638,1,4,0:0:0:0:
256,192,181788,1,4,0:0:0:0:
256,192,181938,1,4,0:0:0:0:
256,192,182088,1,12,0:0:0:0:
256,192,182238,1,12,0:0:0:0:
256,192,182388,1,12,0:0:0:0:
256,192,182538,1,12,0:0:0:0:
256,192,182688,1,4,0:0:0:0:
256,192,182838,1,4,0:0:0:0:
256,192,182988,1,4,0:0:0:0:
256,192,183138,1,4,0:0:0:0:
256,192,183288,1,12,0:0:0:0:
256,192,183438,1,12,0:0:0:0:
256,192,183588,1,12,0:0:0:0:
256,192,183738,1,12,0:0:0:0:
256,192,183888,1,4,0:0:0:0:
256,192,184038,1,4,0:0:0:0:
256,192,184188,1,4,0:0:0:0:
256,192,184338,1,4,0:0:0:0:
256,192,184488,1,12,0:0:0:0:
256,192,185388,1,12,0:0:0:0:
256,192,185688,1,8,0:0:0:0:
256,192,185725,1,8,0:0:0:0:
256,192,185763,1,0,0:0:0:0:
256,192,185838,1,8,0:0:0:0:
256,192,185875,1,8,0:0:0:0:
256,192,185913,1,0,0:0:0:0:
256,192,185988,1,8,0:0:0:0:
256,192,186063,1,0,0:0:0:0:
256,192,186138,1,0,0:0:0:0:
256,192,186213,1,0,0:0:0:0:
256,192,186250,1,0,0:0:0:0:
256,192,186288,1,8,0:0:0:0:
256,192,186363,1,0,0:0:0:0:
256,192,186438,1,0,0:0:0:0:
256,192,186513,1,0,0:0:0:0:
256,192,186550,1,0,0:0:0:0:
256,192,186588,1,8,0:0:0:0:
256,192,186663,1,0,0:0:0:0:
256,192,186738,1,8,0:0:0:0:
256,192,186813,1,0,0:0:0:0:
256,192,186888,1,8,0:0:0:0:
256,192,186925,1,8,0:0:0:0:
256,192,186963,1,0,0:0:0:0:
256,192,187038,1,8,0:0:0:0:
256,192,187075,1,8,0:0:0:0:
256,192,187113,1,0,0:0:0:0:
256,192,187188,1,8,0:0:0:0:
256,192,187263,1,0,0:0:0:0:
256,192,187338,1,0,0:0:0:0:
256,192,187413,1,0,0:0:0:0:
256,192,187450,1,0,0:0:0:0:
256,192,187488,1,8,0:0:0:0:
256,192,187563,1,0,0:0:0:0:
256,192,187600,1,8,0:0:0:0:
256,192,187638,1,0,0:0:0:0:
256,192,187713,1,0,0:0:0:0:
256,192,187750,1,0,0:0:0:0:
256,192,187788,1,8,0:0:0:0:
256,192,187825,1,8,0:0:0:0:
256,192,187863,1,0,0:0:0:0:
256,192,187900,1,0,0:0:0:0:
256,192,187938,1,0,0:0:0:0:
256,192,187975,1,0,0:0:0:0:
256,192,188013,1,0,0:0:0:0:
256,192,188088,1,8,0:0:0:0:
256,192,188125,1,8,0:0:0:0:
256,192,188163,1,0,0:0:0:0:
256,192,188238,1,8,0:0:0:0:
256,192,188275,1,8,0:0:0:0:
256,192,188313,1,0,0:0:0:0:
256,192,188388,1,8,0:0:0:0:
256,192,188463,1,0,0:0:0:0:
256,192,188538,1,0,0:0:0:0:
256,192,188613,1,0,0:0:0:0:
256,192,188650,1,0,0:0:0:0:
256,192,188688,1,8,0:0:0:0:
256,192,188763,1,0,0:0:0:0:
256,192,188838,1,0,0:0:0:0:
256,192,188913,1,0,0:0:0:0:
256,192,188950,1,0,0:0:0:0:
256,192,188988,1,8,0:0:0:0:
256,192,189063,1,0,0:0:0:0:
256,192,189138,1,8,0:0:0:0:
256,192,189213,1,0,0:0:0:0:
256,192,189288,1,8,0:0:0:0:
256,192,189325,1,8,0:0:0:0:
256,192,189363,1,0,0:0:0:0:
256,192,189400,1,0,0:0:0:0:
256,192,189438,1,8,0:0:0:0:
256,192,189475,1,0,0:0:0:0:
256,192,189513,1,8,0:0:0:0:
256,192,189588,1,0,0:0:0:0:
256,192,189625,1,8,0:0:0:0:
256,192,189663,1,0,0:0:0:0:
256,192,189738,1,8,0:0:0:0:
256,192,189813,1,0,0:0:0:0:
256,192,189888,1,8,0:0:0:0:
256,192,189925,1,8,0:0:0:0:
256,192,189963,1,0,0:0:0:0:
256,192,190000,1,0,0:0:0:0:
256,192,190038,1,8,0:0:0:0:
256,192,190075,1,8,0:0:0:0:
256,192,190113,1,0,0:0:0:0:
256,192,190188,1,8,0:0:0:0:
256,192,190263,1,0,0:0:0:0:
256,192,190338,1,0,0:0:0:0:
256,192,190488,1,8,0:0:0:0:
256,192,190525,1,8,0:0:0:0:
256,192,190563,1,0,0:0:0:0:
256,192,190638,1,8,0:0:0:0:
256,192,190675,1,8,0:0:0:0:
256,192,190713,1,0,0:0:0:0:
256,192,190788,1,8,0:0:0:0:
256,192,190863,1,0,0:0:0:0:
256,192,190938,1,0,0:0:0:0:
256,192,191013,1,0,0:0:0:0:
256,192,191050,1,0,0:0:0:0:
256,192,191088,1,8,0:0:0:0:
256,192,191163,1,0,0:0:0:0:
256,192,191238,1,0,0:0:0:0:
256,192,191313,1,0,0:0:0:0:
256,192,191350,1,0,0:0:0:0:
256,192,191388,1,8,0:0:0:0:
256,192,191463,1,0,0:0:0:0:
256,192,191538,1,8,0:0:0:0:
256,192,191613,1,0,0:0:0:0:
256,192,191688,1,8,0:0:0:0:
256,192,191725,1,8,0:0:0:0:
256,192,191763,1,0,0:0:0:0:
256,192,191838,1,8,0:0:0:0:
256,192,191875,1,8,0:0:0:0:
256,192,191913,1,0,0:0:0:0:
256,192,191988,1,8,0:0:0:0:
256,192,192063,1,0,0:0:0:0:
256,192,192138,1,0,0:0:0:0:
256,192,192213,1,0,0:0:0:0:
256,192,192250,1,0,0:0:0:0:
256,192,192288,1,8,0:0:0:0:
256,192,192363,1,0,0:0:0:0:
256,192,192400,1,8,0:0:0:0:
256,192,192438,1,0,0:0:0:0:
256,192,192513,1,0,0:0:0:0:
256,192,192550,1,0,0:0:0:0:
256,192,192588,1,8,0:0:0:0:
256,192,192625,1,8,0:0:0:0:
256,192,192663,1,8,0:0:0:0:
256,192,192700,1,8,0:0:0:0:
256,192,192738,1,8,0:0:0:0:
256,192,192775,1,8,0:0:0:0:
256,192,192813,1,8,0:0:0:0:
256,192,192888,1,8,0:0:0:0:
256,192,192925,1,8,0:0:0:0:
256,192,192963,1,0,0:0:0:0:
256,192,193038,1,8,0:0:0:0:
256,192,193075,1,8,0:0:0:0:
256,192,193113,1,0,0:0:0:0:
256,192,193188,1,8,0:0:0:0:
256,192,193263,1,0,0:0:0:0:
256,192,193338,1,0,0:0:0:0:
256,192,193413,1,0,0:0:0:0:
256,192,193450,1,0,0:0:0:0:
256,192,193488,1,8,0:0:0:0:
256,192,193563,1,0,0:0:0:0:
256,192,193638,1,0,0:0:0:0:
256,192,193713,1,0,0:0:0:0:
256,192,193750,1,0,0:0:0:0:
256,192,193788,1,8,0:0:0:0:
256,192,193863,1,0,0:0:0:0:
256,192,193938,1,8,0:0:0:0:
256,192,193975,1,8,0:0:0:0:
256,192,194013,1,0,0:0:0:0:
256,192,194050,1,0,0:0:0:0:
256,192,194088,1,8,0:0:0:0:
256,192,194125,1,8,0:0:0:0:
256,192,194163,1,0,0:0:0:0:
256,192,194238,1,8,0:0:0:0:
256,192,194275,1,0,0:0:0:0:
256,192,194313,1,8,0:0:0:0:
256,192,194388,1,0,0:0:0:0:
256,192,194463,1,8,0:0:0:0:
256,192,194538,1,0,0:0:0:0:
256,192,194613,1,0,0:0:0:0:
256,192,194688,1,8,0:0:0:0:
256,192,194725,1,8,0:0:0:0:
256,192,194763,1,0,0:0:0:0:
256,192,194800,1,0,0:0:0:0:
256,192,194838,1,8,0:0:0:0:
256,192,194875,1,8,0:0:0:0:
256,192,194913,1,0,0:0:0:0:
256,192,194988,1,8,0:0:0:0:
256,192,195063,1,0,0:0:0:0:
256,192,195138,1,0,0:0:0:0:
256,192,195288,1,8,0:0:0:0:
256,192,195325,1,8,0:0:0:0:
256,192,195363,1,0,0:0:0:0:
256,192,195438,1,0,0:0:0:0:
256,192,195475,1,8,0:0:0:0:
256,192,195513,1,0,0:0:0:0:
256,192,195588,1,8,0:0:0:0:
256,192,195663,1,0,0:0:0:0:
256,192,195738,1,0,0:0:0:0:
256,192,195813,1,0,0:0:0:0:
256,192,195850,1,0,0:0:0:0:
256,192,195888,1,8,0:0:0:0:
256,192,195963,1,0,0:0:0:0:
256,192,196038,1,8,0:0:0:0:
256,192,196113,1,0,0:0:0:0:
256,192,196150,1,0,0:0:0:0:
256,192,196188,1,8,0:0:0:0:
256,192,196225,1,8,0:0:0:0:
256,192,196263,1,0,0:0:0:0:
256,192,196338,1,8,0:0:0:0:
256,192,196413,1,0,0:0:0:0:
256,192,196488,1,8,0:0:0:0:
256,192,196525,1,8,0:0:0:0:
256,192,196563,1,0,0:0:0:0:
256,192,196638,1,0,0:0:0:0:
256,192,196675,1,8,0:0:0:0:
256,192,196713,1,0,0:0:0:0:
256,192,196788,1,8,0:0:0:0:
256,192,196863,1,0,0:0:0:0:
256,192,196938,1,0,0:0:0:0:
256,192,197013,1,0,0:0:0:0:
256,192,197050,1,0,0:0:0:0:
256,192,197088,1,8,0:0:0:0:
256,192,197163,1,0,0:0:0:0:
256,192,197200,1,8,0:0:0:0:
256,192,197238,1,0,0:0:0:0:
256,192,197313,1,0,0:0:0:0:
256,192,197350,1,0,0:0:0:0:
256,192,197388,1,8,0:0:0:0:
256,192,197425,1,8,0:0:0:0:
256,192,197463,1,8,0:0:0:0:
256,192,197500,1,8,0:0:0:0:
256,192,197538,1,8,0:0:0:0:
256,192,197575,1,8,0:0:0:0:
256,192,197613,1,8,0:0:0:0:
256,192,197688,1,8,0:0:0:0:
256,192,197725,1,8,0:0:0:0:
256,192,197763,1,0,0:0:0:0:
256,192,197838,1,0,0:0:0:0:
256,192,197875,1,8,0:0:0:0:
256,192,197913,1,0,0:0:0:0:
256,192,197988,1,8,0:0:0:0:
256,192,198063,1,0,0:0:0:0:
256,192,198138,1,0,0:0:0:0:
256,192,198213,1,0,0:0:0:0:
256,192,198250,1,0,0:0:0:0:
256,192,198288,1,8,0:0:0:0:
256,192,198363,1,0,0:0:0:0:
256,192,198438,1,8,0:0:0:0:
256,192,198513,1,0,0:0:0:0:
256,192,198550,1,0,0:0:0:0:
256,192,198588,1,8,0:0:0:0:
256,192,198625,1,8,0:0:0:0:
256,192,198663,1,0,0:0:0:0:
256,192,198738,1,8,0:0:0:0:
256,192,198813,1,0,0:0:0:0:
256,192,198888,1,8,0:0:0:0:
256,192,198925,1,8,0:0:0:0:
256,192,198963,1,0,0:0:0:0:
256,192,199000,1,0,0:0:0:0:
256,192,199038,1,8,0:0:0:0:
256,192,199075,1,0,0:0:0:0:
256,192,199113,1,8,0:0:0:0:
256,192,199188,1,0,0:0:0:0:
256,192,199225,1,8,0:0:0:0:
256,192,199263,1,0,0:0:0:0:
256,192,199338,1,8,0:0:0:0:
256,192,199413,1,0,0:0:0:0:
256,192,199488,1,8,0:0:0:0:
256,192,199525,1,8,0:0:0:0:
256,192,199563,1,0,0:0:0:0:
256,192,199600,1,0,0:0:0:0:
256,192,199638,1,8,0:0:0:0:
256,192,199675,1,8,0:0:0:0:
256,192,199713,1,0,0:0:0:0:
256,192,199788,1,8,0:0:0:0:
256,192,199863,1,0,0:0:0:0:
256,192,199938,1,0,0:0:0:0:
256,192,200088,1,8,0:0:0:0:
256,192,200125,1,8,0:0:0:0:
256,192,200163,1,0,0:0:0:0:
256,192,200238,1,0,0:0:0:0:
256,192,200275,1,8,0:0:0:0:
256,192,200313,1,0,0:0:0:0:
256,192,200388,1,8,0:0:0:0:
256,192,200463,1,0,0:0:0:0:
256,192,200538,1,0,0:0:0:0:
256,192,200613,1,0,0:0:0:0:
256,192,200650,1,0,0:0:0:0:
256,192,200688,1,8,0:0:0:0:
256,192,200763,1,0,0:0:0:0:
256,192,200838,1,8,0:0:0:0:
256,192,200913,1,0,0:0:0:0:
256,192,200950,1,0,0:0:0:0:
256,192,200988,1,8,0:0:0:0:
256,192,201025,1,8,0:0:0:0:
256,192,201063,1,0,0:0:0:0:
256,192,201138,1,8,0:0:0:0:
256,192,201213,1,0,0:0:0:0:
256,192,201288,1,8,0:0:0:0:
256,192,201325,1,8,0:0:0:0:
256,192,201363,1,0,0:0:0:0:
256,192,201438,1,0,0:0:0:0:
256,192,201475,1,8,0:0:0:0:
256,192,201513,1,0,0:0:0:0:
256,192,201588,1,8,0:0:0:0:
256,192,201663,1,0,0:0:0:0:
256,192,201738,1,0,0:0:0:0:
256,192,201813,1,0,0:0:0:0:
256,192,201850,1,0,0:0:0:0:
256,192,201888,1,8,0:0:0:0:
256,192,201963,1,0,0:0:0:0:
256,192,202000,1,8,0:0:0:0:
256,192,202038,1,0,0:0:0:0:
256,192,202113,1,0,0:0:0:0:
256,192,202150,1,0,0:0:0:0:
256,192,202188,1,8,0:0:0:0:
256,192,202225,1,8,0:0:0:0:
256,192,202263,1,0,0:0:0:0:
256,192,202300,1,0,0:0:0:0:
256,192,202338,1,0,0:0:0:0:
256,192,202375,1,0,0:0:0:0:
256,192,202413,1,0,0:0:0:0:
256,192,202488,1,8,0:0:0:0:
256,192,202525,1,8,0:0:0:0:
256,192,202563,1,0,0:0:0:0:
256,192,202638,1,0,0:0:0:0:
256,192,202675,1,8,0:0:0:0:
256,192,202713,1,0,0:0:0:0:
256,192,202788,1,8,0:0:0:0:
256,192,202863,1,0,0:0:0:0:
256,192,202938,1,0,0:0:0:0:
256,192,203013,1,0,0:0:0:0:
256,192,203050,1,0,0:0:0:0:
256,192,203088,1,8,0:0:0:0:
256,192,203163,1,0,0:0:0:0:
256,192,203238,1,8,0:0:0:0:
256,192,203313,1,0,0:0:0:0:
256,192,203350,1,0,0:0:0:0:
256,192,203388,1,8,0:0:0:0:
256,192,203425,1,8,0:0:0:0:
256,192,203463,1,0,0:0:0:0:
256,192,203538,1,8,0:0:0:0:
256,192,203575,1,8,0:0:0:0:
256,192,203613,1,0,0:0:0:0:
256,192,203650,1,0,0:0:0:0:
256,192,203688,1,8,0:0:0:0:
256,192,203725,1,8,0:0:0:0:
256,192,203763,1,0,0:0:0:0:
256,192,203838,1,8,0:0:0:0:
256,192,203875,1,0,0:0:0:0:
256,192,203913,1,8,0:0:0:0:
256,192,203988,1,0,0:0:0:0:
256,192,204063,1,8,0:0:0:0:
256,192,204138,1,0,0:0:0:0:
256,192,204213,1,0,0:0:0:0:
256,192,204288,1,8,0:0:0:0:
256,192,204325,1,8,0:0:0:0:
256,192,204363,1,0,0:0:0:0:
256,192,204400,1,0,0:0:0:0:
256,192,204438,1,8,0:0:0:0:
256,192,204475,1,8,0:0:0:0:
256,192,204513,1,0,0:0:0:0:
256,192,204588,1,8,0:0:0:0:
256,192,204663,1,0,0:0:0:0:
256,192,204738,1,8,0:0:0:0:
256,192,204888,1,8,0:0:0:0:
256,192,205038,1,0,0:0:0:0:
256,192,205188,1,8,0:0:0:0:
256,192,205338,1,0,0:0:0:0:
256,192,205488,1,8,0:0:0:0:
256,192,205563,1,0,0:0:0:0:
256,192,205713,1,8,0:0:0:0:
256,192,205788,1,0,0:0:0:0:
256,192,205863,1,0,0:0:0:0:
256,192,205938,1,8,0:0:0:0:
256,192,206013,1,8,0:0:0:0:
256,192,206088,1,0,0:0:0:0:
256,192,206238,1,8,0:0:0:0:
256,192,206388,1,0,0:0:0:0:
256,192,206538,1,8,0:0:0:0:
256,192,206688,1,0,0:0:0:0:
256,192,206763,1,8,0:0:0:0:
256,192,206913,1,8,0:0:0:0:
256,192,206988,1,0,0:0:0:0:
256,192,207063,1,0,0:0:0:0:
256,192,207138,1,8,0:0:0:0:
256,192,207288,1,8,0:0:0:0:
256,192,207438,1,0,0:0:0:0:
256,192,207588,1,8,0:0:0:0:
256,192,207738,1,0,0:0:0:0:
256,192,207888,1,8,0:0:0:0:
256,192,207963,1,0,0:0:0:0:
256,192,208113,1,8,0:0:0:0:
256,192,208188,1,0,0:0:0:0:
256,192,208263,1,0,0:0:0:0:
256,192,208338,1,8,0:0:0:0:
256,192,208413,1,0,0:0:0:0:
256,192,208488,1,0,0:0:0:0:
256,192,208638,1,0,0:0:0:0:
256,192,208713,1,8,0:0:0:0:
256,192,208863,1,8,0:0:0:0:
256,192,208938,1,0,0:0:0:0:
256,192,209013,1,0,0:0:0:0:
256,192,209088,1,8,0:0:0:0:
256,192,209163,1,0,0:0:0:0:
256,192,209238,1,0,0:0:0:0:
256,192,209313,1,0,0:0:0:0:
256,192,209388,1,8,0:0:0:0:
256,192,209463,1,0,0:0:0:0:
256,192,209538,1,0,0:0:0:0:
256,192,209688,1,0,0:0:0:0:
256,192,209838,1,0,0:0:0:0:
256,192,209988,1,8,0:0:0:0:
256,192,210138,1,0,0:0:0:0:
256,192,210288,1,0,0:0:0:0:
256,192,210438,1,0,0:0:0:0:
256,192,210513,1,0,0:0:0:0:
256,192,210588,1,8,0:0:0:0:
256,192,210738,1,0,0:0:0:0:
256,192,210888,1,0,0:0:0:0:
256,192,211038,1,0,0:0:0:0:
256,192,211188,1,8,0:0:0:0:
256,192,211338,1,8,0:0:0:0:
256,192,211488,1,0,0:0:0:0:
256,192,211563,1,8,0:0:0:0:
256,192,211713,1,8,0:0:0:0:
256,192,211788,1,0,0:0:0:0:
256,192,211863,1,0,0:0:0:0:
256,192,211938,1,8,0:0:0:0:
256,192,212088,1,0,0:0:0:0:
256,192,212163,1,8,0:0:0:0:
256,192,212238,1,8,0:0:0:0:
256,192,212313,1,8,0:0:0:0:
256,192,212388,1,8,0:0:0:0:
256,192,212463,1,8,0:0:0:0:
256,192,212538,1,0,0:0:0:0:
256,192,212613,1,8,0:0:0:0:
256,192,212688,1,8,0:0:0:0:
256,192,212763,1,8,0:0:0:0:
256,192,212838,1,8,0:0:0:0:
256,192,212913,1,8,0:0:0:0:
256,192,212988,1,0,0:0:0:0:
256,192,213063,1,8,0:0:0:0:
256,192,213138,1,8,0:0:0:0:
256,192,213213,1,8,0:0:0:0:
256,192,213288,1,0,0:0:0:0:
256,192,213363,1,8,0:0:0:0:
256,192,213438,1,8,0:0:0:0:
256,192,213513,1,0,0:0:0:0:
256,192,213588,1,8,0:0:0:0:
256,192,213663,1,8,0:0:0:0:
256,192,213738,1,0,0:0:0:0:
256,192,213813,1,0,0:0:0:0:
256,192,213888,1,8,0:0:0:0:
256,192,213963,1,0,0:0:0:0:
256,192,214038,1,0,0:0:0:0:
256,192,214113,1,8,0:0:0:0:
256,192,214188,1,0,0:0:0:0:
256,192,214263,1,0,0:0:0:0:
256,192,214338,1,8,0:0:0:0:
256,192,214488,1,8,0:0:0:0:
256,192,214525,1,8,0:0:0:0:
256,192,214563,1,0,0:0:0:0:
256,192,214638,1,0,0:0:0:0:
256,192,214675,1,8,0:0:0:0:
256,192,214713,1,0,0:0:0:0:
256,192,214788,1,8,0:0:0:0:
256,192,214825,1,8,0:0:0:0:
256,192,214863,1,0,0:0:0:0:
256,192,214938,1,8,0:0:0:0:
256,192,215013,1,0,0:0:0:0:
256,192,215050,1,0,0:0:0:0:
256,192,215088,1,8,0:0:0:0:
256,192,215163,1,0,0:0:0:0:
256,192,215238,1,8,0:0:0:0:
256,192,215313,1,0,0:0:0:0:
256,192,215350,1,0,0:0:0:0:
256,192,215388,1,8,0:0:0:0:
256,192,215425,1,8,0:0:0:0:
256,192,215463,1,0,0:0:0:0:
256,192,215538,1,8,0:0:0:0:
256,192,215613,1,0,0:0:0:0:
256,192,215688,1,8,0:0:0:0:
256,192,215725,1,8,0:0:0:0:
256,192,215763,1,0,0:0:0:0:
256,192,215838,1,0,0:0:0:0:
256,192,215875,1,8,0:0:0:0:
256,192,215913,1,0,0:0:0:0:
256,192,215988,1,8,0:0:0:0:
256,192,216025,1,8,0:0:0:0:
256,192,216063,1,0,0:0:0:0:
256,192,216138,1,8,0:0:0:0:
256,192,216213,1,0,0:0:0:0:
256,192,216250,1,0,0:0:0:0:
256,192,216288,1,8,0:0:0:0:
256,192,216363,1,0,0:0:0:0:
256,192,216400,1,8,0:0:0:0:
256,192,216438,1,0,0:0:0:0:
256,192,216513,1,0,0:0:0:0:
256,192,216550,1,0,0:0:0:0:
256,192,216588,1,8,0:0:0:0:
256,192,216625,1,8,0:0:0:0:
256,192,216663,1,8,0:0:0:0:
256,192,216700,1,8,0:0:0:0:
256,192,216738,1,8,0:0:0:0:
256,192,216775,1,8,0:0:0:0:
256,192,216813,1,8,0:0:0:0:
256,192,216888,5,8,0:0:0:0:
256,192,216925,1,8,0:0:0:0:
256,192,216963,1,0,0:0:0:0:
256,192,217038,1,0,0:0:0:0:
256,192,217075,1,8,0:0:0:0:
256,192,217113,1,0,0:0:0:0:
256,192,217188,1,8,0:0:0:0:
256,192,217225,1,8,0:0:0:0:
256,192,217263,1,0,0:0:0:0:
256,192,217338,1,8,0:0:0:0:
256,192,217413,1,0,0:0:0:0:
256,192,217450,1,0,0:0:0:0:
256,192,217488,1,8,0:0:0:0:
256,192,217563,1,0,0:0:0:0:
256,192,217638,1,8,0:0:0:0:
256,192,217713,1,0,0:0:0:0:
256,192,217750,1,0,0:0:0:0:
256,192,217788,1,8,0:0:0:0:
256,192,217825,1,8,0:0:0:0:
256,192,217863,1,0,0:0:0:0:
256,192,217938,1,8,0:0:0:0:
256,192,218013,1,0,0:0:0:0:
256,192,218088,1,8,0:0:0:0:
256,192,218125,1,8,0:0:0:0:
256,192,218163,1,0,0:0:0:0:
256,192,218200,1,0,0:0:0:0:
256,192,218238,1,8,0:0:0:0:
256,192,218275,1,0,0:0:0:0:
256,192,218313,1,8,0:0:0:0:
256,192,218388,1,0,0:0:0:0:
256,192,218425,1,8,0:0:0:0:
256,192,218463,1,0,0:0:0:0:
256,192,218538,1,8,0:0:0:0:
256,192,218613,1,0,0:0:0:0:
256,192,218688,1,8,0:0:0:0:
256,192,218725,1,8,0:0:0:0:
256,192,218763,1,0,0:0:0:0:
256,192,218800,1,0,0:0:0:0:
256,192,218838,1,8,0:0:0:0:
256,192,218875,1,8,0:0:0:0:
256,192,218913,1,0,0:0:0:0:
256,192,218988,12,0,219138,0:0:0:0:
256,192,219288,5,8,0:0:0:0:
256,192,219325,1,8,0:0:0:0:
256,192,219363,1,8,0:0:0:0:
256,192,219400,1,8,0:0:0:0:
256,192,219438,1,8,0:0:0:0:
256,192,219475,1,8,0:0:0:0:
256,192,219513,1,8,0:0:0:0:
256,192,219550,1,8,0:0:0:0:
256,192,219588,1,0,0:0:0:0:
256,192,219625,1,8,0:0:0:0:
256,192,219663,1,8,0:0:0:0:
256,192,219700,1,8,0:0:0:0:
256,192,219738,1,8,0:0:0:0:
256,192,219775,1,8,0:0:0:0:
256,192,219813,1,8,0:0:0:0:
256,192,219850,1,8,0:0:0:0:
256,192,219888,1,0,0:0:0:0:
256,192,219925,1,8,0:0:0:0:
256,192,219963,1,8,0:0:0:0:
256,192,220000,1,8,0:0:0:0:
256,192,220038,1,8,0:0:0:0:
256,192,220075,1,8,0:0:0:0:
256,192,220113,1,0,0:0:0:0:
256,192,220150,1,8,0:0:0:0:
256,192,220188,1,8,0:0:0:0:
256,192,220225,1,8,0:0:0:0:
256,192,220263,1,8,0:0:0:0:
256,192,220300,1,8,0:0:0:0:
256,192,220338,1,0,0:0:0:0:
256,192,220375,1,8,0:0:0:0:
256,192,220413,1,8,0:0:0:0:
256,192,220450,1,8,0:0:0:0:
256,192,220488,1,0,0:0:0:0:
256,192,220525,1,0,0:0:0:0:
256,192,220563,1,8,0:0:0:0:
256,192,220600,1,8,0:0:0:0:
256,192,220638,1,8,0:0:0:0:
256,192,220675,1,8,0:0:0:0:
256,192,220713,1,8,0:0:0:0:
256,192,220750,1,8,0:0:0:0:
256,192,220788,1,0,0:0:0:0:
256,192,220825,1,0,0:0:0:0:
256,192,220863,1,8,0:0:0:0:
256,192,220900,1,8,0:0:0:0:
256,192,220938,1,8,0:0:0:0:
256,192,220975,1,8,0:0:0:0:
256,192,221013,1,8,0:0:0:0:
256,192,221050,1,8,0:0:0:0:
256,192,221088,1,0,0:0:0:0:
256,192,221125,1,0,0:0:0:0:
256,192,221163,1,8,0:0:0:0:
256,192,221200,1,8,0:0:0:0:
256,192,221238,1,8,0:0:0:0:
256,192,221275,1,8,0:0:0:0:
256,192,221313,1,0,0:0:0:0:
256,192,221350,1,0,0:0:0:0:
256,192,221388,1,8,0:0:0:0:
256,192,221425,1,8,0:0:0:0:
256,192,221463,1,8,0:0:0:0:
256,192,221500,1,8,0:0:0:0:
256,192,221538,1,0,0:0:0:0:
256,192,221575,1,0,0:0:0:0:
256,192,221613,1,8,0:0:0:0:
256,192,221650,1,8,0:0:0:0:
256,192,221688,1,0,0:0:0:0:
256,192,221988,1,0,0:0:0:0:
256,192,222288,1,0,0:0:0:0:
256,192,222513,1,0,0:0:0:0:
256,192,222738,1,0,0:0:0:0:
256,192,222888,1,8,0:0:0:0:
256,192,223038,1,8,0:0:0:0:
256,192,223113,1,8,0:0:0:0:
256,192,223263,1,8,0:0:0:0:
256,192,223300,1,8,0:0:0:0:
256,192,223338,1,0,0:0:0:0:
256,192,223488,1,0,0:0:0:0:
256,192,223525,1,0,0:0:0:0:
256,192,223563,1,8,0:0:0:0:
256,192,223638,1,0,0:0:0:0:
256,192,223713,1,0,0:0:0:0:
256,192,223788,1,8,0:0:0:0:
256,192,223863,1,0,0:0:0:0:
256,192,223938,1,0,0:0:0:0:
256,192,224013,1,8,0:0:0:0:
256,192,224088,1,0,0:0:0:0:
256,192,224238,1,8,0:0:0:0:
256,192,224388,1,0,0:0:0:0:
256,192,224538,1,8,0:0:0:0:
256,192,224688,1,0,0:0:0:0:
256,192,224763,1,8,0:0:0:0:
256,192,224913,1,0,0:0:0:0:
256,192,224988,1,8,0:0:0:0:
256,192,225063,1,8,0:0:0:0:
256,192,225138,1,0,0:0:0:0:
256,192,225213,1,0,0:0:0:0:
256,192,225288,1,8,0:0:0:0:
256,192,225438,1,0,0:0:0:0:
256,192,225588,1,8,0:0:0:0:
256,192,225738,1,0,0:0:0:0:
256,192,225888,1,8,0:0:0:0:
256,192,225963,1,0,0:0:0:0:
256,192,226113,1,0,0:0:0:0:
256,192,226188,1,8,0:0:0:0:
256,192,226263,1,8,0:0:0:0:
256,192,226338,1,0,0:0:0:0:
256,192,226488,1,0,0:0:0:0:
256,192,226638,1,8,0:0:0:0:
256,192,226788,1,0,0:0:0:0:
256,192,226938,1,8,0:0:0:0:
256,192,227088,1,0,0:0:0:0:
256,192,227163,1,8,0:0:0:0:
256,192,227313,1,0,0:0:0:0:
256,192,227388,1,8,0:0:0:0:
256,192,227463,1,8,0:0:0:0:
256,192,227538,1,0,0:0:0:0:
256,192,227613,1,8,0:0:0:0:
256,192,227688,1,8,0:0:0:0:
256,192,227838,1,8,0:0:0:0:
256,192,227913,1,0,0:0:0:0:
256,192,228063,1,0,0:0:0:0:
256,192,228138,1,8,0:0:0:0:
256,192,228213,1,8,0:0:0:0:
256,192,228288,1,0,0:0:0:0:
256,192,228363,1,8,0:0:0:0:
256,192,228438,1,8,0:0:0:0:
256,192,228513,1,8,0:0:0:0:
256,192,228588,1,0,0:0:0:0:
256,192,228663,1,8,0:0:0:0:
256,192,228738,1,8,0:0:0:0:
256,192,228813,1,8,0:0:0:0:
256,192,228888,1,0,0:0:0:0:
256,192,229038,1,8,0:0:0:0:
256,192,229188,1,0,0:0:0:0:
256,192,229338,1,8,0:0:0:0:
256,192,229488,1,0,0:0:0:0:
256,192,229563,1,8,0:0:0:0:
256,192,229713,1,0,0:0:0:0:
256,192,229788,1,8,0:0:0:0:
256,192,229863,1,8,0:0:0:0:
256,192,229938,1,0,0:0:0:0:
256,192,230013,1,0,0:0:0:0:
256,192,230088,1,8,0:0:0:0:
256,192,230238,1,0,0:0:0:0:
256,192,230388,1,8,0:0:0:0:
256,192,230538,1,0,0:0:0:0:
256,192,230688,1,8,0:0:0:0:
256,192,230763,1,0,0:0:0:0:
256,192,230913,1,0,0:0:0:0:
256,192,230988,1,8,0:0:0:0:
256,192,231063,1,8,0:0:0:0:
256,192,231138,1,0,0:0:0:0:
256,192,231288,1,8,0:0:0:0:
256,192,231363,1,8,0:0:0:0:
256,192,231438,1,0,0:0:0:0:
256,192,231513,1,0,0:0:0:0:
256,192,231588,1,8,0:0:0:0:
256,192,231663,1,8,0:0:0:0:
256,192,231738,1,0,0:0:0:0:
256,192,231813,1,0,0:0:0:0:
256,192,231888,1,8,0:0:0:0:
256,192,231963,1,8,0:0:0:0:
256,192,232038,1,8,0:0:0:0:
256,192,232113,1,0,0:0:0:0:
256,192,232188,1,8,0:0:0:0:
256,192,232263,1,8,0:0:0:0:
256,192,232338,1,8,0:0:0:0:
256,192,232413,1,0,0:0:0:0:
256,192,232488,1,8,0:0:0:0:
256,192,232525,1,0,0:0:0:0:
256,192,232563,1,0,0:0:0:0:
256,192,232638,1,8,0:0:0:0:
256,192,232675,1,0,0:0:0:0:
256,192,232713,1,0,0:0:0:0:
256,192,232788,1,0,0:0:0:0:
256,192,232863,1,8,0:0:0:0:
256,192,232900,1,0,0:0:0:0:
256,192,232938,1,0,0:0:0:0:
256,192,233013,1,0,0:0:0:0:
256,192,233088,1,8,0:0:0:0:
256,192,233125,1,0,0:0:0:0:
256,192,233163,1,0,0:0:0:0:
256,192,233238,1,8,0:0:0:0:
256,192,233275,1,0,0:0:0:0:
256,192,233313,1,0,0:0:0:0:
256,192,233388,1,0,0:0:0:0:
256,192,233463,1,8,0:0:0:0:
256,192,233500,1,8,0:0:0:0:
256,192,233538,1,8,0:0:0:0:
256,192,233575,1,8,0:0:0:0:
256,192,233613,1,8,0:0:0:0:
256,192,233688,1,4,0:0:0:0:
