osu file format v14

[General]
AudioFilename: audio.mp3
AudioLeadIn: 0
PreviewTime: -1
Countdown: 1
SampleSet: Normal
StackLeniency: 0.7
Mode: 1
LetterboxInBreaks: 0
WidescreenStoryboard: 1

[Editor]
DistanceSpacing: 0.8
BeatDivisor: 4
GridSize: 32
TimelineZoom: 2.3

[Metadata]
Title:Eternal Ending
TitleUnicode:Eternal Ending
Artist:Kobaryo
ArtistUnicode:Kobaryo
Creator:Trilt
Version:Kantan
Source:
Tags:
BeatmapID:1523185
BeatmapSetID:720906

[Difficulty]
HPDrainRate:4
CircleSize:5
OverallDifficulty:3
ApproachRate:1.5
SliderMultiplier:1.1
SliderTickRate:1

[Events]
//Background and Video events
0,0,"Kantantaikobg.png",0,0
//Break Periods
2,80380,88160
2,118780,136160
2,157180,164960
//Storyboard Layer 0 (Background)
//Storyboard Layer 1 (Fail)
//Storyboard Layer 2 (Pass)
//Storyboard Layer 3 (Foreground)
//Storyboard Sound Samples

[TimingPoints]
3380,300,4,1,0,100,1,0
99380,-100,4,1,0,100,0,1
118580,-100,4,1,0,100,0,0
156980,150,4,1,0,100,1,0
156980,-166.666666666667,4,1,0,100,0,1
185780,-100,4,1,0,100,0,1
204980,-100,4,1,0,100,0,0
214580,-100,4,1,0,100,0,1
224180,-100,4,1,0,100,0,0

[HitObjects]
256,192,12980,5,0,0:0:0:0:
256,192,13580,1,0,0:0:0:0:
256,192,14180,1,0,0:0:0:0:
256,192,14780,1,0,0:0:0:0:
256,192,15080,1,0,0:0:0:0:
256,192,15380,1,0,0:0:0:0:
256,192,15980,1,0,0:0:0:0:
256,192,16580,1,0,0:0:0:0:
256,192,17180,1,0,0:0:0:0:
256,192,17780,1,0,0:0:0:0:
256,192,18380,1,0,0:0:0:0:
256,192,18980,1,0,0:0:0:0:
256,192,19580,1,0,0:0:0:0:
256,192,19880,1,0,0:0:0:0:
256,192,20180,1,0,0:0:0:0:
256,192,20780,1,0,0:0:0:0:
256,192,21380,1,0,0:0:0:0:
256,192,21680,1,0,0:0:0:0:
256,192,21980,1,0,0:0:0:0:
256,192,22280,1,0,0:0:0:0:
256,192,22580,1,0,0:0:0:0:
256,192,23030,1,0,0:0:0:0:
256,192,23480,1,0,0:0:0:0:
256,192,23780,1,0,0:0:0:0:
256,192,24380,1,0,0:0:0:0:
256,192,24680,1,0,0:0:0:0:
256,192,24980,1,0,0:0:0:0:
256,192,25430,1,0,0:0:0:0:
256,192,25880,1,0,0:0:0:0:
256,192,26180,1,0,0:0:0:0:
256,192,26780,1,0,0:0:0:0:
256,192,27080,1,0,0:0:0:0:
256,192,27380,1,0,0:0:0:0:
256,192,27830,1,0,0:0:0:0:
256,192,28280,1,0,0:0:0:0:
256,192,28580,1,0,0:0:0:0:
256,192,29180,1,0,0:0:0:0:
256,192,29480,1,0,0:0:0:0:
256,192,29780,1,0,0:0:0:0:
256,192,30230,1,0,0:0:0:0:
256,192,30680,1,0,0:0:0:0:
256,192,30980,1,0,0:0:0:0:
256,192,31580,1,0,0:0:0:0:
256,192,31880,1,0,0:0:0:0:
256,192,32180,1,0,0:0:0:0:
256,192,32630,1,0,0:0:0:0:
256,192,33080,1,0,0:0:0:0:
256,192,33380,1,0,0:0:0:0:
256,192,33680,1,0,0:0:0:0:
256,192,33980,1,0,0:0:0:0:
256,192,34280,1,0,0:0:0:0:
256,192,34580,1,0,0:0:0:0:
256,192,35030,1,0,0:0:0:0:
256,192,35480,1,0,0:0:0:0:
256,192,36080,1,0,0:0:0:0:
256,192,36380,1,0,0:0:0:0:
256,192,36980,1,0,0:0:0:0:
256,192,37430,1,0,0:0:0:0:
256,192,37880,1,0,0:0:0:0:
256,192,38480,1,0,0:0:0:0:
256,192,38780,1,0,0:0:0:0:
256,192,39080,1,0,0:0:0:0:
256,192,39380,1,0,0:0:0:0:
256,192,39830,1,0,0:0:0:0:
256,192,40280,1,0,0:0:0:0:
256,192,40580,1,0,0:0:0:0:
256,192,40880,1,0,0:0:0:0:
256,192,41180,1,0,0:0:0:0:
256,192,41480,1,0,0:0:0:0:
256,192,41780,1,0,0:0:0:0:
256,192,42380,1,0,0:0:0:0:
256,192,42980,1,0,0:0:0:0:
256,192,43580,1,0,0:0:0:0:
256,192,43880,1,0,0:0:0:0:
256,192,44180,1,0,0:0:0:0:
256,192,44780,1,0,0:0:0:0:
256,192,45380,1,0,0:0:0:0:
256,192,45980,1,0,0:0:0:0:
256,192,46280,1,0,0:0:0:0:
256,192,46580,1,0,0:0:0:0:
256,192,47180,1,0,0:0:0:0:
256,192,47780,1,0,0:0:0:0:
256,192,48380,1,0,0:0:0:0:
256,192,48680,1,0,0:0:0:0:
256,192,48980,1,0,0:0:0:0:
256,192,49580,1,0,0:0:0:0:
256,192,50180,1,0,0:0:0:0:
256,192,50780,1,0,0:0:0:0:
256,192,51080,1,0,0:0:0:0:
256,192,51380,1,0,0:0:0:0:
256,192,51680,1,0,0:0:0:0:
256,192,51980,1,0,0:0:0:0:
256,192,52280,1,0,0:0:0:0:
256,192,52580,1,0,0:0:0:0:
256,192,52880,1,0,0:0:0:0:
256,192,53180,1,0,0:0:0:0:
256,192,53780,1,0,0:0:0:0:
256,192,54080,1,0,0:0:0:0:
256,192,54380,1,0,0:0:0:0:
256,192,54680,1,0,0:0:0:0:
256,192,54980,1,0,0:0:0:0:
256,192,55280,1,0,0:0:0:0:
256,192,55580,1,0,0:0:0:0:
256,192,56180,1,0,0:0:0:0:
256,192,56780,1,0,0:0:0:0:
256,192,57380,1,0,0:0:0:0:
256,192,57980,1,0,0:0:0:0:
256,192,58580,1,0,0:0:0:0:
256,192,58880,1,0,0:0:0:0:
256,192,59180,1,0,0:0:0:0:
256,192,59480,1,0,0:0:0:0:
256,192,59780,1,0,0:0:0:0:
256,192,60380,1,0,0:0:0:0:
256,192,60680,1,0,0:0:0:0:
256,192,60980,1,0,0:0:0:0:
256,192,61580,1,0,0:0:0:0:
256,192,62180,1,0,0:0:0:0:
256,192,62780,1,0,0:0:0:0:
256,192,63080,1,0,0:0:0:0:
256,192,63380,1,0,0:0:0:0:
256,192,63980,1,0,0:0:0:0:
256,192,64580,1,0,0:0:0:0:
256,192,65180,1,0,0:0:0:0:
256,192,65480,1,0,0:0:0:0:
256,192,65780,1,0,0:0:0:0:
256,192,66380,1,0,0:0:0:0:
256,192,66980,1,0,0:0:0:0:
256,192,67580,1,0,0:0:0:0:
256,192,67880,1,0,0:0:0:0:
256,192,68180,1,0,0:0:0:0:
256,192,68780,1,0,0:0:0:0:
256,192,69380,1,0,0:0:0:0:
256,192,69980,1,0,0:0:0:0:
256,192,70280,1,0,0:0:0:0:
256,192,70580,1,0,0:0:0:0:
256,192,71180,1,0,0:0:0:0:
256,192,71780,1,0,0:0:0:0:
256,192,72380,1,0,0:0:0:0:
256,192,72680,1,0,0:0:0:0:
256,192,72980,1,0,0:0:0:0:
256,192,73580,1,0,0:0:0:0:
256,192,73880,1,0,0:0:0:0:
256,192,74480,1,0,0:0:0:0:
256,192,74780,1,0,0:0:0:0:
256,192,75080,1,0,0:0:0:0:
256,192,75380,1,0,0:0:0:0:
256,192,75830,1,0,0:0:0:0:
256,192,76280,1,0,0:0:0:0:
256,192,76880,1,0,0:0:0:0:
256,192,77180,1,0,0:0:0:0:
256,192,77480,1,0,0:0:0:0:
256,192,77780,1,0,0:0:0:0:
256,192,78230,1,0,0:0:0:0:
256,192,78680,1,0,0:0:0:0:
256,192,79280,1,0,0:0:0:0:
256,192,79580,1,0,0:0:0:0:
256,192,79880,1,0,0:0:0:0:
256,192,80180,1,0,0:0:0:0:
256,192,89780,5,0,0:0:0:0:
256,192,90080,1,0,0:0:0:0:
256,192,90380,1,0,0:0:0:0:
256,192,90680,1,0,0:0:0:0:
256,192,90980,1,0,0:0:0:0:
256,192,91280,1,0,0:0:0:0:
256,192,91580,1,0,0:0:0:0:
256,192,92180,1,0,0:0:0:0:
256,192,92480,1,0,0:0:0:0:
256,192,92780,1,0,0:0:0:0:
256,192,93080,1,0,0:0:0:0:
256,192,93380,1,0,0:0:0:0:
256,192,93680,1,0,0:0:0:0:
256,192,93980,1,0,0:0:0:0:
256,192,94580,1,0,0:0:0:0:
256,192,94880,1,0,0:0:0:0:
256,192,95180,1,0,0:0:0:0:
256,192,95780,1,0,0:0:0:0:
256,192,96080,1,0,0:0:0:0:
256,192,96380,1,0,0:0:0:0:
256,192,96980,1,0,0:0:0:0:
256,192,97280,1,0,0:0:0:0:
256,192,97580,1,0,0:0:0:0:
256,192,97880,1,0,0:0:0:0:
256,192,98180,1,0,0:0:0:0:
256,192,98780,1,0,0:0:0:0:
256,192,99080,1,0,0:0:0:0:
256,192,99380,1,0,0:0:0:0:
256,192,99830,1,0,0:0:0:0:
256,192,100280,1,0,0:0:0:0:
256,192,100580,1,0,0:0:0:0:
256,192,101030,1,0,0:0:0:0:
256,192,101480,1,0,0:0:0:0:
256,192,101780,1,0,0:0:0:0:
256,192,102230,1,0,0:0:0:0:
256,192,102680,1,0,0:0:0:0:
256,192,102980,1,0,0:0:0:0:
256,192,103280,1,0,0:0:0:0:
256,192,103580,1,0,0:0:0:0:
256,192,103880,1,0,0:0:0:0:
256,192,104180,1,0,0:0:0:0:
256,192,104630,1,0,0:0:0:0:
256,192,105080,1,0,0:0:0:0:
256,192,105380,1,0,0:0:0:0:
256,192,105830,1,0,0:0:0:0:
256,192,106280,1,0,0:0:0:0:
256,192,106580,1,0,0:0:0:0:
256,192,107180,1,0,0:0:0:0:
256,192,107780,1,0,0:0:0:0:
256,192,108380,1,0,0:0:0:0:
256,192,108680,1,0,0:0:0:0:
256,192,108980,1,0,0:0:0:0:
256,192,109430,1,0,0:0:0:0:
256,192,109880,1,0,0:0:0:0:
256,192,110180,1,0,0:0:0:0:
256,192,110630,1,0,0:0:0:0:
256,192,111080,1,0,0:0:0:0:
256,192,111380,1,0,0:0:0:0:
256,192,111830,1,0,0:0:0:0:
256,192,112280,1,0,0:0:0:0:
256,192,112580,1,0,0:0:0:0:
256,192,112880,1,0,0:0:0:0:
256,192,113180,1,0,0:0:0:0:
256,192,113480,1,0,0:0:0:0:
256,192,113780,1,0,0:0:0:0:
256,192,114230,1,0,0:0:0:0:
256,192,114680,1,0,0:0:0:0:
256,192,114980,1,0,0:0:0:0:
256,192,115430,1,0,0:0:0:0:
256,192,115880,1,0,0:0:0:0:
256,192,116180,1,0,0:0:0:0:
256,192,116780,1,0,0:0:0:0:
256,192,117380,1,0,0:0:0:0:
256,192,117680,1,0,0:0:0:0:
256,192,117980,1,0,0:0:0:0:
256,192,118280,1,0,0:0:0:0:
256,192,118580,1,0,0:0:0:0:
256,192,137780,5,0,0:0:0:0:
256,192,138380,1,0,0:0:0:0:
256,192,138980,1,0,0:0:0:0:
256,192,139580,1,0,0:0:0:0:
256,192,139880,1,0,0:0:0:0:
256,192,140180,1,0,0:0:0:0:
256,192,140780,1,0,0:0:0:0:
256,192,141380,1,0,0:0:0:0:
256,192,141980,1,0,0:0:0:0:
256,192,142280,1,0,0:0:0:0:
256,192,142580,1,0,0:0:0:0:
256,192,143180,1,0,0:0:0:0:
256,192,143780,1,0,0:0:0:0:
256,192,144380,1,0,0:0:0:0:
256,192,144680,1,0,0:0:0:0:
256,192,144980,1,0,0:0:0:0:
256,192,145580,1,0,0:0:0:0:
256,192,146180,1,0,0:0:0:0:
256,192,146480,1,0,0:0:0:0:
256,192,146780,1,0,0:0:0:0:
256,192,147080,1,0,0:0:0:0:
256,192,147380,1,0,0:0:0:0:
256,192,147980,1,0,0:0:0:0:
256,192,148580,1,0,0:0:0:0:
256,192,149180,1,0,0:0:0:0:
256,192,149480,1,0,0:0:0:0:
256,192,149780,1,0,0:0:0:0:
256,192,150380,1,0,0:0:0:0:
256,192,150980,1,0,0:0:0:0:
256,192,151280,5,0,0:0:0:0:
256,192,151580,1,0,0:0:0:0:
256,192,152180,1,0,0:0:0:0:
256,192,152780,1,0,0:0:0:0:
256,192,153680,1,0,0:0:0:0:
256,192,153980,1,0,0:0:0:0:
256,192,154580,1,0,0:0:0:0:
256,192,155180,1,0,0:0:0:0:
256,192,155780,1,0,0:0:0:0:
256,192,156080,1,0,0:0:0:0:
256,192,156380,1,0,0:0:0:0:
256,192,156680,1,0,0:0:0:0:
256,192,156980,1,0,0:0:0:0:
256,192,166580,5,0,0:0:0:0:
256,192,166880,1,0,0:0:0:0:
256,192,167330,1,0,0:0:0:0:
256,192,167480,1,0,0:0:0:0:
256,192,167780,1,0,0:0:0:0:
256,192,168080,1,0,0:0:0:0:
256,192,168530,1,0,0:0:0:0:
256,192,168680,1,0,0:0:0:0:
256,192,168980,1,0,0:0:0:0:
256,192,169280,1,0,0:0:0:0:
256,192,169730,1,0,0:0:0:0:
256,192,169880,1,0,0:0:0:0:
256,192,170180,1,0,0:0:0:0:
256,192,170780,1,0,0:0:0:0:
256,192,171380,1,0,0:0:0:0:
256,192,171680,1,0,0:0:0:0:
256,192,172280,1,0,0:0:0:0:
256,192,172580,1,0,0:0:0:0:
256,192,172730,1,0,0:0:0:0:
256,192,173030,1,0,0:0:0:0:
256,192,173480,1,0,0:0:0:0:
256,192,173780,1,0,0:0:0:0:
256,192,174380,1,0,0:0:0:0:
256,192,174980,1,0,0:0:0:0:
256,192,175280,1,0,0:0:0:0:
256,192,175580,1,0,0:0:0:0:
256,192,175880,1,0,0:0:0:0:
256,192,176180,1,0,0:0:0:0:
256,192,176330,1,0,0:0:0:0:
256,192,176780,1,0,0:0:0:0:
256,192,177080,1,0,0:0:0:0:
256,192,177380,1,0,0:0:0:0:
256,192,177530,1,0,0:0:0:0:
256,192,177980,1,0,0:0:0:0:
256,192,178280,1,0,0:0:0:0:
256,192,178580,1,0,0:0:0:0:
256,192,178730,1,0,0:0:0:0:
256,192,179180,1,0,0:0:0:0:
256,192,179480,1,0,0:0:0:0:
256,192,179780,1,0,0:0:0:0:
256,192,180080,1,0,0:0:0:0:
256,192,180380,1,0,0:0:0:0:
256,192,180680,1,0,0:0:0:0:
256,192,180980,1,0,0:0:0:0:
256,192,181280,1,0,0:0:0:0:
256,192,181580,1,0,0:0:0:0:
256,192,181880,1,0,0:0:0:0:
256,192,182180,1,0,0:0:0:0:
256,192,182480,1,0,0:0:0:0:
256,192,182780,1,0,0:0:0:0:
256,192,183080,1,0,0:0:0:0:
256,192,183380,2,0,B|288:160|352:192|352:256,4,131.99999597168
