osu file format v14

[General]
AudioFilename: audio.ogg
AudioLeadIn: 0
PreviewTime: 126783
Countdown: 0
SampleSet: Soft
StackLeniency: 0.7
Mode: 3
LetterboxInBreaks: 0
SpecialStyle: 0
WidescreenStoryboard: 1

[Editor]
DistanceSpacing: 0.7
BeatDivisor: 4
GridSize: 32
TimelineZoom: 2.4

[Metadata]
Title:Endless Adventure
TitleUnicode:Endless Adventure
Artist:Kobaryo
ArtistUnicode:Kobaryo
Creator:Crisper
Version:Normal
Source:
Tags:TANO*C TANOC HARDCORE SYNDROME 13 TANOCD-0024 HiTNEX TRAX SUPER DREAM ZONE HNXCD-001 Electronic Speedcore USAO instrumental
BeatmapID:2800118
BeatmapSetID:1342855

[Difficulty]
HPDrainRate:7.5
CircleSize:4
OverallDifficulty:7.3
ApproachRate:5
SliderMultiplier:1.4
SliderTickRate:1

[Events]
//Background and Video events
0,0,"bg3.jpg",0,0
//Break Periods
//Storyboard Layer 0 (Background)
//Storyboard Layer 1 (Fail)
//Storyboard Layer 2 (Pass)
//Storyboard Layer 3 (Foreground)
//Storyboard Layer 4 (Overlay)
//Storyboard Sound Samples
Sample,97559,0,"B5R.wav",20
Sample,99369,0,"LR_Clap Normal.wav",35
Sample,144628,0,"F#6R_Gb6R.wav",25
Sample,144886,0,"G6R.wav",30
Sample,145145,0,"F#6R_Gb6R.wav",25
Sample,145921,0,"B5R.wav",20
Sample,146697,0,"A5R.wav",18
Sample,209283,0,"LR_Clap Normal.wav",35

[TimingPoints]
2387,258.620689655172,4,2,1,100,1,0
39628,-100,4,2,1,100,0,1
46869,-100,4,2,1,100,0,0
47904,-100,4,2,1,100,0,1
56180,-100,4,2,1,100,0,0
60318,-100,4,2,1,100,0,1
64455,-100,4,2,1,100,0,0
68593,-100,4,2,1,100,0,1
72731,-100,4,2,1,100,0,0
109973,-100,4,2,1,100,0,1
118249,-100,4,2,1,100,0,0
120318,-100,4,2,1,100,0,1
126524,-100,4,2,1,100,0,0
128593,-100,4,2,1,100,0,1
143076,-100,4,2,1,100,0,0
192731,-100,4,2,1,100,0,1
209283,-100,4,2,1,100,0,0
217559,-100,4,2,1,100,0,1
234111,-100,4,2,1,100,0,0

[HitObjects]
64,192,2386,128,0,4455:0:0:0:50:BassKickReverb.wav
448,192,2386,1,0,0:0:0:0:
320,192,4455,128,0,6524:0:0:0:0:
192,192,6524,128,0,8464:0:0:0:0:
64,192,6524,1,0,0:0:0:0:
448,192,7042,1,0,0:0:0:0:
320,192,7559,1,0,0:0:0:0:
64,192,8076,1,0,0:0:0:0:
320,192,8464,1,0,0:0:0:0:
448,192,8593,128,0,10662:0:0:0:0:
64,192,8593,1,0,0:0:0:0:
192,192,9111,1,0,0:0:0:0:
64,192,9628,1,0,0:0:0:0:
320,192,10145,1,0,0:0:0:0:
64,192,10662,1,2,0:0:0:0:
192,192,10662,1,4,0:0:0:0:
320,192,10921,1,0,0:0:0:0:
64,192,11180,1,8,0:0:0:0:
448,192,11180,1,0,0:0:0:0:
192,192,11438,1,0,0:0:0:0:
320,192,11697,1,0,0:0:0:0:
192,192,11955,1,2,0:0:0:0:
64,192,11955,1,0,0:0:0:0:
448,192,12214,1,8,0:0:0:0:
320,192,12214,1,0,0:0:0:0:
64,192,12473,1,0,0:0:0:0:
192,192,12731,1,2,0:0:0:0:
448,192,12731,1,0,0:0:0:0:
320,192,12990,1,0,0:0:0:0:
192,192,13249,1,8,0:0:0:0:
64,192,13249,1,0,0:0:0:0:
320,192,13507,1,0,0:0:0:0:
64,192,13766,1,0,0:0:0:0:
192,192,14024,1,2,0:0:0:0:
320,192,14024,1,0,0:0:0:0:
64,192,14283,1,8,0:0:0:0:
448,192,14283,1,0,0:0:0:0:
320,192,14542,1,0,0:0:0:0:
64,192,14800,1,2,0:0:0:0:
192,192,14800,1,0,0:0:0:0:
320,192,15059,1,0,0:0:0:0:
64,192,15318,1,8,0:0:0:0:
448,192,15318,1,0,0:0:0:0:
192,192,15576,1,0,0:0:0:0:
320,192,15835,1,0,0:0:0:0:
64,192,16093,1,2,0:0:0:0:
192,192,16093,1,0,0:0:0:0:
320,192,16352,1,8,0:0:0:0:
448,192,16352,1,0,0:0:0:0:
192,192,16611,1,0,0:0:0:0:
64,192,16869,1,2,0:0:0:0:
448,192,16869,1,0,0:0:0:0:
320,192,17128,1,0,0:0:0:0:
192,192,17386,1,8,0:0:0:0:
448,192,17386,1,0,0:0:0:0:
64,192,17645,1,0,0:0:0:0:
448,192,17904,1,0,0:0:0:0:
192,192,18162,1,2,0:0:0:0:
320,192,18162,1,0,0:0:0:0:
64,192,18421,1,8,0:0:0:0:
448,192,18421,1,0,0:0:0:0:
192,192,18680,1,0,0:0:0:0:
320,192,18938,1,2,0:0:0:0:
448,192,18938,1,4,0:0:0:0:
64,192,19197,1,0,0:0:0:0:
192,192,19455,1,8,0:0:0:0:
448,192,19455,1,0,0:0:0:0:
320,192,19714,1,0,0:0:0:0:
64,192,19973,1,0,0:0:0:0:
320,192,20231,1,2,0:0:0:0:
448,192,20231,1,0,0:0:0:0:
64,192,20490,1,8,0:0:0:0:
192,192,20490,1,0,0:0:0:0:
320,192,20749,1,0,0:0:0:0:
192,192,21007,1,2,0:0:0:0:
448,192,21007,1,0,0:0:0:0:
64,192,21266,1,0,0:0:0:0:
320,192,21524,1,8,0:0:0:0:
448,192,21524,1,0,0:0:0:0:
192,192,21783,1,0,0:0:0:0:
448,192,22042,1,0,0:0:0:0:
64,192,22300,1,2,0:0:0:0:
320,192,22300,1,0,0:0:0:0:
192,192,22559,1,8,0:0:0:0:
448,192,22559,1,0,0:0:0:0:
64,192,22818,1,0,0:0:0:0:
320,192,23076,1,2,0:0:0:0:
448,192,23076,1,0,0:0:0:0:
192,192,23335,1,0,0:0:0:0:
64,192,23593,1,8,0:0:0:0:
448,192,23593,1,0,0:0:0:0:
320,192,23852,1,0,0:0:0:0:
64,192,24111,1,0,0:0:0:0:
192,192,24369,1,2,0:0:0:0:
448,192,24369,1,0,0:0:0:0:
64,192,24628,1,8,0:0:0:0:
320,192,24628,1,0,0:0:0:0:
448,192,24886,1,0,0:0:0:0:
64,192,25145,1,2,0:0:0:0:
192,192,25145,1,0,0:0:0:0:
320,192,25404,1,0,0:0:0:0:
64,192,25662,1,8,0:0:0:0:
448,192,25662,1,0,0:0:0:0:
192,192,25921,1,0,0:0:0:0:
320,192,26180,1,0,0:0:0:0:
64,192,26438,1,2,0:0:0:0:
192,192,26438,1,0,0:0:0:0:
320,192,26697,1,8,0:0:0:0:
448,192,26697,1,0,0:0:0:0:
64,192,26955,1,0,0:0:0:0:
320,192,27214,1,6,0:0:0:0:
448,192,27214,1,0,0:0:0:35:LR_Clap Normal.wav
64,192,27473,1,2,0:0:0:0:
448,192,27473,1,0,0:0:0:35:LR_Clap Normal.wav
64,192,27731,1,2,0:0:0:0:
192,192,27731,1,0,0:0:0:35:LR_Clap Normal.wav
320,192,27990,1,2,0:0:0:0:
448,192,27990,1,0,0:0:0:35:LR_Clap Normal.wav
320,192,28249,1,2,0:0:0:0:
448,192,28249,1,0,0:0:0:35:LR_Clap Normal.wav
64,192,28507,1,2,0:0:0:0:
192,192,28507,1,0,0:0:0:35:LR_Clap Normal.wav
64,192,28766,1,2,0:0:0:0:
192,192,28766,1,0,0:0:0:35:LR_Clap Normal.wav
320,192,29024,1,2,0:0:0:0:
192,192,29154,1,0,0:0:0:35:LR_Clap Normal.wav
64,192,29283,1,2,0:0:0:0:
448,192,29283,1,0,0:0:0:35:LR_Clap Normal.wav
192,192,29542,1,2,0:0:0:0:
448,192,29542,1,0,0:0:0:35:LR_Clap Normal.wav
64,192,29800,1,2,0:0:0:0:
192,192,29800,1,0,0:0:0:35:LR_Clap Normal.wav
320,192,30059,1,2,0:0:0:0:
448,192,30059,1,0,0:0:0:35:LR_Clap Normal.wav
320,192,30318,1,2,0:0:0:0:
448,192,30318,1,0,0:0:0:35:LR_Clap Normal.wav
64,192,30576,1,2,0:0:0:0:
192,192,30576,1,0,0:0:0:35:LR_Clap Normal.wav
64,192,30835,1,2,0:0:0:0:
192,192,30835,1,0,0:0:0:35:LR_Clap Normal.wav
320,192,31029,1,0,0:0:0:35:LR_Clap Normal.wav
192,192,31093,1,2,0:0:0:0:
448,192,31223,1,0,0:0:0:35:LR_Clap Normal.wav
320,192,31287,1,0,0:0:0:35:LR_Clap Normal.wav
64,192,31352,1,2,0:0:0:0:
192,192,31352,1,0,0:0:0:35:LR_Clap Normal.wav
64,192,31611,1,2,0:0:0:0:
448,192,31611,1,0,0:0:0:35:LR_Clap Normal.wav
320,192,31869,1,2,0:0:0:0:
448,192,31869,1,0,0:0:0:35:LR_Clap Normal.wav
64,192,32128,1,2,0:0:0:0:
192,192,32128,1,0,0:0:0:35:LR_Clap Normal.wav
64,192,32386,1,2,0:0:0:0:
192,192,32386,1,0,0:0:0:35:LR_Clap Normal.wav
320,192,32645,1,2,0:0:0:0:
448,192,32645,1,0,0:0:0:35:LR_Clap Normal.wav
320,192,32904,1,2,0:0:0:0:
448,192,32904,1,0,0:0:0:35:LR_Clap Normal.wav
64,192,33162,1,2,0:0:0:0:
192,192,33162,1,0,0:0:0:35:LR_Clap Normal.wav
320,192,33292,1,0,0:0:0:0:
192,192,33421,1,10,0:0:0:0:
448,192,33550,1,0,0:0:0:40:LR_Kick Beat Drop.wav
320,192,33680,1,10,0:0:0:0:
192,192,33809,1,0,0:0:0:40:LR_Kick Beat Drop.wav
448,192,33938,1,10,0:0:0:0:
64,192,34068,1,0,0:0:0:40:LR_Kick Beat Drop.wav
192,192,34197,1,10,0:0:0:0:
320,192,34326,1,0,0:0:0:40:LR_Kick Beat Drop.wav
64,192,35490,128,0,36007:0:0:0:35:LR_Kick Beat Drop.wav
448,192,35490,128,0,37559:0:0:0:0:
192,192,36007,128,0,36524:0:0:0:35:LR_Kick Beat Drop.wav
320,192,36524,128,0,37559:0:0:0:35:LR_Kick Beat Drop.wav
64,192,37559,1,2,0:0:0:0:
192,192,37559,1,0,0:0:0:0:
192,192,38593,1,2,0:0:0:0:
320,192,38593,1,0,0:0:0:0:
192,192,38852,1,2,0:0:0:0:
320,192,38852,1,0,0:0:0:0:
64,192,39111,1,8,0:0:0:0:
448,192,39111,1,0,0:0:0:0:
64,192,39369,128,8,39628:0:0:0:0:
448,192,39369,128,0,39628:0:0:0:0:
192,192,39628,1,2,0:0:0:0:
320,192,39628,1,4,0:0:0:0:
192,192,39886,1,2,0:0:0:0:
448,192,39886,1,0,0:0:0:0:
320,192,40145,1,2,0:0:0:0:
448,192,40145,1,0,0:0:0:0:
192,192,40404,1,2,0:0:0:0:
320,192,40533,1,0,0:0:0:0:
64,192,40662,1,2,0:0:0:0:
448,192,40792,1,0,0:0:0:0:
64,192,40921,1,2,0:0:0:0:
192,192,40921,1,0,0:0:0:0:
320,192,41180,1,2,0:0:0:0:
448,192,41180,1,0,0:0:0:0:
64,192,41309,1,2,0:0:0:0:
192,192,41374,1,2,0:0:0:0:
320,192,41438,1,2,0:0:0:0:
448,192,41438,1,0,0:0:0:0:
64,192,41697,1,2,0:0:0:0:
192,192,41697,1,4,0:0:0:0:
64,192,41955,1,2,0:0:0:0:
448,192,41955,1,0,0:0:0:0:
192,192,42214,1,2,0:0:0:0:
448,192,42214,1,0,0:0:0:0:
320,192,42473,1,2,0:0:0:0:
192,192,42602,1,0,0:0:0:0:
448,192,42731,1,2,0:0:0:0:
64,192,42861,1,0,0:0:0:0:
320,192,42990,1,2,0:0:0:0:
448,192,42990,1,0,0:0:0:0:
192,192,43119,1,0,0:0:0:20:LR_Kick Beat Drop.wav
320,192,43249,1,2,0:0:0:0:
64,192,43378,1,0,0:0:0:0:
448,192,43507,128,2,43636:0:0:0:0:
320,192,43636,128,0,43766:0:0:0:0:
64,192,43766,1,2,0:0:0:0:
192,192,43766,1,8,0:0:0:0:
192,192,44024,1,2,0:0:0:0:
448,192,44024,1,8,0:0:0:0:
64,192,44283,1,2,0:0:0:0:
448,192,44283,1,8,0:0:0:0:
320,192,44542,1,10,0:0:0:0:
192,192,44671,1,0,0:0:0:0:
448,192,44800,1,10,0:0:0:0:
64,192,44930,1,0,0:0:0:0:
320,192,45059,1,2,0:0:0:0:
448,192,45059,1,8,0:0:0:0:
64,192,45318,1,8,0:0:0:0:
192,192,45318,1,2,0:0:0:0:
448,192,45447,1,2,0:0:0:0:
320,192,45511,1,2,0:0:0:0:
64,192,45576,1,2,0:0:0:0:
192,192,45576,1,8,0:0:0:0:
320,192,45835,128,2,45964:0:0:0:0:
192,192,45964,128,0,46093:0:0:0:20:LR_Kick Beat Drop.wav
320,192,46093,128,2,46223:0:0:0:0:
192,192,46223,128,0,46352:0:0:0:20:LR_Kick Beat Drop.wav
448,192,46352,1,2,0:0:0:0:
64,192,46481,1,2,0:0:0:0:
320,192,46611,128,8,46869:0:0:0:0:
192,192,46869,128,0,47386:0:0:0:0:
320,192,47386,1,2,0:0:0:0:
448,192,47516,1,2,0:0:0:0:
64,192,47645,1,8,0:0:0:0:
192,192,47645,1,0,0:0:0:0:
320,192,47904,128,2,48162:0:0:0:0:
448,192,47904,1,4,0:0:0:0:
64,192,48162,1,2,0:0:0:0:
192,192,48162,128,8,48421:0:0:0:0:
320,192,48421,128,2,48550:0:0:0:0:
448,192,48550,128,0,48680:0:0:0:0:
192,192,48680,128,10,48809:0:0:0:0:
320,192,48809,128,0,48938:0:0:0:0:
64,192,48938,128,2,49068:0:0:0:0:
192,192,49068,128,0,49197:0:0:0:0:
448,192,49197,128,10,49326:0:0:0:0:
64,192,49326,128,0,49455:0:0:0:0:
320,192,49455,128,2,49585:0:0:0:0:
192,192,49585,128,0,49714:0:0:0:20:LR_Kick Beat Drop.wav
448,192,49714,128,8,49973:0:0:0:0:
64,192,49973,128,2,50231:0:0:0:0:
192,192,49973,1,0,0:0:0:0:
320,192,50231,1,8,0:0:0:0:
448,192,50231,128,2,50490:0:0:0:0:
192,192,50490,128,2,50619:0:0:0:0:
320,192,50619,128,0,50749:0:0:0:0:
64,192,50749,128,10,50878:0:0:0:0:
192,192,50878,128,0,51007:0:0:0:0:
448,192,51007,128,2,51136:0:0:0:0:
320,192,51136,128,0,51266:0:0:0:20:LR_Kick Beat Drop.wav
192,192,51266,128,10,51395:0:0:0:0:
64,192,51395,128,0,51524:0:0:0:20:LR_Kick Beat Drop.wav
320,192,51524,1,2,0:0:0:0:
448,192,51654,1,8,0:0:0:0:
192,192,51783,1,8,0:0:0:0:
64,192,51912,1,0,0:0:0:0:
320,192,52042,128,14,52171:0:0:0:0:
192,192,52171,128,0,52300:0:0:0:20:LR_Kick Beat Drop.wav
448,192,52300,128,10,52430:0:0:0:0:
64,192,52430,128,2,52559:0:0:0:0:
320,192,52559,128,8,52688:0:0:0:0:
192,192,52688,128,2,52818:0:0:0:0:
448,192,52818,128,8,53076:0:0:0:0:
64,192,53076,128,10,53205:0:0:0:0:
192,192,53205,128,0,53335:0:0:0:20:LR_Kick Beat Drop.wav
448,192,53335,128,10,53464:0:0:0:0:
320,192,53464,128,2,53593:0:0:0:0:
64,192,53593,128,10,53723:0:0:0:0:
448,192,53723,128,0,53852:0:0:0:20:LR_Kick Beat Drop.wav
192,192,53852,128,8,54111:0:0:0:0:
320,192,54111,128,2,54240:0:0:0:0:
64,192,54240,128,2,54369:0:0:0:0:
448,192,54369,128,2,54499:0:0:0:0:
192,192,54499,128,2,54628:0:0:0:0:
64,192,54628,128,0,54886:0:0:0:30:LR_Kick Beat Drop.wav
448,192,54886,128,0,55145:0:0:0:20:LR_Kick Beat Drop.wav
192,192,55145,128,0,55404:0:0:0:0:
320,192,55404,1,0,0:0:0:70:LR_Kick Beat Drop.wav
64,192,55533,1,0,0:0:0:70:LR_Kick Beat Drop.wav
320,192,55662,128,8,55921:0:0:0:0:
192,192,55921,128,8,56180:0:0:0:0:
448,192,56180,1,6,0:0:0:0:
320,192,56309,1,0,0:0:0:0:
64,192,56438,1,0,0:0:0:0:
192,192,56568,1,0,0:0:0:0:
448,192,56697,1,8,0:0:0:0:
320,192,56826,1,0,0:0:0:0:
64,192,56955,1,0,0:0:0:0:
320,192,57085,1,0,0:0:0:0:
192,192,57214,1,0,0:0:0:0:
448,192,57343,1,0,0:0:0:0:
64,192,57473,128,2,57731:0:0:0:0:
448,192,57731,1,8,0:0:0:0:
192,192,57861,1,0,0:0:0:0:
320,192,57990,128,0,58119:0:0:0:0:
64,192,58119,128,0,58249:0:0:0:0:
448,192,58249,1,2,0:0:0:0:
320,192,58378,1,0,0:0:0:0:
64,192,58507,1,0,0:0:0:0:
192,192,58636,1,0,0:0:0:0:
448,192,58766,1,8,0:0:0:0:
320,192,58895,1,0,0:0:0:0:
64,192,59024,1,0,0:0:0:0:
320,192,59154,1,0,0:0:0:0:
192,192,59283,1,0,0:0:0:0:
448,192,59412,1,0,0:0:0:0:
64,192,59542,128,2,59800:0:0:0:0:
320,192,59800,1,8,0:0:0:0:
192,192,59930,1,0,0:0:0:0:
448,192,60059,128,0,60318:0:0:0:0:
64,192,60318,1,2,0:0:0:0:
192,192,60318,128,4,60576:0:0:0:0:
320,192,60576,128,2,60835:0:0:0:0:
448,192,60576,1,8,0:0:0:0:
64,192,60835,128,2,60964:0:0:0:0:
192,192,60964,128,0,61093:0:0:0:0:
320,192,61093,128,10,61223:0:0:0:0:
64,192,61223,128,0,61352:0:0:0:0:
448,192,61352,128,2,61481:0:0:0:0:
192,192,61481,128,0,61611:0:0:0:0:
320,192,61611,128,10,61740:0:0:0:0:
64,192,61740,128,0,61869:0:0:0:0:
192,192,61869,128,2,61999:0:0:0:0:
448,192,61999,128,0,62128:0:0:0:0:
64,192,62128,128,10,62257:0:0:0:0:
320,192,62257,128,2,62386:0:0:0:0:
64,192,62386,1,2,0:0:0:0:
192,192,62386,128,0,62645:0:0:0:0:
320,192,62645,128,2,62904:0:0:0:0:
448,192,62645,1,8,0:0:0:0:
192,192,62904,128,2,63033:0:0:0:0:
64,192,63033,128,0,63162:0:0:0:0:
320,192,63162,128,10,63292:0:0:0:0:
192,192,63292,128,0,63421:0:0:0:0:
448,192,63421,1,8,0:0:0:0:
64,192,63550,1,8,0:0:0:0:
320,192,63680,1,2,0:0:0:0:
192,192,63809,1,2,0:0:0:0:
448,192,63938,1,8,0:0:0:0:
64,192,64068,1,2,0:0:0:0:
320,192,64197,128,8,64455:0:0:0:0:
64,192,64455,1,2,0:0:0:0:
192,192,64455,1,4,0:0:0:0:
64,192,64714,1,0,0:0:0:0:
64,192,64973,1,8,0:0:0:0:
448,192,64973,1,0,0:0:0:0:
320,192,65231,1,0,0:0:0:0:
192,192,65361,1,0,0:0:0:0:
448,192,65490,1,2,0:0:0:0:
320,192,65619,1,0,0:0:0:0:
192,192,65749,128,0,66007:0:0:0:0:
320,192,66007,1,8,0:0:0:0:
448,192,66007,1,0,0:0:0:0:
64,192,66266,128,0,66395:0:0:0:0:
192,192,66395,128,0,66524:0:0:0:0:
320,192,66524,1,2,0:0:0:0:
448,192,66524,1,0,0:0:0:0:
448,192,66783,1,0,0:0:0:0:
64,192,67042,1,8,0:0:0:0:
448,192,67042,1,0,0:0:0:0:
192,192,67300,1,0,0:0:0:0:
320,192,67430,1,0,0:0:0:0:
64,192,67559,1,2,0:0:0:0:
192,192,67688,1,0,0:0:0:0:
320,192,67818,128,0,68076:0:0:0:0:
64,192,68076,1,8,0:0:0:0:
192,192,68076,1,0,0:0:0:0:
64,192,68335,128,8,68593:0:0:0:0:
448,192,68335,1,0,0:0:0:0:
320,192,68593,128,6,68852:0:0:0:0:
448,192,68593,1,0,0:0:0:0:
64,192,68852,1,2,0:0:0:0:
192,192,68852,128,0,69111:0:0:0:0:
448,192,69111,128,2,69240:0:0:0:0:
320,192,69240,128,0,69369:0:0:0:0:
64,192,69369,128,2,69499:0:0:0:0:
192,192,69499,128,0,69628:0:0:0:0:
320,192,69628,128,2,69757:0:0:0:0:
448,192,69757,128,0,69886:0:0:0:0:
192,192,69886,128,2,70016:0:0:0:0:
64,192,70016,128,0,70145:0:0:0:0:
320,192,70145,128,2,70274:0:0:0:0:
448,192,70274,128,2,70404:0:0:0:0:
192,192,70404,128,2,70662:0:0:0:0:
448,192,70662,1,2,0:0:0:0:
320,192,70792,1,2,0:0:0:0:
192,192,70921,1,2,0:0:0:0:
64,192,71050,1,2,0:0:0:0:
448,192,71180,1,2,0:0:0:0:
192,192,71309,128,0,71438:0:0:0:20:LR_Kick Beat Drop.wav
448,192,71438,1,2,0:0:0:0:
64,192,71568,128,0,71697:0:0:0:20:LR_Kick Beat Drop.wav
320,192,71697,1,0,0:0:0:0:
64,192,72473,1,8,0:0:0:0:
448,192,72473,1,0,0:0:0:0:
192,192,72731,1,2,0:0:0:0:
320,192,72731,1,4,0:0:0:0:
448,192,73249,1,0,0:0:0:70:LR_Snare Wet.wav
64,192,73507,1,2,0:0:0:0:
448,192,73766,128,0,74800:0:0:0:70:LR_Snare Wet.wav
192,192,74283,1,0,0:0:0:0:
192,192,74800,128,2,75835:0:0:0:0:
64,192,74800,1,0,0:0:0:0:
320,192,75318,1,0,0:0:0:0:
320,192,75835,128,0,76869:0:0:0:70:LR_Snare Wet.wav
64,192,76352,1,0,0:0:0:0:
64,192,76869,128,2,77904:0:0:0:0:
448,192,76869,1,0,0:0:0:0:
320,192,77386,1,0,0:0:0:0:
320,192,77904,128,2,78938:0:0:0:0:
192,192,78421,1,0,0:0:0:0:
192,192,78938,128,2,79973:0:0:0:0:
64,192,78938,1,0,0:0:0:0:
448,192,79455,1,0,0:0:0:0:
448,192,79973,128,2,81007:0:0:0:0:
320,192,80490,128,0,81007:0:0:0:70:LR_Snare Wet.wav
64,192,81007,1,2,0:0:0:0:
192,192,81007,1,0,0:0:0:0:
320,192,81266,1,0,0:0:0:0:
448,192,81395,1,0,0:0:0:0:
192,192,81524,1,0,0:0:0:90:LR_Snare Wet.wav
320,192,81654,1,0,0:0:0:0:
64,192,81783,1,0,0:0:0:0:
192,192,81912,1,0,0:0:0:0:
448,192,82042,1,2,0:0:0:0:
192,192,82300,1,0,0:0:0:0:
64,192,82430,1,0,0:0:0:0:
320,192,82559,1,0,0:0:0:90:LR_Snare Wet.wav
192,192,82688,1,0,0:0:0:0:
448,192,82818,1,0,0:0:0:0:
320,192,82947,1,0,0:0:0:0:
64,192,83076,1,2,0:0:0:0:
320,192,83335,1,0,0:0:0:0:
448,192,83464,1,0,0:0:0:0:
192,192,83593,1,0,0:0:0:90:LR_Snare Wet.wav
64,192,83723,1,0,0:0:0:0:
320,192,83852,1,0,0:0:0:0:
192,192,83981,1,0,0:0:0:0:
448,192,84111,1,2,0:0:0:0:
192,192,84369,1,0,0:0:0:0:
64,192,84499,1,0,0:0:0:0:
320,192,84628,1,0,0:0:0:90:LR_Snare Wet.wav
448,192,84757,1,0,0:0:0:0:
192,192,84886,1,0,0:0:0:0:
320,192,85016,1,0,0:0:0:0:
64,192,85145,1,2,0:0:0:0:
320,192,85404,1,0,0:0:0:0:
64,192,85533,1,0,0:0:0:0:
448,192,85662,1,0,0:0:0:90:LR_Snare Wet.wav
192,192,85792,1,0,0:0:0:0:
320,192,85921,1,0,0:0:0:0:
64,192,86050,1,0,0:0:0:90:LR_Snare Wet.wav
448,192,86180,1,2,0:0:0:0:
192,192,86438,1,0,0:0:0:0:
448,192,86568,1,0,0:0:0:0:
64,192,86697,1,0,0:0:0:90:LR_Snare Wet.wav
320,192,86826,1,0,0:0:0:0:
192,192,86955,1,0,0:0:0:0:
448,192,87085,1,0,0:0:0:90:LR_Snare Wet.wav
64,192,87214,1,2,0:0:0:0:
448,192,87473,1,0,0:0:0:0:
320,192,87602,1,0,0:0:0:0:
192,192,87731,1,0,0:0:0:90:LR_Snare Wet.wav
64,192,87861,1,0,0:0:0:0:
320,192,87990,1,0,0:0:0:0:
192,192,88119,1,0,0:0:0:90:LR_Snare Wet.wav
448,192,88249,1,2,0:0:0:0:
64,192,88507,1,0,0:0:0:0:
192,192,88636,1,0,0:0:0:0:
320,192,88766,1,0,0:0:0:90:LR_Snare Wet.wav
448,192,88895,1,0,0:0:0:0:
192,192,89024,1,0,0:0:0:0:
320,192,89154,1,0,0:0:0:90:LR_Snare Wet.wav
64,192,89283,1,2,0:0:0:0:
448,192,89283,1,0,0:0:0:35:LR_Clap Normal.wav
192,192,89542,1,0,0:0:0:0:
64,192,89800,1,0,0:0:0:35:LR_Clap Normal.wav
448,192,89800,1,0,0:0:0:0:
320,192,90059,1,0,0:0:0:0:
64,192,90318,1,0,0:0:0:35:LR_Clap Normal.wav
448,192,90318,1,0,0:0:0:0:
192,192,90576,1,0,0:0:0:0:
64,192,90835,1,0,0:0:0:35:LR_Clap Normal.wav
448,192,90835,1,0,0:0:0:0:
320,192,91093,1,0,0:0:0:0:
64,192,91352,1,0,0:0:0:35:LR_Clap Normal.wav
448,192,91352,1,0,0:0:0:0:
192,192,91611,1,0,0:0:0:0:
64,192,91869,1,0,0:0:0:35:LR_Clap Normal.wav
448,192,91869,1,0,0:0:0:0:
320,192,92128,1,0,0:0:0:0:
64,192,92386,1,0,0:0:0:35:LR_Clap Normal.wav
448,192,92386,1,0,0:0:0:0:
192,192,92645,1,0,0:0:0:0:
64,192,92904,1,0,0:0:0:35:LR_Clap Normal.wav
448,192,92904,1,0,0:0:0:0:
320,192,93162,1,0,0:0:0:0:
64,192,93421,1,0,0:0:0:35:LR_Clap Normal.wav
448,192,93421,1,0,0:0:0:0:
192,192,93680,1,0,0:0:0:0:
64,192,93938,1,0,0:0:0:35:LR_Clap Normal.wav
448,192,93938,1,0,0:0:0:0:
320,192,94197,1,0,0:0:0:0:
64,192,94455,1,0,0:0:0:35:LR_Clap Normal.wav
448,192,94455,1,0,0:0:0:0:
192,192,94714,1,0,0:0:0:0:
64,192,94973,1,0,0:0:0:35:LR_Clap Normal.wav
448,192,94973,1,0,0:0:0:25:F#6R_Gb6R.wav
320,192,95231,1,0,0:0:0:30:G6R.wav
64,192,95490,1,0,0:0:0:35:LR_Clap Normal.wav
448,192,95490,1,0,0:0:0:25:F#6R_Gb6R.wav
192,192,95749,1,0,0:0:0:0:
64,192,96007,1,0,0:0:0:35:LR_Clap Normal.wav
448,192,96007,1,0,0:0:0:0:
320,192,96266,1,0,0:0:0:20:B5R.wav
64,192,96524,1,0,0:0:0:35:LR_Clap Normal.wav
448,192,96524,1,0,0:0:0:0:
192,192,96783,1,0,0:0:0:0:
448,192,97042,1,0,0:0:0:35:LR_Clap Normal.wav
64,192,97042,1,0,0:0:0:18:A5R.wav
320,192,97300,1,0,0:0:0:0:
64,192,97559,1,2,0:0:0:0:
192,192,97559,1,0,0:0:0:35:LR_Clap Normal.wav
64,192,97818,1,2,0:0:0:0:
192,192,97818,1,0,0:0:0:35:LR_Clap Normal.wav
320,192,98076,1,2,0:0:0:0:
448,192,98076,1,0,0:0:0:35:LR_Clap Normal.wav
64,192,98335,1,2,0:0:0:0:
448,192,98335,1,0,0:0:0:35:LR_Clap Normal.wav
64,192,98593,1,2,0:0:0:0:
192,192,98593,1,0,0:0:0:35:LR_Clap Normal.wav
192,192,98852,1,2,0:0:0:0:
448,192,98852,1,0,0:0:0:35:LR_Clap Normal.wav
320,192,99111,1,2,0:0:0:0:
448,192,99111,1,0,0:0:0:35:LR_Clap Normal.wav
64,192,99369,1,2,0:0:0:0:
192,192,99499,1,0,0:0:0:35:LR_Clap Normal.wav
320,192,99628,1,2,0:0:0:0:
448,192,99628,1,0,0:0:0:35:LR_Clap Normal.wav
320,192,99886,1,2,0:0:0:0:
448,192,99886,1,0,0:0:0:35:LR_Clap Normal.wav
64,192,100145,1,2,0:0:0:0:
192,192,100145,1,0,0:0:0:35:LR_Clap Normal.wav
192,192,100404,1,2,0:0:0:0:
448,192,100404,1,0,0:0:0:35:LR_Clap Normal.wav
320,192,100662,1,2,0:0:0:0:
448,192,100662,1,0,0:0:0:35:LR_Clap Normal.wav
64,192,100921,1,2,0:0:0:0:
320,192,100921,1,0,0:0:0:35:LR_Clap Normal.wav
192,192,101180,1,2,0:0:0:0:
448,192,101180,1,0,0:0:0:35:LR_Clap Normal.wav
64,192,101438,1,2,0:0:0:0:
192,192,101438,1,0,0:0:0:35:LR_Clap Normal.wav
448,192,101697,1,2,0:0:0:0:
192,192,101826,1,0,0:0:0:20:LR_Kick Beat Drop.wav
320,192,101955,1,2,0:0:0:0:
448,192,102085,1,0,0:0:0:20:LR_Kick Beat Drop.wav
64,192,102214,1,2,0:0:0:0:
320,192,102343,1,0,0:0:0:20:LR_Kick Beat Drop.wav
192,192,102473,1,2,0:0:0:0:
64,192,102602,1,0,0:0:0:20:LR_Kick Beat Drop.wav
448,192,102731,1,2,0:0:0:0:
320,192,102861,1,0,0:0:0:20:LR_Kick Beat Drop.wav
192,192,102990,1,2,0:0:0:0:
448,192,103119,1,0,0:0:0:20:LR_Kick Beat Drop.wav
64,192,103249,1,2,0:0:0:0:
192,192,103378,1,0,0:0:0:20:LR_Kick Beat Drop.wav
320,192,103507,1,2,0:0:0:0:
64,192,103636,1,0,0:0:0:20:LR_Kick Beat Drop.wav
320,192,103766,128,2,104800:0:0:0:0:
448,192,103766,128,0,104800:0:0:0:35:LR_Clap Normal.wav
64,192,104800,128,0,105835:0:0:0:30:LR_Kick Beat Drop.wav
192,192,104800,128,0,105835:0:0:0:0:
448,192,105835,128,0,107386:0:0:0:0:
64,192,107386,128,0,107516:0:0:0:0:
320,192,107516,128,0,107645:0:0:0:0:
192,192,107645,128,0,107774:0:0:0:0:
448,192,107774,128,0,107904:0:0:0:0:
64,192,107904,1,2,0:0:0:0:
192,192,107904,1,4,0:0:0:0:
320,192,108162,1,8,0:0:0:0:
448,192,108162,128,0,108421:0:0:0:0:
64,192,108421,1,2,0:0:0:0:
192,192,108421,1,4,0:0:0:0:
320,192,108680,1,8,0:0:0:0:
448,192,108680,128,0,108938:0:0:0:0:
64,192,108938,1,2,0:0:0:0:
192,192,108938,1,0,0:0:0:0:
64,192,109197,1,2,0:0:0:0:
192,192,109197,1,0,0:0:0:0:
320,192,109455,1,8,0:0:0:0:
448,192,109455,1,0,0:0:0:0:
320,192,109714,128,0,109973:0:0:0:0:
448,192,109714,128,8,109973:0:0:0:0:
64,192,109973,1,2,0:0:0:0:
192,192,109973,1,4,0:0:0:0:
64,192,110231,1,2,0:0:0:0:
448,192,110231,1,0,0:0:0:0:
320,192,110490,1,2,0:0:0:0:
448,192,110490,1,0,0:0:0:0:
192,192,110749,1,2,0:0:0:0:
320,192,110749,1,0,0:0:0:0:
64,192,111007,1,2,0:0:0:0:
448,192,111007,1,0,0:0:0:0:
64,192,111266,1,2,0:0:0:0:
320,192,111266,1,0,0:0:0:0:
320,192,111524,1,2,0:0:0:0:
448,192,111524,1,0,0:0:0:0:
64,192,111783,1,2,0:0:0:0:
192,192,111912,1,2,0:0:0:0:
320,192,112042,1,2,0:0:0:0:
448,192,112042,1,0,0:0:0:0:
64,192,112300,1,2,0:0:0:0:
448,192,112300,1,0,0:0:0:0:
64,192,112559,1,2,0:0:0:0:
192,192,112559,1,0,0:0:0:0:
192,192,112818,1,2,0:0:0:0:
448,192,112818,1,0,0:0:0:0:
320,192,113076,1,2,0:0:0:0:
448,192,113076,1,0,0:0:0:0:
64,192,113335,1,2,0:0:0:0:
320,192,113335,1,0,0:0:0:0:
64,192,113593,1,2,0:0:0:0:
192,192,113593,1,0,0:0:0:0:
448,192,113852,1,2,0:0:0:0:
320,192,113981,1,2,0:0:0:0:
64,192,114111,1,2,0:0:0:0:
192,192,114111,1,0,0:0:0:0:
64,192,114369,1,2,0:0:0:0:
448,192,114369,1,8,0:0:0:0:
320,192,114628,1,2,0:0:0:0:
448,192,114628,1,0,0:0:0:0:
64,192,114886,1,2,0:0:0:0:
448,192,114886,1,8,0:0:0:0:
64,192,115145,1,2,0:0:0:0:
192,192,115145,1,0,0:0:0:0:
64,192,115404,1,2,0:0:0:0:
448,192,115404,1,8,0:0:0:0:
320,192,115662,1,2,0:0:0:0:
448,192,115662,1,0,0:0:0:0:
64,192,115921,1,2,0:0:0:0:
448,192,115921,1,8,0:0:0:0:
320,192,116050,1,2,0:0:0:0:
64,192,116180,1,2,0:0:0:0:
192,192,116180,1,0,0:0:0:0:
64,192,116438,1,2,0:0:0:0:
448,192,116438,1,8,0:0:0:0:
320,192,116697,1,2,0:0:0:0:
448,192,116697,1,0,0:0:0:0:
64,192,116955,1,2,0:0:0:0:
448,192,116955,1,8,0:0:0:0:
192,192,117214,1,2,0:0:0:0:
320,192,117343,1,0,0:0:0:0:
64,192,117473,1,2,0:0:0:0:
192,192,117602,1,0,0:0:0:0:
320,192,117731,1,2,0:0:0:0:
192,192,117861,1,0,0:0:0:0:
448,192,117990,1,2,0:0:0:0:
320,192,118119,1,0,0:0:0:0:
64,192,118249,1,0,0:0:0:20:LR_Kick Beat Drop.wav
64,192,118507,1,0,0:0:0:20:LR_Kick Beat Drop.wav
64,192,118766,1,0,0:0:0:20:LR_Kick Beat Drop.wav
64,192,119024,1,0,0:0:0:20:LR_Kick Beat Drop.wav
64,192,119283,1,0,0:0:0:20:LR_Kick Beat Drop.wav
64,192,119542,1,0,0:0:0:20:LR_Kick Beat Drop.wav
64,192,119800,1,0,0:0:0:20:LR_Kick Beat Drop.wav
320,192,120059,128,0,120188:0:0:0:0:
64,192,120188,128,0,120318:0:0:0:0:
448,192,120318,1,6,0:0:0:0:
192,192,120447,1,0,0:0:0:60:LR_Snare Wet.wav
64,192,120576,128,8,120835:0:0:0:0:
448,192,120576,1,0,0:0:0:0:
448,192,120835,1,2,0:0:0:0:
192,192,120964,1,0,0:0:0:60:LR_Snare Wet.wav
64,192,121093,128,8,121352:0:0:0:0:
448,192,121093,1,0,0:0:0:0:
448,192,121352,1,2,0:0:0:0:
192,192,121481,1,0,0:0:0:60:LR_Snare Wet.wav
64,192,121611,128,8,121869:0:0:0:0:
448,192,121611,1,0,0:0:0:0:
448,192,121869,1,2,0:0:0:0:
192,192,121999,1,2,0:0:0:0:
64,192,122128,128,8,122386:0:0:0:0:
448,192,122128,1,0,0:0:0:0:
320,192,122386,1,2,0:0:0:0:
192,192,122516,1,2,0:0:0:0:
320,192,122645,1,0,0:0:0:60:LR_Snare Wet.wav
448,192,122645,1,0,0:0:0:0:
320,192,122904,1,2,0:0:0:0:
192,192,123033,1,2,0:0:0:0:
320,192,123162,1,0,0:0:0:60:LR_Snare Wet.wav
448,192,123162,1,0,0:0:0:0:
320,192,123421,1,2,0:0:0:0:
192,192,123550,1,2,0:0:0:0:
320,192,123680,1,0,0:0:0:60:LR_Snare Wet.wav
448,192,123680,1,0,0:0:0:0:
320,192,123938,1,2,0:0:0:0:
192,192,124068,1,2,0:0:0:0:
320,192,124197,1,0,0:0:0:60:LR_Snare Wet.wav
448,192,124197,1,0,0:0:0:0:
64,192,124455,1,4,0:0:0:0:
448,192,124455,1,0,0:0:0:70:LR_Kick Beat Drop.wav
64,192,124714,1,0,0:0:0:70:LR_Kick Beat Drop.wav
448,192,124714,1,0,0:0:0:0:
64,192,124973,1,0,0:0:0:70:LR_Kick Beat Drop.wav
448,192,124973,1,0,0:0:0:0:
64,192,125231,1,0,0:0:0:70:LR_Kick Beat Drop.wav
448,192,125231,1,0,0:0:0:0:
320,192,125490,128,0,126007:0:0:0:30:LR_Kick Beat Drop.wav
64,192,126007,1,2,0:0:0:0:
192,192,126136,1,2,0:0:0:0:
320,192,126266,1,8,0:0:0:0:
448,192,126266,128,0,126524:0:0:0:0:
64,192,126524,1,2,0:0:0:0:
192,192,126524,1,4,0:0:0:0:
320,192,126783,1,0,0:0:0:0:
64,192,127042,1,0,0:0:0:60:LR_Snare Wet.wav
448,192,127042,1,0,0:0:0:0:
192,192,127300,1,0,0:0:0:0:
320,192,127559,128,0,127688:0:0:0:70:LR_Kick Beat Drop.wav
64,192,127688,128,0,127818:0:0:0:70:LR_Kick Beat Drop.wav
448,192,127818,128,0,127947:0:0:0:70:LR_Kick Beat Drop.wav
320,192,127947,128,0,128076:0:0:0:70:LR_Kick Beat Drop.wav
64,192,128076,128,0,128205:0:0:0:70:LR_Kick Beat Drop.wav
448,192,128205,128,0,128335:0:0:0:70:LR_Kick Beat Drop.wav
192,192,128335,128,2,128464:0:0:0:0:
64,192,128464,128,2,128593:0:0:0:0:
320,192,128593,1,2,0:0:0:0:
448,192,128593,1,4,0:0:0:0:
64,192,128852,1,2,0:0:0:0:
448,192,128852,1,8,0:0:0:0:
64,192,129111,1,2,0:0:0:0:
192,192,129111,1,0,0:0:0:0:
192,192,129369,1,2,0:0:0:0:
448,192,129369,1,8,0:0:0:0:
320,192,129628,1,2,0:0:0:0:
448,192,129628,1,0,0:0:0:0:
64,192,129886,1,2,0:0:0:0:
320,192,129886,1,8,0:0:0:0:
64,192,130145,1,2,0:0:0:0:
192,192,130145,1,0,0:0:0:0:
320,192,130274,1,2,0:0:0:0:
448,192,130274,1,0,0:0:0:0:
64,192,130404,1,2,0:0:0:0:
192,192,130404,1,8,0:0:0:0:
320,192,130662,1,2,0:0:0:0:
448,192,130662,1,4,0:0:0:0:
192,192,130921,1,2,0:0:0:0:
448,192,130921,1,8,0:0:0:0:
64,192,131180,1,2,0:0:0:0:
192,192,131180,1,0,0:0:0:0:
64,192,131438,1,2,0:0:0:0:
448,192,131438,1,8,0:0:0:0:
320,192,131697,1,2,0:0:0:0:
448,192,131697,1,0,0:0:0:0:
192,192,131955,1,2,0:0:0:0:
320,192,131955,1,8,0:0:0:0:
64,192,132214,1,2,0:0:0:0:
192,192,132214,1,0,0:0:0:0:
320,192,132473,1,2,0:0:0:0:
448,192,132473,1,8,0:0:0:0:
64,192,132602,1,2,0:0:0:0:
192,192,132667,1,2,0:0:0:0:
320,192,132731,1,2,0:0:0:0:
448,192,132731,1,0,0:0:0:0:
192,192,132990,1,8,0:0:0:0:
448,192,132990,1,2,0:0:0:0:
64,192,133249,1,2,0:0:0:0:
320,192,133249,1,0,0:0:0:0:
64,192,133507,1,8,0:0:0:0:
192,192,133507,1,2,0:0:0:0:
320,192,133766,1,2,0:0:0:0:
448,192,133766,1,0,0:0:0:0:
64,192,134024,1,8,0:0:0:0:
192,192,134024,1,2,0:0:0:0:
448,192,134154,1,2,0:0:0:0:
320,192,134218,1,2,0:0:0:0:
64,192,134283,1,2,0:0:0:0:
192,192,134283,1,0,0:0:0:0:
448,192,134412,1,2,0:0:0:0:
64,192,134542,1,2,0:0:0:0:
192,192,134542,1,8,0:0:0:0:
320,192,134800,1,2,0:0:0:0:
448,192,134800,1,4,0:0:0:0:
64,192,135059,1,8,0:0:0:0:
320,192,135059,1,2,0:0:0:0:
64,192,135318,1,2,0:0:0:0:
448,192,135318,1,0,0:0:0:0:
192,192,135576,1,8,0:0:0:0:
448,192,135576,1,2,0:0:0:0:
64,192,135835,1,2,0:0:0:0:
192,192,135835,1,0,0:0:0:0:
320,192,136093,1,2,0:0:0:0:
448,192,136093,1,8,0:0:0:0:
192,192,136352,1,2,0:0:0:0:
448,192,136352,1,0,0:0:0:0:
64,192,136611,1,2,0:0:0:0:
192,192,136611,1,8,0:0:0:0:
448,192,136740,1,2,0:0:0:0:
320,192,136805,1,2,0:0:0:0:
64,192,136869,1,2,0:0:0:0:
192,192,136869,1,4,0:0:0:0:
320,192,137128,1,2,0:0:0:0:
448,192,137128,1,8,0:0:0:0:
64,192,137386,1,2,0:0:0:0:
448,192,137386,1,0,0:0:0:0:
64,192,137645,1,2,0:0:0:0:
192,192,137645,1,8,0:0:0:0:
320,192,137904,1,2,0:0:0:0:
448,192,137904,1,0,0:0:0:0:
64,192,138033,1,2,0:0:0:0:
192,192,138033,1,0,0:0:0:0:
320,192,138162,1,2,0:0:0:0:
448,192,138162,1,8,0:0:0:0:
64,192,138421,1,2,0:0:0:0:
192,192,138421,1,0,0:0:0:0:
320,192,138550,1,2,0:0:0:0:
448,192,138550,1,0,0:0:0:0:
64,192,138680,1,0,0:0:0:60:LR_Snare Wet.wav
192,192,138680,128,0,138938:0:0:0:0:
320,192,138938,1,2,0:0:0:0:
448,192,138938,1,4,0:0:0:0:
64,192,139197,1,2,0:0:0:0:
448,192,139197,1,8,0:0:0:0:
64,192,139455,1,2,0:0:0:0:
192,192,139455,1,0,0:0:0:0:
192,192,139714,1,2,0:0:0:0:
448,192,139714,1,8,0:0:0:0:
320,192,139973,1,2,0:0:0:0:
448,192,139973,1,0,0:0:0:0:
64,192,140231,1,2,0:0:0:0:
320,192,140231,1,8,0:0:0:0:
64,192,140490,1,2,0:0:0:0:
192,192,140490,1,0,0:0:0:0:
320,192,140749,1,2,0:0:0:0:
448,192,140749,1,8,0:0:0:0:
64,192,140878,1,2,0:0:0:0:
192,192,140943,1,2,0:0:0:0:
320,192,141007,1,2,0:0:0:0:
448,192,141007,1,0,0:0:0:0:
64,192,141266,1,2,0:0:0:0:
192,192,141266,1,8,0:0:0:0:
64,192,141524,1,2,0:0:0:0:
320,192,141524,1,0,0:0:0:0:
320,192,141783,1,2,0:0:0:0:
448,192,141783,1,8,0:0:0:0:
320,192,142688,1,2,0:0:0:0:
64,192,142818,128,8,143076:0:0:0:0:
192,192,142818,1,0,0:0:0:0:
320,192,143076,1,2,0:0:0:0:
448,192,143076,1,4,0:0:0:0:
448,192,143335,1,2,0:0:0:0:
448,192,143593,1,2,0:0:0:0:
448,192,143852,1,2,0:0:0:0:
64,192,144111,1,2,0:0:0:0:
64,192,144369,1,2,0:0:0:0:
64,192,144628,1,2,0:0:0:0:
64,192,144886,1,2,0:0:0:0:
320,192,145145,1,2,0:0:0:0:
320,192,145404,1,2,0:0:0:0:
320,192,145662,1,2,0:0:0:0:
320,192,145921,1,2,0:0:0:0:
192,192,146180,1,2,0:0:0:0:
192,192,146438,1,2,0:0:0:0:
192,192,146697,1,2,0:0:0:0:
192,192,146955,1,2,0:0:0:0:
320,192,147214,1,2,0:0:0:0:
448,192,147214,1,0,0:0:0:20:B5R.wav
448,192,147473,1,2,0:0:0:0:
448,192,147731,1,2,0:0:0:0:
448,192,147990,1,2,0:0:0:0:
64,192,148249,1,2,0:0:0:0:
64,192,148507,1,2,0:0:0:0:
64,192,148766,1,2,0:0:0:0:
64,192,149024,1,2,0:0:0:0:
320,192,149283,1,2,0:0:0:0:
320,192,149542,1,2,0:0:0:0:
320,192,149800,1,2,0:0:0:0:
320,192,150059,1,2,0:0:0:0:
192,192,150318,1,2,0:0:0:0:
192,192,150576,1,2,0:0:0:0:
192,192,150835,1,2,0:0:0:0:
192,192,151093,1,2,0:0:0:0:
64,192,151352,1,6,0:0:0:0:
192,192,151481,1,0,0:0:0:0:
448,192,151611,1,0,0:0:0:0:
192,192,151740,1,0,0:0:0:0:
448,192,151869,1,0,0:0:0:0:
192,192,151999,1,0,0:0:0:0:
320,192,152128,128,0,152386:0:0:0:0:
192,192,152386,128,0,152645:0:0:0:0:
448,192,152645,128,0,152904:0:0:0:0:
64,192,152904,1,0,0:0:0:0:
320,192,153033,1,0,0:0:0:0:
192,192,153162,128,0,153292:0:0:0:0:
448,192,153292,128,0,153421:0:0:0:0:
64,192,153421,1,0,0:0:0:0:
192,192,153550,1,0,0:0:0:0:
448,192,153680,1,0,0:0:0:0:
192,192,153809,1,0,0:0:0:0:
448,192,153938,1,0,0:0:0:0:
192,192,154068,1,0,0:0:0:0:
320,192,154197,128,0,154455:0:0:0:0:
192,192,154455,128,0,154714:0:0:0:0:
448,192,154714,128,0,154973:0:0:0:0:
192,192,154973,1,0,0:0:0:0:
64,192,155102,1,0,0:0:0:0:
320,192,155231,128,0,155490:0:0:0:0:
64,192,155490,1,2,0:0:0:0:
192,192,155619,1,0,0:0:0:0:
448,192,155749,1,0,0:0:0:0:
192,192,155878,1,0,0:0:0:0:
448,192,156007,1,0,0:0:0:0:
192,192,156136,1,0,0:0:0:0:
320,192,156266,128,0,156524:0:0:0:0:
192,192,156524,128,0,156783:0:0:0:0:
448,192,156783,128,0,157042:0:0:0:0:
64,192,157042,1,0,0:0:0:0:
320,192,157171,1,0,0:0:0:0:
192,192,157300,128,0,157430:0:0:0:0:
448,192,157430,128,0,157559:0:0:0:0:
64,192,157559,1,0,0:0:0:0:
192,192,157688,1,0,0:0:0:0:
448,192,157818,1,0,0:0:0:0:
192,192,157947,1,0,0:0:0:0:
448,192,158076,1,0,0:0:0:0:
192,192,158205,1,0,0:0:0:0:
320,192,158335,1,0,0:0:0:0:
448,192,158464,1,0,0:0:0:0:
64,192,159628,1,2,0:0:0:0:
448,192,159628,1,4,0:0:0:0:
192,192,159886,1,0,0:0:0:0:
320,192,160016,1,0,0:0:0:0:
448,192,160145,1,0,0:0:0:0:
64,192,160274,1,0,0:0:0:0:
320,192,160404,1,0,0:0:0:0:
192,192,160533,1,0,0:0:0:0:
448,192,160792,1,0,0:0:0:0:
320,192,160921,1,0,0:0:0:0:
192,192,161050,1,0,0:0:0:0:
448,192,161180,1,0,0:0:0:0:
64,192,161309,1,0,0:0:0:0:
192,192,161438,1,0,0:0:0:0:
320,192,161568,1,0,0:0:0:0:
64,192,161697,1,0,0:0:0:0:
320,192,161955,1,0,0:0:0:0:
448,192,162085,1,0,0:0:0:0:
192,192,162214,1,0,0:0:0:0:
320,192,162343,1,0,0:0:0:0:
64,192,162602,1,0,0:0:0:0:
320,192,162861,1,0,0:0:0:0:
192,192,162990,1,0,0:0:0:0:
448,192,163119,1,0,0:0:0:0:
320,192,163249,1,0,0:0:0:0:
64,192,163378,1,0,0:0:0:0:
192,192,163507,1,0,0:0:0:0:
320,192,163636,1,0,0:0:0:0:
448,192,163766,1,0,0:0:0:0:
192,192,164024,1,0,0:0:0:0:
320,192,164154,1,0,0:0:0:0:
64,192,164283,1,0,0:0:0:0:
192,192,164412,1,0,0:0:0:0:
320,192,164671,1,0,0:0:0:0:
64,192,164930,1,0,0:0:0:0:
448,192,165059,1,0,0:0:0:0:
320,192,165188,1,0,0:0:0:0:
192,192,165318,1,0,0:0:0:0:
448,192,165447,1,0,0:0:0:0:
64,192,165576,1,0,0:0:0:0:
192,192,165705,1,0,0:0:0:0:
320,192,165835,1,0,0:0:0:0:
192,192,166093,1,0,0:0:0:0:
448,192,166223,1,0,0:0:0:0:
64,192,166352,1,0,0:0:0:0:
320,192,166611,1,0,0:0:0:0:
64,192,166740,1,0,0:0:0:0:
448,192,166999,1,0,0:0:0:0:
192,192,167128,1,0,0:0:0:0:
320,192,167257,1,0,0:0:0:0:
64,192,167386,1,0,0:0:0:0:
192,192,167516,1,0,0:0:0:0:
320,192,167645,1,0,0:0:0:0:
192,192,167774,1,0,0:0:0:0:
64,192,167904,1,2,0:0:0:0:
448,192,167904,1,4,0:0:0:0:
320,192,168162,1,0,0:0:0:0:
448,192,168292,1,0,0:0:0:0:
64,192,168421,1,8,0:0:0:0:
192,192,168421,1,0,0:0:0:0:
320,192,168550,1,0,0:0:0:0:
64,192,168680,1,0,0:0:0:0:
448,192,168809,1,0,0:0:0:0:
192,192,169068,1,0,0:0:0:0:
64,192,169197,1,2,0:0:0:0:
320,192,169197,1,0,0:0:0:0:
448,192,169326,1,0,0:0:0:0:
192,192,169455,1,8,0:0:0:0:
320,192,169585,1,0,0:0:0:0:
64,192,169714,1,0,0:0:0:0:
192,192,169843,1,0,0:0:0:0:
320,192,169973,1,2,0:0:0:0:
448,192,169973,1,0,0:0:0:0:
64,192,170231,1,0,0:0:0:0:
320,192,170361,1,0,0:0:0:0:
192,192,170490,1,8,0:0:0:0:
448,192,170490,1,0,0:0:0:0:
64,192,170619,1,0,0:0:0:0:
320,192,170749,1,0,0:0:0:0:
192,192,170878,1,0,0:0:0:0:
320,192,171136,1,0,0:0:0:0:
64,192,171266,1,2,0:0:0:0:
448,192,171266,1,0,0:0:0:0:
192,192,171395,1,0,0:0:0:0:
320,192,171524,1,8,0:0:0:0:
64,192,171654,1,0,0:0:0:0:
320,192,171783,1,0,0:0:0:0:
192,192,171912,1,0,0:0:0:0:
64,192,172042,1,2,0:0:0:0:
448,192,172042,1,0,0:0:0:0:
320,192,172300,1,0,0:0:0:0:
448,192,172430,1,0,0:0:0:0:
64,192,172559,1,8,0:0:0:0:
192,192,172559,1,0,0:0:0:0:
320,192,172688,1,0,0:0:0:0:
64,192,172818,1,0,0:0:0:0:
448,192,172947,1,0,0:0:0:0:
192,192,173205,1,0,0:0:0:0:
320,192,173335,1,2,0:0:0:0:
448,192,173335,1,0,0:0:0:0:
64,192,173464,1,0,0:0:0:0:
448,192,173593,1,8,0:0:0:0:
192,192,173723,1,0,0:0:0:0:
64,192,173852,1,0,0:0:0:0:
320,192,173981,1,0,0:0:0:0:
192,192,174111,1,2,0:0:0:0:
448,192,174111,1,0,0:0:0:0:
448,192,174369,1,0,0:0:0:0:
192,192,174499,1,0,0:0:0:0:
64,192,174628,1,8,0:0:0:0:
320,192,174628,1,0,0:0:0:0:
448,192,174757,1,0,0:0:0:0:
192,192,174886,1,0,0:0:0:0:
320,192,175016,1,0,0:0:0:0:
448,192,175274,1,0,0:0:0:0:
64,192,175404,1,2,0:0:0:0:
192,192,175404,1,0,0:0:0:0:
320,192,175533,1,0,0:0:0:0:
64,192,175662,1,8,0:0:0:0:
448,192,175792,1,0,0:0:0:0:
320,192,175921,1,0,0:0:0:0:
192,192,176050,1,0,0:0:0:0:
64,192,176180,1,6,0:0:0:0:
448,192,176180,1,0,0:0:0:35:LR_Clap Normal.wav
320,192,176309,1,0,0:0:0:0:
192,192,176438,128,0,176697:0:0:0:0:
320,192,176697,1,0,0:0:0:35:LR_Clap Normal.wav
448,192,176826,1,0,0:0:0:0:
64,192,176955,128,0,177085:0:0:0:0:
320,192,177085,1,0,0:0:0:0:
64,192,177214,1,0,0:0:0:35:LR_Clap Normal.wav
192,192,177343,1,0,0:0:0:0:
320,192,177473,128,0,177731:0:0:0:0:
192,192,177731,1,0,0:0:0:35:LR_Clap Normal.wav
64,192,177861,1,0,0:0:0:0:
448,192,177990,128,0,178119:0:0:0:0:
192,192,178119,1,0,0:0:0:0:
448,192,178249,1,0,0:0:0:35:LR_Clap Normal.wav
320,192,178378,1,0,0:0:0:0:
64,192,178507,128,0,178766:0:0:0:0:
448,192,178766,1,0,0:0:0:35:LR_Clap Normal.wav
320,192,178895,1,0,0:0:0:0:
64,192,179024,128,0,179154:0:0:0:0:
448,192,179154,1,0,0:0:0:0:
64,192,179283,1,0,0:0:0:35:LR_Clap Normal.wav
192,192,179412,1,0,0:0:0:0:
448,192,179542,128,0,179800:0:0:0:0:
64,192,179800,1,0,0:0:0:35:LR_Clap Normal.wav
192,192,179930,1,0,0:0:0:0:
448,192,180059,128,0,180188:0:0:0:0:
64,192,180188,1,0,0:0:0:0:
448,192,180318,1,0,0:0:0:35:LR_Clap Normal.wav
320,192,180447,1,0,0:0:0:0:
192,192,180576,128,0,180835:0:0:0:0:
320,192,180835,1,0,0:0:0:35:LR_Clap Normal.wav
448,192,180964,1,0,0:0:0:0:
64,192,181093,128,0,181223:0:0:0:0:
320,192,181223,1,0,0:0:0:0:
64,192,181352,1,0,0:0:0:35:LR_Clap Normal.wav
192,192,181481,1,0,0:0:0:0:
320,192,181611,128,0,181869:0:0:0:0:
192,192,181869,1,0,0:0:0:35:LR_Clap Normal.wav
64,192,181999,1,0,0:0:0:0:
448,192,182128,128,0,182257:0:0:0:0:
192,192,182257,1,0,0:0:0:0:
448,192,182386,1,0,0:0:0:35:LR_Clap Normal.wav
320,192,182516,1,0,0:0:0:0:
64,192,182645,128,0,182904:0:0:0:0:
448,192,182904,1,0,0:0:0:35:LR_Clap Normal.wav
320,192,183033,1,0,0:0:0:0:
64,192,183162,128,0,183292:0:0:0:0:
448,192,183292,1,0,0:0:0:0:
64,192,183421,1,0,0:0:0:35:LR_Clap Normal.wav
192,192,183550,1,0,0:0:0:0:
448,192,183680,128,0,183938:0:0:0:0:
64,192,183938,1,0,0:0:0:35:LR_Clap Normal.wav
192,192,184068,1,0,0:0:0:0:
448,192,184197,128,0,184326:0:0:0:0:
64,192,184326,1,0,0:0:0:0:
320,192,184455,128,2,184585:0:0:0:0:
448,192,184455,1,0,0:0:0:0:
64,192,184714,128,8,184843:0:0:0:0:
320,192,184843,128,0,184973:0:0:0:0:
448,192,184973,128,8,185102:0:0:0:0:
192,192,185102,128,0,185231:0:0:0:0:
64,192,185231,128,8,185361:0:0:0:0:
320,192,185361,128,0,185490:0:0:0:0:
448,192,185619,128,0,185749:0:0:0:0:
320,192,185749,128,8,185878:0:0:0:0:
192,192,185878,128,0,186007:0:0:0:0:
320,192,186007,128,8,186136:0:0:0:0:
64,192,186136,128,0,186266:0:0:0:0:
448,192,186266,128,8,186395:0:0:0:0:
192,192,186395,128,0,186524:0:0:0:0:
320,192,186524,128,8,186654:0:0:0:0:
64,192,186783,128,8,186912:0:0:0:0:
192,192,186912,128,0,187042:0:0:0:0:
448,192,187042,128,8,187171:0:0:0:0:
320,192,187171,128,0,187300:0:0:0:0:
64,192,187300,128,8,187430:0:0:0:0:
192,192,187430,128,0,187559:0:0:0:0:
448,192,187688,128,0,187818:0:0:0:0:
320,192,187818,128,8,187947:0:0:0:0:
64,192,187947,128,0,188076:0:0:0:0:
448,192,188076,128,8,188205:0:0:0:0:
320,192,188205,128,0,188335:0:0:0:0:
64,192,188335,128,8,188464:0:0:0:0:
448,192,188464,128,0,188593:0:0:0:0:
192,192,188593,1,10,0:0:0:0:
320,192,188723,1,2,0:0:0:0:
448,192,188852,1,10,0:0:0:0:
192,192,188981,1,2,0:0:0:0:
320,192,189111,1,10,0:0:0:0:
64,192,189240,1,2,0:0:0:0:
192,192,189369,1,10,0:0:0:0:
448,192,189499,1,2,0:0:0:0:
192,192,189628,1,10,0:0:0:0:
320,192,189757,1,2,0:0:0:0:
448,192,189886,1,10,0:0:0:0:
64,192,190016,1,2,0:0:0:0:
192,192,190145,1,10,0:0:0:0:
320,192,190274,1,2,0:0:0:0:
64,192,190404,1,10,0:0:0:0:
192,192,190533,1,2,0:0:0:0:
320,192,190662,1,2,0:0:0:0:
448,192,190662,128,0,190921:0:0:0:0:
64,192,191697,1,2,0:0:0:0:
192,192,191697,1,0,0:0:0:0:
192,192,191955,1,2,0:0:0:0:
320,192,191955,1,0,0:0:0:0:
320,192,192214,1,8,0:0:0:0:
448,192,192214,1,0,0:0:0:0:
64,192,192473,128,8,192731:0:0:0:0:
192,192,192473,1,0,0:0:0:0:
320,192,192731,1,2,0:0:0:0:
448,192,192731,128,0,194800:0:0:0:0:
192,192,192861,1,2,0:0:0:0:
320,192,192990,1,2,0:0:0:0:
64,192,193119,1,2,0:0:0:0:
192,192,193249,1,2,0:0:0:0:
64,192,193378,1,2,0:0:0:0:
320,192,193507,1,2,0:0:0:0:
64,192,193636,1,2,0:0:0:0:
192,192,193766,1,2,0:0:0:0:
320,192,193895,1,2,0:0:0:0:
64,192,194024,1,2,0:0:0:0:
320,192,194154,1,2,0:0:0:0:
64,192,194283,1,2,0:0:0:0:
192,192,194412,1,2,0:0:0:0:
320,192,194542,128,10,194800:0:0:0:0:
192,192,194800,1,6,0:0:0:0:
64,192,194930,1,2,0:0:0:0:
448,192,195059,128,0,195188:0:0:0:20:LR_Kick Beat Drop.wav
192,192,195188,1,2,0:0:0:0:
320,192,195318,128,0,195447:0:0:0:20:LR_Kick Beat Drop.wav
64,192,195447,1,2,0:0:0:0:
192,192,195576,1,2,0:0:0:0:
448,192,195705,1,2,0:0:0:0:
64,192,195835,1,6,0:0:0:0:
320,192,195964,128,0,196093:0:0:0:20:LR_Kick Beat Drop.wav
192,192,196093,1,2,0:0:0:0:
64,192,196223,1,2,0:0:0:0:
320,192,196352,128,0,196481:0:0:0:20:LR_Kick Beat Drop.wav
192,192,196481,1,2,0:0:0:0:
64,192,196611,1,2,0:0:0:0:
320,192,196740,128,0,196869:0:0:0:20:LR_Kick Beat Drop.wav
64,192,196869,128,2,198938:0:0:0:0:
192,192,196869,1,0,0:0:0:0:
448,192,196999,1,2,0:0:0:0:
320,192,197128,1,2,0:0:0:0:
192,192,197257,1,2,0:0:0:0:
320,192,197386,1,2,0:0:0:0:
448,192,197516,1,2,0:0:0:0:
192,192,197645,1,2,0:0:0:0:
448,192,197774,1,2,0:0:0:0:
192,192,197904,1,2,0:0:0:0:
320,192,198033,1,2,0:0:0:0:
448,192,198162,1,2,0:0:0:0:
192,192,198292,1,2,0:0:0:0:
448,192,198421,1,2,0:0:0:0:
320,192,198550,1,2,0:0:0:0:
192,192,198680,128,10,198938:0:0:0:0:
320,192,198938,1,6,0:0:0:0:
64,192,199068,1,2,0:0:0:0:
320,192,199197,128,0,199326:0:0:0:20:LR_Kick Beat Drop.wav
192,192,199326,1,2,0:0:0:0:
448,192,199455,128,0,199585:0:0:0:20:LR_Kick Beat Drop.wav
64,192,199585,1,2,0:0:0:0:
320,192,199714,1,2,0:0:0:0:
192,192,199843,1,2,0:0:0:0:
448,192,199973,1,2,0:0:0:0:
320,192,200102,128,0,200231:0:0:0:20:LR_Kick Beat Drop.wav
192,192,200231,1,2,0:0:0:0:
64,192,200361,1,2,0:0:0:0:
320,192,200490,128,0,200619:0:0:0:20:LR_Kick Beat Drop.wav
192,192,200619,1,2,0:0:0:0:
64,192,200749,1,2,0:0:0:0:
320,192,200878,128,0,201007:0:0:0:20:LR_Kick Beat Drop.wav
64,192,201007,1,2,0:0:0:0:
192,192,201136,1,2,0:0:0:0:
320,192,201266,1,2,0:0:0:0:
448,192,201395,1,2,0:0:0:0:
64,192,201524,1,2,0:0:0:0:
448,192,201654,1,2,0:0:0:0:
64,192,201783,1,2,0:0:0:0:
192,192,201912,128,0,202042:0:0:0:20:LR_Kick Beat Drop.wav
448,192,202042,1,2,0:0:0:0:
320,192,202171,1,2,0:0:0:0:
192,192,202300,1,2,0:0:0:0:
64,192,202430,1,2,0:0:0:0:
448,192,202559,1,2,0:0:0:0:
64,192,202688,1,2,0:0:0:0:
448,192,202818,128,10,203076:0:0:0:0:
192,192,203076,128,0,203205:0:0:0:20:LR_Kick Beat Drop.wav
320,192,203205,1,2,0:0:0:0:
64,192,203335,1,2,0:0:0:0:
448,192,203464,1,2,0:0:0:0:
64,192,203593,1,2,0:0:0:0:
320,192,203723,1,2,0:0:0:0:
192,192,203852,1,0,0:0:0:20:LR_Kick Beat Drop.wav
320,192,203981,128,0,204111:0:0:0:20:LR_Kick Beat Drop.wav
64,192,204111,1,2,0:0:0:0:
192,192,204240,1,2,0:0:0:0:
320,192,204369,1,2,0:0:0:0:
64,192,204499,1,2,0:0:0:0:
448,192,204628,1,2,0:0:0:0:
64,192,204757,1,2,0:0:0:0:
448,192,204886,128,0,205145:0:0:0:20:LR_Kick Beat Drop.wav
64,192,205145,1,2,0:0:0:0:
192,192,205274,1,2,0:0:0:0:
320,192,205404,1,2,0:0:0:0:
448,192,205533,1,2,0:0:0:0:
64,192,205662,1,2,0:0:0:0:
448,192,205792,1,2,0:0:0:0:
64,192,205921,1,2,0:0:0:0:
192,192,206050,128,0,206180:0:0:0:20:LR_Kick Beat Drop.wav
448,192,206180,1,2,0:0:0:0:
320,192,206309,1,2,0:0:0:0:
192,192,206438,1,2,0:0:0:0:
448,192,206568,1,2,0:0:0:0:
64,192,206697,1,2,0:0:0:0:
448,192,206826,1,2,0:0:0:0:
64,192,206955,128,10,207214:0:0:0:0:
448,192,207214,1,2,0:0:0:0:
320,192,207343,1,2,0:0:0:0:
192,192,207473,128,2,207731:0:0:0:0:
448,192,207731,1,2,0:0:0:0:
320,192,207861,1,2,0:0:0:0:
192,192,207990,128,2,208249:0:0:0:0:
448,192,208249,1,0,0:0:0:0:
320,192,208378,1,0,0:0:0:0:
64,192,208507,1,0,0:0:0:0:
192,192,208636,1,0,0:0:0:0:
320,192,208766,1,0,0:0:0:0:
64,192,208895,1,2,0:0:0:0:
448,192,209024,128,8,209283:0:0:0:0:
64,192,209283,1,4,0:0:0:0:
192,192,209412,1,0,0:0:0:0:
320,192,209542,128,0,209800:0:0:0:0:
64,192,209800,1,0,0:0:0:35:LR_Clap Normal.wav
192,192,209930,1,0,0:0:0:0:
320,192,210059,128,0,210188:0:0:0:0:
192,192,210318,1,0,0:0:0:35:LR_Clap Normal.wav
320,192,210447,1,0,0:0:0:0:
448,192,210576,128,0,210835:0:0:0:0:
192,192,210835,1,0,0:0:0:35:LR_Clap Normal.wav
320,192,210964,1,0,0:0:0:0:
448,192,211093,128,0,211223:0:0:0:0:
192,192,211352,1,0,0:0:0:35:LR_Clap Normal.wav
320,192,211481,1,0,0:0:0:0:
64,192,211611,128,0,211869:0:0:0:0:
320,192,211869,1,0,0:0:0:35:LR_Clap Normal.wav
192,192,211999,1,0,0:0:0:0:
448,192,212128,128,0,212257:0:0:0:0:
192,192,212386,1,0,0:0:0:35:LR_Clap Normal.wav
320,192,212516,1,0,0:0:0:0:
64,192,212645,128,0,212904:0:0:0:0:
448,192,212904,128,0,213421:0:0:0:35:LR_Clap Normal.wav
64,192,213421,1,0,0:0:0:35:LR_Clap Normal.wav
192,192,213550,1,0,0:0:0:0:
320,192,213680,128,0,213938:0:0:0:0:
64,192,213938,1,0,0:0:0:35:LR_Clap Normal.wav
192,192,214068,1,0,0:0:0:0:
320,192,214197,128,0,214326:0:0:0:0:
192,192,214455,1,0,0:0:0:35:LR_Clap Normal.wav
320,192,214585,1,0,0:0:0:0:
448,192,214714,128,0,214973:0:0:0:0:
192,192,214973,1,0,0:0:0:35:LR_Clap Normal.wav
320,192,215102,1,0,0:0:0:0:
448,192,215231,128,0,215361:0:0:0:0:
192,192,215490,1,0,0:0:0:35:LR_Clap Normal.wav
320,192,215619,1,0,0:0:0:40:LR_Kick Beat Drop.wav
64,192,215749,128,0,216007:0:0:0:40:LR_Kick Beat Drop.wav
320,192,216007,1,0,0:0:0:35:LR_Clap Normal.wav
192,192,216136,1,0,0:0:0:40:LR_Kick Beat Drop.wav
448,192,216266,128,0,216395:0:0:0:40:LR_Kick Beat Drop.wav
64,192,216524,1,2,0:0:0:0:
192,192,216524,1,0,0:0:0:0:
64,192,216783,1,2,0:0:0:0:
192,192,216783,1,0,0:0:0:0:
320,192,217042,1,8,0:0:0:0:
448,192,217042,1,0,0:0:0:0:
320,192,217300,1,8,0:0:0:0:
448,192,217300,128,0,217559:0:0:0:0:
64,192,217559,128,2,217818:0:0:0:0:
192,192,217559,1,4,0:0:0:0:
320,192,217818,1,8,0:0:0:0:
448,192,217818,128,2,218076:0:0:0:0:
64,192,218076,1,2,0:0:0:0:
192,192,218205,1,0,0:0:0:0:
448,192,218335,1,10,0:0:0:0:
320,192,218464,1,0,0:0:0:0:
64,192,218593,1,2,0:0:0:0:
192,192,218593,1,0,0:0:0:0:
64,192,218852,1,2,0:0:0:0:
448,192,218852,1,8,0:0:0:0:
320,192,219111,1,2,0:0:0:0:
192,192,219240,1,0,0:0:0:0:
448,192,219369,1,10,0:0:0:0:
320,192,219499,1,0,0:0:0:0:
64,192,219628,128,2,219886:0:0:0:0:
192,192,219628,1,0,0:0:0:0:
320,192,219886,1,2,0:0:0:0:
448,192,219886,128,8,220145:0:0:0:0:
64,192,220145,1,2,0:0:0:0:
192,192,220274,1,0,0:0:0:0:
320,192,220404,1,10,0:0:0:0:
448,192,220533,1,0,0:0:0:0:
64,192,220662,1,2,0:0:0:0:
192,192,220662,1,0,0:0:0:0:
192,192,220921,1,2,0:0:0:0:
448,192,220921,1,8,0:0:0:0:
64,192,221180,1,2,0:0:0:0:
192,192,221309,1,0,0:0:0:0:
320,192,221438,1,10,0:0:0:0:
192,192,221568,1,2,0:0:0:0:
64,192,221697,1,2,0:0:0:0:
448,192,221697,128,0,221955:0:0:0:0:
192,192,221955,128,2,222214:0:0:0:0:
320,192,221955,1,8,0:0:0:0:
448,192,222214,1,2,0:0:0:0:
320,192,222343,1,0,0:0:0:0:
64,192,222473,1,10,0:0:0:0:
192,192,222602,1,0,0:0:0:0:
320,192,222731,1,2,0:0:0:0:
448,192,222731,1,0,0:0:0:0:
64,192,222990,1,2,0:0:0:0:
448,192,222990,1,8,0:0:0:0:
192,192,223249,1,2,0:0:0:0:
448,192,223378,1,0,0:0:0:0:
320,192,223507,1,10,0:0:0:0:
192,192,223636,1,0,0:0:0:0:
64,192,223766,1,2,0:0:0:0:
448,192,223766,128,0,224024:0:0:0:0:
192,192,224024,128,2,224283:0:0:0:0:
320,192,224024,1,8,0:0:0:0:
448,192,224283,1,2,0:0:0:0:
320,192,224412,1,0,0:0:0:0:
64,192,224542,1,10,0:0:0:0:
192,192,224671,1,0,0:0:0:0:
448,192,224800,128,0,225318:0:0:0:0:
192,192,225318,1,0,0:0:0:70:LR_Kick Beat Drop.wav
320,192,225447,1,2,0:0:0:0:
64,192,225576,128,8,225835:0:0:0:0:
448,192,225576,1,0,0:0:0:0:
320,192,225835,128,6,225964:0:0:0:0:
192,192,225964,1,2,0:0:0:0:
448,192,226093,1,2,0:0:0:0:
64,192,226223,1,2,0:0:0:0:
192,192,226352,1,2,0:0:0:0:
320,192,226481,1,2,0:0:0:0:
448,192,226611,128,2,226869:0:0:0:0:
64,192,226869,128,2,226999:0:0:0:0:
192,192,226999,1,2,0:0:0:0:
448,192,227128,128,2,227257:0:0:0:0:
320,192,227257,1,2,0:0:0:0:
64,192,227386,1,2,0:0:0:0:
192,192,227516,1,2,0:0:0:0:
320,192,227645,128,2,227904:0:0:0:0:
448,192,227904,128,6,228033:0:0:0:0:
64,192,228033,1,2,0:0:0:0:
320,192,228162,1,2,0:0:0:0:
192,192,228292,1,2,0:0:0:0:
448,192,228421,1,2,0:0:0:0:
320,192,228550,1,2,0:0:0:0:
192,192,228680,128,2,228938:0:0:0:0:
64,192,228938,128,2,229068:0:0:0:0:
448,192,229068,1,2,0:0:0:0:
320,192,229197,1,2,0:0:0:0:
192,192,229326,1,2,0:0:0:0:
320,192,229455,128,2,229585:0:0:0:0:
448,192,229585,128,0,229714:0:0:0:20:LR_Kick Beat Drop.wav
192,192,229714,128,8,229843:0:0:0:0:
64,192,229843,128,0,229973:0:0:0:0:
320,192,229973,128,6,230102:0:0:0:0:
192,192,230102,128,0,230231:0:0:0:20:LR_Kick Beat Drop.wav
448,192,230231,128,2,230361:0:0:0:0:
64,192,230361,128,2,230490:0:0:0:0:
320,192,230490,128,0,230619:0:0:0:20:LR_Kick Beat Drop.wav
192,192,230619,128,2,230749:0:0:0:0:
448,192,230749,128,0,231007:0:0:0:0:
192,192,231007,128,6,231136:0:0:0:0:
320,192,231136,128,0,231266:0:0:0:20:LR_Kick Beat Drop.wav
64,192,231266,128,2,231395:0:0:0:0:
448,192,231395,128,2,231524:0:0:0:0:
192,192,231524,128,2,231654:0:0:0:0:
320,192,231654,128,0,231783:0:0:0:20:LR_Kick Beat Drop.wav
64,192,231783,128,8,232042:0:0:0:0:
192,192,232042,128,6,232171:0:0:0:0:
448,192,232171,128,0,232300:0:0:0:20:LR_Kick Beat Drop.wav
64,192,232300,128,2,232430:0:0:0:0:
320,192,232430,128,2,232559:0:0:0:0:
192,192,232559,128,0,232818:0:0:0:30:LR_Kick Beat Drop.wav
448,192,232818,128,0,233076:0:0:0:20:LR_Kick Beat Drop.wav
320,192,233076,128,2,233335:0:0:0:0:
64,192,233335,1,0,0:0:0:70:LR_Kick Beat Drop.wav
448,192,233464,1,0,0:0:0:70:LR_Kick Beat Drop.wav
64,192,233593,128,8,233852:0:0:0:0:
448,192,233852,128,0,234111:0:0:0:70:LR_Kick Beat Drop.wav
64,192,234111,128,2,234499:0:0:0:0:
192,192,234111,128,4,234499:0:0:0:0:
