osu file format v14

[General]
AudioFilename: audio.ogg
AudioLeadIn: 0
PreviewTime: 126783
Countdown: 0
SampleSet: Soft
StackLeniency: 0.7
Mode: 3
LetterboxInBreaks: 0
SpecialStyle: 0
WidescreenStoryboard: 1

[Editor]
DistanceSpacing: 0.7
BeatDivisor: 4
GridSize: 32
TimelineZoom: 3

[Metadata]
Title:Endless Adventure
TitleUnicode:Endless Adventure
Artist:Kobaryo
ArtistUnicode:Kobaryo
Creator:Crisper
Version:Extra
Source:
Tags:TANO*C TANOC HARDCORE SYNDROME 13 TANOCD-0024 HiTNEX TRAX SUPER DREAM ZONE HNXCD-001 Electronic Speedcore USAO instrumental
BeatmapID:2856905
BeatmapSetID:1342855

[Difficulty]
HPDrainRate:8.5
CircleSize:4
OverallDifficulty:8.3
ApproachRate:5
SliderMultiplier:1.4
SliderTickRate:1

[Events]
//Background and Video events
0,0,"bg3.jpg",0,0
//Break Periods
//Storyboard Layer 0 (Background)
//Storyboard Layer 1 (Fail)
//Storyboard Layer 2 (Pass)
//Storyboard Layer 3 (Foreground)
//Storyboard Layer 4 (Overlay)
//Storyboard Sound Samples
Sample,94973,0,"F#6R_Gb6R.wav",25
Sample,95490,0,"F#6R_Gb6R.wav",25
Sample,97042,0,"A5R.wav",18
Sample,97559,0,"B5R.wav",20
Sample,145533,0,"D6R.wav",18

[TimingPoints]
2387,258.620689655172,4,2,1,100,1,0
39628,-100,4,2,1,100,0,1
46869,-100,4,2,1,100,0,0
47904,-100,4,2,1,100,0,1
56180,-100,4,2,1,100,0,0
60318,-100,4,2,1,100,0,1
64455,-100,4,2,1,100,0,0
68593,-100,4,2,1,100,0,1
72731,-100,4,2,1,100,0,0
109973,-100,4,2,1,100,0,1
118249,-100,4,2,1,100,0,0
120318,-100,4,2,1,100,0,1
126524,-100,4,2,1,100,0,0
128593,-100,4,2,1,100,0,1
143076,-100,4,2,1,100,0,0
192731,-100,4,2,1,100,0,1
209283,-100,4,2,1,100,0,0
217559,-100,4,2,1,100,0,1
234111,-100,4,2,1,100,0,0

[HitObjects]
64,192,2386,5,0,0:0:0:50:BassKickReverb.wav
192,192,2386,1,0,0:0:0:0:
320,192,2386,1,0,0:0:0:0:
448,192,2386,1,0,0:0:0:0:
192,192,4455,128,0,6524:0:0:0:0:
320,192,4455,1,0,0:0:0:0:
64,192,4714,1,0,0:0:0:0:
320,192,4843,1,0,0:0:0:0:
448,192,4973,1,0,0:0:0:0:
320,192,5102,1,0,0:0:0:0:
64,192,5231,1,0,0:0:0:0:
448,192,5361,1,0,0:0:0:0:
64,192,5490,1,0,0:0:0:0:
320,192,5619,1,0,0:0:0:0:
448,192,5749,1,0,0:0:0:0:
64,192,5878,1,0,0:0:0:0:
320,192,6007,1,0,0:0:0:0:
448,192,6136,1,0,0:0:0:0:
320,192,6266,1,0,0:0:0:0:
64,192,6395,1,0,0:0:0:0:
320,192,6524,128,0,8593:0:0:0:0:
448,192,6524,1,0,0:0:0:0:
192,192,6654,1,0,0:0:0:0:
64,192,6783,1,0,0:0:0:0:
448,192,6912,1,0,0:0:0:0:
192,192,7042,1,0,0:0:0:0:
448,192,7171,1,0,0:0:0:0:
64,192,7300,1,0,0:0:0:0:
192,192,7430,1,0,0:0:0:0:
64,192,7559,1,0,0:0:0:0:
448,192,7688,1,0,0:0:0:0:
192,192,7818,1,0,0:0:0:0:
448,192,7947,1,0,0:0:0:0:
192,192,8076,1,0,0:0:0:0:
64,192,8205,1,0,0:0:0:0:
192,192,8335,1,0,0:0:0:0:
448,192,8464,1,0,0:0:0:0:
64,192,8593,1,0,0:0:0:0:
192,192,8593,128,0,10662:0:0:0:0:
320,192,8723,1,0,0:0:0:0:
448,192,8852,1,0,0:0:0:0:
64,192,8981,1,0,0:0:0:0:
448,192,9111,1,0,0:0:0:0:
320,192,9240,1,0,0:0:0:0:
64,192,9369,1,0,0:0:0:0:
448,192,9499,1,0,0:0:0:0:
64,192,9628,1,0,0:0:0:0:
320,192,9757,1,0,0:0:0:0:
448,192,9886,1,0,0:0:0:0:
320,192,10016,1,0,0:0:0:0:
64,192,10145,1,0,0:0:0:0:
448,192,10274,1,0,0:0:0:0:
320,192,10404,1,0,0:0:0:0:
64,192,10533,1,0,0:0:0:0:
320,192,10662,128,2,10792:0:0:0:0:
448,192,10662,128,4,10792:0:0:0:0:
64,192,10792,1,0,0:0:0:0:
192,192,10921,1,0,0:0:0:0:
64,192,11180,1,8,0:0:0:0:
192,192,11180,1,0,0:0:0:0:
448,192,11180,128,0,11438:0:0:0:0:
320,192,11309,128,0,11438:0:0:0:0:
64,192,11438,128,0,11568:0:0:0:0:
448,192,11568,128,0,11826:0:0:0:0:
320,192,11697,1,0,0:0:0:0:
192,192,11826,128,0,12020:0:0:0:0:
64,192,11955,128,2,12085:0:0:0:0:
448,192,11955,1,0,0:0:0:0:
320,192,12085,1,0,0:0:0:0:
192,192,12149,1,0,0:0:0:0:
64,192,12214,1,8,0:0:0:0:
320,192,12214,1,0,0:0:0:0:
448,192,12214,128,0,12473:0:0:0:0:
192,192,12343,1,0,0:0:0:0:
320,192,12473,1,0,0:0:0:0:
448,192,12602,1,0,0:0:0:0:
64,192,12731,128,2,12861:0:0:0:0:
192,192,12731,128,0,12861:0:0:0:0:
320,192,12861,1,0,0:0:0:0:
64,192,12990,1,0,0:0:0:0:
192,192,13249,128,8,13507:0:0:0:0:
320,192,13249,1,0,0:0:0:0:
448,192,13249,1,0,0:0:0:0:
64,192,13378,128,0,13507:0:0:0:0:
320,192,13507,128,0,13636:0:0:0:0:
64,192,13636,128,0,14024:0:0:0:0:
448,192,13766,1,0,0:0:0:0:
192,192,13895,1,0,0:0:0:0:
320,192,14024,1,2,0:0:0:0:
448,192,14024,1,0,0:0:0:0:
192,192,14154,1,0,0:0:0:0:
320,192,14218,1,0,0:0:0:0:
64,192,14283,128,8,14542:0:0:0:0:
192,192,14283,1,0,0:0:0:0:
448,192,14283,1,0,0:0:0:0:
320,192,14412,1,0,0:0:0:0:
192,192,14542,1,0,0:0:0:0:
64,192,14671,1,0,0:0:0:0:
320,192,14800,128,2,14930:0:0:0:0:
448,192,14800,128,0,14930:0:0:0:0:
192,192,14930,1,0,0:0:0:0:
320,192,15059,1,0,0:0:0:0:
64,192,15318,1,8,0:0:0:0:
192,192,15318,1,0,0:0:0:0:
448,192,15318,128,0,15576:0:0:0:0:
320,192,15447,128,0,15576:0:0:0:0:
192,192,15576,128,0,15705:0:0:0:0:
448,192,15705,128,0,15964:0:0:0:0:
192,192,15835,1,0,0:0:0:0:
320,192,15964,1,0,0:0:0:0:
64,192,16093,1,2,0:0:0:0:
192,192,16093,1,0,0:0:0:0:
320,192,16223,1,0,0:0:0:0:
192,192,16287,1,0,0:0:0:0:
64,192,16352,1,8,0:0:0:0:
320,192,16352,128,0,16481:0:0:0:0:
448,192,16352,1,0,0:0:0:0:
192,192,16481,1,0,0:0:0:0:
320,192,16611,128,0,16869:0:0:0:0:
192,192,16740,128,0,16869:0:0:0:0:
64,192,16869,128,2,17257:0:0:0:0:
448,192,16869,128,0,16999:0:0:0:0:
192,192,16999,128,0,17257:0:0:0:0:
320,192,17128,1,0,0:0:0:0:
64,192,17386,1,8,0:0:0:0:
192,192,17386,1,0,0:0:0:0:
448,192,17386,1,0,0:0:0:0:
320,192,17516,1,0,0:0:0:0:
64,192,17645,1,0,0:0:0:0:
448,192,17904,128,0,18162:0:0:0:0:
192,192,18033,1,0,0:0:0:0:
64,192,18162,128,2,18292:0:0:0:0:
320,192,18162,1,0,0:0:0:0:
192,192,18292,1,0,0:0:0:0:
320,192,18356,1,0,0:0:0:0:
64,192,18421,1,8,0:0:0:0:
192,192,18421,1,0,0:0:0:0:
448,192,18421,1,0,0:0:0:0:
320,192,18550,128,0,18680:0:0:0:0:
192,192,18680,1,0,0:0:0:0:
320,192,18809,128,0,19197:0:0:0:0:
64,192,18938,128,2,19068:0:0:0:0:
192,192,18938,128,4,19068:0:0:0:0:
448,192,19068,1,0,0:0:0:0:
192,192,19197,1,0,0:0:0:0:
64,192,19455,1,8,0:0:0:0:
192,192,19455,1,0,0:0:0:0:
320,192,19455,1,0,0:0:0:0:
448,192,19585,1,0,0:0:0:0:
64,192,19714,1,0,0:0:0:0:
320,192,19973,128,0,20231:0:0:0:0:
192,192,20102,1,0,0:0:0:0:
64,192,20231,1,2,0:0:0:0:
448,192,20231,1,0,0:0:0:0:
320,192,20361,1,0,0:0:0:0:
192,192,20425,1,0,0:0:0:0:
64,192,20490,1,8,0:0:0:0:
320,192,20490,1,0,0:0:0:0:
448,192,20490,1,0,0:0:0:0:
192,192,20619,1,0,0:0:0:0:
320,192,20749,1,0,0:0:0:0:
64,192,20878,1,0,0:0:0:0:
192,192,21007,128,2,21266:0:0:0:0:
448,192,21007,128,0,21136:0:0:0:0:
64,192,21136,128,0,21266:0:0:0:0:
320,192,21266,1,0,0:0:0:0:
192,192,21395,128,0,21524:0:0:0:0:
64,192,21524,1,8,0:0:0:0:
320,192,21524,1,0,0:0:0:0:
448,192,21524,1,0,0:0:0:0:
192,192,21654,128,0,21783:0:0:0:0:
448,192,21783,1,0,0:0:0:0:
64,192,22042,128,0,22300:0:0:0:0:
192,192,22171,128,0,22300:0:0:0:0:
320,192,22300,1,2,0:0:0:0:
448,192,22300,1,0,0:0:0:0:
192,192,22430,1,0,0:0:0:0:
320,192,22494,1,0,0:0:0:0:
64,192,22559,1,8,0:0:0:0:
192,192,22559,128,0,22688:0:0:0:0:
448,192,22559,1,0,0:0:0:0:
320,192,22688,128,0,22947:0:0:0:0:
192,192,22818,128,0,23076:0:0:0:0:
64,192,22947,128,0,23076:0:0:0:0:
320,192,23076,128,2,23205:0:0:0:0:
448,192,23076,128,0,23205:0:0:0:0:
192,192,23205,1,0,0:0:0:0:
448,192,23335,128,0,23464:0:0:0:0:
64,192,23464,128,0,23593:0:0:0:0:
192,192,23593,1,8,0:0:0:0:
320,192,23593,1,0,0:0:0:0:
448,192,23593,1,0,0:0:0:0:
64,192,23723,1,0,0:0:0:0:
448,192,23852,128,0,23981:0:0:0:0:
64,192,23981,128,0,24111:0:0:0:0:
448,192,24111,1,0,0:0:0:0:
64,192,24240,1,0,0:0:0:0:
192,192,24369,1,2,0:0:0:0:
448,192,24369,128,0,24499:0:0:0:0:
320,192,24499,1,0,0:0:0:0:
192,192,24563,1,0,0:0:0:0:
64,192,24628,128,8,24886:0:0:0:0:
320,192,24628,1,0,0:0:0:0:
448,192,24628,1,0,0:0:0:0:
192,192,24757,1,0,0:0:0:0:
448,192,24886,128,0,25145:0:0:0:0:
320,192,25016,1,0,0:0:0:0:
64,192,25145,128,2,25662:0:0:0:0:
192,192,25145,128,0,25274:0:0:0:0:
320,192,25274,1,0,0:0:0:0:
448,192,25404,1,0,0:0:0:0:
192,192,25662,1,8,0:0:0:0:
320,192,25662,1,0,0:0:0:0:
448,192,25662,1,0,0:0:0:0:
64,192,25792,1,0,0:0:0:0:
320,192,25921,1,0,0:0:0:0:
448,192,26180,128,0,26438:0:0:0:0:
192,192,26309,1,0,0:0:0:0:
64,192,26438,128,2,26568:0:0:0:0:
320,192,26438,1,0,0:0:0:0:
192,192,26568,1,0,0:0:0:0:
320,192,26632,1,0,0:0:0:0:
64,192,26697,1,8,0:0:0:0:
192,192,26697,1,0,0:0:0:0:
448,192,26697,1,0,0:0:0:0:
320,192,26826,128,0,26955:0:0:0:0:
192,192,26955,1,0,0:0:0:0:
320,192,27085,128,0,27214:0:0:0:0:
64,192,27214,1,6,0:0:0:0:
192,192,27214,1,0,0:0:0:35:LR_Clap Normal.wav
192,192,27343,1,0,0:0:0:0:
320,192,27473,1,2,0:0:0:0:
448,192,27473,1,0,0:0:0:35:LR_Clap Normal.wav
320,192,27602,1,0,0:0:0:0:
64,192,27731,1,2,0:0:0:0:
192,192,27731,1,0,0:0:0:35:LR_Clap Normal.wav
192,192,27861,1,0,0:0:0:0:
64,192,27990,1,2,0:0:0:0:
320,192,27990,1,0,0:0:0:35:LR_Clap Normal.wav
320,192,28119,1,0,0:0:0:0:
192,192,28249,1,2,0:0:0:0:
448,192,28249,1,0,0:0:0:35:LR_Clap Normal.wav
192,192,28378,1,0,0:0:0:0:
64,192,28507,1,2,0:0:0:0:
448,192,28507,1,0,0:0:0:35:LR_Clap Normal.wav
448,192,28636,1,0,0:0:0:0:
192,192,28766,1,2,0:0:0:0:
320,192,28766,1,0,0:0:0:35:LR_Clap Normal.wav
192,192,28895,1,0,0:0:0:0:
320,192,29024,1,2,0:0:0:0:
448,192,29024,1,0,0:0:0:35:LR_Clap Normal.wav
320,192,29154,1,0,0:0:0:35:LR_Clap Normal.wav
448,192,29154,1,0,0:0:0:0:
64,192,29283,1,2,0:0:0:0:
192,192,29283,1,0,0:0:0:35:LR_Clap Normal.wav
192,192,29412,1,0,0:0:0:0:
320,192,29542,1,2,0:0:0:0:
448,192,29542,1,0,0:0:0:35:LR_Clap Normal.wav
320,192,29671,1,0,0:0:0:0:
64,192,29800,1,2,0:0:0:0:
192,192,29800,1,0,0:0:0:35:LR_Clap Normal.wav
192,192,29930,1,0,0:0:0:0:
64,192,30059,1,2,0:0:0:0:
320,192,30059,1,0,0:0:0:35:LR_Clap Normal.wav
320,192,30188,1,0,0:0:0:0:
192,192,30318,1,2,0:0:0:0:
448,192,30318,1,0,0:0:0:35:LR_Clap Normal.wav
192,192,30447,1,0,0:0:0:0:
64,192,30576,1,2,0:0:0:0:
448,192,30576,1,0,0:0:0:35:LR_Clap Normal.wav
448,192,30705,1,0,0:0:0:0:
64,192,30835,1,2,0:0:0:0:
192,192,30835,1,0,0:0:0:35:LR_Clap Normal.wav
448,192,30964,1,0,0:0:0:0:
320,192,31029,1,0,0:0:0:35:LR_Clap Normal.wav
64,192,31093,1,2,0:0:0:0:
192,192,31093,1,0,0:0:0:35:LR_Clap Normal.wav
64,192,31223,1,0,0:0:0:35:LR_Clap Normal.wav
192,192,31287,1,0,0:0:0:35:LR_Clap Normal.wav
320,192,31352,1,2,0:0:0:0:
448,192,31352,1,0,0:0:0:35:LR_Clap Normal.wav
320,192,31481,1,0,0:0:0:0:
64,192,31611,1,2,0:0:0:0:
192,192,31611,1,0,0:0:0:35:LR_Clap Normal.wav
192,192,31740,1,0,0:0:0:0:
320,192,31869,1,2,0:0:0:0:
448,192,31869,1,0,0:0:0:35:LR_Clap Normal.wav
320,192,31999,1,0,0:0:0:0:
192,192,32128,1,2,0:0:0:0:
448,192,32128,1,0,0:0:0:35:LR_Clap Normal.wav
192,192,32257,1,0,0:0:0:0:
64,192,32386,1,2,0:0:0:0:
320,192,32386,1,0,0:0:0:35:LR_Clap Normal.wav
320,192,32516,1,0,0:0:0:0:
64,192,32645,1,2,0:0:0:0:
448,192,32645,1,0,0:0:0:35:LR_Clap Normal.wav
64,192,32774,1,0,0:0:0:0:
192,192,32904,1,2,0:0:0:0:
320,192,32904,1,0,0:0:0:35:LR_Clap Normal.wav
320,192,33033,1,0,0:0:0:0:
64,192,33162,1,2,0:0:0:0:
192,192,33162,1,0,0:0:0:35:LR_Clap Normal.wav
192,192,33292,1,0,0:0:0:0:
320,192,33421,1,2,0:0:0:0:
448,192,33421,1,8,0:0:0:0:
64,192,33486,1,0,0:0:0:40:LR_Kick Beat Drop.wav
192,192,33550,1,0,0:0:0:40:LR_Kick Beat Drop.wav
320,192,33615,1,0,0:0:0:40:LR_Kick Beat Drop.wav
64,192,33680,1,2,0:0:0:0:
448,192,33680,1,8,0:0:0:0:
320,192,33744,1,0,0:0:0:40:LR_Kick Beat Drop.wav
192,192,33809,1,0,0:0:0:40:LR_Kick Beat Drop.wav
64,192,33874,1,0,0:0:0:40:LR_Kick Beat Drop.wav
320,192,33938,1,2,0:0:0:0:
448,192,33938,1,8,0:0:0:0:
64,192,34003,1,0,0:0:0:40:LR_Kick Beat Drop.wav
192,192,34068,1,0,0:0:0:40:LR_Kick Beat Drop.wav
320,192,34132,1,0,0:0:0:40:LR_Kick Beat Drop.wav
64,192,34197,1,2,0:0:0:0:
448,192,34197,1,8,0:0:0:0:
320,192,34261,1,0,0:0:0:40:LR_Kick Beat Drop.wav
192,192,34326,1,0,0:0:0:40:LR_Kick Beat Drop.wav
64,192,34391,1,0,0:0:0:40:LR_Kick Beat Drop.wav
64,192,35490,1,0,0:0:0:35:LR_Kick Beat Drop.wav
192,192,35533,1,0,0:0:0:35:LR_Kick Beat Drop.wav
320,192,35576,1,0,0:0:0:35:LR_Kick Beat Drop.wav
64,192,35619,1,0,0:0:0:35:LR_Kick Beat Drop.wav
192,192,35662,1,0,0:0:0:35:LR_Kick Beat Drop.wav
448,192,35705,1,0,0:0:0:35:LR_Kick Beat Drop.wav
320,192,35749,1,0,0:0:0:35:LR_Kick Beat Drop.wav
192,192,35792,1,0,0:0:0:35:LR_Kick Beat Drop.wav
64,192,35835,1,0,0:0:0:35:LR_Kick Beat Drop.wav
448,192,35878,1,0,0:0:0:35:LR_Kick Beat Drop.wav
320,192,35921,1,0,0:0:0:35:LR_Kick Beat Drop.wav
192,192,35964,1,0,0:0:0:35:LR_Kick Beat Drop.wav
64,192,36007,1,0,0:0:0:35:LR_Kick Beat Drop.wav
448,192,36050,1,0,0:0:0:35:LR_Kick Beat Drop.wav
320,192,36093,1,0,0:0:0:35:LR_Kick Beat Drop.wav
192,192,36136,1,0,0:0:0:35:LR_Kick Beat Drop.wav
448,192,36180,1,0,0:0:0:35:LR_Kick Beat Drop.wav
320,192,36223,1,0,0:0:0:35:LR_Kick Beat Drop.wav
64,192,36266,1,0,0:0:0:35:LR_Kick Beat Drop.wav
192,192,36309,1,0,0:0:0:35:LR_Kick Beat Drop.wav
320,192,36352,1,0,0:0:0:35:LR_Kick Beat Drop.wav
448,192,36395,1,0,0:0:0:35:LR_Kick Beat Drop.wav
64,192,36438,1,0,0:0:0:35:LR_Kick Beat Drop.wav
192,192,36481,1,0,0:0:0:35:LR_Kick Beat Drop.wav
320,192,36524,1,0,0:0:0:35:LR_Kick Beat Drop.wav
448,192,36568,1,0,0:0:0:35:LR_Kick Beat Drop.wav
64,192,36611,1,0,0:0:0:35:LR_Kick Beat Drop.wav
192,192,36654,1,0,0:0:0:35:LR_Kick Beat Drop.wav
320,192,36697,1,0,0:0:0:35:LR_Kick Beat Drop.wav
64,192,36740,1,0,0:0:0:35:LR_Kick Beat Drop.wav
192,192,36783,1,0,0:0:0:35:LR_Kick Beat Drop.wav
448,192,36826,1,0,0:0:0:35:LR_Kick Beat Drop.wav
320,192,36869,1,0,0:0:0:35:LR_Kick Beat Drop.wav
192,192,36912,1,0,0:0:0:35:LR_Kick Beat Drop.wav
64,192,36955,1,0,0:0:0:35:LR_Kick Beat Drop.wav
448,192,36999,1,0,0:0:0:35:LR_Kick Beat Drop.wav
320,192,37042,1,0,0:0:0:35:LR_Kick Beat Drop.wav
192,192,37085,1,0,0:0:0:35:LR_Kick Beat Drop.wav
64,192,37128,1,0,0:0:0:35:LR_Kick Beat Drop.wav
448,192,37171,1,0,0:0:0:35:LR_Kick Beat Drop.wav
320,192,37214,1,0,0:0:0:35:LR_Kick Beat Drop.wav
192,192,37257,1,0,0:0:0:35:LR_Kick Beat Drop.wav
448,192,37300,1,0,0:0:0:35:LR_Kick Beat Drop.wav
320,192,37343,1,0,0:0:0:35:LR_Kick Beat Drop.wav
64,192,37386,1,0,0:0:0:35:LR_Kick Beat Drop.wav
192,192,37430,1,0,0:0:0:35:LR_Kick Beat Drop.wav
320,192,37473,1,0,0:0:0:35:LR_Kick Beat Drop.wav
448,192,37516,1,0,0:0:0:35:LR_Kick Beat Drop.wav
64,192,37559,1,2,0:0:0:0:
192,192,37559,1,0,0:0:0:0:
64,192,37818,1,0,0:0:0:0:
64,192,37947,1,0,0:0:0:0:
448,192,38076,1,0,0:0:0:0:
448,192,38205,1,0,0:0:0:0:
64,192,38593,1,2,0:0:0:0:
448,192,38593,1,0,0:0:0:0:
64,192,38852,1,2,0:0:0:0:
448,192,38852,1,0,0:0:0:0:
192,192,38981,1,0,0:0:0:0:
320,192,39046,1,0,0:0:0:0:
64,192,39111,1,8,0:0:0:0:
192,192,39111,1,0,0:0:0:0:
448,192,39111,1,0,0:0:0:0:
320,192,39240,1,2,0:0:0:0:
64,192,39369,1,8,0:0:0:0:
192,192,39369,128,0,39628:0:0:0:0:
448,192,39369,1,0,0:0:0:0:
64,192,39628,1,2,0:0:0:0:
320,192,39628,1,4,0:0:0:0:
448,192,39628,1,0,0:0:0:0:
320,192,39757,1,0,0:0:0:0:
64,192,39886,1,2,0:0:0:0:
192,192,39886,1,0,0:0:0:0:
448,192,39886,1,0,0:0:0:0:
64,192,40016,1,0,0:0:0:0:
192,192,40145,1,2,0:0:0:0:
320,192,40145,1,0,0:0:0:0:
448,192,40145,1,0,0:0:0:0:
448,192,40274,1,0,0:0:0:0:
64,192,40404,1,2,0:0:0:0:
192,192,40404,1,0,0:0:0:0:
320,192,40404,1,0,0:0:0:0:
64,192,40533,1,0,0:0:0:0:
192,192,40533,1,0,0:0:0:0:
192,192,40662,1,2,0:0:0:0:
320,192,40662,1,0,0:0:0:0:
448,192,40662,1,0,0:0:0:0:
320,192,40792,1,0,0:0:0:0:
448,192,40792,1,0,0:0:0:0:
64,192,40921,1,2,0:0:0:0:
192,192,40921,1,0,0:0:0:0:
448,192,40921,1,0,0:0:0:0:
64,192,41050,1,0,0:0:0:0:
192,192,41180,1,2,0:0:0:0:
320,192,41180,1,0,0:0:0:0:
448,192,41180,1,0,0:0:0:0:
64,192,41309,1,2,0:0:0:0:
192,192,41309,1,0,0:0:0:0:
320,192,41374,1,2,0:0:0:0:
448,192,41374,1,0,0:0:0:0:
64,192,41438,1,2,0:0:0:0:
192,192,41438,128,0,41568:0:0:0:0:
448,192,41568,128,0,41697:0:0:0:0:
64,192,41697,1,2,0:0:0:0:
192,192,41697,1,4,0:0:0:0:
320,192,41697,1,0,0:0:0:0:
320,192,41826,1,0,0:0:0:0:
64,192,41955,1,2,0:0:0:0:
192,192,41955,1,0,0:0:0:0:
448,192,41955,1,0,0:0:0:0:
192,192,42085,1,0,0:0:0:0:
64,192,42214,1,2,0:0:0:0:
192,192,42214,1,0,0:0:0:0:
448,192,42214,1,0,0:0:0:0:
448,192,42343,1,0,0:0:0:0:
64,192,42473,1,2,0:0:0:0:
192,192,42473,1,0,0:0:0:0:
320,192,42473,1,0,0:0:0:0:
64,192,42602,1,0,0:0:0:0:
192,192,42602,1,0,0:0:0:0:
192,192,42731,1,2,0:0:0:0:
320,192,42731,1,0,0:0:0:0:
448,192,42731,1,0,0:0:0:0:
320,192,42861,1,0,0:0:0:0:
448,192,42861,1,0,0:0:0:0:
64,192,42990,1,2,0:0:0:0:
192,192,42990,1,0,0:0:0:0:
320,192,43055,1,2,0:0:0:0:
448,192,43055,1,0,0:0:0:0:
64,192,43119,1,0,0:0:0:20:LR_Kick Beat Drop.wav
192,192,43162,1,0,0:0:0:0:
320,192,43205,1,0,0:0:0:0:
64,192,43249,1,2,0:0:0:0:
448,192,43249,1,0,0:0:0:0:
192,192,43378,128,0,43507:0:0:0:0:
320,192,43507,1,2,0:0:0:0:
448,192,43507,128,0,43636:0:0:0:0:
64,192,43636,128,0,43766:0:0:0:0:
192,192,43766,1,2,0:0:0:0:
320,192,43766,1,8,0:0:0:0:
448,192,43766,1,0,0:0:0:0:
320,192,43895,1,0,0:0:0:0:
64,192,44024,1,2,0:0:0:0:
192,192,44024,1,8,0:0:0:0:
448,192,44024,1,0,0:0:0:0:
192,192,44154,1,0,0:0:0:0:
64,192,44283,1,2,0:0:0:0:
320,192,44283,1,8,0:0:0:0:
448,192,44283,1,0,0:0:0:0:
448,192,44412,1,0,0:0:0:0:
64,192,44542,1,8,0:0:0:0:
192,192,44542,1,2,0:0:0:0:
320,192,44542,1,0,0:0:0:0:
64,192,44671,1,0,0:0:0:0:
192,192,44671,1,0,0:0:0:0:
192,192,44800,1,2,0:0:0:0:
320,192,44800,1,8,0:0:0:0:
448,192,44800,1,0,0:0:0:0:
320,192,44930,1,0,0:0:0:0:
448,192,44930,1,0,0:0:0:0:
64,192,45059,1,2,0:0:0:0:
192,192,45059,1,8,0:0:0:0:
448,192,45059,1,0,0:0:0:0:
192,192,45188,1,0,0:0:0:0:
64,192,45318,1,8,0:0:0:0:
320,192,45318,1,2,0:0:0:0:
448,192,45318,1,0,0:0:0:0:
64,192,45447,1,2,0:0:0:0:
192,192,45447,1,0,0:0:0:0:
320,192,45511,1,2,0:0:0:0:
448,192,45511,1,0,0:0:0:0:
64,192,45576,128,2,45705:0:0:0:0:
192,192,45576,1,8,0:0:0:0:
320,192,45705,128,0,45835:0:0:0:0:
64,192,45835,1,2,0:0:0:0:
192,192,45835,1,0,0:0:0:0:
448,192,45899,1,2,0:0:0:0:
192,192,45964,1,0,0:0:0:20:LR_Kick Beat Drop.wav
320,192,46007,1,0,0:0:0:0:
448,192,46050,1,0,0:0:0:0:
64,192,46093,1,2,0:0:0:0:
192,192,46093,1,0,0:0:0:0:
320,192,46158,1,2,0:0:0:0:
64,192,46223,1,0,0:0:0:20:LR_Kick Beat Drop.wav
192,192,46266,1,0,0:0:0:0:
320,192,46309,1,0,0:0:0:0:
64,192,46352,1,2,0:0:0:0:
448,192,46352,1,0,0:0:0:0:
192,192,46481,1,2,0:0:0:0:
320,192,46481,1,0,0:0:0:0:
320,192,46611,1,8,0:0:0:0:
448,192,46611,1,0,0:0:0:0:
64,192,46675,1,8,0:0:0:0:
192,192,46675,1,0,0:0:0:0:
320,192,46740,1,8,0:0:0:0:
448,192,46740,1,0,0:0:0:0:
64,192,46805,1,8,0:0:0:0:
192,192,46805,1,0,0:0:0:0:
448,192,46869,128,0,47128:0:0:0:0:
320,192,47128,128,0,47257:0:0:0:0:
192,192,47257,128,0,47386:0:0:0:0:
320,192,47386,1,2,0:0:0:0:
448,192,47386,1,0,0:0:0:0:
64,192,47516,128,2,47774:0:0:0:0:
320,192,47645,1,8,0:0:0:0:
448,192,47645,1,0,0:0:0:0:
192,192,47774,128,0,47904:0:0:0:0:
320,192,47904,128,2,48162:0:0:0:0:
448,192,47904,1,4,0:0:0:0:
64,192,48033,128,0,48162:0:0:0:0:
192,192,48162,1,2,0:0:0:0:
448,192,48162,128,8,48421:0:0:0:0:
320,192,48292,128,0,48421:0:0:0:0:
64,192,48421,1,2,0:0:0:0:
192,192,48421,128,0,48550:0:0:0:0:
448,192,48550,128,0,48680:0:0:0:0:
64,192,48680,1,2,0:0:0:0:
192,192,48680,128,8,48744:0:0:0:0:
320,192,48744,128,0,48809:0:0:0:0:
64,192,48809,128,0,48874:0:0:0:0:
192,192,48874,128,0,48938:0:0:0:0:
320,192,48938,1,2,0:0:0:0:
448,192,48938,128,0,49068:0:0:0:0:
192,192,49068,128,0,49326:0:0:0:0:
64,192,49197,1,2,0:0:0:0:
320,192,49197,128,8,49455:0:0:0:0:
448,192,49326,128,0,49455:0:0:0:0:
64,192,49455,128,2,49585:0:0:0:0:
192,192,49455,1,0,0:0:0:0:
320,192,49585,1,0,0:0:0:20:LR_Kick Beat Drop.wav
192,192,49628,1,0,0:0:0:0:
64,192,49671,1,0,0:0:0:0:
320,192,49714,128,8,49973:0:0:0:0:
448,192,49714,1,0,0:0:0:0:
64,192,49973,1,2,0:0:0:0:
192,192,49973,128,0,50231:0:0:0:0:
448,192,50102,128,0,50231:0:0:0:0:
64,192,50231,128,8,50490:0:0:0:0:
320,192,50231,1,2,0:0:0:0:
192,192,50361,128,0,50490:0:0:0:0:
320,192,50490,128,2,50619:0:0:0:0:
448,192,50490,1,0,0:0:0:0:
64,192,50619,128,0,50749:0:0:0:0:
320,192,50749,128,8,50813:0:0:0:0:
448,192,50749,1,2,0:0:0:0:
192,192,50813,128,0,50878:0:0:0:0:
448,192,50878,128,0,50943:0:0:0:0:
320,192,50943,128,0,51007:0:0:0:0:
64,192,51007,1,2,0:0:0:0:
192,192,51007,1,0,0:0:0:0:
448,192,51072,1,2,0:0:0:0:
64,192,51136,1,0,0:0:0:20:LR_Kick Beat Drop.wav
192,192,51180,1,0,0:0:0:0:
320,192,51223,1,0,0:0:0:0:
64,192,51266,128,8,51524:0:0:0:0:
448,192,51266,1,2,0:0:0:0:
192,192,51395,128,0,51524:0:0:0:20:LR_Kick Beat Drop.wav
448,192,51524,1,2,0:0:0:0:
320,192,51589,1,0,0:0:0:0:
64,192,51654,1,8,0:0:0:0:
192,192,51654,128,0,51783:0:0:0:0:
320,192,51783,128,8,52042:0:0:0:0:
448,192,51783,1,0,0:0:0:0:
192,192,51912,128,0,52042:0:0:0:0:
64,192,52042,1,10,0:0:0:0:
448,192,52042,1,4,0:0:0:0:
192,192,52171,1,0,0:0:0:20:LR_Kick Beat Drop.wav
320,192,52214,1,0,0:0:0:0:
448,192,52257,1,0,0:0:0:0:
64,192,52300,1,2,0:0:0:0:
192,192,52300,1,8,0:0:0:0:
320,192,52430,1,2,0:0:0:0:
448,192,52430,1,0,0:0:0:0:
64,192,52494,1,2,0:0:0:0:
192,192,52494,1,0,0:0:0:0:
320,192,52559,1,8,0:0:0:0:
192,192,52602,1,0,0:0:0:0:
64,192,52645,1,0,0:0:0:0:
320,192,52688,1,2,0:0:0:0:
448,192,52688,1,0,0:0:0:0:
192,192,52818,128,8,52882:0:0:0:0:
448,192,52882,128,0,52947:0:0:0:0:
192,192,52947,128,0,53011:0:0:0:0:
448,192,53011,128,0,53076:0:0:0:0:
64,192,53076,1,2,0:0:0:0:
192,192,53076,1,8,0:0:0:0:
320,192,53141,1,2,0:0:0:0:
448,192,53141,1,0,0:0:0:0:
64,192,53205,1,0,0:0:0:20:LR_Kick Beat Drop.wav
192,192,53249,1,0,0:0:0:0:
320,192,53292,1,0,0:0:0:0:
64,192,53335,1,2,0:0:0:0:
448,192,53335,1,8,0:0:0:0:
320,192,53464,1,2,0:0:0:0:
448,192,53464,1,0,0:0:0:0:
64,192,53593,1,8,0:0:0:0:
192,192,53593,1,2,0:0:0:0:
320,192,53658,1,2,0:0:0:0:
448,192,53658,1,0,0:0:0:0:
192,192,53723,1,0,0:0:0:20:LR_Kick Beat Drop.wav
320,192,53766,1,0,0:0:0:0:
448,192,53809,1,0,0:0:0:0:
64,192,53852,128,8,54111:0:0:0:0:
192,192,53852,1,0,0:0:0:0:
320,192,54111,1,2,0:0:0:0:
448,192,54111,1,0,0:0:0:0:
192,192,54175,1,2,0:0:0:0:
64,192,54240,1,2,0:0:0:0:
320,192,54240,1,0,0:0:0:0:
448,192,54305,1,2,0:0:0:0:
64,192,54369,1,2,0:0:0:0:
192,192,54369,1,0,0:0:0:0:
320,192,54434,1,2,0:0:0:0:
192,192,54499,1,2,0:0:0:0:
448,192,54499,1,0,0:0:0:0:
64,192,54563,1,2,0:0:0:0:
320,192,54628,1,0,0:0:0:30:LR_Kick Beat Drop.wav
192,192,54671,1,0,0:0:0:30:LR_Kick Beat Drop.wav
64,192,54714,1,0,0:0:0:30:LR_Kick Beat Drop.wav
320,192,54757,1,0,0:0:0:30:LR_Kick Beat Drop.wav
192,192,54800,1,0,0:0:0:30:LR_Kick Beat Drop.wav
64,192,54843,1,0,0:0:0:30:LR_Kick Beat Drop.wav
448,192,54886,1,0,0:0:0:20:LR_Kick Beat Drop.wav
320,192,54930,1,0,0:0:0:0:
192,192,54973,1,0,0:0:0:0:
448,192,55016,1,0,0:0:0:20:LR_Kick Beat Drop.wav
320,192,55059,1,0,0:0:0:0:
192,192,55102,1,0,0:0:0:0:
448,192,55145,1,0,0:0:0:0:
64,192,55210,1,0,0:0:0:0:
448,192,55274,1,0,0:0:0:0:
64,192,55339,1,0,0:0:0:0:
192,192,55404,128,0,55468:0:0:0:70:LR_Kick Beat Drop.wav
192,192,55533,128,0,55598:0:0:0:70:LR_Kick Beat Drop.wav
320,192,55662,1,8,0:0:0:0:
64,192,55727,1,8,0:0:0:0:
320,192,55792,1,8,0:0:0:0:
64,192,55856,1,8,0:0:0:0:
448,192,55921,128,8,56180:0:0:0:0:
320,192,56050,128,0,56180:0:0:0:0:
64,192,56180,1,2,0:0:0:0:
192,192,56180,1,4,0:0:0:0:
192,192,56309,1,0,0:0:0:0:
320,192,56438,1,0,0:0:0:0:
320,192,56568,1,0,0:0:0:0:
64,192,56697,1,8,0:0:0:0:
448,192,56697,1,0,0:0:0:0:
64,192,56826,1,0,0:0:0:0:
448,192,56955,1,0,0:0:0:0:
64,192,57085,1,0,0:0:0:0:
448,192,57214,1,0,0:0:0:0:
64,192,57343,1,0,0:0:0:0:
320,192,57473,128,2,57731:0:0:0:0:
448,192,57473,1,0,0:0:0:0:
64,192,57731,1,8,0:0:0:0:
192,192,57731,1,0,0:0:0:0:
64,192,57861,1,0,0:0:0:0:
448,192,57990,128,0,58249:0:0:0:0:
320,192,58119,128,0,58249:0:0:0:0:
64,192,58249,1,2,0:0:0:0:
192,192,58249,1,0,0:0:0:0:
192,192,58378,1,0,0:0:0:0:
320,192,58507,1,0,0:0:0:0:
320,192,58636,1,0,0:0:0:0:
64,192,58766,1,8,0:0:0:0:
448,192,58766,1,0,0:0:0:0:
64,192,58895,1,0,0:0:0:0:
448,192,59024,1,0,0:0:0:0:
64,192,59154,1,0,0:0:0:0:
448,192,59283,1,0,0:0:0:0:
64,192,59412,1,0,0:0:0:0:
320,192,59542,128,2,59800:0:0:0:0:
448,192,59542,1,0,0:0:0:0:
64,192,59800,1,8,0:0:0:0:
192,192,59800,1,0,0:0:0:0:
64,192,59930,1,0,0:0:0:0:
448,192,60059,128,0,60318:0:0:0:0:
64,192,60318,1,2,0:0:0:0:
320,192,60318,128,4,60576:0:0:0:0:
192,192,60447,128,0,60576:0:0:0:0:
64,192,60576,128,2,60835:0:0:0:0:
448,192,60576,1,8,0:0:0:0:
192,192,60705,128,0,60835:0:0:0:0:
320,192,60835,128,2,61093:0:0:0:0:
448,192,60835,1,0,0:0:0:0:
192,192,60964,128,0,61093:0:0:0:0:
64,192,61093,1,2,0:0:0:0:
448,192,61093,1,8,0:0:0:0:
320,192,61158,1,0,0:0:0:0:
192,192,61223,1,0,0:0:0:0:
64,192,61287,1,0,0:0:0:0:
320,192,61352,1,2,0:0:0:0:
448,192,61352,1,0,0:0:0:0:
192,192,61481,128,0,61611:0:0:0:0:
320,192,61611,1,8,0:0:0:0:
448,192,61611,128,2,61869:0:0:0:0:
64,192,61740,128,0,61999:0:0:0:0:
192,192,61869,128,2,61999:0:0:0:0:
320,192,61869,1,0,0:0:0:0:
448,192,61999,128,0,62128:0:0:0:0:
64,192,62128,1,2,0:0:0:0:
320,192,62128,1,8,0:0:0:0:
192,192,62193,1,0,0:0:0:0:
320,192,62257,1,2,0:0:0:0:
448,192,62257,1,0,0:0:0:0:
192,192,62322,1,0,0:0:0:0:
64,192,62386,1,2,0:0:0:0:
448,192,62386,128,0,62645:0:0:0:0:
320,192,62516,128,0,62645:0:0:0:0:
64,192,62645,1,2,0:0:0:0:
192,192,62645,128,8,62904:0:0:0:0:
320,192,62774,128,0,62904:0:0:0:0:
64,192,62904,128,2,63162:0:0:0:0:
448,192,62904,1,0,0:0:0:0:
192,192,63033,128,0,63162:0:0:0:0:
320,192,63162,1,2,0:0:0:0:
448,192,63162,1,8,0:0:0:0:
64,192,63227,1,0,0:0:0:0:
192,192,63292,1,0,0:0:0:0:
320,192,63356,1,0,0:0:0:0:
64,192,63421,1,8,0:0:0:0:
448,192,63421,1,0,0:0:0:0:
64,192,63550,1,8,0:0:0:0:
192,192,63615,1,8,0:0:0:0:
320,192,63680,1,2,0:0:0:0:
320,192,63809,1,2,0:0:0:0:
448,192,63874,1,0,0:0:0:0:
192,192,63938,1,8,0:0:0:0:
192,192,64068,1,2,0:0:0:0:
64,192,64197,128,8,64326:0:0:0:0:
448,192,64197,128,0,64455:0:0:0:0:
64,192,64455,1,2,0:0:0:0:
192,192,64455,1,4,0:0:0:0:
192,192,64585,1,0,0:0:0:0:
320,192,64714,1,0,0:0:0:0:
320,192,64843,1,0,0:0:0:0:
64,192,64973,1,8,0:0:0:0:
192,192,64973,1,0,0:0:0:0:
448,192,64973,1,0,0:0:0:0:
64,192,65102,1,0,0:0:0:0:
448,192,65231,1,0,0:0:0:0:
64,192,65361,1,0,0:0:0:0:
320,192,65490,1,2,0:0:0:0:
448,192,65490,1,0,0:0:0:0:
64,192,65619,1,0,0:0:0:0:
448,192,65749,128,0,66007:0:0:0:0:
64,192,66007,1,8,0:0:0:0:
192,192,66007,1,0,0:0:0:0:
320,192,66007,1,0,0:0:0:0:
64,192,66136,1,0,0:0:0:0:
320,192,66266,128,0,66524:0:0:0:0:
448,192,66395,128,0,66524:0:0:0:0:
64,192,66524,1,2,0:0:0:0:
192,192,66524,1,0,0:0:0:0:
192,192,66654,1,0,0:0:0:0:
320,192,66783,1,0,0:0:0:0:
320,192,66912,1,0,0:0:0:0:
64,192,67042,1,8,0:0:0:0:
192,192,67042,1,0,0:0:0:0:
448,192,67042,1,0,0:0:0:0:
64,192,67171,1,0,0:0:0:0:
448,192,67300,1,0,0:0:0:0:
64,192,67430,1,0,0:0:0:0:
320,192,67559,1,2,0:0:0:0:
448,192,67559,1,0,0:0:0:0:
64,192,67688,1,0,0:0:0:0:
448,192,67818,128,0,68076:0:0:0:0:
64,192,68076,1,8,0:0:0:0:
192,192,68076,1,0,0:0:0:0:
320,192,68205,128,2,68335:0:0:0:0:
64,192,68335,128,8,68593:0:0:0:0:
192,192,68335,128,0,68593:0:0:0:0:
320,192,68593,128,6,68852:0:0:0:0:
448,192,68593,1,0,0:0:0:35:LR_Clap Normal.wav
192,192,68723,128,0,68852:0:0:0:0:
64,192,68852,1,2,0:0:0:0:
448,192,68852,128,0,69111:0:0:0:35:LR_Clap Normal.wav
320,192,68981,128,0,69111:0:0:0:0:
64,192,69111,1,2,0:0:0:0:
192,192,69111,128,0,69369:0:0:0:35:LR_Clap Normal.wav
320,192,69240,128,0,69369:0:0:0:0:
64,192,69369,1,2,0:0:0:0:
448,192,69369,1,0,0:0:0:35:LR_Clap Normal.wav
192,192,69434,1,0,0:0:0:0:
320,192,69499,1,0,0:0:0:0:
448,192,69563,1,0,0:0:0:0:
64,192,69628,1,2,0:0:0:0:
192,192,69628,1,0,0:0:0:35:LR_Clap Normal.wav
320,192,69757,128,0,69886:0:0:0:0:
64,192,69886,128,2,70145:0:0:0:0:
448,192,69886,1,0,0:0:0:35:LR_Clap Normal.wav
192,192,70016,128,0,70145:0:0:0:0:
320,192,70145,1,2,0:0:0:0:
448,192,70145,1,0,0:0:0:35:LR_Clap Normal.wav
64,192,70274,1,2,0:0:0:0:
192,192,70274,1,0,0:0:0:0:
320,192,70339,1,2,0:0:0:0:
448,192,70339,1,0,0:0:0:0:
64,192,70404,128,2,70662:0:0:0:0:
192,192,70404,128,0,70662:0:0:0:20:LR_Kick Beat Drop.wav
320,192,70662,1,2,0:0:0:0:
448,192,70662,1,0,0:0:0:0:
64,192,70792,1,2,0:0:0:0:
448,192,70792,1,0,0:0:0:0:
64,192,70921,1,2,0:0:0:0:
192,192,70921,1,0,0:0:0:0:
320,192,71050,1,2,0:0:0:0:
448,192,71050,1,0,0:0:0:0:
64,192,71115,1,2,0:0:0:0:
192,192,71115,1,0,0:0:0:0:
320,192,71180,1,2,0:0:0:0:
448,192,71180,1,0,0:0:0:0:
192,192,71309,1,0,0:0:0:20:LR_Kick Beat Drop.wav
320,192,71352,1,0,0:0:0:0:
448,192,71395,1,0,0:0:0:0:
64,192,71438,1,2,0:0:0:0:
192,192,71438,1,0,0:0:0:0:
320,192,71503,1,2,0:0:0:0:
448,192,71503,1,0,0:0:0:0:
64,192,71568,1,0,0:0:0:20:LR_Kick Beat Drop.wav
192,192,71611,1,0,0:0:0:0:
320,192,71654,1,0,0:0:0:0:
448,192,71697,1,0,0:0:0:0:
320,192,71912,1,0,0:0:0:0:
192,192,72128,1,0,0:0:0:0:
448,192,72257,1,0,0:0:0:0:
64,192,72386,1,0,0:0:0:0:
320,192,72473,128,8,72731:0:0:0:0:
448,192,72473,128,0,72731:0:0:0:0:
64,192,72731,128,2,73249:0:0:0:0:
192,192,72731,1,4,0:0:0:0:
320,192,73249,1,0,0:0:0:70:LR_Snare Wet.wav
192,192,73507,1,2,0:0:0:0:
64,192,73766,128,0,74800:0:0:0:70:LR_Snare Wet.wav
448,192,73766,1,0,0:0:0:0:
448,192,74283,1,0,0:0:0:70:LR_Snare Wet.wav
448,192,74671,1,0,0:0:0:70:LR_Snare Wet.wav
192,192,74800,128,2,75835:0:0:0:0:
320,192,74800,1,0,0:0:0:0:
448,192,75059,1,0,0:0:0:0:
320,192,75188,1,0,0:0:0:0:
64,192,75318,1,0,0:0:0:70:LR_Snare Wet.wav
448,192,75576,1,2,0:0:0:0:
320,192,75705,1,0,0:0:0:0:
64,192,75835,1,0,0:0:0:70:LR_Snare Wet.wav
448,192,75835,128,0,76869:0:0:0:0:
192,192,75964,1,0,0:0:0:0:
320,192,76223,1,0,0:0:0:0:
64,192,76352,1,0,0:0:0:70:LR_Snare Wet.wav
320,192,76611,1,0,0:0:0:0:
64,192,76740,1,0,0:0:0:70:LR_Snare Wet.wav
192,192,76869,1,2,0:0:0:0:
320,192,76869,128,0,77904:0:0:0:0:
64,192,77128,1,0,0:0:0:0:
448,192,77386,1,0,0:0:0:70:LR_Snare Wet.wav
192,192,77645,1,2,0:0:0:0:
448,192,77774,1,0,0:0:0:70:LR_Snare Wet.wav
64,192,77904,1,2,0:0:0:0:
192,192,77904,128,0,78938:0:0:0:0:
448,192,78033,1,0,0:0:0:70:LR_Snare Wet.wav
64,192,78162,1,2,0:0:0:0:
320,192,78421,1,0,0:0:0:70:LR_Snare Wet.wav
64,192,78680,1,2,0:0:0:0:
448,192,78809,1,0,0:0:0:70:LR_Snare Wet.wav
64,192,78938,1,2,0:0:0:0:
320,192,78938,128,0,79973:0:0:0:0:
192,192,79197,1,0,0:0:0:0:
448,192,79326,1,0,0:0:0:0:
64,192,79455,1,0,0:0:0:70:LR_Snare Wet.wav
448,192,79714,1,2,0:0:0:0:
192,192,79843,1,0,0:0:0:70:LR_Snare Wet.wav
64,192,79973,128,2,80490:0:0:0:0:
448,192,79973,1,0,0:0:0:0:
192,192,80102,1,0,0:0:0:70:LR_Snare Wet.wav
320,192,80231,1,2,0:0:0:0:
192,192,80490,1,0,0:0:0:70:LR_Snare Wet.wav
448,192,80490,128,0,81007:0:0:0:0:
64,192,80749,1,2,0:0:0:0:
320,192,80878,1,0,0:0:0:70:LR_Snare Wet.wav
64,192,81007,128,2,82042:0:0:0:0:
192,192,81007,1,0,0:0:0:0:
192,192,81136,1,0,0:0:0:0:
448,192,81266,128,0,81524:0:0:0:0:
320,192,81395,128,0,81524:0:0:0:0:
192,192,81524,1,0,0:0:0:90:LR_Snare Wet.wav
192,192,81654,1,0,0:0:0:0:
320,192,81783,128,0,81912:0:0:0:0:
192,192,81912,128,0,82042:0:0:0:0:
320,192,82042,128,2,83076:0:0:0:0:
448,192,82042,1,0,0:0:0:0:
448,192,82171,1,0,0:0:0:0:
64,192,82300,128,0,82559:0:0:0:0:
192,192,82430,128,0,82559:0:0:0:0:
448,192,82559,1,0,0:0:0:90:LR_Snare Wet.wav
448,192,82688,1,0,0:0:0:0:
192,192,82818,128,0,82947:0:0:0:0:
448,192,82947,128,0,83076:0:0:0:0:
64,192,83076,1,2,0:0:0:0:
192,192,83076,128,0,84111:0:0:0:0:
64,192,83205,1,0,0:0:0:0:
448,192,83335,128,0,83593:0:0:0:0:
320,192,83464,128,0,83593:0:0:0:0:
64,192,83593,1,0,0:0:0:90:LR_Snare Wet.wav
64,192,83723,1,0,0:0:0:0:
448,192,83852,128,0,83981:0:0:0:0:
64,192,83981,128,0,84111:0:0:0:0:
320,192,84111,1,2,0:0:0:0:
448,192,84111,128,0,85145:0:0:0:0:
320,192,84240,1,0,0:0:0:0:
192,192,84369,128,0,84628:0:0:0:0:
64,192,84499,128,0,84628:0:0:0:0:
320,192,84628,1,0,0:0:0:90:LR_Snare Wet.wav
320,192,84757,1,0,0:0:0:0:
64,192,84886,128,0,85016:0:0:0:0:
320,192,85016,128,0,85145:0:0:0:0:
64,192,85145,128,2,87214:0:0:0:0:
192,192,85145,1,0,0:0:0:0:
192,192,85274,1,0,0:0:0:0:
320,192,85404,128,0,85662:0:0:0:0:
448,192,85533,128,0,85662:0:0:0:0:
192,192,85662,1,0,0:0:0:90:LR_Snare Wet.wav
192,192,85792,1,0,0:0:0:0:
448,192,85921,128,0,86180:0:0:0:0:
320,192,86050,128,0,86180:0:0:0:90:LR_Snare Wet.wav
192,192,86180,1,2,0:0:0:0:
192,192,86309,1,0,0:0:0:0:
320,192,86438,128,0,86697:0:0:0:0:
448,192,86568,128,0,86697:0:0:0:0:
192,192,86697,1,0,0:0:0:90:LR_Snare Wet.wav
192,192,86826,1,0,0:0:0:0:
320,192,86955,128,0,87085:0:0:0:0:
192,192,87085,128,0,87214:0:0:0:90:LR_Snare Wet.wav
320,192,87214,1,2,0:0:0:0:
448,192,87214,128,0,89283:0:0:0:0:
320,192,87343,1,0,0:0:0:0:
64,192,87473,128,0,87731:0:0:0:0:
192,192,87602,128,0,87731:0:0:0:0:
320,192,87731,1,0,0:0:0:90:LR_Snare Wet.wav
320,192,87861,1,0,0:0:0:0:
192,192,87990,128,0,88249:0:0:0:0:
64,192,88119,128,0,88249:0:0:0:90:LR_Snare Wet.wav
320,192,88249,1,2,0:0:0:0:
320,192,88378,1,0,0:0:0:0:
64,192,88507,128,0,88766:0:0:0:0:
192,192,88636,128,0,88766:0:0:0:0:
320,192,88766,1,0,0:0:0:90:LR_Snare Wet.wav
320,192,88895,1,0,0:0:0:0:
192,192,89024,128,0,89154:0:0:0:0:
320,192,89154,128,0,89283:0:0:0:90:LR_Snare Wet.wav
64,192,89283,1,2,0:0:0:0:
192,192,89283,1,0,0:0:0:35:LR_Clap Normal.wav
448,192,89412,1,0,0:0:0:0:
192,192,89542,1,0,0:0:0:0:
320,192,89671,1,0,0:0:0:0:
64,192,89800,1,0,0:0:0:35:LR_Clap Normal.wav
192,192,89800,1,0,0:0:0:0:
448,192,89930,1,0,0:0:0:0:
64,192,90059,1,0,0:0:0:0:
320,192,90188,1,0,0:0:0:0:
64,192,90318,1,0,0:0:0:35:LR_Clap Normal.wav
192,192,90318,1,0,0:0:0:0:
448,192,90447,1,0,0:0:0:0:
192,192,90576,1,0,0:0:0:0:
448,192,90705,1,0,0:0:0:0:
64,192,90835,128,0,91093:0:0:0:35:LR_Clap Normal.wav
192,192,90835,1,0,0:0:0:0:
320,192,90964,1,0,0:0:0:0:
192,192,91093,128,0,91352:0:0:0:0:
448,192,91093,1,0,0:0:0:0:
320,192,91223,1,0,0:0:0:0:
64,192,91352,1,0,0:0:0:35:LR_Clap Normal.wav
448,192,91352,128,0,91740:0:0:0:0:
192,192,91481,1,0,0:0:0:0:
320,192,91611,1,0,0:0:0:0:
64,192,91740,1,0,0:0:0:0:
192,192,91740,128,0,92128:0:0:0:0:
320,192,91869,1,0,0:0:0:35:LR_Clap Normal.wav
448,192,91999,1,0,0:0:0:0:
64,192,92128,1,0,0:0:0:0:
320,192,92128,128,0,92904:0:0:0:0:
448,192,92257,1,0,0:0:0:0:
64,192,92386,1,0,0:0:0:35:LR_Clap Normal.wav
192,192,92516,1,0,0:0:0:0:
448,192,92645,1,0,0:0:0:0:
192,192,92774,1,0,0:0:0:0:
64,192,92904,1,0,0:0:0:35:LR_Clap Normal.wav
448,192,92904,128,0,93421:0:0:0:0:
320,192,93033,1,0,0:0:0:0:
192,192,93162,1,0,0:0:0:0:
320,192,93292,1,0,0:0:0:0:
64,192,93421,128,0,96524:0:0:0:35:LR_Clap Normal.wav
192,192,93421,1,0,0:0:0:0:
320,192,93550,1,0,0:0:0:0:
448,192,93680,1,0,0:0:0:0:
192,192,93809,1,0,0:0:0:0:
448,192,93938,1,0,0:0:0:35:LR_Clap Normal.wav
320,192,94068,1,0,0:0:0:0:
192,192,94197,1,0,0:0:0:0:
448,192,94326,1,0,0:0:0:0:
192,192,94455,1,0,0:0:0:35:LR_Clap Normal.wav
320,192,94585,1,0,0:0:0:0:
448,192,94714,1,0,0:0:0:0:
192,192,94843,1,0,0:0:0:0:
320,192,94973,128,0,95037:0:0:0:35:LR_Clap Normal.wav
192,192,95102,1,0,0:0:0:0:
448,192,95231,128,0,95296:0:0:0:30:G6R.wav
192,192,95361,1,0,0:0:0:0:
320,192,95490,128,0,95555:0:0:0:35:LR_Clap Normal.wav
192,192,95619,1,0,0:0:0:0:
320,192,95749,1,0,0:0:0:0:
448,192,95878,128,0,95943:0:0:0:18:D6R.wav
192,192,96007,1,0,0:0:0:35:LR_Clap Normal.wav
448,192,96136,1,0,0:0:0:0:
192,192,96266,128,0,96330:0:0:0:20:B5R.wav
320,192,96395,1,0,0:0:0:0:
448,192,96524,1,0,0:0:0:35:LR_Clap Normal.wav
320,192,96654,1,0,0:0:0:0:
192,192,96783,1,0,0:0:0:0:
448,192,96912,1,0,0:0:0:0:
192,192,97042,128,0,97106:0:0:0:35:LR_Clap Normal.wav
64,192,97171,1,0,0:0:0:0:
448,192,97300,1,0,0:0:0:0:
320,192,97430,1,0,0:0:0:0:
64,192,97559,1,2,0:0:0:0:
192,192,97559,128,0,97624:0:0:0:35:LR_Clap Normal.wav
192,192,97688,1,0,0:0:0:0:
320,192,97818,1,2,0:0:0:0:
448,192,97818,1,0,0:0:0:35:LR_Clap Normal.wav
448,192,97947,1,0,0:0:0:0:
64,192,98076,1,2,0:0:0:0:
320,192,98076,1,0,0:0:0:35:LR_Clap Normal.wav
64,192,98205,1,0,0:0:0:0:
192,192,98335,1,2,0:0:0:0:
320,192,98335,1,0,0:0:0:35:LR_Clap Normal.wav
192,192,98464,1,0,0:0:0:0:
64,192,98593,1,2,0:0:0:0:
320,192,98593,1,0,0:0:0:35:LR_Clap Normal.wav
320,192,98723,1,0,0:0:0:0:
192,192,98852,1,2,0:0:0:0:
448,192,98852,1,0,0:0:0:35:LR_Clap Normal.wav
448,192,98981,1,0,0:0:0:0:
64,192,99111,1,2,0:0:0:0:
192,192,99111,1,0,0:0:0:35:LR_Clap Normal.wav
64,192,99240,1,0,0:0:0:0:
320,192,99369,1,2,0:0:0:0:
448,192,99369,1,0,0:0:0:35:LR_Clap Normal.wav
64,192,99499,1,0,0:0:0:35:LR_Clap Normal.wav
448,192,99499,1,0,0:0:0:0:
64,192,99628,1,2,0:0:0:0:
192,192,99628,1,0,0:0:0:35:LR_Clap Normal.wav
320,192,99693,1,0,0:0:0:0:
448,192,99757,1,0,0:0:0:0:
192,192,99822,1,0,0:0:0:0:
64,192,99886,1,2,0:0:0:0:
320,192,99886,1,0,0:0:0:35:LR_Clap Normal.wav
448,192,99951,1,0,0:0:0:0:
64,192,100016,1,0,0:0:0:0:
192,192,100080,1,0,0:0:0:0:
320,192,100145,1,2,0:0:0:0:
448,192,100145,1,0,0:0:0:35:LR_Clap Normal.wav
192,192,100210,1,0,0:0:0:0:
64,192,100274,1,0,0:0:0:0:
320,192,100339,1,0,0:0:0:0:
192,192,100404,1,2,0:0:0:0:
448,192,100404,1,0,0:0:0:35:LR_Clap Normal.wav
64,192,100468,1,0,0:0:0:0:
320,192,100533,1,0,0:0:0:0:
448,192,100598,1,0,0:0:0:0:
64,192,100662,1,2,0:0:0:0:
192,192,100662,1,0,0:0:0:35:LR_Clap Normal.wav
448,192,100727,1,0,0:0:0:0:
320,192,100792,1,0,0:0:0:0:
192,192,100856,1,0,0:0:0:0:
64,192,100921,1,2,0:0:0:0:
448,192,100921,1,0,0:0:0:35:LR_Clap Normal.wav
320,192,100986,1,0,0:0:0:0:
192,192,101050,1,0,0:0:0:0:
64,192,101115,1,0,0:0:0:0:
320,192,101180,1,2,0:0:0:0:
448,192,101180,1,0,0:0:0:35:LR_Clap Normal.wav
192,192,101244,1,0,0:0:0:0:
320,192,101309,1,0,0:0:0:0:
448,192,101374,1,0,0:0:0:0:
64,192,101438,1,2,0:0:0:0:
192,192,101438,1,0,0:0:0:35:LR_Clap Normal.wav
448,192,101503,1,0,0:0:0:0:
320,192,101568,1,0,0:0:0:0:
192,192,101632,1,0,0:0:0:0:
64,192,101697,1,2,0:0:0:0:
448,192,101697,1,0,0:0:0:35:LR_Clap Normal.wav
320,192,101761,1,0,0:0:0:20:LR_Kick Beat Drop.wav
64,192,101826,1,0,0:0:0:20:LR_Kick Beat Drop.wav
192,192,101826,1,0,0:0:0:0:
320,192,101891,1,0,0:0:0:20:LR_Kick Beat Drop.wav
64,192,101955,1,2,0:0:0:0:
448,192,101955,1,0,0:0:0:35:LR_Clap Normal.wav
192,192,102020,1,0,0:0:0:20:LR_Kick Beat Drop.wav
320,192,102085,1,0,0:0:0:20:LR_Kick Beat Drop.wav
448,192,102085,1,0,0:0:0:0:
192,192,102149,1,0,0:0:0:20:LR_Kick Beat Drop.wav
64,192,102214,1,2,0:0:0:0:
448,192,102214,1,0,0:0:0:35:LR_Clap Normal.wav
320,192,102279,1,0,0:0:0:20:LR_Kick Beat Drop.wav
64,192,102343,1,0,0:0:0:20:LR_Kick Beat Drop.wav
192,192,102343,1,0,0:0:0:0:
448,192,102408,1,0,0:0:0:20:LR_Kick Beat Drop.wav
64,192,102473,1,2,0:0:0:0:
320,192,102473,1,0,0:0:0:35:LR_Clap Normal.wav
192,192,102537,1,0,0:0:0:20:LR_Kick Beat Drop.wav
64,192,102602,1,0,0:0:0:20:LR_Kick Beat Drop.wav
448,192,102602,1,0,0:0:0:0:
320,192,102667,1,0,0:0:0:20:LR_Kick Beat Drop.wav
64,192,102731,1,2,0:0:0:0:
192,192,102731,1,0,0:0:0:35:LR_Clap Normal.wav
320,192,102796,1,0,0:0:0:20:LR_Kick Beat Drop.wav
192,192,102861,1,0,0:0:0:20:LR_Kick Beat Drop.wav
448,192,102861,1,0,0:0:0:0:
64,192,102925,1,0,0:0:0:20:LR_Kick Beat Drop.wav
320,192,102990,1,2,0:0:0:0:
448,192,102990,1,0,0:0:0:35:LR_Clap Normal.wav
192,192,103055,1,0,0:0:0:20:LR_Kick Beat Drop.wav
64,192,103119,1,0,0:0:0:20:LR_Kick Beat Drop.wav
320,192,103119,1,0,0:0:0:0:
448,192,103184,1,0,0:0:0:20:LR_Kick Beat Drop.wav
64,192,103249,1,2,0:0:0:0:
192,192,103249,1,0,0:0:0:35:LR_Clap Normal.wav
320,192,103313,1,0,0:0:0:20:LR_Kick Beat Drop.wav
64,192,103378,1,0,0:0:0:20:LR_Kick Beat Drop.wav
448,192,103378,1,0,0:0:0:0:
192,192,103443,1,0,0:0:0:20:LR_Kick Beat Drop.wav
320,192,103507,1,2,0:0:0:0:
448,192,103507,1,0,0:0:0:35:LR_Clap Normal.wav
192,192,103572,1,0,0:0:0:20:LR_Kick Beat Drop.wav
64,192,103636,1,0,0:0:0:20:LR_Kick Beat Drop.wav
448,192,103636,1,0,0:0:0:0:
320,192,103701,1,0,0:0:0:20:LR_Kick Beat Drop.wav
64,192,103766,1,2,0:0:0:0:
192,192,103766,1,0,0:0:0:35:LR_Clap Normal.wav
320,192,103830,1,0,0:0:0:20:LR_Kick Beat Drop.wav
64,192,103895,1,0,0:0:0:35:LR_Clap Normal.wav
320,192,103960,1,0,0:0:0:20:LR_Kick Beat Drop.wav
448,192,104024,1,2,0:0:0:0:
192,192,104089,1,0,0:0:0:20:LR_Kick Beat Drop.wav
448,192,104154,1,0,0:0:0:35:LR_Clap Normal.wav
192,192,104218,1,0,0:0:0:20:LR_Kick Beat Drop.wav
64,192,104283,1,2,0:0:0:0:
448,192,104348,1,0,0:0:0:20:LR_Kick Beat Drop.wav
64,192,104412,1,0,0:0:0:35:LR_Clap Normal.wav
448,192,104477,1,0,0:0:0:20:LR_Kick Beat Drop.wav
320,192,104542,1,2,0:0:0:0:
64,192,104606,1,0,0:0:0:20:LR_Kick Beat Drop.wav
320,192,104671,1,0,0:0:0:35:LR_Clap Normal.wav
64,192,104736,1,0,0:0:0:20:LR_Kick Beat Drop.wav
448,192,104800,1,0,0:0:0:30:LR_Kick Beat Drop.wav
320,192,104843,1,0,0:0:0:30:LR_Kick Beat Drop.wav
192,192,104886,1,0,0:0:0:30:LR_Kick Beat Drop.wav
448,192,104930,1,0,0:0:0:30:LR_Kick Beat Drop.wav
320,192,104973,1,0,0:0:0:30:LR_Kick Beat Drop.wav
64,192,105016,1,0,0:0:0:30:LR_Kick Beat Drop.wav
192,192,105059,1,0,0:0:0:30:LR_Kick Beat Drop.wav
320,192,105102,1,0,0:0:0:30:LR_Kick Beat Drop.wav
64,192,105145,1,0,0:0:0:30:LR_Kick Beat Drop.wav
192,192,105188,1,0,0:0:0:30:LR_Kick Beat Drop.wav
448,192,105231,1,0,0:0:0:30:LR_Kick Beat Drop.wav
320,192,105274,1,0,0:0:0:30:LR_Kick Beat Drop.wav
64,192,105318,1,0,0:0:0:30:LR_Kick Beat Drop.wav
192,192,105361,1,0,0:0:0:30:LR_Kick Beat Drop.wav
320,192,105404,1,0,0:0:0:30:LR_Kick Beat Drop.wav
64,192,105447,1,0,0:0:0:30:LR_Kick Beat Drop.wav
192,192,105490,1,0,0:0:0:30:LR_Kick Beat Drop.wav
448,192,105533,1,0,0:0:0:30:LR_Kick Beat Drop.wav
320,192,105576,1,0,0:0:0:30:LR_Kick Beat Drop.wav
192,192,105619,1,0,0:0:0:30:LR_Kick Beat Drop.wav
448,192,105662,1,0,0:0:0:30:LR_Kick Beat Drop.wav
320,192,105705,1,0,0:0:0:30:LR_Kick Beat Drop.wav
64,192,105749,1,0,0:0:0:30:LR_Kick Beat Drop.wav
192,192,105792,1,0,0:0:0:30:LR_Kick Beat Drop.wav
448,192,105835,128,0,106287:0:0:0:0:
64,192,106352,1,0,0:0:0:0:
448,192,106481,128,0,106675:0:0:0:0:
448,192,106740,128,0,106934:0:0:0:0:
64,192,106999,1,0,0:0:0:0:
448,192,107128,128,0,107386:0:0:0:0:
64,192,107386,128,0,107774:0:0:0:0:
448,192,107516,128,0,107774:0:0:0:0:
320,192,107645,128,0,107774:0:0:0:0:
192,192,107774,1,0,0:0:0:0:
64,192,107904,1,2,0:0:0:0:
192,192,107904,1,4,0:0:0:0:
448,192,107904,128,0,108162:0:0:0:0:
320,192,108033,128,0,108162:0:0:0:0:
192,192,108162,1,8,0:0:0:0:
64,192,108162,1,0,0:0:0:0:
64,192,108421,128,2,108680:0:0:0:0:
320,192,108421,1,4,0:0:0:0:
448,192,108421,1,0,0:0:0:0:
192,192,108550,128,0,108680:0:0:0:0:
448,192,108680,1,8,0:0:0:0:
320,192,108680,1,0,0:0:0:0:
64,192,108938,1,2,0:0:0:0:
448,192,108938,1,0,0:0:0:0:
64,192,109197,1,2,0:0:0:0:
448,192,109197,1,0,0:0:0:0:
192,192,109326,1,0,0:0:0:0:
320,192,109391,1,0,0:0:0:0:
64,192,109455,1,8,0:0:0:0:
192,192,109455,1,0,0:0:0:0:
448,192,109455,1,0,0:0:0:0:
320,192,109585,1,2,0:0:0:0:
64,192,109714,1,8,0:0:0:0:
192,192,109714,1,0,0:0:0:0:
448,192,109714,128,0,109973:0:0:0:0:
64,192,109973,1,2,0:0:0:0:
192,192,109973,1,4,0:0:0:0:
192,192,110102,1,0,0:0:0:0:
320,192,110102,1,0,0:0:0:0:
64,192,110231,1,2,0:0:0:0:
448,192,110231,1,0,0:0:0:0:
320,192,110361,1,0,0:0:0:0:
448,192,110361,1,0,0:0:0:0:
64,192,110490,1,2,0:0:0:0:
192,192,110490,1,0,0:0:0:0:
64,192,110619,1,0,0:0:0:0:
192,192,110619,1,0,0:0:0:0:
320,192,110749,1,2,0:0:0:0:
448,192,110749,1,0,0:0:0:0:
64,192,110878,1,0,0:0:0:0:
448,192,110878,1,0,0:0:0:0:
64,192,111007,1,2,0:0:0:0:
192,192,111007,1,0,0:0:0:0:
320,192,111136,1,0,0:0:0:0:
448,192,111136,1,0,0:0:0:0:
320,192,111266,1,2,0:0:0:0:
448,192,111266,1,0,0:0:0:0:
64,192,111395,1,0,0:0:0:0:
192,192,111395,1,0,0:0:0:0:
64,192,111524,1,2,0:0:0:0:
448,192,111524,1,0,0:0:0:0:
320,192,111654,1,0,0:0:0:0:
448,192,111654,1,0,0:0:0:0:
64,192,111783,1,2,0:0:0:0:
192,192,111783,1,0,0:0:0:0:
64,192,111912,1,2,0:0:0:0:
192,192,111912,1,0,0:0:0:0:
64,192,112042,1,2,0:0:0:0:
192,192,112042,1,0,0:0:0:0:
320,192,112171,1,0,0:0:0:0:
448,192,112171,1,0,0:0:0:0:
64,192,112300,1,2,0:0:0:0:
448,192,112300,1,0,0:0:0:0:
64,192,112430,1,0,0:0:0:0:
192,192,112430,1,0,0:0:0:0:
320,192,112559,1,2,0:0:0:0:
448,192,112559,1,0,0:0:0:0:
320,192,112688,1,0,0:0:0:0:
448,192,112688,1,0,0:0:0:0:
64,192,112818,1,2,0:0:0:0:
192,192,112818,1,0,0:0:0:0:
64,192,112947,1,0,0:0:0:0:
448,192,112947,1,0,0:0:0:0:
320,192,113076,1,2,0:0:0:0:
448,192,113076,1,0,0:0:0:0:
64,192,113205,1,0,0:0:0:0:
192,192,113205,1,0,0:0:0:0:
64,192,113335,1,2,0:0:0:0:
192,192,113335,1,0,0:0:0:0:
320,192,113464,1,0,0:0:0:0:
448,192,113464,1,0,0:0:0:0:
64,192,113593,1,2,0:0:0:0:
448,192,113593,1,0,0:0:0:0:
320,192,113723,1,0,0:0:0:20:LR_Kick Beat Drop.wav
192,192,113766,1,0,0:0:0:0:
64,192,113809,1,0,0:0:0:0:
320,192,113852,1,2,0:0:0:0:
448,192,113852,1,0,0:0:0:0:
320,192,113981,1,2,0:0:0:0:
448,192,113981,1,0,0:0:0:0:
320,192,114111,1,2,0:0:0:0:
448,192,114111,1,0,0:0:0:0:
64,192,114240,1,0,0:0:0:0:
192,192,114240,1,0,0:0:0:0:
64,192,114369,1,2,0:0:0:0:
320,192,114369,1,8,0:0:0:0:
448,192,114369,1,0,0:0:0:0:
192,192,114499,1,0,0:0:0:0:
320,192,114499,1,0,0:0:0:0:
64,192,114628,1,2,0:0:0:0:
192,192,114628,1,0,0:0:0:0:
320,192,114757,1,0,0:0:0:0:
448,192,114757,1,0,0:0:0:0:
64,192,114886,1,2,0:0:0:0:
192,192,114886,1,8,0:0:0:0:
448,192,114886,1,0,0:0:0:0:
192,192,115016,1,0,0:0:0:0:
320,192,115016,1,0,0:0:0:0:
320,192,115145,1,2,0:0:0:0:
448,192,115145,1,0,0:0:0:0:
64,192,115274,1,0,0:0:0:0:
192,192,115274,1,0,0:0:0:0:
64,192,115404,1,2,0:0:0:0:
320,192,115404,1,8,0:0:0:0:
448,192,115404,1,0,0:0:0:0:
192,192,115533,1,0,0:0:0:0:
320,192,115533,1,0,0:0:0:0:
64,192,115662,1,2,0:0:0:0:
192,192,115662,1,0,0:0:0:0:
320,192,115792,1,0,0:0:0:0:
448,192,115792,1,0,0:0:0:0:
64,192,115921,1,2,0:0:0:0:
192,192,115921,1,8,0:0:0:0:
448,192,115921,1,0,0:0:0:0:
64,192,116050,1,2,0:0:0:0:
192,192,116050,1,0,0:0:0:0:
64,192,116180,1,2,0:0:0:0:
192,192,116180,1,0,0:0:0:0:
320,192,116309,1,0,0:0:0:0:
448,192,116309,1,0,0:0:0:0:
64,192,116438,1,2,0:0:0:0:
192,192,116438,1,8,0:0:0:0:
448,192,116438,1,0,0:0:0:0:
192,192,116568,1,0,0:0:0:0:
320,192,116568,1,0,0:0:0:0:
320,192,116697,1,2,0:0:0:0:
448,192,116697,1,0,0:0:0:0:
64,192,116826,1,0,0:0:0:0:
192,192,116826,1,0,0:0:0:0:
64,192,116955,1,2,0:0:0:0:
320,192,116955,1,8,0:0:0:0:
448,192,116955,1,0,0:0:0:0:
192,192,117085,1,0,0:0:0:0:
320,192,117085,1,0,0:0:0:0:
64,192,117214,1,2,0:0:0:0:
192,192,117214,128,0,117473:0:0:0:0:
320,192,117343,128,0,117473:0:0:0:0:
64,192,117473,128,2,117731:0:0:0:0:
448,192,117473,1,0,0:0:0:0:
192,192,117602,128,0,117731:0:0:0:0:
320,192,117731,1,2,0:0:0:0:
448,192,117731,128,0,117990:0:0:0:0:
192,192,117861,128,0,117990:0:0:0:0:
64,192,117990,1,2,0:0:0:0:
320,192,117990,128,0,118249:0:0:0:0:
448,192,118119,128,0,118249:0:0:0:0:
64,192,118249,1,0,0:0:0:20:LR_Kick Beat Drop.wav
192,192,118249,1,0,0:0:0:0:
320,192,118378,1,0,0:0:0:0:
64,192,118507,1,0,0:0:0:20:LR_Kick Beat Drop.wav
192,192,118507,1,0,0:0:0:0:
320,192,118636,1,0,0:0:0:0:
64,192,118766,1,0,0:0:0:20:LR_Kick Beat Drop.wav
192,192,118766,1,0,0:0:0:0:
320,192,118895,1,0,0:0:0:0:
64,192,119024,1,0,0:0:0:20:LR_Kick Beat Drop.wav
448,192,119024,1,0,0:0:0:0:
192,192,119154,1,0,0:0:0:0:
320,192,119283,1,0,0:0:0:20:LR_Kick Beat Drop.wav
448,192,119283,1,0,0:0:0:0:
192,192,119412,1,0,0:0:0:0:
320,192,119542,1,0,0:0:0:20:LR_Kick Beat Drop.wav
448,192,119542,1,0,0:0:0:0:
192,192,119671,1,0,0:0:0:0:
320,192,119800,1,0,0:0:0:20:LR_Kick Beat Drop.wav
448,192,119800,1,0,0:0:0:0:
192,192,119930,1,0,0:0:0:0:
320,192,120059,128,0,120318:0:0:0:0:
448,192,120188,128,0,120318:0:0:0:0:
64,192,120318,1,2,0:0:0:0:
192,192,120318,1,4,0:0:0:0:
448,192,120447,1,0,0:0:0:60:LR_Snare Wet.wav
64,192,120576,1,8,0:0:0:0:
448,192,120576,128,0,120835:0:0:0:0:
320,192,120705,128,0,120835:0:0:0:0:
64,192,120835,1,2,0:0:0:0:
192,192,120835,1,0,0:0:0:0:
320,192,120964,1,0,0:0:0:60:LR_Snare Wet.wav
64,192,121093,1,8,0:0:0:0:
320,192,121093,128,0,121352:0:0:0:0:
448,192,121223,128,0,121352:0:0:0:0:
64,192,121352,1,2,0:0:0:0:
192,192,121352,1,0,0:0:0:0:
448,192,121481,1,0,0:0:0:60:LR_Snare Wet.wav
64,192,121611,1,8,0:0:0:0:
448,192,121611,128,0,121869:0:0:0:0:
320,192,121740,128,0,121869:0:0:0:0:
64,192,121869,1,2,0:0:0:0:
192,192,121869,1,0,0:0:0:0:
320,192,121999,1,2,0:0:0:0:
64,192,122063,1,2,0:0:0:0:
192,192,122063,1,0,0:0:0:0:
320,192,122128,1,8,0:0:0:0:
448,192,122128,1,0,0:0:0:0:
64,192,122257,1,2,0:0:0:0:
192,192,122257,1,0,0:0:0:0:
320,192,122322,1,2,0:0:0:0:
448,192,122322,1,0,0:0:0:0:
64,192,122386,1,2,0:0:0:0:
192,192,122386,1,0,0:0:0:0:
320,192,122516,1,2,0:0:0:0:
448,192,122516,1,0,0:0:0:0:
192,192,122580,1,2,0:0:0:0:
64,192,122645,1,0,0:0:0:60:LR_Snare Wet.wav
320,192,122645,1,0,0:0:0:0:
192,192,122774,1,2,0:0:0:0:
448,192,122774,1,0,0:0:0:0:
320,192,122839,1,2,0:0:0:0:
64,192,122904,1,2,0:0:0:0:
192,192,122904,1,0,0:0:0:0:
320,192,123033,1,2,0:0:0:0:
448,192,123033,1,0,0:0:0:0:
192,192,123098,1,2,0:0:0:0:
64,192,123162,1,0,0:0:0:60:LR_Snare Wet.wav
320,192,123162,1,0,0:0:0:0:
192,192,123292,1,2,0:0:0:0:
448,192,123292,1,0,0:0:0:0:
320,192,123356,1,2,0:0:0:0:
64,192,123421,1,2,0:0:0:0:
192,192,123421,1,0,0:0:0:0:
320,192,123550,1,2,0:0:0:0:
448,192,123550,1,0,0:0:0:0:
192,192,123615,1,2,0:0:0:0:
64,192,123680,1,0,0:0:0:60:LR_Snare Wet.wav
320,192,123680,1,0,0:0:0:0:
192,192,123809,1,2,0:0:0:0:
448,192,123809,1,0,0:0:0:0:
320,192,123874,1,2,0:0:0:0:
64,192,123938,1,2,0:0:0:0:
192,192,123938,1,0,0:0:0:0:
320,192,124068,1,2,0:0:0:0:
448,192,124068,1,0,0:0:0:0:
192,192,124132,1,2,0:0:0:0:
64,192,124197,1,0,0:0:0:60:LR_Snare Wet.wav
320,192,124197,1,0,0:0:0:0:
192,192,124326,1,2,0:0:0:0:
448,192,124326,1,0,0:0:0:0:
320,192,124391,1,2,0:0:0:0:
64,192,124455,128,4,124585:0:0:0:0:
192,192,124455,128,0,124585:0:0:0:70:LR_Kick Beat Drop.wav
448,192,124585,128,0,124714:0:0:0:0:
64,192,124714,128,0,124843:0:0:0:70:LR_Kick Beat Drop.wav
192,192,124714,128,0,124843:0:0:0:0:
448,192,124843,128,0,124973:0:0:0:0:
64,192,124973,128,0,125102:0:0:0:70:LR_Kick Beat Drop.wav
192,192,124973,128,0,125102:0:0:0:0:
448,192,125102,128,0,125231:0:0:0:0:
64,192,125231,128,0,125361:0:0:0:70:LR_Kick Beat Drop.wav
192,192,125231,128,0,125361:0:0:0:0:
448,192,125361,128,0,125490:0:0:0:0:
64,192,125490,1,0,0:0:0:30:LR_Kick Beat Drop.wav
192,192,125533,1,0,0:0:0:30:LR_Kick Beat Drop.wav
320,192,125576,1,0,0:0:0:30:LR_Kick Beat Drop.wav
448,192,125619,1,0,0:0:0:30:LR_Kick Beat Drop.wav
64,192,125662,1,0,0:0:0:30:LR_Kick Beat Drop.wav
192,192,125705,1,0,0:0:0:30:LR_Kick Beat Drop.wav
320,192,125749,1,0,0:0:0:30:LR_Kick Beat Drop.wav
448,192,125792,1,0,0:0:0:30:LR_Kick Beat Drop.wav
64,192,125835,1,0,0:0:0:30:LR_Kick Beat Drop.wav
192,192,125878,1,0,0:0:0:30:LR_Kick Beat Drop.wav
320,192,125921,1,0,0:0:0:30:LR_Kick Beat Drop.wav
448,192,125964,1,0,0:0:0:30:LR_Kick Beat Drop.wav
64,192,126007,1,2,0:0:0:0:
192,192,126007,1,0,0:0:0:0:
320,192,126136,1,2,0:0:0:0:
64,192,126266,128,8,126524:0:0:0:0:
448,192,126266,1,0,0:0:0:0:
320,192,126524,1,2,0:0:0:0:
448,192,126524,1,4,0:0:0:0:
192,192,126783,1,0,0:0:0:0:
64,192,127042,1,0,0:0:0:60:LR_Snare Wet.wav
448,192,127042,1,0,0:0:0:0:
320,192,127300,1,0,0:0:0:0:
192,192,127559,128,0,127818:0:0:0:70:LR_Kick Beat Drop.wav
448,192,127559,1,0,0:0:0:0:
64,192,127688,128,0,127818:0:0:0:70:LR_Kick Beat Drop.wav
320,192,127818,128,0,128076:0:0:0:70:LR_Kick Beat Drop.wav
448,192,127818,1,0,0:0:0:0:
192,192,127947,128,0,128076:0:0:0:70:LR_Kick Beat Drop.wav
64,192,128076,1,0,0:0:0:70:LR_Kick Beat Drop.wav
448,192,128076,128,0,128335:0:0:0:0:
320,192,128205,128,0,128335:0:0:0:70:LR_Kick Beat Drop.wav
64,192,128335,1,2,0:0:0:0:
192,192,128335,1,0,0:0:0:0:
320,192,128464,1,2,0:0:0:0:
448,192,128464,1,0,0:0:0:0:
64,192,128529,1,2,0:0:0:0:
192,192,128529,1,0,0:0:0:0:
320,192,128593,1,2,0:0:0:0:
448,192,128593,1,4,0:0:0:0:
192,192,128658,1,0,0:0:0:0:
64,192,128723,1,0,0:0:0:0:
448,192,128787,1,0,0:0:0:0:
64,192,128852,1,2,0:0:0:0:
320,192,128852,1,8,0:0:0:0:
192,192,128917,1,0,0:0:0:0:
320,192,128981,1,0,0:0:0:0:
448,192,129046,1,0,0:0:0:0:
64,192,129111,1,2,0:0:0:0:
192,192,129111,1,0,0:0:0:0:
448,192,129175,1,0,0:0:0:0:
320,192,129240,1,0,0:0:0:0:
192,192,129305,1,0,0:0:0:0:
64,192,129369,1,2,0:0:0:0:
320,192,129369,1,8,0:0:0:0:
448,192,129434,1,0,0:0:0:0:
64,192,129499,1,0,0:0:0:0:
192,192,129563,1,0,0:0:0:0:
320,192,129628,1,2,0:0:0:0:
448,192,129628,1,0,0:0:0:0:
192,192,129693,1,0,0:0:0:0:
64,192,129757,1,0,0:0:0:0:
448,192,129822,1,0,0:0:0:0:
192,192,129886,1,2,0:0:0:0:
320,192,129886,1,8,0:0:0:0:
64,192,129951,1,0,0:0:0:0:
448,192,130016,1,0,0:0:0:0:
320,192,130080,1,0,0:0:0:0:
64,192,130145,1,2,0:0:0:0:
192,192,130145,1,0,0:0:0:0:
320,192,130210,1,0,0:0:0:0:
64,192,130274,1,2,0:0:0:0:
192,192,130274,1,0,0:0:0:0:
320,192,130339,1,0,0:0:0:0:
64,192,130404,1,2,0:0:0:0:
192,192,130404,1,8,0:0:0:0:
448,192,130468,1,0,0:0:0:0:
320,192,130533,1,0,0:0:0:0:
192,192,130598,1,0,0:0:0:0:
64,192,130662,1,2,0:0:0:0:
320,192,130662,1,4,0:0:0:0:
448,192,130727,1,0,0:0:0:0:
64,192,130792,1,0,0:0:0:0:
192,192,130856,1,0,0:0:0:0:
320,192,130921,1,2,0:0:0:0:
448,192,130921,1,8,0:0:0:0:
64,192,130986,1,0,0:0:0:0:
192,192,131050,1,0,0:0:0:0:
320,192,131115,1,0,0:0:0:0:
192,192,131180,1,2,0:0:0:0:
448,192,131180,1,0,0:0:0:0:
64,192,131244,1,0,0:0:0:0:
320,192,131309,1,0,0:0:0:0:
192,192,131374,1,0,0:0:0:0:
64,192,131438,1,2,0:0:0:0:
448,192,131438,1,8,0:0:0:0:
320,192,131503,1,0,0:0:0:0:
192,192,131568,1,0,0:0:0:0:
64,192,131632,1,0,0:0:0:0:
320,192,131697,1,2,0:0:0:0:
448,192,131697,1,0,0:0:0:0:
64,192,131761,1,0,0:0:0:0:
192,192,131826,1,0,0:0:0:0:
320,192,131891,1,0,0:0:0:0:
64,192,131955,1,2,0:0:0:0:
448,192,131955,1,8,0:0:0:0:
192,192,132020,1,0,0:0:0:0:
320,192,132085,1,0,0:0:0:0:
448,192,132149,1,0,0:0:0:0:
64,192,132214,1,2,0:0:0:0:
192,192,132214,1,0,0:0:0:0:
448,192,132279,1,0,0:0:0:0:
320,192,132343,1,0,0:0:0:0:
192,192,132408,1,0,0:0:0:0:
64,192,132473,1,2,0:0:0:0:
448,192,132473,1,8,0:0:0:0:
320,192,132537,1,0,0:0:0:0:
64,192,132602,1,2,0:0:0:0:
192,192,132602,1,0,0:0:0:0:
320,192,132667,1,2,0:0:0:0:
448,192,132667,1,0,0:0:0:0:
64,192,132731,1,2,0:0:0:0:
192,192,132731,1,0,0:0:0:0:
320,192,132796,1,0,0:0:0:0:
448,192,132861,1,0,0:0:0:0:
64,192,132925,1,0,0:0:0:0:
192,192,132990,1,8,0:0:0:0:
320,192,132990,1,2,0:0:0:0:
448,192,133055,1,0,0:0:0:0:
64,192,133119,1,0,0:0:0:0:
192,192,133184,1,0,0:0:0:0:
320,192,133249,1,2,0:0:0:0:
448,192,133249,1,0,0:0:0:0:
192,192,133313,1,0,0:0:0:0:
64,192,133378,1,0,0:0:0:0:
448,192,133443,1,0,0:0:0:0:
64,192,133507,1,8,0:0:0:0:
320,192,133507,1,2,0:0:0:0:
192,192,133572,1,0,0:0:0:0:
320,192,133636,1,0,0:0:0:0:
448,192,133701,1,0,0:0:0:0:
64,192,133766,1,2,0:0:0:0:
192,192,133766,1,0,0:0:0:0:
320,192,133830,1,0,0:0:0:0:
448,192,133895,1,0,0:0:0:0:
64,192,133960,1,0,0:0:0:0:
192,192,134024,1,8,0:0:0:0:
448,192,134024,1,2,0:0:0:0:
320,192,134089,1,0,0:0:0:0:
64,192,134154,1,2,0:0:0:0:
192,192,134154,1,0,0:0:0:0:
320,192,134218,1,2,0:0:0:0:
448,192,134218,1,0,0:0:0:0:
64,192,134283,1,2,0:0:0:0:
192,192,134283,1,0,0:0:0:0:
320,192,134348,1,0,0:0:0:0:
64,192,134412,1,2,0:0:0:0:
192,192,134412,1,0,0:0:0:0:
320,192,134477,1,0,0:0:0:0:
64,192,134542,1,2,0:0:0:0:
192,192,134542,1,8,0:0:0:0:
448,192,134606,1,0,0:0:0:0:
320,192,134671,1,0,0:0:0:0:
192,192,134736,1,0,0:0:0:0:
64,192,134800,1,2,0:0:0:0:
448,192,134800,1,4,0:0:0:0:
320,192,134865,1,0,0:0:0:0:
192,192,134930,1,0,0:0:0:0:
64,192,134994,1,0,0:0:0:0:
320,192,135059,1,8,0:0:0:0:
448,192,135059,1,2,0:0:0:0:
192,192,135124,1,0,0:0:0:0:
64,192,135188,1,0,0:0:0:0:
448,192,135253,1,0,0:0:0:0:
64,192,135318,1,2,0:0:0:0:
320,192,135318,1,0,0:0:0:0:
192,192,135382,1,0,0:0:0:0:
448,192,135447,1,0,0:0:0:0:
320,192,135511,1,0,0:0:0:0:
64,192,135576,1,8,0:0:0:0:
192,192,135576,1,2,0:0:0:0:
320,192,135641,1,0,0:0:0:0:
192,192,135705,1,0,0:0:0:0:
64,192,135770,1,0,0:0:0:0:
320,192,135835,1,2,0:0:0:0:
448,192,135835,1,0,0:0:0:0:
64,192,135899,1,0,0:0:0:0:
192,192,135964,1,0,0:0:0:0:
320,192,136029,1,0,0:0:0:0:
64,192,136093,1,2,0:0:0:0:
448,192,136093,1,8,0:0:0:0:
192,192,136158,1,0,0:0:0:0:
320,192,136223,1,0,0:0:0:0:
448,192,136287,1,0,0:0:0:0:
64,192,136352,1,2,0:0:0:0:
192,192,136352,1,0,0:0:0:0:
320,192,136417,1,0,0:0:0:0:
448,192,136481,1,0,0:0:0:0:
192,192,136546,1,0,0:0:0:0:
320,192,136611,1,2,0:0:0:0:
448,192,136611,1,8,0:0:0:0:
192,192,136675,1,0,0:0:0:0:
320,192,136740,1,2,0:0:0:0:
448,192,136740,1,0,0:0:0:0:
64,192,136805,1,2,0:0:0:0:
192,192,136805,1,0,0:0:0:0:
320,192,136869,1,2,0:0:0:0:
448,192,136869,1,4,0:0:0:0:
64,192,136934,1,0,0:0:0:0:
192,192,136999,1,0,0:0:0:0:
320,192,137063,1,0,0:0:0:0:
192,192,137128,1,2,0:0:0:0:
448,192,137128,1,8,0:0:0:0:
64,192,137193,1,0,0:0:0:0:
448,192,137257,1,0,0:0:0:0:
320,192,137322,1,0,0:0:0:0:
64,192,137386,1,2,0:0:0:0:
192,192,137386,1,0,0:0:0:0:
320,192,137451,1,0,0:0:0:0:
448,192,137516,1,0,0:0:0:0:
64,192,137580,1,0,0:0:0:0:
192,192,137645,1,2,0:0:0:0:
448,192,137645,1,8,0:0:0:0:
320,192,137710,1,0,0:0:0:0:
192,192,137774,1,0,0:0:0:0:
64,192,137839,1,0,0:0:0:0:
320,192,137904,1,2,0:0:0:0:
448,192,137904,1,0,0:0:0:0:
192,192,137968,1,0,0:0:0:0:
320,192,138033,1,2,0:0:0:0:
448,192,138033,1,0,0:0:0:0:
192,192,138098,1,0,0:0:0:0:
320,192,138162,1,2,0:0:0:0:
448,192,138162,1,8,0:0:0:0:
64,192,138227,1,0,0:0:0:0:
192,192,138292,1,0,0:0:0:0:
320,192,138356,1,2,0:0:0:0:
448,192,138356,1,0,0:0:0:0:
64,192,138421,1,2,0:0:0:0:
192,192,138421,1,0,0:0:0:0:
320,192,138486,1,0,0:0:0:0:
64,192,138550,1,2,0:0:0:0:
192,192,138550,1,0,0:0:0:0:
320,192,138615,1,0,0:0:0:0:
64,192,138680,128,0,138938:0:0:0:60:LR_Snare Wet.wav
448,192,138680,1,0,0:0:0:0:
320,192,138938,1,2,0:0:0:0:
448,192,138938,1,4,0:0:0:0:
192,192,139003,1,0,0:0:0:0:
64,192,139068,1,0,0:0:0:0:
448,192,139132,1,0,0:0:0:0:
64,192,139197,1,2,0:0:0:0:
320,192,139197,1,8,0:0:0:0:
192,192,139261,1,0,0:0:0:0:
320,192,139326,1,0,0:0:0:0:
448,192,139391,1,0,0:0:0:0:
64,192,139455,1,2,0:0:0:0:
192,192,139455,1,0,0:0:0:0:
320,192,139520,1,0,0:0:0:0:
448,192,139585,1,0,0:0:0:0:
64,192,139649,1,0,0:0:0:0:
192,192,139714,1,2,0:0:0:0:
448,192,139714,1,8,0:0:0:0:
320,192,139779,1,0,0:0:0:0:
192,192,139843,1,0,0:0:0:0:
64,192,139908,1,0,0:0:0:0:
320,192,139973,1,2,0:0:0:0:
448,192,139973,1,0,0:0:0:0:
192,192,140037,1,0,0:0:0:0:
64,192,140102,1,0,0:0:0:0:
448,192,140167,1,0,0:0:0:0:
64,192,140231,1,2,0:0:0:0:
320,192,140231,1,8,0:0:0:0:
192,192,140296,1,0,0:0:0:0:
320,192,140361,1,0,0:0:0:0:
448,192,140425,1,0,0:0:0:0:
64,192,140490,1,2,0:0:0:0:
192,192,140490,1,0,0:0:0:0:
448,192,140555,1,0,0:0:0:0:
320,192,140619,1,0,0:0:0:0:
192,192,140684,1,0,0:0:0:0:
64,192,140749,1,2,0:0:0:0:
320,192,140749,1,8,0:0:0:0:
448,192,140813,1,0,0:0:0:0:
64,192,140878,1,2,0:0:0:0:
192,192,140878,1,0,0:0:0:0:
320,192,140943,1,2,0:0:0:0:
448,192,140943,1,0,0:0:0:0:
64,192,141007,1,2,0:0:0:0:
192,192,141007,1,0,0:0:0:0:
448,192,141072,1,0,0:0:0:0:
320,192,141136,1,0,0:0:0:0:
192,192,141201,1,0,0:0:0:0:
64,192,141266,1,2,0:0:0:0:
320,192,141266,1,8,0:0:0:0:
448,192,141330,1,0,0:0:0:0:
64,192,141395,1,0,0:0:0:0:
192,192,141460,1,0,0:0:0:0:
320,192,141524,1,2,0:0:0:0:
448,192,141524,1,0,0:0:0:0:
64,192,141589,1,0,0:0:0:0:
192,192,141654,1,0,0:0:0:0:
320,192,141718,1,0,0:0:0:0:
192,192,141783,1,2,0:0:0:0:
448,192,141783,1,8,0:0:0:0:
64,192,141848,1,0,0:0:0:0:
448,192,141912,1,0,0:0:0:0:
320,192,141977,1,0,0:0:0:0:
192,192,142042,128,0,142688:0:0:0:0:
320,192,142300,128,0,142430:0:0:0:0:
64,192,142430,128,0,142688:0:0:0:0:
320,192,142688,1,2,0:0:0:0:
448,192,142688,128,0,143076:0:0:0:0:
64,192,142818,1,8,0:0:0:0:
192,192,142818,1,0,0:0:0:0:
320,192,142947,128,0,143076:0:0:0:0:
64,192,143076,1,2,0:0:0:0:
192,192,143076,1,4,0:0:0:0:
192,192,143205,1,0,0:0:0:20:LR_Kick Beat Drop.wav
64,192,143335,1,2,0:0:0:0:
320,192,143335,1,0,0:0:0:0:
320,192,143464,1,0,0:0:0:20:LR_Kick Beat Drop.wav
64,192,143593,1,2,0:0:0:0:
192,192,143593,1,0,0:0:0:0:
64,192,143723,1,0,0:0:0:20:LR_Kick Beat Drop.wav
320,192,143852,1,2,0:0:0:0:
448,192,143852,1,0,0:0:0:0:
320,192,143981,1,0,0:0:0:20:LR_Kick Beat Drop.wav
192,192,144111,1,2,0:0:0:0:
448,192,144111,1,0,0:0:0:0:
192,192,144240,1,0,0:0:0:20:LR_Kick Beat Drop.wav
320,192,144369,1,2,0:0:0:0:
448,192,144369,1,0,0:0:0:0:
448,192,144499,1,0,0:0:0:20:LR_Kick Beat Drop.wav
64,192,144628,128,2,144693:0:0:0:0:
192,192,144628,1,0,0:0:0:25:F#6R_Gb6R.wav
64,192,144757,1,0,0:0:0:20:LR_Kick Beat Drop.wav
320,192,144886,1,2,0:0:0:0:
448,192,144886,128,0,144951:0:0:0:30:G6R.wav
448,192,145016,1,0,0:0:0:20:LR_Kick Beat Drop.wav
64,192,145145,128,2,145210:0:0:0:0:
192,192,145145,1,0,0:0:0:25:F#6R_Gb6R.wav
64,192,145274,1,0,0:0:0:20:LR_Kick Beat Drop.wav
320,192,145404,1,2,0:0:0:0:
448,192,145404,1,0,0:0:0:0:
320,192,145533,128,0,145598:0:0:0:20:LR_Kick Beat Drop.wav
64,192,145662,1,2,0:0:0:0:
448,192,145662,1,0,0:0:0:0:
64,192,145792,1,0,0:0:0:20:LR_Kick Beat Drop.wav
320,192,145921,1,2,0:0:0:0:
448,192,145921,128,0,145986:0:0:0:20:B5R.wav
448,192,146050,1,0,0:0:0:20:LR_Kick Beat Drop.wav
64,192,146180,1,2,0:0:0:0:
192,192,146180,1,0,0:0:0:0:
192,192,146309,1,0,0:0:0:20:LR_Kick Beat Drop.wav
64,192,146438,1,2,0:0:0:0:
320,192,146438,1,0,0:0:0:0:
320,192,146568,1,0,0:0:0:20:LR_Kick Beat Drop.wav
448,192,146697,1,2,0:0:0:0:
64,192,146697,128,0,146761:0:0:0:18:A5R.wav
64,192,146826,1,0,0:0:0:20:LR_Kick Beat Drop.wav
448,192,146955,1,2,0:0:0:0:
320,192,146955,1,0,0:0:0:0:
320,192,147085,1,0,0:0:0:20:LR_Kick Beat Drop.wav
64,192,147214,1,2,0:0:0:0:
192,192,147214,128,0,147279:0:0:0:20:B5R.wav
448,192,147214,1,0,0:0:0:0:
192,192,147343,1,0,0:0:0:20:LR_Kick Beat Drop.wav
64,192,147473,1,2,0:0:0:0:
448,192,147473,128,0,147731:0:0:0:0:
320,192,147602,128,0,147731:0:0:0:20:LR_Kick Beat Drop.wav
64,192,147731,1,2,0:0:0:0:
192,192,147731,1,0,0:0:0:0:
192,192,147861,1,0,0:0:0:20:LR_Kick Beat Drop.wav
320,192,147990,128,2,148249:0:0:0:0:
448,192,147990,1,0,0:0:0:0:
192,192,148119,128,0,148249:0:0:0:20:LR_Kick Beat Drop.wav
64,192,148249,1,2,0:0:0:0:
448,192,148249,1,0,0:0:0:0:
448,192,148378,1,0,0:0:0:20:LR_Kick Beat Drop.wav
64,192,148507,1,2,0:0:0:0:
192,192,148507,128,0,148766:0:0:0:0:
320,192,148636,1,0,0:0:0:20:LR_Kick Beat Drop.wav
64,192,148766,1,2,0:0:0:0:
448,192,148766,128,0,149024:0:0:0:0:
192,192,148895,1,0,0:0:0:20:LR_Kick Beat Drop.wav
64,192,149024,128,2,149283:0:0:0:0:
320,192,149024,1,0,0:0:0:0:
192,192,149154,128,0,149283:0:0:0:20:LR_Kick Beat Drop.wav
320,192,149283,1,2,0:0:0:0:
448,192,149283,1,0,0:0:0:0:
320,192,149412,1,0,0:0:0:20:LR_Kick Beat Drop.wav
64,192,149542,1,2,0:0:0:0:
192,192,149542,1,0,0:0:0:0:
192,192,149671,1,0,0:0:0:20:LR_Kick Beat Drop.wav
320,192,149800,1,2,0:0:0:0:
448,192,149800,1,0,0:0:0:0:
320,192,149930,1,0,0:0:0:20:LR_Kick Beat Drop.wav
64,192,150059,1,2,0:0:0:0:
448,192,150059,1,0,0:0:0:0:
192,192,150188,1,0,0:0:0:20:LR_Kick Beat Drop.wav
64,192,150318,1,2,0:0:0:0:
448,192,150318,1,0,0:0:0:0:
320,192,150447,1,0,0:0:0:20:LR_Kick Beat Drop.wav
64,192,150576,1,2,0:0:0:0:
192,192,150576,1,0,0:0:0:0:
320,192,150705,1,0,0:0:0:20:LR_Kick Beat Drop.wav
64,192,150835,1,2,0:0:0:0:
192,192,150835,1,0,0:0:0:0:
320,192,150964,1,0,0:0:0:20:LR_Kick Beat Drop.wav
64,192,151093,128,2,151352:0:0:0:0:
448,192,151093,1,0,0:0:0:0:
320,192,151352,1,2,0:0:0:0:
448,192,151352,1,4,0:0:0:0:
320,192,151481,1,0,0:0:0:0:
64,192,151611,1,0,0:0:0:0:
192,192,151611,1,0,0:0:0:0:
192,192,151740,1,0,0:0:0:0:
320,192,151869,1,0,0:0:0:0:
448,192,151869,1,0,0:0:0:0:
320,192,151999,1,0,0:0:0:0:
64,192,152128,1,0,0:0:0:0:
448,192,152128,1,0,0:0:0:0:
192,192,152257,1,0,0:0:0:0:
64,192,152386,1,0,0:0:0:0:
448,192,152386,1,0,0:0:0:0:
320,192,152516,1,0,0:0:0:0:
64,192,152645,128,0,152904:0:0:0:0:
192,192,152645,1,0,0:0:0:0:
320,192,152904,1,0,0:0:0:0:
448,192,152904,1,0,0:0:0:0:
320,192,153033,1,0,0:0:0:0:
64,192,153162,128,0,153421:0:0:0:0:
448,192,153162,1,0,0:0:0:0:
192,192,153292,128,0,153421:0:0:0:0:
320,192,153421,1,0,0:0:0:0:
448,192,153421,1,0,0:0:0:0:
320,192,153550,1,0,0:0:0:0:
64,192,153680,1,0,0:0:0:0:
192,192,153680,1,0,0:0:0:0:
192,192,153809,1,0,0:0:0:0:
320,192,153938,1,0,0:0:0:0:
448,192,153938,1,0,0:0:0:0:
320,192,154068,1,0,0:0:0:0:
64,192,154197,1,0,0:0:0:0:
448,192,154197,1,0,0:0:0:0:
192,192,154326,1,0,0:0:0:0:
64,192,154455,1,0,0:0:0:0:
448,192,154455,1,0,0:0:0:0:
320,192,154585,1,0,0:0:0:0:
64,192,154714,128,0,154973:0:0:0:0:
192,192,154714,1,0,0:0:0:0:
320,192,154973,1,0,0:0:0:0:
448,192,154973,1,0,0:0:0:0:
192,192,155102,1,0,0:0:0:0:
192,192,155231,128,0,155361:0:0:0:0:
448,192,155231,128,0,155490:0:0:0:0:
64,192,155490,1,2,0:0:0:0:
192,192,155490,1,0,0:0:0:0:
192,192,155619,1,0,0:0:0:0:
320,192,155749,1,0,0:0:0:0:
448,192,155749,1,0,0:0:0:0:
320,192,155878,1,0,0:0:0:0:
64,192,156007,1,0,0:0:0:0:
192,192,156007,1,0,0:0:0:0:
192,192,156136,1,0,0:0:0:0:
64,192,156266,1,0,0:0:0:0:
448,192,156266,1,0,0:0:0:0:
320,192,156395,1,0,0:0:0:0:
64,192,156524,1,0,0:0:0:0:
448,192,156524,1,0,0:0:0:0:
192,192,156654,1,0,0:0:0:0:
320,192,156783,1,0,0:0:0:0:
448,192,156783,128,0,157042:0:0:0:0:
64,192,157042,1,0,0:0:0:0:
192,192,157042,1,0,0:0:0:0:
192,192,157171,1,0,0:0:0:0:
64,192,157300,1,0,0:0:0:0:
448,192,157300,128,0,157559:0:0:0:0:
320,192,157430,128,0,157559:0:0:0:0:
64,192,157559,1,0,0:0:0:0:
192,192,157559,1,0,0:0:0:0:
192,192,157688,1,0,0:0:0:0:
320,192,157818,1,0,0:0:0:0:
448,192,157818,1,0,0:0:0:0:
320,192,157947,1,0,0:0:0:0:
64,192,158076,1,0,0:0:0:0:
192,192,158076,1,0,0:0:0:0:
192,192,158205,1,0,0:0:0:0:
64,192,158335,1,0,0:0:0:0:
448,192,158335,1,0,0:0:0:0:
320,192,158464,1,0,0:0:0:0:
64,192,159628,1,2,0:0:0:0:
448,192,159628,128,4,159757:0:0:0:0:
320,192,159757,1,0,0:0:0:0:
192,192,159822,1,0,0:0:0:0:
64,192,159886,128,0,160145:0:0:0:0:
448,192,160016,128,0,160145:0:0:0:0:
320,192,160080,128,0,160145:0:0:0:0:
192,192,160145,128,0,160404:0:0:0:0:
64,192,160274,128,0,160404:0:0:0:0:
320,192,160404,128,0,160662:0:0:0:0:
64,192,160533,128,0,160662:0:0:0:0:
192,192,160662,1,0,0:0:0:0:
320,192,160727,1,0,0:0:0:0:
448,192,160792,128,0,161050:0:0:0:0:
64,192,160921,128,0,161180:0:0:0:0:
192,192,161050,128,0,161180:0:0:0:0:
320,192,161115,128,0,161180:0:0:0:0:
448,192,161180,128,0,161438:0:0:0:0:
64,192,161309,128,0,161697:0:0:0:0:
320,192,161438,128,0,161826:0:0:0:0:
192,192,161568,128,0,161697:0:0:0:0:
448,192,161697,128,0,161826:0:0:0:0:
192,192,161826,1,0,0:0:0:0:
64,192,161891,1,0,0:0:0:0:
320,192,161955,128,0,162214:0:0:0:0:
192,192,162085,128,0,162214:0:0:0:0:
64,192,162149,128,0,162214:0:0:0:0:
448,192,162214,128,0,162473:0:0:0:0:
320,192,162343,128,0,162473:0:0:0:0:
64,192,162473,128,0,162731:0:0:0:0:
448,192,162602,128,0,162731:0:0:0:0:
192,192,162731,1,0,0:0:0:0:
320,192,162796,1,0,0:0:0:0:
448,192,162861,128,0,163119:0:0:0:0:
64,192,162990,128,0,163249:0:0:0:0:
192,192,163119,128,0,163249:0:0:0:0:
320,192,163184,128,0,163249:0:0:0:0:
448,192,163249,128,0,163507:0:0:0:0:
64,192,163378,128,0,163507:0:0:0:0:
192,192,163507,128,0,163766:0:0:0:0:
448,192,163636,128,0,163895:0:0:0:0:
320,192,163766,128,0,163895:0:0:0:0:
64,192,163895,1,0,0:0:0:0:
192,192,163960,1,0,0:0:0:0:
320,192,164024,128,0,164283:0:0:0:0:
192,192,164154,128,0,164283:0:0:0:0:
64,192,164218,128,0,164283:0:0:0:0:
448,192,164283,128,0,164542:0:0:0:0:
320,192,164412,128,0,164542:0:0:0:0:
192,192,164542,128,0,164800:0:0:0:0:
448,192,164671,128,0,164800:0:0:0:0:
320,192,164800,1,0,0:0:0:0:
192,192,164865,1,0,0:0:0:0:
64,192,164930,128,0,165188:0:0:0:0:
448,192,165059,128,0,165318:0:0:0:0:
320,192,165188,128,0,165318:0:0:0:0:
192,192,165253,128,0,165318:0:0:0:0:
64,192,165318,128,0,165576:0:0:0:0:
448,192,165447,128,0,165576:0:0:0:0:
320,192,165576,128,0,165835:0:0:0:0:
64,192,165705,128,0,165964:0:0:0:0:
192,192,165835,128,0,165964:0:0:0:0:
448,192,165964,1,0,0:0:0:0:
320,192,166029,1,0,0:0:0:0:
192,192,166093,128,0,166352:0:0:0:0:
448,192,166223,128,0,166352:0:0:0:0:
320,192,166287,128,0,166352:0:0:0:0:
64,192,166352,128,0,166481:0:0:0:0:
320,192,166481,128,0,166869:0:0:0:0:
192,192,166611,128,0,166740:0:0:0:0:
448,192,166740,128,0,166869:0:0:0:0:
192,192,166869,1,0,0:0:0:0:
64,192,166934,1,0,0:0:0:0:
448,192,166999,128,0,167257:0:0:0:0:
320,192,167128,128,0,167257:0:0:0:0:
64,192,167257,128,0,167516:0:0:0:0:
192,192,167322,128,0,167516:0:0:0:0:
320,192,167386,128,0,167645:0:0:0:0:
448,192,167516,128,0,167645:0:0:0:0:
64,192,167645,128,0,167904:0:0:0:0:
192,192,167774,128,0,167904:0:0:0:0:
320,192,167904,1,2,0:0:0:0:
448,192,167904,128,4,168033:0:0:0:0:
64,192,168033,1,0,0:0:0:0:
192,192,168098,1,0,0:0:0:0:
320,192,168162,128,0,168292:0:0:0:0:
64,192,168292,128,0,168421:0:0:0:0:
192,192,168356,128,0,168421:0:0:0:0:
320,192,168421,1,8,0:0:0:0:
448,192,168421,128,0,168680:0:0:0:0:
192,192,168550,128,0,168680:0:0:0:0:
320,192,168680,128,0,168938:0:0:0:0:
448,192,168809,128,0,168938:0:0:0:0:
192,192,168938,1,0,0:0:0:0:
64,192,169003,1,0,0:0:0:0:
320,192,169068,128,0,169197:0:0:0:0:
64,192,169197,1,2,0:0:0:0:
192,192,169197,128,0,169326:0:0:0:0:
448,192,169326,128,0,169455:0:0:0:0:
320,192,169391,128,0,169455:0:0:0:0:
64,192,169455,128,8,169714:0:0:0:0:
192,192,169455,1,0,0:0:0:0:
320,192,169585,128,0,169714:0:0:0:0:
192,192,169714,128,0,169973:0:0:0:0:
64,192,169843,128,0,169973:0:0:0:0:
320,192,169973,128,2,170102:0:0:0:0:
448,192,169973,1,0,0:0:0:0:
64,192,170102,1,0,0:0:0:0:
192,192,170167,1,0,0:0:0:0:
448,192,170231,128,0,170361:0:0:0:0:
64,192,170361,128,0,170490:0:0:0:0:
192,192,170425,128,0,170490:0:0:0:0:
320,192,170490,128,8,170749:0:0:0:0:
448,192,170490,1,0,0:0:0:0:
192,192,170619,128,0,170749:0:0:0:0:
448,192,170749,128,0,171007:0:0:0:0:
320,192,170878,128,0,171007:0:0:0:0:
192,192,171007,1,0,0:0:0:0:
64,192,171072,1,0,0:0:0:0:
320,192,171136,128,0,171266:0:0:0:0:
64,192,171266,128,2,171395:0:0:0:0:
192,192,171266,1,0,0:0:0:0:
448,192,171395,128,0,171524:0:0:0:0:
320,192,171460,128,0,171524:0:0:0:0:
64,192,171524,1,8,0:0:0:0:
192,192,171524,128,0,171783:0:0:0:0:
320,192,171654,128,0,171783:0:0:0:0:
64,192,171783,128,0,172042:0:0:0:0:
192,192,171912,128,0,172042:0:0:0:0:
320,192,172042,1,2,0:0:0:0:
448,192,172042,128,0,172171:0:0:0:0:
64,192,172171,1,0,0:0:0:0:
192,192,172236,1,0,0:0:0:0:
320,192,172300,128,0,172430:0:0:0:0:
64,192,172430,128,0,172559:0:0:0:0:
192,192,172494,128,0,172559:0:0:0:0:
320,192,172559,1,8,0:0:0:0:
448,192,172559,128,0,172818:0:0:0:0:
192,192,172688,128,0,172818:0:0:0:0:
320,192,172818,128,0,173076:0:0:0:0:
448,192,172947,128,0,173076:0:0:0:0:
192,192,173076,1,0,0:0:0:0:
64,192,173141,1,0,0:0:0:0:
448,192,173205,128,0,173335:0:0:0:0:
64,192,173335,1,2,0:0:0:0:
192,192,173335,128,0,173464:0:0:0:0:
448,192,173464,128,0,173593:0:0:0:0:
320,192,173529,128,0,173593:0:0:0:0:
64,192,173593,128,8,173852:0:0:0:0:
192,192,173593,1,0,0:0:0:0:
320,192,173723,128,0,173852:0:0:0:0:
192,192,173852,128,0,174111:0:0:0:0:
64,192,173981,128,0,174111:0:0:0:0:
320,192,174111,128,2,174240:0:0:0:0:
448,192,174111,1,0,0:0:0:0:
64,192,174240,1,0,0:0:0:0:
192,192,174305,1,0,0:0:0:0:
320,192,174369,128,0,174499:0:0:0:0:
64,192,174499,128,0,174628:0:0:0:0:
192,192,174563,128,0,174628:0:0:0:0:
320,192,174628,1,8,0:0:0:0:
448,192,174628,128,0,174886:0:0:0:0:
192,192,174757,128,0,174886:0:0:0:0:
320,192,174886,128,0,175145:0:0:0:0:
448,192,175016,128,0,175145:0:0:0:0:
192,192,175145,1,0,0:0:0:0:
64,192,175210,1,0,0:0:0:0:
320,192,175274,128,0,175404:0:0:0:0:
64,192,175404,1,2,0:0:0:0:
192,192,175404,128,0,175533:0:0:0:0:
448,192,175533,128,0,175662:0:0:0:0:
320,192,175598,128,0,175662:0:0:0:0:
64,192,175662,128,8,175921:0:0:0:0:
192,192,175662,1,0,0:0:0:0:
448,192,175792,128,0,175921:0:0:0:0:
320,192,175921,128,0,176180:0:0:0:0:
448,192,176050,128,0,176180:0:0:0:0:
64,192,176180,1,6,0:0:0:0:
192,192,176180,128,0,176438:0:0:0:35:LR_Clap Normal.wav
320,192,176309,128,0,176438:0:0:0:0:
64,192,176438,128,0,176697:0:0:0:0:
448,192,176438,128,0,176697:0:0:0:0:
192,192,176697,128,0,176955:0:0:0:35:LR_Clap Normal.wav
320,192,176697,1,0,0:0:0:0:
64,192,176826,128,0,176955:0:0:0:0:
320,192,176955,128,0,177085:0:0:0:0:
448,192,176955,128,0,177085:0:0:0:0:
192,192,177085,1,0,0:0:0:0:
64,192,177214,1,0,0:0:0:35:LR_Clap Normal.wav
448,192,177214,128,0,177473:0:0:0:0:
320,192,177343,128,0,177473:0:0:0:0:
64,192,177473,128,0,177731:0:0:0:0:
192,192,177473,128,0,177731:0:0:0:0:
320,192,177731,128,0,177990:0:0:0:35:LR_Clap Normal.wav
448,192,177731,1,0,0:0:0:0:
192,192,177861,128,0,177990:0:0:0:0:
64,192,177990,128,0,178119:0:0:0:0:
448,192,177990,128,0,178119:0:0:0:0:
320,192,178119,1,0,0:0:0:0:
64,192,178249,1,0,0:0:0:35:LR_Clap Normal.wav
192,192,178249,128,0,178507:0:0:0:0:
320,192,178378,128,0,178507:0:0:0:0:
64,192,178507,128,0,178766:0:0:0:0:
448,192,178507,128,0,178766:0:0:0:0:
192,192,178766,1,0,0:0:0:35:LR_Clap Normal.wav
320,192,178766,128,0,179024:0:0:0:0:
448,192,178895,128,0,179024:0:0:0:0:
64,192,179024,128,0,179154:0:0:0:0:
192,192,179024,128,0,179154:0:0:0:0:
320,192,179154,1,0,0:0:0:0:
64,192,179283,128,0,179542:0:0:0:35:LR_Clap Normal.wav
448,192,179283,1,0,0:0:0:0:
192,192,179412,128,0,179542:0:0:0:0:
320,192,179542,128,0,179800:0:0:0:0:
448,192,179542,128,0,179800:0:0:0:0:
64,192,179800,1,0,0:0:0:35:LR_Clap Normal.wav
192,192,179800,128,0,180059:0:0:0:0:
320,192,179930,128,0,180059:0:0:0:0:
64,192,180059,128,0,180188:0:0:0:0:
448,192,180059,128,0,180188:0:0:0:0:
192,192,180188,1,0,0:0:0:0:
320,192,180318,128,0,180576:0:0:0:35:LR_Clap Normal.wav
448,192,180318,1,0,0:0:0:0:
192,192,180447,128,0,180576:0:0:0:0:
64,192,180576,128,0,180835:0:0:0:0:
448,192,180576,128,0,180835:0:0:0:0:
192,192,180835,128,0,181093:0:0:0:35:LR_Clap Normal.wav
320,192,180835,1,0,0:0:0:0:
64,192,180964,128,0,181093:0:0:0:0:
320,192,181093,128,0,181223:0:0:0:0:
448,192,181093,128,0,181223:0:0:0:0:
192,192,181223,1,0,0:0:0:0:
64,192,181352,1,0,0:0:0:35:LR_Clap Normal.wav
448,192,181352,128,0,181611:0:0:0:0:
320,192,181481,128,0,181611:0:0:0:0:
64,192,181611,128,0,181869:0:0:0:0:
192,192,181611,128,0,181869:0:0:0:0:
320,192,181869,128,0,182128:0:0:0:35:LR_Clap Normal.wav
448,192,181869,1,0,0:0:0:0:
192,192,181999,128,0,182128:0:0:0:0:
64,192,182128,128,0,182257:0:0:0:0:
448,192,182128,128,0,182257:0:0:0:0:
320,192,182257,1,0,0:0:0:0:
64,192,182386,1,0,0:0:0:35:LR_Clap Normal.wav
192,192,182386,128,0,182645:0:0:0:0:
320,192,182516,128,0,182645:0:0:0:0:
64,192,182645,128,0,182904:0:0:0:0:
448,192,182645,128,0,182904:0:0:0:0:
192,192,182904,1,0,0:0:0:35:LR_Clap Normal.wav
320,192,182904,128,0,183162:0:0:0:0:
448,192,183033,128,0,183162:0:0:0:0:
64,192,183162,128,0,183292:0:0:0:0:
192,192,183162,128,0,183292:0:0:0:0:
320,192,183292,1,0,0:0:0:0:
64,192,183421,128,0,183680:0:0:0:35:LR_Clap Normal.wav
448,192,183421,1,0,0:0:0:0:
192,192,183550,128,0,183680:0:0:0:0:
320,192,183680,128,0,183938:0:0:0:0:
448,192,183680,128,0,183938:0:0:0:0:
64,192,183938,1,0,0:0:0:35:LR_Clap Normal.wav
192,192,183938,128,0,184197:0:0:0:0:
320,192,184068,128,0,184197:0:0:0:0:
64,192,184197,128,0,184326:0:0:0:0:
448,192,184197,128,0,184326:0:0:0:0:
192,192,184326,1,0,0:0:0:0:
320,192,184455,1,2,0:0:0:0:
448,192,184455,1,0,0:0:0:0:
64,192,184520,1,0,0:0:0:0:
192,192,184585,1,0,0:0:0:0:
320,192,184649,1,0,0:0:0:0:
64,192,184714,1,8,0:0:0:0:
448,192,184714,1,0,0:0:0:0:
192,192,184779,1,0,0:0:0:0:
320,192,184843,1,0,0:0:0:0:
192,192,184908,1,0,0:0:0:0:
64,192,184973,1,8,0:0:0:0:
320,192,184973,1,0,0:0:0:0:
448,192,185037,1,0,0:0:0:0:
192,192,185102,1,0,0:0:0:0:
320,192,185167,1,0,0:0:0:0:
64,192,185231,1,8,0:0:0:0:
448,192,185231,1,0,0:0:0:0:
192,192,185296,1,0,0:0:0:0:
320,192,185361,1,0,0:0:0:0:
448,192,185425,1,0,0:0:0:0:
192,192,185490,1,8,0:0:0:0:
64,192,185490,1,0,0:0:0:0:
448,192,185555,1,0,0:0:0:0:
320,192,185619,1,0,0:0:0:0:
192,192,185684,1,0,0:0:0:0:
448,192,185749,1,8,0:0:0:0:
64,192,185749,1,0,0:0:0:0:
320,192,185813,1,0,0:0:0:0:
192,192,185878,1,0,0:0:0:0:
320,192,185943,1,0,0:0:0:0:
448,192,186007,1,8,0:0:0:0:
192,192,186007,1,0,0:0:0:0:
64,192,186072,1,0,0:0:0:0:
320,192,186136,1,0,0:0:0:0:
192,192,186201,1,0,0:0:0:0:
448,192,186266,1,8,0:0:0:0:
64,192,186266,1,0,0:0:0:0:
320,192,186330,1,0,0:0:0:0:
192,192,186395,1,0,0:0:0:0:
64,192,186460,1,0,0:0:0:0:
320,192,186524,1,8,0:0:0:0:
448,192,186524,1,0,0:0:0:0:
192,192,186589,1,0,0:0:0:0:
64,192,186654,1,0,0:0:0:0:
448,192,186718,1,0,0:0:0:0:
192,192,186783,1,8,0:0:0:0:
320,192,186783,1,0,0:0:0:0:
64,192,186848,1,0,0:0:0:0:
448,192,186912,1,0,0:0:0:0:
64,192,186977,1,0,0:0:0:0:
320,192,187042,1,8,0:0:0:0:
448,192,187042,1,0,0:0:0:0:
192,192,187106,1,0,0:0:0:0:
64,192,187171,1,0,0:0:0:0:
320,192,187236,1,0,0:0:0:0:
192,192,187300,1,8,0:0:0:0:
448,192,187300,1,0,0:0:0:0:
64,192,187365,1,0,0:0:0:0:
448,192,187430,1,0,0:0:0:0:
320,192,187494,1,0,0:0:0:0:
64,192,187559,1,8,0:0:0:0:
192,192,187559,1,0,0:0:0:0:
320,192,187624,1,0,0:0:0:0:
448,192,187688,1,0,0:0:0:0:
64,192,187753,1,0,0:0:0:0:
320,192,187818,1,8,0:0:0:0:
192,192,187818,1,0,0:0:0:0:
448,192,187882,1,0,0:0:0:0:
64,192,187947,1,0,0:0:0:0:
448,192,188011,1,0,0:0:0:0:
192,192,188076,1,8,0:0:0:0:
64,192,188076,1,0,0:0:0:0:
320,192,188141,1,0,0:0:0:0:
448,192,188205,1,0,0:0:0:0:
192,192,188270,1,0,0:0:0:0:
320,192,188335,1,8,0:0:0:0:
64,192,188335,1,0,0:0:0:0:
448,192,188399,1,0,0:0:0:0:
64,192,188464,1,0,0:0:0:0:
192,192,188529,1,0,0:0:0:0:
320,192,188593,1,2,0:0:0:0:
448,192,188593,1,8,0:0:0:0:
192,192,188658,1,0,0:0:0:0:
320,192,188723,1,2,0:0:0:0:
448,192,188787,1,0,0:0:0:0:
64,192,188852,1,2,0:0:0:0:
192,192,188852,1,8,0:0:0:0:
320,192,188917,1,0,0:0:0:0:
192,192,188981,1,2,0:0:0:0:
64,192,189046,1,0,0:0:0:0:
320,192,189111,1,2,0:0:0:0:
448,192,189111,1,8,0:0:0:0:
192,192,189175,1,0,0:0:0:0:
320,192,189240,1,2,0:0:0:0:
448,192,189305,1,0,0:0:0:0:
64,192,189369,1,2,0:0:0:0:
192,192,189369,1,8,0:0:0:0:
320,192,189434,1,0,0:0:0:0:
192,192,189499,1,2,0:0:0:0:
64,192,189563,1,0,0:0:0:0:
320,192,189628,1,2,0:0:0:0:
448,192,189628,1,8,0:0:0:0:
64,192,189693,1,2,0:0:0:0:
192,192,189757,1,2,0:0:0:0:
320,192,189822,1,2,0:0:0:0:
64,192,189886,1,2,0:0:0:0:
192,192,189886,1,8,0:0:0:0:
448,192,189951,1,2,0:0:0:0:
320,192,190016,1,2,0:0:0:0:
192,192,190080,1,2,0:0:0:0:
320,192,190145,1,2,0:0:0:0:
448,192,190145,1,8,0:0:0:0:
64,192,190210,1,2,0:0:0:0:
192,192,190274,1,2,0:0:0:0:
320,192,190339,1,2,0:0:0:0:
64,192,190404,1,2,0:0:0:0:
192,192,190404,1,8,0:0:0:0:
448,192,190468,1,2,0:0:0:0:
320,192,190533,1,2,0:0:0:0:
192,192,190598,1,2,0:0:0:0:
448,192,190662,128,0,190921:0:0:0:0:
64,192,190662,128,0,190921:0:0:0:0:
320,192,190662,128,2,190921:0:0:0:0:
192,192,190921,1,0,0:0:0:0:
192,192,191050,1,0,0:0:0:0:
320,192,191180,1,0,0:0:0:0:
320,192,191309,1,0,0:0:0:0:
64,192,191697,1,2,0:0:0:0:
448,192,191697,1,0,0:0:0:0:
64,192,191955,1,2,0:0:0:0:
448,192,191955,1,0,0:0:0:0:
192,192,192085,1,0,0:0:0:0:
320,192,192149,1,0,0:0:0:0:
64,192,192214,1,8,0:0:0:0:
192,192,192214,1,0,0:0:0:0:
448,192,192214,1,0,0:0:0:0:
320,192,192343,1,2,0:0:0:0:
64,192,192473,1,8,0:0:0:0:
192,192,192473,1,0,0:0:0:0:
448,192,192473,128,0,192731:0:0:0:0:
64,192,192731,1,2,0:0:0:0:
192,192,192731,1,0,0:0:0:0:
320,192,192796,1,2,0:0:0:0:
64,192,192861,1,2,0:0:0:0:
448,192,192925,1,2,0:0:0:0:
192,192,192990,1,2,0:0:0:0:
320,192,192990,1,0,0:0:0:0:
64,192,193055,1,2,0:0:0:0:
320,192,193119,1,2,0:0:0:0:
192,192,193184,1,2,0:0:0:0:
64,192,193249,1,2,0:0:0:0:
448,192,193249,1,0,0:0:0:0:
320,192,193313,1,2,0:0:0:0:
192,192,193378,1,2,0:0:0:0:
448,192,193443,1,2,0:0:0:0:
64,192,193507,1,2,0:0:0:0:
192,192,193507,1,0,0:0:0:0:
320,192,193572,1,2,0:0:0:0:
64,192,193636,1,2,0:0:0:0:
192,192,193701,1,2,0:0:0:0:
320,192,193766,1,2,0:0:0:0:
448,192,193766,1,0,0:0:0:0:
64,192,193830,1,2,0:0:0:0:
448,192,193895,1,2,0:0:0:0:
192,192,193960,1,2,0:0:0:0:
64,192,194024,1,2,0:0:0:0:
320,192,194024,1,0,0:0:0:0:
448,192,194089,1,2,0:0:0:0:
192,192,194154,1,2,0:0:0:0:
320,192,194218,1,2,0:0:0:0:
64,192,194283,1,2,0:0:0:0:
192,192,194283,1,0,0:0:0:0:
448,192,194348,1,2,0:0:0:0:
64,192,194412,1,2,0:0:0:0:
192,192,194477,1,2,0:0:0:0:
320,192,194542,1,2,0:0:0:0:
448,192,194542,128,8,194800:0:0:0:0:
64,192,194800,1,2,0:0:0:0:
192,192,194800,1,4,0:0:0:0:
320,192,194930,1,2,0:0:0:0:
192,192,194994,1,2,0:0:0:0:
64,192,195059,1,0,0:0:0:20:LR_Kick Beat Drop.wav
448,192,195102,1,0,0:0:0:0:
320,192,195145,1,0,0:0:0:0:
64,192,195188,1,2,0:0:0:0:
192,192,195188,1,0,0:0:0:0:
320,192,195318,1,0,0:0:0:20:LR_Kick Beat Drop.wav
192,192,195361,1,0,0:0:0:0:
64,192,195404,1,0,0:0:0:0:
448,192,195447,1,2,0:0:0:0:
320,192,195511,1,2,0:0:0:0:
64,192,195576,1,2,0:0:0:0:
192,192,195576,1,0,0:0:0:0:
320,192,195705,1,2,0:0:0:0:
448,192,195770,1,2,0:0:0:0:
64,192,195835,1,2,0:0:0:0:
192,192,195835,1,4,0:0:0:0:
320,192,195964,1,0,0:0:0:20:LR_Kick Beat Drop.wav
192,192,196007,1,0,0:0:0:0:
64,192,196050,1,0,0:0:0:0:
448,192,196093,1,2,0:0:0:0:
320,192,196158,1,2,0:0:0:0:
64,192,196223,1,2,0:0:0:0:
192,192,196223,1,0,0:0:0:0:
320,192,196352,1,0,0:0:0:20:LR_Kick Beat Drop.wav
192,192,196395,1,0,0:0:0:0:
64,192,196438,1,0,0:0:0:0:
320,192,196481,1,2,0:0:0:0:
448,192,196481,1,0,0:0:0:0:
64,192,196611,1,2,0:0:0:0:
192,192,196611,1,0,0:0:0:0:
448,192,196740,1,0,0:0:0:20:LR_Kick Beat Drop.wav
320,192,196783,1,0,0:0:0:0:
192,192,196826,1,0,0:0:0:0:
64,192,196869,1,2,0:0:0:0:
448,192,196869,1,0,0:0:0:0:
320,192,196934,1,2,0:0:0:0:
192,192,196999,1,2,0:0:0:0:
448,192,197063,1,2,0:0:0:0:
64,192,197128,1,2,0:0:0:0:
192,192,197128,1,0,0:0:0:0:
320,192,197193,1,2,0:0:0:0:
64,192,197257,1,2,0:0:0:0:
448,192,197322,1,2,0:0:0:0:
192,192,197386,1,2,0:0:0:0:
320,192,197386,1,0,0:0:0:0:
64,192,197451,1,2,0:0:0:0:
448,192,197516,1,2,0:0:0:0:
192,192,197580,1,2,0:0:0:0:
320,192,197645,1,2,0:0:0:0:
448,192,197645,1,0,0:0:0:0:
64,192,197710,1,2,0:0:0:0:
192,192,197774,1,2,0:0:0:0:
320,192,197839,1,2,0:0:0:0:
64,192,197904,1,2,0:0:0:0:
192,192,197904,1,0,0:0:0:0:
448,192,197968,1,2,0:0:0:0:
64,192,198033,1,2,0:0:0:0:
192,192,198098,1,2,0:0:0:0:
320,192,198162,1,2,0:0:0:0:
448,192,198162,1,0,0:0:0:0:
64,192,198227,1,2,0:0:0:0:
448,192,198292,1,2,0:0:0:0:
192,192,198356,1,2,0:0:0:0:
64,192,198421,1,2,0:0:0:0:
320,192,198421,1,0,0:0:0:0:
448,192,198486,1,2,0:0:0:0:
192,192,198550,1,2,0:0:0:0:
320,192,198615,1,2,0:0:0:0:
64,192,198680,128,2,198938:0:0:0:0:
192,192,198680,1,8,0:0:0:0:
320,192,198938,1,2,0:0:0:0:
448,192,198938,1,4,0:0:0:0:
192,192,199068,1,2,0:0:0:0:
64,192,199132,1,2,0:0:0:0:
320,192,199197,1,0,0:0:0:20:LR_Kick Beat Drop.wav
192,192,199240,1,0,0:0:0:0:
64,192,199283,1,0,0:0:0:0:
320,192,199326,1,2,0:0:0:0:
448,192,199326,1,0,0:0:0:0:
192,192,199455,1,0,0:0:0:20:LR_Kick Beat Drop.wav
320,192,199499,1,0,0:0:0:0:
448,192,199542,1,0,0:0:0:0:
64,192,199585,1,2,0:0:0:0:
192,192,199649,1,2,0:0:0:0:
320,192,199714,1,2,0:0:0:0:
448,192,199714,1,0,0:0:0:0:
64,192,199843,1,2,0:0:0:0:
448,192,199843,1,0,0:0:0:0:
320,192,199908,1,0,0:0:0:0:
64,192,199973,1,2,0:0:0:0:
192,192,199973,1,0,0:0:0:0:
448,192,200102,1,0,0:0:0:20:LR_Kick Beat Drop.wav
320,192,200145,1,0,0:0:0:0:
192,192,200188,1,0,0:0:0:0:
64,192,200231,1,2,0:0:0:0:
448,192,200231,1,0,0:0:0:0:
320,192,200296,1,2,0:0:0:0:
64,192,200361,1,2,0:0:0:0:
192,192,200361,1,0,0:0:0:0:
448,192,200490,1,0,0:0:0:20:LR_Kick Beat Drop.wav
320,192,200533,1,0,0:0:0:0:
192,192,200576,1,0,0:0:0:0:
64,192,200619,1,2,0:0:0:0:
448,192,200619,1,0,0:0:0:0:
192,192,200749,1,2,0:0:0:0:
320,192,200749,1,0,0:0:0:0:
64,192,200878,1,0,0:0:0:20:LR_Kick Beat Drop.wav
192,192,200921,1,0,0:0:0:0:
320,192,200964,1,0,0:0:0:0:
64,192,201007,1,2,0:0:0:0:
448,192,201007,1,0,0:0:0:60:LR_Snare Wet.wav
192,192,201136,1,2,0:0:0:0:
320,192,201136,1,0,0:0:0:60:LR_Snare Wet.wav
320,192,201266,1,2,0:0:0:0:
448,192,201266,1,0,0:0:0:60:LR_Snare Wet.wav
64,192,201395,1,2,0:0:0:0:
192,192,201395,1,0,0:0:0:60:LR_Snare Wet.wav
320,192,201460,1,2,0:0:0:0:
64,192,201524,1,2,0:0:0:0:
448,192,201524,1,0,0:0:0:60:LR_Snare Wet.wav
192,192,201654,1,2,0:0:0:0:
320,192,201654,1,0,0:0:0:60:LR_Snare Wet.wav
448,192,201718,1,2,0:0:0:0:
64,192,201783,1,2,0:0:0:0:
192,192,201783,1,0,0:0:0:60:LR_Snare Wet.wav
448,192,201912,1,0,0:0:0:20:LR_Kick Beat Drop.wav
320,192,201955,1,0,0:0:0:0:
192,192,201999,1,0,0:0:0:0:
64,192,202042,1,2,0:0:0:0:
448,192,202042,1,0,0:0:0:60:LR_Snare Wet.wav
192,192,202171,1,2,0:0:0:0:
320,192,202171,1,0,0:0:0:60:LR_Snare Wet.wav
64,192,202300,1,2,0:0:0:0:
192,192,202300,1,0,0:0:0:60:LR_Snare Wet.wav
320,192,202430,1,2,0:0:0:0:
448,192,202430,1,0,0:0:0:60:LR_Snare Wet.wav
192,192,202494,1,2,0:0:0:0:
64,192,202559,1,2,0:0:0:0:
448,192,202559,1,0,0:0:0:60:LR_Snare Wet.wav
192,192,202688,1,2,0:0:0:0:
320,192,202688,1,0,0:0:0:60:LR_Snare Wet.wav
64,192,202753,1,2,0:0:0:0:
320,192,202818,128,8,202947:0:0:0:0:
448,192,202818,1,2,0:0:0:0:
64,192,202947,128,0,203076:0:0:0:0:
448,192,203076,1,0,0:0:0:20:LR_Kick Beat Drop.wav
320,192,203119,1,0,0:0:0:0:
192,192,203162,1,0,0:0:0:0:
64,192,203205,1,2,0:0:0:0:
448,192,203205,1,0,0:0:0:60:LR_Snare Wet.wav
192,192,203335,1,2,0:0:0:0:
320,192,203335,1,0,0:0:0:60:LR_Snare Wet.wav
64,192,203464,1,2,0:0:0:0:
448,192,203464,1,0,0:0:0:60:LR_Snare Wet.wav
320,192,203529,1,2,0:0:0:0:
64,192,203593,1,2,0:0:0:0:
192,192,203593,1,0,0:0:0:60:LR_Snare Wet.wav
320,192,203723,1,2,0:0:0:0:
448,192,203723,1,0,0:0:0:60:LR_Snare Wet.wav
192,192,203852,1,0,0:0:0:20:LR_Kick Beat Drop.wav
320,192,203895,1,0,0:0:0:0:
448,192,203938,1,0,0:0:0:0:
64,192,203981,1,0,0:0:0:20:LR_Kick Beat Drop.wav
192,192,204024,1,0,0:0:0:0:
320,192,204068,1,0,0:0:0:0:
64,192,204111,1,2,0:0:0:0:
192,192,204175,1,2,0:0:0:0:
320,192,204240,1,2,0:0:0:0:
448,192,204240,1,0,0:0:0:60:LR_Snare Wet.wav
64,192,204369,1,2,0:0:0:0:
448,192,204369,1,0,0:0:0:60:LR_Snare Wet.wav
192,192,204499,1,2,0:0:0:0:
320,192,204499,1,0,0:0:0:60:LR_Snare Wet.wav
64,192,204563,1,2,0:0:0:0:
320,192,204628,1,2,0:0:0:0:
448,192,204628,1,0,0:0:0:60:LR_Snare Wet.wav
192,192,204757,1,2,0:0:0:0:
64,192,204822,1,2,0:0:0:0:
448,192,204886,1,0,0:0:0:20:LR_Kick Beat Drop.wav
320,192,204930,1,0,0:0:0:0:
192,192,204973,1,0,0:0:0:0:
64,192,205016,1,0,0:0:0:20:LR_Kick Beat Drop.wav
448,192,205059,1,0,0:0:0:0:
320,192,205102,1,0,0:0:0:0:
64,192,205145,1,2,0:0:0:0:
192,192,205145,1,0,0:0:0:60:LR_Snare Wet.wav
192,192,205274,1,2,0:0:0:0:
448,192,205274,1,0,0:0:0:60:LR_Snare Wet.wav
320,192,205404,1,2,0:0:0:0:
448,192,205404,1,0,0:0:0:60:LR_Snare Wet.wav
64,192,205533,1,2,0:0:0:0:
192,192,205533,1,0,0:0:0:60:LR_Snare Wet.wav
320,192,205598,1,2,0:0:0:0:
64,192,205662,1,2,0:0:0:0:
448,192,205662,1,0,0:0:0:60:LR_Snare Wet.wav
192,192,205792,1,2,0:0:0:0:
320,192,205792,1,0,0:0:0:60:LR_Snare Wet.wav
448,192,205856,1,2,0:0:0:0:
64,192,205921,1,2,0:0:0:0:
192,192,205921,1,0,0:0:0:60:LR_Snare Wet.wav
448,192,206050,1,0,0:0:0:20:LR_Kick Beat Drop.wav
320,192,206093,1,0,0:0:0:0:
192,192,206136,1,0,0:0:0:0:
64,192,206180,1,2,0:0:0:0:
448,192,206180,1,0,0:0:0:60:LR_Snare Wet.wav
192,192,206309,1,2,0:0:0:0:
320,192,206309,1,0,0:0:0:60:LR_Snare Wet.wav
64,192,206438,1,2,0:0:0:0:
192,192,206438,1,0,0:0:0:60:LR_Snare Wet.wav
320,192,206568,1,2,0:0:0:0:
448,192,206568,1,0,0:0:0:60:LR_Snare Wet.wav
192,192,206632,1,2,0:0:0:0:
64,192,206697,1,2,0:0:0:0:
448,192,206697,1,0,0:0:0:60:LR_Snare Wet.wav
192,192,206826,1,2,0:0:0:0:
320,192,206826,1,0,0:0:0:60:LR_Snare Wet.wav
64,192,206891,1,2,0:0:0:0:
320,192,206955,128,2,207214:0:0:0:0:
448,192,206955,1,8,0:0:0:0:
64,192,207214,1,2,0:0:0:0:
192,192,207214,1,0,0:0:0:60:LR_Snare Wet.wav
64,192,207343,1,2,0:0:0:0:
192,192,207343,1,0,0:0:0:60:LR_Snare Wet.wav
448,192,207473,1,2,0:0:0:0:
320,192,207516,1,0,0:0:0:0:
192,192,207559,1,0,0:0:0:0:
64,192,207602,1,0,0:0:0:20:LR_Kick Beat Drop.wav
448,192,207645,1,0,0:0:0:0:
320,192,207688,1,0,0:0:0:0:
64,192,207731,1,2,0:0:0:0:
192,192,207731,1,0,0:0:0:60:LR_Snare Wet.wav
64,192,207861,1,2,0:0:0:0:
192,192,207861,1,0,0:0:0:60:LR_Snare Wet.wav
448,192,207990,1,2,0:0:0:0:
320,192,208033,1,0,0:0:0:0:
192,192,208076,1,0,0:0:0:0:
64,192,208119,1,0,0:0:0:20:LR_Kick Beat Drop.wav
448,192,208162,1,0,0:0:0:0:
320,192,208205,1,0,0:0:0:0:
192,192,208249,1,0,0:0:0:0:
192,192,208378,1,0,0:0:0:0:
448,192,208507,1,0,0:0:0:0:
320,192,208572,1,0,0:0:0:0:
64,192,208636,1,0,0:0:0:0:
192,192,208766,1,0,0:0:0:0:
320,192,208895,1,2,0:0:0:0:
64,192,209024,1,8,0:0:0:0:
448,192,209024,128,0,209283:0:0:0:0:
64,192,209283,1,4,0:0:0:0:
192,192,209283,1,0,0:0:0:35:LR_Clap Normal.wav
64,192,209412,1,0,0:0:0:0:
320,192,209542,1,0,0:0:0:0:
192,192,209606,1,0,0:0:0:0:
448,192,209671,1,0,0:0:0:0:
320,192,209736,1,0,0:0:0:0:
64,192,209800,1,0,0:0:0:35:LR_Clap Normal.wav
192,192,209800,1,0,0:0:0:0:
64,192,209930,1,0,0:0:0:0:
192,192,210059,1,0,0:0:0:0:
320,192,210124,1,0,0:0:0:0:
64,192,210188,1,0,0:0:0:0:
192,192,210253,1,0,0:0:0:0:
320,192,210318,1,0,0:0:0:35:LR_Clap Normal.wav
448,192,210318,1,0,0:0:0:0:
448,192,210447,1,0,0:0:0:0:
192,192,210576,1,0,0:0:0:0:
320,192,210641,1,0,0:0:0:0:
64,192,210705,1,0,0:0:0:0:
192,192,210770,1,0,0:0:0:0:
320,192,210835,1,0,0:0:0:35:LR_Clap Normal.wav
448,192,210835,1,0,0:0:0:0:
448,192,210964,1,0,0:0:0:0:
192,192,211093,1,0,0:0:0:0:
64,192,211158,1,0,0:0:0:0:
320,192,211223,1,0,0:0:0:0:
192,192,211287,1,0,0:0:0:0:
64,192,211352,1,0,0:0:0:35:LR_Clap Normal.wav
448,192,211352,1,0,0:0:0:0:
64,192,211481,1,0,0:0:0:0:
320,192,211611,1,0,0:0:0:0:
448,192,211675,1,0,0:0:0:0:
192,192,211740,1,0,0:0:0:0:
320,192,211805,1,0,0:0:0:0:
64,192,211869,1,0,0:0:0:35:LR_Clap Normal.wav
448,192,211869,1,0,0:0:0:0:
64,192,211999,1,0,0:0:0:0:
448,192,212128,1,0,0:0:0:0:
320,192,212193,1,0,0:0:0:0:
192,192,212257,1,0,0:0:0:0:
320,192,212322,1,0,0:0:0:0:
64,192,212386,1,0,0:0:0:35:LR_Clap Normal.wav
448,192,212386,1,0,0:0:0:0:
448,192,212516,1,0,0:0:0:0:
64,192,212645,1,0,0:0:0:0:
192,192,212710,1,0,0:0:0:0:
320,192,212774,1,0,0:0:0:0:
192,192,212839,1,0,0:0:0:0:
64,192,212904,1,0,0:0:0:35:LR_Clap Normal.wav
448,192,212904,1,0,0:0:0:0:
448,192,213033,1,0,0:0:0:0:
320,192,213162,1,0,0:0:0:0:
192,192,213227,1,0,0:0:0:0:
448,192,213292,1,0,0:0:0:0:
320,192,213356,1,0,0:0:0:0:
64,192,213421,1,0,0:0:0:35:LR_Clap Normal.wav
192,192,213421,1,0,0:0:0:0:
64,192,213550,1,0,0:0:0:0:
320,192,213680,1,0,0:0:0:0:
192,192,213744,1,0,0:0:0:0:
448,192,213809,1,0,0:0:0:0:
320,192,213874,1,0,0:0:0:0:
64,192,213938,1,0,0:0:0:35:LR_Clap Normal.wav
192,192,213938,1,0,0:0:0:0:
64,192,214068,1,0,0:0:0:0:
192,192,214197,1,0,0:0:0:0:
320,192,214261,1,0,0:0:0:0:
64,192,214326,1,0,0:0:0:0:
192,192,214391,1,0,0:0:0:0:
320,192,214455,1,0,0:0:0:35:LR_Clap Normal.wav
448,192,214455,1,0,0:0:0:0:
448,192,214585,1,0,0:0:0:0:
192,192,214714,1,0,0:0:0:0:
64,192,214779,1,0,0:0:0:0:
320,192,214843,1,0,0:0:0:0:
192,192,214908,1,0,0:0:0:0:
64,192,214973,1,0,0:0:0:35:LR_Clap Normal.wav
448,192,214973,1,0,0:0:0:0:
448,192,215102,1,0,0:0:0:0:
320,192,215231,1,0,0:0:0:0:
192,192,215296,1,0,0:0:0:0:
448,192,215361,1,0,0:0:0:0:
320,192,215425,1,0,0:0:0:0:
64,192,215490,1,0,0:0:0:35:LR_Clap Normal.wav
192,192,215490,1,0,0:0:0:0:
320,192,215555,1,0,0:0:0:40:LR_Kick Beat Drop.wav
448,192,215619,1,0,0:0:0:40:LR_Kick Beat Drop.wav
64,192,215684,1,0,0:0:0:40:LR_Kick Beat Drop.wav
192,192,215749,1,0,0:0:0:40:LR_Kick Beat Drop.wav
448,192,215749,1,0,0:0:0:0:
320,192,215813,1,0,0:0:0:40:LR_Kick Beat Drop.wav
64,192,215878,1,0,0:0:0:40:LR_Kick Beat Drop.wav
192,192,215943,1,0,0:0:0:40:LR_Kick Beat Drop.wav
320,192,216007,1,0,0:0:0:35:LR_Clap Normal.wav
448,192,216007,1,0,0:0:0:0:
192,192,216072,1,0,0:0:0:40:LR_Kick Beat Drop.wav
64,192,216136,1,0,0:0:0:40:LR_Kick Beat Drop.wav
448,192,216201,1,0,0:0:0:40:LR_Kick Beat Drop.wav
64,192,216266,1,0,0:0:0:40:LR_Kick Beat Drop.wav
320,192,216266,1,0,0:0:0:0:
192,192,216330,1,0,0:0:0:40:LR_Kick Beat Drop.wav
448,192,216395,1,0,0:0:0:40:LR_Kick Beat Drop.wav
320,192,216460,1,0,0:0:0:40:LR_Kick Beat Drop.wav
64,192,216524,1,2,0:0:0:0:
192,192,216524,1,0,0:0:0:0:
192,192,216783,1,2,0:0:0:0:
320,192,216783,1,0,0:0:0:0:
320,192,217042,1,8,0:0:0:0:
448,192,217042,1,0,0:0:0:0:
192,192,217171,1,2,0:0:0:0:
64,192,217300,1,8,0:0:0:0:
448,192,217300,128,0,217559:0:0:0:0:
64,192,217559,1,2,0:0:0:0:
192,192,217559,1,4,0:0:0:0:
64,192,217688,1,0,0:0:0:0:
192,192,217688,1,0,0:0:0:0:
64,192,217818,1,8,0:0:0:0:
320,192,217818,1,2,0:0:0:0:
448,192,217818,1,0,0:0:0:0:
320,192,217947,1,0,0:0:0:0:
448,192,217947,1,0,0:0:0:0:
64,192,218076,1,2,0:0:0:0:
192,192,218076,1,0,0:0:0:0:
64,192,218205,1,0,0:0:0:0:
192,192,218205,1,0,0:0:0:0:
64,192,218335,1,2,0:0:0:0:
320,192,218335,1,8,0:0:0:0:
448,192,218335,1,0,0:0:0:0:
192,192,218464,1,0,0:0:0:0:
320,192,218464,1,0,0:0:0:0:
192,192,218593,1,2,0:0:0:0:
448,192,218593,1,0,0:0:0:0:
64,192,218723,1,0,0:0:0:0:
320,192,218723,1,0,0:0:0:0:
192,192,218852,1,2,0:0:0:0:
320,192,218852,1,8,0:0:0:0:
448,192,218852,1,0,0:0:0:0:
64,192,218981,1,0,0:0:0:0:
448,192,218981,1,0,0:0:0:0:
64,192,219111,1,2,0:0:0:0:
320,192,219111,1,0,0:0:0:0:
320,192,219240,1,0,0:0:0:0:
448,192,219240,1,0,0:0:0:0:
64,192,219369,1,2,0:0:0:0:
192,192,219369,1,8,0:0:0:0:
448,192,219369,1,0,0:0:0:0:
64,192,219499,1,0,0:0:0:0:
192,192,219499,1,0,0:0:0:0:
320,192,219628,1,2,0:0:0:0:
448,192,219628,1,0,0:0:0:0:
320,192,219757,1,0,0:0:0:0:
448,192,219757,1,0,0:0:0:0:
64,192,219886,1,2,0:0:0:0:
192,192,219886,1,8,0:0:0:0:
448,192,219886,1,0,0:0:0:0:
64,192,220016,1,0,0:0:0:0:
192,192,220016,1,0,0:0:0:0:
320,192,220145,1,2,0:0:0:0:
448,192,220145,1,0,0:0:0:0:
320,192,220274,1,0,0:0:0:0:
448,192,220274,1,0,0:0:0:0:
64,192,220404,1,2,0:0:0:0:
192,192,220404,1,8,0:0:0:0:
448,192,220404,1,0,0:0:0:0:
192,192,220533,1,0,0:0:0:0:
320,192,220533,1,0,0:0:0:0:
64,192,220662,1,2,0:0:0:0:
320,192,220662,1,0,0:0:0:0:
192,192,220792,1,0,0:0:0:0:
448,192,220792,1,0,0:0:0:0:
64,192,220921,1,2,0:0:0:0:
192,192,220921,1,8,0:0:0:0:
320,192,220921,1,0,0:0:0:0:
64,192,221050,1,0,0:0:0:0:
448,192,221050,1,0,0:0:0:0:
320,192,221180,1,2,0:0:0:0:
448,192,221180,1,0,0:0:0:0:
64,192,221309,1,0,0:0:0:0:
320,192,221374,1,2,0:0:0:0:
448,192,221374,1,0,0:0:0:0:
64,192,221438,1,2,0:0:0:0:
192,192,221438,1,8,0:0:0:0:
64,192,221568,1,2,0:0:0:0:
192,192,221568,1,0,0:0:0:0:
320,192,221697,1,2,0:0:0:0:
448,192,221697,1,0,0:0:0:0:
320,192,221826,1,0,0:0:0:0:
448,192,221826,1,0,0:0:0:0:
64,192,221955,1,2,0:0:0:0:
192,192,221955,1,8,0:0:0:0:
448,192,221955,1,0,0:0:0:0:
64,192,222085,1,0,0:0:0:0:
192,192,222085,1,0,0:0:0:0:
320,192,222214,1,2,0:0:0:0:
448,192,222214,1,0,0:0:0:0:
320,192,222343,1,0,0:0:0:0:
448,192,222343,1,0,0:0:0:0:
64,192,222473,1,2,0:0:0:0:
192,192,222473,1,8,0:0:0:0:
448,192,222473,1,0,0:0:0:0:
192,192,222602,1,0,0:0:0:0:
320,192,222602,1,0,0:0:0:0:
64,192,222731,1,2,0:0:0:0:
320,192,222731,1,0,0:0:0:0:
192,192,222861,1,0,0:0:0:0:
448,192,222861,1,0,0:0:0:0:
64,192,222990,1,2,0:0:0:0:
192,192,222990,1,8,0:0:0:0:
320,192,222990,1,0,0:0:0:0:
64,192,223119,1,0,0:0:0:0:
448,192,223119,1,0,0:0:0:0:
192,192,223249,1,2,0:0:0:0:
448,192,223249,1,0,0:0:0:0:
64,192,223378,1,0,0:0:0:0:
192,192,223378,1,0,0:0:0:0:
64,192,223507,1,2,0:0:0:0:
320,192,223507,1,8,0:0:0:0:
448,192,223507,1,0,0:0:0:0:
320,192,223636,1,0,0:0:0:0:
448,192,223636,1,0,0:0:0:0:
64,192,223766,1,2,0:0:0:0:
192,192,223766,1,0,0:0:0:0:
64,192,223895,1,0,0:0:0:0:
192,192,223895,1,0,0:0:0:0:
64,192,224024,1,2,0:0:0:0:
320,192,224024,1,8,0:0:0:0:
448,192,224024,1,0,0:0:0:0:
320,192,224154,1,0,0:0:0:0:
448,192,224154,1,0,0:0:0:0:
64,192,224283,1,2,0:0:0:0:
192,192,224283,1,0,0:0:0:0:
64,192,224412,1,0,0:0:0:0:
192,192,224412,1,0,0:0:0:0:
64,192,224542,1,2,0:0:0:0:
320,192,224542,1,8,0:0:0:0:
448,192,224542,1,0,0:0:0:0:
320,192,224671,1,0,0:0:0:0:
448,192,224671,1,0,0:0:0:0:
64,192,224800,128,0,225059:0:0:0:0:
320,192,225059,128,0,225318:0:0:0:0:
192,192,225188,128,0,225318:0:0:0:0:
64,192,225318,1,0,0:0:0:70:LR_Kick Beat Drop.wav
448,192,225318,1,0,0:0:0:0:
320,192,225447,128,2,225705:0:0:0:0:
64,192,225576,128,8,225705:0:0:0:0:
192,192,225576,128,0,225705:0:0:0:0:
448,192,225705,128,0,225835:0:0:0:0:
64,192,225835,1,2,0:0:0:0:
192,192,225835,1,4,0:0:0:0:
320,192,225899,1,2,0:0:0:0:
192,192,225964,1,2,0:0:0:0:
448,192,225964,1,0,0:0:0:0:
320,192,226093,1,2,0:0:0:0:
448,192,226093,1,0,0:0:0:0:
64,192,226223,1,2,0:0:0:0:
320,192,226223,1,0,0:0:0:0:
64,192,226352,1,2,0:0:0:0:
192,192,226352,1,0,0:0:0:0:
320,192,226481,1,2,0:0:0:0:
448,192,226481,1,0,0:0:0:0:
64,192,226611,1,2,0:0:0:0:
448,192,226611,128,0,226675:0:0:0:0:
320,192,226675,128,0,226740:0:0:0:0:
192,192,226740,128,0,226805:0:0:0:0:
64,192,226805,128,0,226869:0:0:0:0:
320,192,226869,1,2,0:0:0:0:
448,192,226869,1,0,0:0:0:0:
192,192,226934,1,2,0:0:0:0:
64,192,226999,1,2,0:0:0:0:
320,192,226999,1,0,0:0:0:0:
192,192,227128,1,2,0:0:0:0:
448,192,227128,1,0,0:0:0:0:
320,192,227193,1,2,0:0:0:0:
64,192,227257,1,2,0:0:0:0:
192,192,227257,1,0,0:0:0:0:
320,192,227386,1,2,0:0:0:0:
448,192,227386,1,0,0:0:0:0:
64,192,227516,1,2,0:0:0:0:
192,192,227516,1,0,0:0:0:0:
320,192,227580,1,2,0:0:0:0:
64,192,227645,128,2,227904:0:0:0:0:
448,192,227645,1,0,0:0:0:0:
320,192,227904,1,2,0:0:0:0:
448,192,227904,1,4,0:0:0:0:
192,192,227968,1,2,0:0:0:0:
64,192,228033,1,2,0:0:0:0:
320,192,228033,1,0,0:0:0:0:
64,192,228162,1,2,0:0:0:0:
448,192,228162,1,0,0:0:0:0:
192,192,228292,1,2,0:0:0:0:
448,192,228292,1,0,0:0:0:0:
192,192,228421,1,2,0:0:0:0:
320,192,228421,1,0,0:0:0:0:
64,192,228550,1,2,0:0:0:0:
320,192,228550,1,0,0:0:0:0:
64,192,228680,1,2,0:0:0:0:
448,192,228680,128,0,228744:0:0:0:0:
320,192,228744,128,2,228809:0:0:0:0:
192,192,228809,128,0,228874:0:0:0:20:LR_Kick Beat Drop.wav
64,192,228874,128,0,228938:0:0:0:20:LR_Kick Beat Drop.wav
320,192,228938,1,2,0:0:0:0:
448,192,228938,1,0,0:0:0:0:
192,192,229003,1,2,0:0:0:0:
64,192,229068,1,2,0:0:0:0:
320,192,229068,1,0,0:0:0:0:
64,192,229197,1,2,0:0:0:0:
192,192,229197,1,0,0:0:0:0:
192,192,229326,1,2,0:0:0:0:
448,192,229326,1,0,0:0:0:0:
64,192,229455,1,2,0:0:0:0:
320,192,229455,128,0,229714:0:0:0:0:
448,192,229585,128,0,229714:0:0:0:20:LR_Kick Beat Drop.wav
192,192,229714,128,8,229973:0:0:0:0:
64,192,229843,128,0,229973:0:0:0:0:
320,192,229973,1,2,0:0:0:0:
448,192,229973,1,4,0:0:0:0:
192,192,230037,1,2,0:0:0:0:
448,192,230102,1,0,0:0:0:20:LR_Kick Beat Drop.wav
320,192,230145,1,0,0:0:0:0:
192,192,230188,1,0,0:0:0:0:
64,192,230231,1,2,0:0:0:0:
320,192,230296,1,2,0:0:0:0:
192,192,230361,1,2,0:0:0:0:
448,192,230425,1,2,0:0:0:0:
64,192,230490,1,0,0:0:0:20:LR_Kick Beat Drop.wav
192,192,230533,1,0,0:0:0:0:
320,192,230576,1,0,0:0:0:0:
448,192,230619,1,2,0:0:0:0:
192,192,230684,1,2,0:0:0:0:
320,192,230749,128,0,230813:0:0:0:0:
64,192,230813,128,0,230878:0:0:0:0:
320,192,230878,128,0,230943:0:0:0:0:
64,192,230943,128,0,231007:0:0:0:0:
320,192,231007,1,2,0:0:0:0:
448,192,231007,1,4,0:0:0:0:
192,192,231072,1,2,0:0:0:0:
64,192,231136,1,0,0:0:0:20:LR_Kick Beat Drop.wav
448,192,231136,1,0,0:0:0:0:
320,192,231180,1,0,0:0:0:0:
192,192,231223,1,0,0:0:0:0:
64,192,231266,1,2,0:0:0:0:
448,192,231330,1,2,0:0:0:0:
320,192,231395,1,2,0:0:0:0:
64,192,231460,1,2,0:0:0:0:
320,192,231524,1,2,0:0:0:0:
448,192,231589,1,2,0:0:0:0:
192,192,231654,1,0,0:0:0:20:LR_Kick Beat Drop.wav
320,192,231697,1,0,0:0:0:0:
448,192,231740,1,0,0:0:0:0:
64,192,231783,1,8,0:0:0:0:
192,192,231783,128,0,232042:0:0:0:0:
64,192,232042,1,2,0:0:0:0:
448,192,232042,1,4,0:0:0:0:
320,192,232106,1,2,0:0:0:0:
64,192,232171,1,0,0:0:0:20:LR_Kick Beat Drop.wav
192,192,232171,1,0,0:0:0:0:
320,192,232236,1,0,0:0:0:20:LR_Kick Beat Drop.wav
64,192,232300,1,2,0:0:0:0:
448,192,232300,1,0,0:0:0:0:
192,192,232365,1,2,0:0:0:0:
320,192,232430,1,2,0:0:0:0:
448,192,232430,1,0,0:0:0:0:
64,192,232494,1,2,0:0:0:0:
320,192,232559,1,0,0:0:0:30:LR_Kick Beat Drop.wav
192,192,232602,1,0,0:0:0:30:LR_Kick Beat Drop.wav
64,192,232645,1,0,0:0:0:30:LR_Kick Beat Drop.wav
320,192,232688,1,0,0:0:0:30:LR_Kick Beat Drop.wav
192,192,232731,1,0,0:0:0:30:LR_Kick Beat Drop.wav
64,192,232774,1,0,0:0:0:30:LR_Kick Beat Drop.wav
448,192,232818,1,0,0:0:0:20:LR_Kick Beat Drop.wav
320,192,232861,1,0,0:0:0:0:
192,192,232904,1,0,0:0:0:0:
448,192,232947,1,0,0:0:0:20:LR_Kick Beat Drop.wav
320,192,232990,1,0,0:0:0:0:
192,192,233033,1,0,0:0:0:0:
448,192,233076,1,2,0:0:0:0:
64,192,233141,1,2,0:0:0:0:
448,192,233205,1,2,0:0:0:0:
64,192,233270,1,2,0:0:0:0:
320,192,233335,128,0,233399:0:0:0:70:LR_Kick Beat Drop.wav
320,192,233464,128,0,233529:0:0:0:70:LR_Kick Beat Drop.wav
192,192,233593,1,8,0:0:0:0:
448,192,233658,1,8,0:0:0:0:
192,192,233723,1,8,0:0:0:0:
448,192,233787,1,8,0:0:0:0:
64,192,233852,128,0,234111:0:0:0:70:LR_Kick Beat Drop.wav
192,192,233981,128,0,234111:0:0:0:70:LR_Kick Beat Drop.wav
320,192,234111,128,2,234499:0:0:0:0:
448,192,234111,128,4,234499:0:0:0:0:
