osu file format v14

[General]
AudioFilename: audio.mp3
AudioLeadIn: 0
PreviewTime: 39693
Countdown: 0
SampleSet: Soft
StackLeniency: 0.7
Mode: 3
LetterboxInBreaks: 0
SpecialStyle: 0
WidescreenStoryboard: 0

[Editor]
Bookmarks: 9635,117231,161539
DistanceSpacing: 2
BeatDivisor: 4
GridSize: 4
TimelineZoom: 2.3

[Metadata]
Title:Dotabata Animation [feat. t+pazolite]
TitleUnicode:Dotabata Animation [feat. t+pazolite]
Artist:Kobaryo
ArtistUnicode:Kobaryo
Creator:YaHao
Version:Insane
Source:
Tags:Candy Speed Pops Wonki Soul Evans
BeatmapID:1214524
BeatmapSetID:573280

[Difficulty]
HPDrainRate:8.5
CircleSize:4
OverallDifficulty:8
ApproachRate:5
SliderMultiplier:1.4
SliderTickRate:1

[Events]
//Background and Video events
0,0,"BG.jpg",0,0
//Break Periods
//Storyboard Layer 0 (Background)
//Storyboard Layer 1 (Fail)
//Storyboard Layer 2 (Pass)
//Storyboard Layer 3 (Foreground)
//Storyboard Sound Samples

[TimingPoints]
2770,230.769230769231,4,2,1,50,1,0
39693,-100,4,2,1,70,0,1
46846,-100,4,2,1,70,0,0
47077,-100,4,2,1,70,0,1
54462,-100,4,2,1,50,0,0
154154,-100,4,2,1,70,0,1
161308,-100,4,2,1,70,0,0
161539,-100,4,2,1,70,0,1
168923,-100,4,2,1,50,0,0

[HitObjects]
64,192,2770,5,4,0:0:0:0:
448,192,2770,1,0,0:0:0:0:
192,192,3000,1,0,0:0:0:0:
320,192,3116,1,0,0:0:0:0:
192,192,3231,1,8,0:0:0:0:
64,192,3231,1,0,0:0:0:0:
448,192,3462,1,0,0:0:0:0:
64,192,3577,1,0,0:0:0:0:
320,192,3577,1,0,0:0:0:0:
192,192,3693,1,0,0:0:0:0:
448,192,3808,1,0,0:0:0:0:
320,192,3923,1,0,0:0:0:0:
64,192,3923,1,0,0:0:0:0:
192,192,4039,1,0,0:0:0:0:
320,192,4154,1,8,0:0:0:0:
448,192,4154,1,0,0:0:0:0:
192,192,4385,1,0,0:0:0:0:
64,192,4385,1,0,0:0:0:0:
64,192,4616,1,0,0:0:0:0:
448,192,4616,1,0,0:0:0:0:
320,192,4846,1,0,0:0:0:0:
192,192,4962,1,0,0:0:0:0:
448,192,5077,1,8,0:0:0:0:
64,192,5077,1,0,0:0:0:0:
320,192,5308,1,0,0:0:0:0:
448,192,5423,1,0,0:0:0:0:
64,192,5423,1,0,0:0:0:0:
192,192,5539,1,0,0:0:0:0:
448,192,5654,1,0,0:0:0:0:
64,192,5654,1,0,0:0:0:0:
320,192,5770,1,0,0:0:0:0:
192,192,5885,1,0,0:0:0:0:
64,192,5885,1,0,0:0:0:0:
320,192,6000,1,8,0:0:0:0:
448,192,6000,1,0,0:0:0:0:
192,192,6231,1,0,0:0:0:0:
320,192,6231,1,0,0:0:0:0:
192,192,6462,1,0,0:0:0:0:
64,192,6462,1,0,0:0:0:0:
320,192,6693,1,0,0:0:0:0:
192,192,6808,1,0,0:0:0:0:
320,192,6923,1,8,0:0:0:0:
448,192,6923,1,0,0:0:0:0:
64,192,7154,1,0,0:0:0:0:
192,192,7270,1,0,0:0:0:0:
448,192,7270,1,0,0:0:0:0:
320,192,7385,1,0,0:0:0:0:
192,192,7500,1,0,0:0:0:0:
64,192,7500,1,0,0:0:0:0:
448,192,7616,1,0,0:0:0:0:
320,192,7731,1,0,0:0:0:0:
448,192,7846,1,8,0:0:0:0:
64,192,7846,1,0,0:0:0:0:
192,192,8077,1,0,0:0:0:0:
64,192,8077,1,0,0:0:0:0:
320,192,8308,1,0,0:0:0:0:
448,192,8308,1,0,0:0:0:0:
64,192,8539,1,0,0:0:0:0:
192,192,8654,1,0,0:0:0:0:
64,192,8770,1,8,0:0:0:0:
448,192,8770,1,0,0:0:0:0:
320,192,9000,1,0,0:0:0:0:
448,192,9116,1,0,0:0:0:0:
64,192,9116,1,0,0:0:0:0:
192,192,9231,1,0,0:0:0:0:
320,192,9346,1,0,0:0:0:0:
448,192,9346,1,0,0:0:0:0:
192,192,9462,1,0,0:0:0:0:
64,192,9462,1,0,0:0:0:0:
448,192,9577,1,0,0:0:0:0:
192,192,9693,1,2,0:0:0:0:
64,192,9693,1,0,0:0:0:0:
64,192,9808,1,2,0:0:0:0:
320,192,9923,1,2,0:0:0:0:
448,192,9923,1,0,0:0:0:0:
64,192,10039,1,2,0:0:0:0:
192,192,10039,1,0,0:0:0:0:
448,192,10154,1,4,0:0:0:0:
320,192,10154,1,2,0:0:0:0:
64,192,10385,1,0,0:0:0:0:
448,192,10385,1,0,0:0:0:0:
320,192,10500,1,0,0:0:0:0:
64,192,10616,1,8,0:0:0:0:
448,192,10616,1,0,0:0:0:0:
320,192,10846,1,2,0:0:0:0:
448,192,10846,1,0,0:0:0:0:
192,192,10962,1,2,0:0:0:0:
64,192,10962,1,0,0:0:0:0:
448,192,11077,1,0,0:0:0:0:
320,192,11193,1,0,0:0:0:0:
192,192,11308,1,2,0:0:0:0:
64,192,11308,1,0,0:0:0:0:
320,192,11539,1,8,0:0:0:0:
448,192,11539,1,0,0:0:0:0:
64,192,11770,1,0,0:0:0:0:
448,192,11770,1,0,0:0:0:0:
192,192,11885,1,0,0:0:0:0:
64,192,12000,1,2,0:0:0:0:
448,192,12000,1,0,0:0:0:0:
320,192,12231,1,0,0:0:0:0:
192,192,12346,1,0,0:0:0:0:
64,192,12346,1,0,0:0:0:0:
320,192,12462,1,8,0:0:0:0:
448,192,12462,1,0,0:0:0:0:
64,192,12693,1,2,0:0:0:0:
192,192,12808,1,2,0:0:0:0:
448,192,12808,1,0,0:0:0:0:
320,192,12923,1,0,0:0:0:0:
192,192,13039,1,0,0:0:0:0:
64,192,13039,1,0,0:0:0:0:
448,192,13154,1,2,0:0:0:0:
320,192,13270,1,0,0:0:0:0:
64,192,13385,1,8,0:0:0:0:
448,192,13385,1,0,0:0:0:0:
192,192,13500,1,2,0:0:0:0:
320,192,13616,1,2,0:0:0:0:
448,192,13616,1,0,0:0:0:0:
192,192,13846,1,2,0:0:0:0:
64,192,13846,1,0,0:0:0:0:
64,192,14077,1,0,0:0:0:0:
448,192,14077,1,0,0:0:0:0:
320,192,14193,1,0,0:0:0:0:
448,192,14308,1,8,0:0:0:0:
64,192,14308,1,0,0:0:0:0:
192,192,14539,1,2,0:0:0:0:
320,192,14654,1,2,0:0:0:0:
448,192,14654,1,0,0:0:0:0:
64,192,14770,1,0,0:0:0:0:
192,192,14885,1,0,0:0:0:0:
448,192,14885,1,0,0:0:0:0:
320,192,15000,1,2,0:0:0:0:
64,192,15231,1,8,0:0:0:0:
192,192,15231,1,0,0:0:0:0:
320,192,15462,1,0,0:0:0:0:
448,192,15462,1,0,0:0:0:0:
192,192,15577,1,0,0:0:0:0:
64,192,15693,1,2,0:0:0:0:
448,192,15693,1,0,0:0:0:0:
320,192,15923,1,0,0:0:0:0:
192,192,16039,1,0,0:0:0:0:
320,192,16154,1,8,0:0:0:0:
448,192,16154,1,0,0:0:0:0:
64,192,16385,1,2,0:0:0:0:
320,192,16500,1,2,0:0:0:0:
448,192,16500,1,0,0:0:0:0:
64,192,16616,1,0,0:0:0:0:
192,192,16731,1,0,0:0:0:0:
320,192,16731,1,0,0:0:0:0:
448,192,16846,1,2,0:0:0:0:
64,192,16962,1,0,0:0:0:0:
192,192,16962,1,0,0:0:0:0:
320,192,17077,1,8,0:0:0:0:
448,192,17077,1,0,0:0:0:0:
192,192,17308,1,2,0:0:0:0:
320,192,17308,1,0,0:0:0:0:
192,192,17539,1,4,0:0:0:0:
64,192,17539,1,2,0:0:0:0:
448,192,17539,1,0,0:0:0:0:
320,192,17770,1,0,0:0:0:0:
192,192,17885,1,0,0:0:0:0:
320,192,18000,1,8,0:0:0:0:
448,192,18000,1,0,0:0:0:0:
64,192,18231,1,2,0:0:0:0:
192,192,18231,1,0,0:0:0:0:
64,192,18346,1,2,0:0:0:0:
448,192,18462,1,0,0:0:0:0:
320,192,18577,1,0,0:0:0:0:
64,192,18693,1,2,0:0:0:0:
448,192,18693,1,0,0:0:0:0:
192,192,18808,1,0,0:0:0:0:
320,192,18923,1,8,0:0:0:0:
448,192,18923,1,0,0:0:0:0:
64,192,19154,1,0,0:0:0:0:
192,192,19154,1,0,0:0:0:0:
448,192,19385,1,2,0:0:0:0:
64,192,19385,1,0,0:0:0:0:
320,192,19500,1,0,0:0:0:0:
192,192,19616,1,0,0:0:0:0:
320,192,19731,1,0,0:0:0:0:
64,192,19846,1,8,0:0:0:0:
448,192,19846,1,0,0:0:0:0:
192,192,19962,1,0,0:0:0:0:
320,192,20077,1,2,0:0:0:0:
448,192,20077,1,0,0:0:0:0:
448,192,20193,1,2,0:0:0:0:
64,192,20308,1,0,0:0:0:0:
192,192,20423,1,0,0:0:0:0:
448,192,20539,1,2,0:0:0:0:
64,192,20539,1,0,0:0:0:0:
320,192,20654,1,0,0:0:0:0:
64,192,20770,1,8,0:0:0:0:
448,192,20770,1,0,0:0:0:0:
192,192,21000,1,2,0:0:0:0:
320,192,21000,1,0,0:0:0:0:
64,192,21231,1,2,0:0:0:0:
448,192,21231,1,0,0:0:0:0:
320,192,21346,1,0,0:0:0:0:
192,192,21462,1,0,0:0:0:0:
64,192,21577,1,0,0:0:0:0:
320,192,21693,1,8,0:0:0:0:
448,192,21693,1,0,0:0:0:0:
64,192,21808,1,0,0:0:0:0:
320,192,21923,1,2,0:0:0:0:
448,192,21923,1,0,0:0:0:0:
448,192,22039,1,2,0:0:0:0:
192,192,22154,1,0,0:0:0:0:
320,192,22270,1,0,0:0:0:0:
448,192,22385,1,2,0:0:0:0:
64,192,22385,1,0,0:0:0:0:
192,192,22500,1,0,0:0:0:0:
64,192,22616,1,8,0:0:0:0:
448,192,22616,1,0,0:0:0:0:
320,192,22731,1,0,0:0:0:0:
448,192,22846,1,0,0:0:0:0:
64,192,22846,1,0,0:0:0:0:
192,192,22962,1,0,0:0:0:0:
448,192,23077,1,2,0:0:0:0:
320,192,23077,1,0,0:0:0:0:
64,192,23193,1,0,0:0:0:0:
320,192,23308,1,0,0:0:0:0:
192,192,23423,1,0,0:0:0:0:
448,192,23539,1,8,0:0:0:0:
64,192,23539,1,0,0:0:0:0:
320,192,23654,1,0,0:0:0:0:
64,192,23770,1,2,0:0:0:0:
192,192,23770,1,0,0:0:0:0:
448,192,23885,128,0,24462:0:0:0:0:
320,192,23885,1,0,0:0:0:0:
64,192,24116,1,0,0:0:0:0:
192,192,24231,1,0,0:0:0:0:
320,192,24346,1,0,0:0:0:0:
64,192,24462,128,0,24923:0:0:0:0:
192,192,24462,1,0,0:0:0:0:
448,192,24577,1,0,0:0:0:0:
320,192,24693,1,0,0:0:0:0:
192,192,24808,1,0,0:0:0:0:
448,192,24923,1,4,0:0:0:0:
320,192,24923,1,0,0:0:0:0:
192,192,25154,1,0,0:0:0:0:
64,192,25154,1,0,0:0:0:0:
448,192,25385,1,0,0:0:0:0:
320,192,25385,1,0,0:0:0:0:
192,192,25616,1,0,0:0:0:0:
448,192,25616,1,0,0:0:0:0:
64,192,25731,1,0,0:0:0:0:
192,192,25731,1,0,0:0:0:0:
448,192,26077,1,0,0:0:0:0:
64,192,26077,1,0,0:0:0:0:
320,192,26193,1,0,0:0:0:0:
64,192,26308,1,0,0:0:0:0:
448,192,26308,1,0,0:0:0:0:
192,192,26539,1,0,0:0:0:0:
64,192,26539,1,0,0:0:0:0:
320,192,26770,1,0,0:0:0:0:
448,192,26770,1,0,0:0:0:0:
192,192,27000,1,0,0:0:0:0:
320,192,27000,1,0,0:0:0:0:
64,192,27231,1,0,0:0:0:0:
192,192,27231,1,0,0:0:0:0:
320,192,27462,1,0,0:0:0:0:
64,192,27462,1,0,0:0:0:0:
448,192,27577,1,0,0:0:0:0:
320,192,27577,1,0,0:0:0:0:
64,192,27808,1,0,0:0:0:0:
448,192,27808,1,0,0:0:0:0:
192,192,27923,1,0,0:0:0:0:
320,192,28039,1,0,0:0:0:0:
448,192,28154,1,0,0:0:0:0:
64,192,28154,1,0,0:0:0:0:
320,192,28385,1,0,0:0:0:0:
192,192,28385,1,0,0:0:0:0:
64,192,28616,1,2,0:0:0:0:
448,192,28616,1,0,0:0:0:0:
64,192,28846,1,0,0:0:0:0:
192,192,28846,1,0,0:0:0:0:
448,192,29077,1,0,0:0:0:0:
320,192,29077,1,0,0:0:0:0:
192,192,29308,1,0,0:0:0:0:
448,192,29308,1,0,0:0:0:0:
64,192,29423,1,0,0:0:0:0:
192,192,29423,1,0,0:0:0:0:
448,192,29770,1,0,0:0:0:0:
64,192,29770,1,0,0:0:0:0:
192,192,29885,1,0,0:0:0:0:
320,192,30000,1,0,0:0:0:0:
448,192,30000,1,0,0:0:0:0:
192,192,30231,1,0,0:0:0:0:
64,192,30231,1,0,0:0:0:0:
64,192,30462,1,0,0:0:0:0:
448,192,30462,1,0,0:0:0:0:
320,192,30693,1,0,0:0:0:0:
448,192,30693,1,0,0:0:0:0:
192,192,30923,1,0,0:0:0:0:
64,192,30923,1,0,0:0:0:0:
64,192,31154,1,0,0:0:0:0:
320,192,31154,1,0,0:0:0:0:
448,192,31270,1,0,0:0:0:0:
320,192,31270,1,0,0:0:0:0:
64,192,31500,1,0,0:0:0:0:
448,192,31500,1,0,0:0:0:0:
192,192,31616,1,0,0:0:0:0:
320,192,31731,1,0,0:0:0:0:
64,192,31846,1,0,0:0:0:0:
448,192,31846,1,0,0:0:0:0:
192,192,31962,1,0,0:0:0:0:
320,192,32077,1,0,0:0:0:0:
192,192,32193,1,0,0:0:0:0:
64,192,32308,1,4,0:0:0:0:
448,192,32308,1,2,0:0:0:0:
320,192,32308,1,0,0:0:0:0:
320,192,32539,1,0,0:0:0:0:
192,192,32539,1,0,0:0:0:0:
64,192,32770,1,0,0:0:0:0:
192,192,32770,1,0,0:0:0:0:
448,192,33000,1,0,0:0:0:0:
320,192,33000,1,0,0:0:0:0:
64,192,33116,1,4,0:0:0:0:
192,192,33116,1,2,0:0:0:0:
448,192,33116,1,0,0:0:0:0:
64,192,33462,1,4,0:0:0:0:
320,192,33462,1,2,0:0:0:0:
448,192,33462,1,0,0:0:0:0:
192,192,33577,1,0,0:0:0:0:
320,192,33693,1,4,0:0:0:0:
64,192,33693,1,2,0:0:0:0:
448,192,33693,1,0,0:0:0:0:
192,192,33923,1,0,0:0:0:0:
320,192,33923,1,0,0:0:0:0:
64,192,34154,1,4,0:0:0:0:
448,192,34154,1,2,0:0:0:0:
192,192,34154,1,0,0:0:0:0:
320,192,34385,1,0,0:0:0:0:
448,192,34385,1,0,0:0:0:0:
192,192,34616,1,0,0:0:0:0:
320,192,34616,1,0,0:0:0:0:
192,192,34846,1,0,0:0:0:0:
64,192,34846,1,0,0:0:0:0:
448,192,34962,1,4,0:0:0:0:
64,192,34962,1,2,0:0:0:0:
320,192,34962,1,0,0:0:0:0:
448,192,35193,1,0,0:0:0:0:
320,192,35308,1,2,0:0:0:0:
64,192,35308,1,0,0:0:0:0:
192,192,35423,1,0,0:0:0:0:
320,192,35539,1,4,0:0:0:0:
448,192,35539,1,2,0:0:0:0:
64,192,35770,1,0,0:0:0:0:
192,192,35770,1,0,0:0:0:0:
64,192,36000,1,4,0:0:0:0:
448,192,36000,1,2,0:0:0:0:
320,192,36000,1,0,0:0:0:0:
192,192,36231,1,0,0:0:0:0:
320,192,36231,1,0,0:0:0:0:
192,192,36462,1,0,0:0:0:0:
64,192,36462,1,0,0:0:0:0:
320,192,36693,1,0,0:0:0:0:
448,192,36693,1,0,0:0:0:0:
64,192,36808,1,4,0:0:0:0:
448,192,36808,1,2,0:0:0:0:
192,192,36808,1,0,0:0:0:0:
64,192,37154,1,0,0:0:0:0:
448,192,37154,1,0,0:0:0:0:
320,192,37270,1,0,0:0:0:0:
64,192,37385,1,4,0:0:0:0:
448,192,37385,1,2,0:0:0:0:
192,192,37385,1,0,0:0:0:0:
192,192,37616,1,0,0:0:0:0:
320,192,37616,1,0,0:0:0:0:
64,192,37846,1,2,0:0:0:0:
448,192,37846,1,4,0:0:0:0:
320,192,37846,1,0,0:0:0:0:
192,192,38077,1,0,0:0:0:0:
64,192,38077,1,0,0:0:0:0:
64,192,38308,1,2,0:0:0:0:
192,192,38308,1,0,0:0:0:0:
448,192,38423,1,2,0:0:0:0:
192,192,38539,1,2,0:0:0:0:
64,192,38539,1,0,0:0:0:0:
320,192,38654,1,4,0:0:0:0:
448,192,38654,1,2,0:0:0:0:
64,192,38654,1,0,0:0:0:0:
64,192,38885,1,2,0:0:0:0:
448,192,38885,1,4,0:0:0:0:
192,192,39000,1,2,0:0:0:0:
320,192,39116,1,2,0:0:0:0:
64,192,39231,128,0,39462:0:0:0:0:
448,192,39231,128,0,39462:0:0:0:0:
192,192,39462,1,0,0:0:0:0:
320,192,39462,1,0,0:0:0:0:
192,192,39693,1,2,0:0:0:0:
64,192,39693,1,0,0:0:0:0:
448,192,39693,1,0,0:0:0:0:
320,192,39808,1,0,0:0:0:0:
64,192,39923,1,2,0:0:0:0:
192,192,39923,1,0,0:0:0:0:
448,192,40039,1,0,0:0:0:0:
320,192,40154,1,2,0:0:0:0:
192,192,40154,1,0,0:0:0:0:
64,192,40270,1,0,0:0:0:0:
320,192,40385,1,2,0:0:0:0:
448,192,40385,1,0,0:0:0:0:
192,192,40500,1,2,0:0:0:0:
64,192,40500,1,0,0:0:0:0:
448,192,40500,1,0,0:0:0:0:
64,192,40731,1,2,0:0:0:0:
192,192,40846,1,2,0:0:0:0:
448,192,40846,1,0,0:0:0:0:
320,192,40962,1,0,0:0:0:0:
192,192,41077,1,2,0:0:0:0:
64,192,41077,1,0,0:0:0:0:
320,192,41308,1,2,0:0:0:0:
448,192,41308,1,0,0:0:0:0:
64,192,41539,1,2,0:0:0:0:
448,192,41539,1,0,0:0:0:0:
192,192,41654,1,0,0:0:0:0:
448,192,41770,1,2,0:0:0:0:
64,192,41770,1,0,0:0:0:0:
320,192,41885,1,0,0:0:0:0:
192,192,42000,1,2,0:0:0:0:
64,192,42000,1,0,0:0:0:0:
448,192,42116,1,0,0:0:0:0:
320,192,42231,1,2,0:0:0:0:
192,192,42231,1,0,0:0:0:0:
64,192,42346,1,2,0:0:0:0:
192,192,42346,1,0,0:0:0:0:
448,192,42346,1,0,0:0:0:0:
64,192,42577,1,2,0:0:0:0:
192,192,42577,1,0,0:0:0:0:
320,192,42693,1,2,0:0:0:0:
448,192,42693,1,0,0:0:0:0:
64,192,42923,1,2,0:0:0:0:
192,192,42923,1,0,0:0:0:0:
320,192,43039,1,2,0:0:0:0:
448,192,43039,1,0,0:0:0:0:
64,192,43154,1,2,0:0:0:0:
192,192,43212,1,0,0:0:0:0:
320,192,43270,1,0,0:0:0:0:
448,192,43327,1,0,0:0:0:0:
192,192,43385,1,4,0:0:0:0:
64,192,43385,1,2,0:0:0:0:
320,192,43500,1,0,0:0:0:0:
192,192,43616,1,2,0:0:0:0:
64,192,43616,1,0,0:0:0:0:
448,192,43731,1,0,0:0:0:0:
320,192,43846,1,2,0:0:0:0:
192,192,43846,1,0,0:0:0:0:
64,192,43962,1,0,0:0:0:0:
448,192,44077,1,2,0:0:0:0:
320,192,44077,1,0,0:0:0:0:
192,192,44193,1,2,0:0:0:0:
448,192,44193,1,0,0:0:0:0:
64,192,44193,1,0,0:0:0:0:
320,192,44423,1,2,0:0:0:0:
64,192,44539,1,2,0:0:0:0:
448,192,44539,1,0,0:0:0:0:
192,192,44654,1,0,0:0:0:0:
64,192,44770,1,2,0:0:0:0:
448,192,44770,1,0,0:0:0:0:
320,192,45000,1,2,0:0:0:0:
192,192,45000,1,0,0:0:0:0:
320,192,45231,1,2,0:0:0:0:
448,192,45231,1,0,0:0:0:0:
64,192,45346,1,0,0:0:0:0:
320,192,45462,1,2,0:0:0:0:
448,192,45462,1,0,0:0:0:0:
192,192,45577,1,0,0:0:0:0:
64,192,45693,1,2,0:0:0:0:
448,192,45693,1,0,0:0:0:0:
320,192,45808,1,0,0:0:0:0:
192,192,45923,5,2,0:0:0:0:
64,192,45923,1,0,0:0:0:0:
64,192,46039,1,2,0:0:0:0:
448,192,46039,1,0,0:0:0:0:
320,192,46039,1,0,0:0:0:0:
192,192,46270,1,2,0:0:0:0:
64,192,46270,1,0,0:0:0:0:
320,192,46385,1,2,0:0:0:0:
448,192,46385,1,0,0:0:0:0:
64,192,46616,1,2,0:0:0:0:
192,192,46673,1,0,0:0:0:0:
448,192,46731,1,0,0:0:0:0:
320,192,46789,1,0,0:0:0:0:
192,192,46846,128,0,47077:0:0:0:0:
64,192,47077,5,2,0:0:0:0:
320,192,47077,1,4,0:0:0:0:
448,192,47077,1,0,0:0:0:0:
192,192,47193,1,2,0:0:0:0:
320,192,47308,1,2,0:0:0:0:
448,192,47308,1,0,0:0:0:0:
64,192,47423,1,2,0:0:0:0:
192,192,47539,1,2,0:0:0:0:
320,192,47539,1,0,0:0:0:0:
448,192,47654,1,2,0:0:0:0:
192,192,47770,1,2,0:0:0:0:
64,192,47770,1,0,0:0:0:0:
320,192,47885,1,2,0:0:0:0:
448,192,47885,1,0,0:0:0:0:
64,192,47885,1,0,0:0:0:0:
64,192,48116,1,2,0:0:0:0:
448,192,48116,1,0,0:0:0:0:
192,192,48231,1,2,0:0:0:0:
64,192,48231,1,0,0:0:0:0:
448,192,48346,1,2,0:0:0:0:
320,192,48346,1,0,0:0:0:0:
192,192,48462,1,2,0:0:0:0:
64,192,48462,1,0,0:0:0:0:
320,192,48577,1,2,0:0:0:0:
448,192,48577,1,0,0:0:0:0:
64,192,48693,1,2,0:0:0:0:
192,192,48750,1,0,0:0:0:0:
320,192,48808,1,0,0:0:0:0:
448,192,48866,1,0,0:0:0:0:
192,192,48923,1,2,0:0:0:0:
64,192,48923,1,0,0:0:0:0:
320,192,49039,1,2,0:0:0:0:
448,192,49154,1,2,0:0:0:0:
64,192,49154,1,0,0:0:0:0:
192,192,49270,1,2,0:0:0:0:
448,192,49385,1,2,0:0:0:0:
64,192,49385,1,0,0:0:0:0:
320,192,49500,1,2,0:0:0:0:
192,192,49616,1,2,0:0:0:0:
64,192,49616,1,0,0:0:0:0:
448,192,49731,1,2,0:0:0:0:
320,192,49731,1,0,0:0:0:0:
64,192,49731,1,0,0:0:0:0:
64,192,49962,1,2,0:0:0:0:
448,192,49962,1,0,0:0:0:0:
320,192,50077,1,2,0:0:0:0:
448,192,50077,1,0,0:0:0:0:
64,192,50193,1,2,0:0:0:0:
192,192,50193,1,0,0:0:0:0:
448,192,50308,1,2,0:0:0:0:
320,192,50366,1,0,0:0:0:0:
64,192,50423,1,0,0:0:0:0:
192,192,50481,1,0,0:0:0:0:
448,192,50539,1,0,0:0:0:0:
320,192,50596,1,0,0:0:0:0:
64,192,50654,1,0,0:0:0:0:
192,192,50712,1,0,0:0:0:0:
320,192,50770,1,2,0:0:0:0:
448,192,50770,1,8,0:0:0:0:
64,192,50885,1,2,0:0:0:0:
192,192,50885,1,0,0:0:0:0:
320,192,51000,1,2,0:0:0:0:
448,192,51000,1,0,0:0:0:0:
320,192,51116,1,2,0:0:0:0:
448,192,51116,1,0,0:0:0:0:
192,192,51231,1,8,0:0:0:0:
64,192,51231,1,2,0:0:0:0:
320,192,51346,1,2,0:0:0:0:
448,192,51346,1,0,0:0:0:0:
192,192,51462,1,2,0:0:0:0:
64,192,51462,1,0,0:0:0:0:
64,192,51577,1,2,0:0:0:0:
192,192,51577,1,0,0:0:0:0:
320,192,51693,1,10,0:0:0:0:
448,192,51693,1,0,0:0:0:0:
192,192,51808,1,2,0:0:0:0:
64,192,51808,1,0,0:0:0:0:
320,192,51923,1,2,0:0:0:0:
448,192,51923,1,0,0:0:0:0:
320,192,52039,1,2,0:0:0:0:
448,192,52039,1,0,0:0:0:0:
192,192,52154,1,8,0:0:0:0:
64,192,52154,1,2,0:0:0:0:
320,192,52270,1,2,0:0:0:0:
448,192,52270,1,0,0:0:0:0:
192,192,52385,1,2,0:0:0:0:
64,192,52385,1,0,0:0:0:0:
192,192,52500,1,2,0:0:0:0:
64,192,52500,1,0,0:0:0:0:
320,192,52616,1,8,0:0:0:0:
448,192,52616,1,2,0:0:0:0:
64,192,52616,1,0,0:0:0:0:
320,192,52731,1,2,0:0:0:0:
448,192,52731,1,0,0:0:0:0:
192,192,52846,1,8,0:0:0:0:
64,192,52846,1,2,0:0:0:0:
448,192,52846,1,0,0:0:0:0:
192,192,52962,1,2,0:0:0:0:
64,192,52962,1,0,0:0:0:0:
320,192,53077,1,2,0:0:0:0:
448,192,53077,1,8,0:0:0:0:
64,192,53077,1,0,0:0:0:0:
320,192,53193,1,2,0:0:0:0:
192,192,53193,1,8,0:0:0:0:
192,192,53308,1,2,0:0:0:0:
64,192,53308,1,8,0:0:0:0:
448,192,53308,1,0,0:0:0:0:
64,192,53423,1,2,0:0:0:0:
320,192,53423,1,4,0:0:0:0:
448,192,53423,128,8,53885:0:0:0:0:
64,192,53654,128,0,54346:0:0:0:0:
192,192,53770,128,0,54346:0:0:0:0:
320,192,53885,128,0,54346:0:0:0:0:
448,192,54000,128,0,54346:0:0:0:0:
64,192,54462,1,0,0:0:0:0:
448,192,54462,128,4,58270:0:0:0:0:
320,192,56423,128,0,60116:0:0:0:0:
192,192,58270,128,0,60923:0:0:0:0:
64,192,60116,128,0,60923:0:0:0:0:
64,192,61846,1,4,0:0:0:0:
448,192,61846,1,0,0:0:0:0:
192,192,61962,1,0,0:0:0:0:
320,192,62077,1,0,0:0:0:0:
448,192,62193,1,0,0:0:0:0:
64,192,62193,1,0,0:0:0:0:
192,192,62423,1,0,0:0:0:0:
320,192,62423,1,0,0:0:0:0:
64,192,62654,1,0,0:0:0:0:
448,192,62770,1,0,0:0:0:0:
320,192,62770,1,0,0:0:0:0:
64,192,62885,1,0,0:0:0:0:
192,192,63000,1,0,0:0:0:0:
320,192,63116,1,0,0:0:0:0:
448,192,63116,1,0,0:0:0:0:
64,192,63462,1,0,0:0:0:0:
192,192,63462,1,0,0:0:0:0:
448,192,63693,1,0,0:0:0:0:
64,192,63693,1,0,0:0:0:0:
320,192,63808,1,0,0:0:0:0:
192,192,63923,1,0,0:0:0:0:
64,192,64039,1,0,0:0:0:0:
448,192,64039,1,0,0:0:0:0:
192,192,64270,1,0,0:0:0:0:
320,192,64270,1,0,0:0:0:0:
64,192,64500,1,0,0:0:0:0:
64,192,64616,1,0,0:0:0:0:
192,192,64616,1,0,0:0:0:0:
448,192,64731,1,0,0:0:0:0:
320,192,64846,1,0,0:0:0:0:
64,192,64962,1,0,0:0:0:0:
192,192,64962,1,0,0:0:0:0:
64,192,65308,1,0,0:0:0:0:
192,192,65539,1,0,0:0:0:0:
448,192,65539,1,0,0:0:0:0:
320,192,65654,1,0,0:0:0:0:
64,192,65770,1,0,0:0:0:0:
192,192,65885,1,0,0:0:0:0:
448,192,65885,1,0,0:0:0:0:
320,192,66116,1,0,0:0:0:0:
64,192,66116,1,0,0:0:0:0:
448,192,66346,1,0,0:0:0:0:
64,192,66462,1,0,0:0:0:0:
320,192,66462,1,0,0:0:0:0:
192,192,66577,1,0,0:0:0:0:
448,192,66693,1,0,0:0:0:0:
64,192,66808,1,0,0:0:0:0:
320,192,66808,1,0,0:0:0:0:
320,192,67154,1,0,0:0:0:0:
192,192,67154,1,0,0:0:0:0:
448,192,67385,1,0,0:0:0:0:
64,192,67385,1,0,0:0:0:0:
192,192,67500,1,0,0:0:0:0:
320,192,67616,1,0,0:0:0:0:
448,192,67731,1,0,0:0:0:0:
64,192,67731,1,0,0:0:0:0:
192,192,67962,1,0,0:0:0:0:
320,192,67962,1,0,0:0:0:0:
64,192,68193,1,0,0:0:0:0:
64,192,68308,1,0,0:0:0:0:
448,192,68308,1,0,0:0:0:0:
320,192,68539,1,0,0:0:0:0:
192,192,68539,1,0,0:0:0:0:
64,192,68770,1,0,0:0:0:0:
192,192,68770,1,0,0:0:0:0:
320,192,69000,1,0,0:0:0:0:
448,192,69000,1,0,0:0:0:0:
64,192,69231,1,2,0:0:0:0:
448,192,69231,1,0,0:0:0:0:
192,192,69346,1,0,0:0:0:0:
320,192,69462,1,2,0:0:0:0:
448,192,69462,1,0,0:0:0:0:
64,192,69577,1,0,0:0:0:0:
192,192,69693,1,8,0:0:0:0:
320,192,69693,1,0,0:0:0:0:
448,192,69808,1,0,0:0:0:0:
192,192,70039,1,2,0:0:0:0:
64,192,70039,1,0,0:0:0:0:
448,192,70154,1,0,0:0:0:0:
320,192,70270,1,0,0:0:0:0:
64,192,70385,1,2,0:0:0:0:
448,192,70385,1,0,0:0:0:0:
192,192,70500,1,0,0:0:0:0:
320,192,70616,1,8,0:0:0:0:
448,192,70616,1,0,0:0:0:0:
192,192,70846,1,0,0:0:0:0:
64,192,70846,1,0,0:0:0:0:
448,192,71077,1,2,0:0:0:0:
64,192,71077,1,0,0:0:0:0:
192,192,71193,1,0,0:0:0:0:
448,192,71308,1,2,0:0:0:0:
64,192,71308,1,0,0:0:0:0:
320,192,71423,1,0,0:0:0:0:
192,192,71539,1,8,0:0:0:0:
448,192,71539,1,0,0:0:0:0:
64,192,71654,1,0,0:0:0:0:
448,192,71885,1,2,0:0:0:0:
320,192,71885,1,0,0:0:0:0:
448,192,72000,1,0,0:0:0:0:
64,192,72116,1,8,0:0:0:0:
192,192,72231,1,2,0:0:0:0:
320,192,72231,1,0,0:0:0:0:
448,192,72346,1,0,0:0:0:0:
192,192,72462,1,8,0:0:0:0:
64,192,72462,1,0,0:0:0:0:
64,192,72693,1,2,0:0:0:0:
448,192,72693,1,0,0:0:0:0:
320,192,72808,1,2,0:0:0:0:
64,192,72923,1,2,0:0:0:0:
448,192,72923,1,0,0:0:0:0:
192,192,73039,1,0,0:0:0:0:
320,192,73154,1,2,0:0:0:0:
448,192,73154,1,0,0:0:0:0:
64,192,73270,1,0,0:0:0:0:
192,192,73385,1,8,0:0:0:0:
320,192,73385,1,0,0:0:0:0:
448,192,73500,1,0,0:0:0:0:
64,192,73616,1,0,0:0:0:0:
320,192,73731,1,2,0:0:0:0:
448,192,73731,1,0,0:0:0:0:
64,192,73846,1,0,0:0:0:0:
192,192,73962,1,0,0:0:0:0:
448,192,74077,1,2,0:0:0:0:
64,192,74077,1,0,0:0:0:0:
320,192,74193,1,0,0:0:0:0:
64,192,74308,1,8,0:0:0:0:
192,192,74308,1,0,0:0:0:0:
448,192,74539,1,0,0:0:0:0:
192,192,74770,1,2,0:0:0:0:
448,192,74770,1,0,0:0:0:0:
64,192,74770,128,0,76154:0:0:0:0:
192,192,75231,128,0,76154:0:0:0:0:
320,192,75693,128,0,76154:0:0:0:0:
448,192,76154,1,0,0:0:0:0:
448,192,76616,1,4,0:0:0:0:
64,192,76616,1,2,0:0:0:0:
192,192,76616,1,0,0:0:0:0:
64,192,76846,1,0,0:0:0:0:
448,192,77077,1,0,0:0:0:0:
64,192,77308,1,0,0:0:0:0:
448,192,77539,1,0,0:0:0:0:
320,192,77770,1,0,0:0:0:0:
192,192,78000,1,0,0:0:0:0:
64,192,78231,1,0,0:0:0:0:
64,192,78462,1,2,0:0:0:0:
320,192,78462,1,4,0:0:0:0:
448,192,78462,1,0,0:0:0:0:
448,192,78693,1,0,0:0:0:0:
64,192,78923,1,0,0:0:0:0:
448,192,79154,1,0,0:0:0:0:
64,192,79385,1,0,0:0:0:0:
192,192,79616,1,0,0:0:0:0:
320,192,79846,1,0,0:0:0:0:
448,192,79846,1,0,0:0:0:0:
192,192,80077,1,0,0:0:0:0:
64,192,80077,1,0,0:0:0:0:
64,192,80308,1,2,0:0:0:0:
448,192,80308,1,0,0:0:0:0:
320,192,80308,1,0,0:0:0:0:
192,192,80423,1,2,0:0:0:0:
320,192,80539,1,2,0:0:0:0:
448,192,80539,1,0,0:0:0:0:
64,192,80654,1,2,0:0:0:0:
192,192,80770,1,2,0:0:0:0:
320,192,80770,1,0,0:0:0:0:
448,192,80885,1,2,0:0:0:0:
192,192,81000,1,2,0:0:0:0:
64,192,81000,1,0,0:0:0:0:
448,192,81116,1,2,0:0:0:0:
320,192,81231,1,2,0:0:0:0:
64,192,81231,1,0,0:0:0:0:
192,192,81346,1,2,0:0:0:0:
320,192,81462,1,2,0:0:0:0:
448,192,81462,1,0,0:0:0:0:
64,192,81577,1,2,0:0:0:0:
192,192,81693,1,2,0:0:0:0:
320,192,81693,1,0,0:0:0:0:
448,192,81808,1,2,0:0:0:0:
192,192,81923,1,0,0:0:0:0:
64,192,81923,1,0,0:0:0:0:
448,192,82039,1,0,0:0:0:0:
64,192,82154,1,2,0:0:0:0:
192,192,82154,1,0,0:0:0:0:
320,192,82270,1,2,0:0:0:0:
448,192,82385,1,2,0:0:0:0:
64,192,82385,1,0,0:0:0:0:
192,192,82500,1,2,0:0:0:0:
64,192,82616,1,2,0:0:0:0:
448,192,82616,1,0,0:0:0:0:
320,192,82731,1,2,0:0:0:0:
192,192,82846,1,2,0:0:0:0:
64,192,82846,1,0,0:0:0:0:
448,192,82962,1,2,0:0:0:0:
320,192,83077,1,2,0:0:0:0:
64,192,83077,1,0,0:0:0:0:
192,192,83193,1,2,0:0:0:0:
320,192,83308,1,2,0:0:0:0:
448,192,83308,1,0,0:0:0:0:
64,192,83423,1,2,0:0:0:0:
448,192,83539,1,0,0:0:0:0:
320,192,83539,128,0,83770:0:0:0:0:
64,192,83770,1,0,0:0:0:0:
192,192,83770,128,0,84000:0:0:0:0:
64,192,84000,1,2,0:0:0:0:
448,192,84000,1,4,0:0:0:0:
320,192,84116,1,2,0:0:0:0:
448,192,84231,1,2,0:0:0:0:
64,192,84231,1,0,0:0:0:0:
192,192,84346,1,2,0:0:0:0:
320,192,84462,1,2,0:0:0:0:
448,192,84462,1,0,0:0:0:0:
64,192,84577,1,2,0:0:0:0:
192,192,84693,1,2,0:0:0:0:
448,192,84693,1,0,0:0:0:0:
320,192,84808,1,2,0:0:0:0:
192,192,84923,1,2,0:0:0:0:
64,192,84923,1,0,0:0:0:0:
448,192,85039,1,2,0:0:0:0:
320,192,85154,1,2,0:0:0:0:
192,192,85154,1,0,0:0:0:0:
64,192,85270,1,2,0:0:0:0:
320,192,85385,1,2,0:0:0:0:
448,192,85385,1,0,0:0:0:0:
192,192,85500,1,2,0:0:0:0:
64,192,85616,1,0,0:0:0:0:
448,192,85616,1,0,0:0:0:0:
448,192,85846,1,2,0:0:0:0:
320,192,85846,1,0,0:0:0:0:
448,192,85962,1,2,0:0:0:0:
192,192,86077,1,2,0:0:0:0:
64,192,86077,1,0,0:0:0:0:
192,192,86193,1,2,0:0:0:0:
448,192,86308,1,2,0:0:0:0:
320,192,86308,1,0,0:0:0:0:
448,192,86423,1,2,0:0:0:0:
192,192,86539,1,2,0:0:0:0:
64,192,86539,1,0,0:0:0:0:
64,192,86654,1,2,0:0:0:0:
320,192,86770,1,2,0:0:0:0:
448,192,86770,1,0,0:0:0:0:
320,192,86885,1,2,0:0:0:0:
192,192,87000,1,2,0:0:0:0:
64,192,87000,1,0,0:0:0:0:
64,192,87116,1,2,0:0:0:0:
448,192,87231,1,0,0:0:0:0:
320,192,87231,1,0,0:0:0:0:
192,192,87346,1,0,0:0:0:0:
320,192,87462,1,0,0:0:0:0:
448,192,87462,1,0,0:0:0:0:
64,192,87693,1,4,0:0:0:0:
448,192,87693,1,2,0:0:0:0:
192,192,87808,1,2,0:0:0:0:
320,192,87923,1,2,0:0:0:0:
448,192,87923,1,0,0:0:0:0:
192,192,88039,1,2,0:0:0:0:
64,192,88039,1,0,0:0:0:0:
448,192,88154,1,2,0:0:0:0:
192,192,88270,1,0,0:0:0:0:
320,192,88270,1,0,0:0:0:0:
64,192,88385,1,2,0:0:0:0:
320,192,88500,1,4,0:0:0:0:
448,192,88500,1,2,0:0:0:0:
192,192,88616,1,0,0:0:0:0:
64,192,88731,1,2,0:0:0:0:
448,192,88731,1,0,0:0:0:0:
320,192,88846,1,2,0:0:0:0:
192,192,88962,1,2,0:0:0:0:
448,192,89077,1,4,0:0:0:0:
64,192,89077,1,2,0:0:0:0:
320,192,89193,1,2,0:0:0:0:
448,192,89308,1,0,0:0:0:0:
64,192,89308,1,0,0:0:0:0:
64,192,89539,1,4,0:0:0:0:
192,192,89539,1,2,0:0:0:0:
448,192,89654,1,2,0:0:0:0:
320,192,89770,1,2,0:0:0:0:
192,192,89770,1,0,0:0:0:0:
64,192,89885,1,2,0:0:0:0:
448,192,89885,1,0,0:0:0:0:
192,192,90000,1,2,0:0:0:0:
320,192,90116,1,0,0:0:0:0:
448,192,90116,1,0,0:0:0:0:
64,192,90231,1,2,0:0:0:0:
320,192,90346,1,2,0:0:0:0:
192,192,90346,1,4,0:0:0:0:
448,192,90462,1,0,0:0:0:0:
192,192,90577,1,2,0:0:0:0:
64,192,90577,1,0,0:0:0:0:
448,192,90693,1,2,0:0:0:0:
320,192,90808,1,2,0:0:0:0:
64,192,90923,1,0,0:0:0:0:
192,192,90923,1,0,0:0:0:0:
64,192,91154,1,0,0:0:0:0:
64,192,91385,1,4,0:0:0:0:
448,192,91385,1,0,0:0:0:0:
192,192,91500,1,2,0:0:0:0:
320,192,91616,1,2,0:0:0:0:
448,192,91616,1,0,0:0:0:0:
192,192,91731,1,2,0:0:0:0:
64,192,91731,1,0,0:0:0:0:
448,192,91846,1,4,0:0:0:0:
320,192,91962,1,0,0:0:0:0:
192,192,91962,1,0,0:0:0:0:
64,192,92077,1,2,0:0:0:0:
448,192,92193,1,2,0:0:0:0:
320,192,92193,1,4,0:0:0:0:
192,192,92308,1,0,0:0:0:0:
64,192,92423,1,2,0:0:0:0:
448,192,92423,1,0,0:0:0:0:
320,192,92539,1,2,0:0:0:0:
192,192,92654,1,2,0:0:0:0:
64,192,92770,1,4,0:0:0:0:
448,192,92770,1,2,0:0:0:0:
320,192,92885,1,2,0:0:0:0:
448,192,93000,1,0,0:0:0:0:
64,192,93000,1,0,0:0:0:0:
448,192,93231,1,4,0:0:0:0:
320,192,93231,1,0,0:0:0:0:
64,192,93346,1,2,0:0:0:0:
192,192,93462,1,2,0:0:0:0:
320,192,93462,1,0,0:0:0:0:
448,192,93577,1,2,0:0:0:0:
64,192,93577,1,0,0:0:0:0:
320,192,93693,1,4,0:0:0:0:
192,192,93808,1,0,0:0:0:0:
64,192,93808,1,0,0:0:0:0:
448,192,93923,1,2,0:0:0:0:
192,192,94039,1,2,0:0:0:0:
320,192,94039,1,4,0:0:0:0:
64,192,94154,1,0,0:0:0:0:
320,192,94270,1,2,0:0:0:0:
448,192,94270,1,0,0:0:0:0:
64,192,94385,1,2,0:0:0:0:
192,192,94500,1,2,0:0:0:0:
448,192,94616,1,0,0:0:0:0:
320,192,94616,1,0,0:0:0:0:
192,192,94846,1,0,0:0:0:0:
64,192,94846,1,0,0:0:0:0:
320,192,95077,1,2,0:0:0:0:
448,192,95077,1,0,0:0:0:0:
320,192,95193,1,2,0:0:0:0:
192,192,95308,1,2,0:0:0:0:
64,192,95308,1,0,0:0:0:0:
64,192,95423,1,2,0:0:0:0:
320,192,95539,1,2,0:0:0:0:
448,192,95539,1,0,0:0:0:0:
320,192,95654,1,2,0:0:0:0:
64,192,95770,1,2,0:0:0:0:
192,192,95770,1,0,0:0:0:0:
64,192,95885,1,2,0:0:0:0:
448,192,96000,1,2,0:0:0:0:
320,192,96000,1,0,0:0:0:0:
448,192,96116,1,2,0:0:0:0:
64,192,96231,1,2,0:0:0:0:
192,192,96231,1,0,0:0:0:0:
192,192,96346,1,2,0:0:0:0:
448,192,96462,1,2,0:0:0:0:
320,192,96462,1,0,0:0:0:0:
448,192,96577,1,2,0:0:0:0:
64,192,96693,1,0,0:0:0:0:
192,192,96808,1,0,0:0:0:0:
320,192,96923,1,2,0:0:0:0:
448,192,96923,1,0,0:0:0:0:
448,192,97039,1,2,0:0:0:0:
192,192,97154,1,2,0:0:0:0:
64,192,97154,1,0,0:0:0:0:
192,192,97270,1,2,0:0:0:0:
448,192,97385,1,2,0:0:0:0:
320,192,97385,1,0,0:0:0:0:
448,192,97500,1,2,0:0:0:0:
64,192,97616,1,2,0:0:0:0:
192,192,97616,1,0,0:0:0:0:
64,192,97731,1,2,0:0:0:0:
320,192,97846,1,2,0:0:0:0:
448,192,97846,1,0,0:0:0:0:
320,192,97962,1,2,0:0:0:0:
64,192,98077,1,2,0:0:0:0:
192,192,98077,1,0,0:0:0:0:
64,192,98193,1,2,0:0:0:0:
448,192,98308,1,0,0:0:0:0:
320,192,98308,1,0,0:0:0:0:
192,192,98539,1,0,0:0:0:0:
64,192,98539,1,0,0:0:0:0:
448,192,98770,1,4,0:0:0:0:
320,192,98827,1,0,0:0:0:0:
64,192,98885,1,2,0:0:0:0:
192,192,98943,1,0,0:0:0:0:
448,192,99000,1,2,0:0:0:0:
320,192,99058,1,0,0:0:0:0:
64,192,99116,1,2,0:0:0:0:
192,192,99173,1,0,0:0:0:0:
320,192,99231,1,2,0:0:0:0:
448,192,99289,1,0,0:0:0:0:
192,192,99346,1,2,0:0:0:0:
320,192,99404,1,0,0:0:0:0:
64,192,99462,1,2,0:0:0:0:
192,192,99520,1,0,0:0:0:0:
448,192,99577,1,2,0:0:0:0:
320,192,99635,1,0,0:0:0:0:
192,192,99693,1,2,0:0:0:0:
64,192,99750,1,0,0:0:0:0:
320,192,99808,1,2,0:0:0:0:
192,192,99866,1,0,0:0:0:0:
448,192,99923,1,2,0:0:0:0:
320,192,99981,1,0,0:0:0:0:
64,192,100039,1,2,0:0:0:0:
192,192,100096,1,0,0:0:0:0:
448,192,100154,1,0,0:0:0:0:
320,192,100212,1,2,0:0:0:0:
64,192,100270,1,0,0:0:0:0:
192,192,100327,1,2,0:0:0:0:
320,192,100385,1,2,0:0:0:0:
448,192,100385,1,0,0:0:0:0:
64,192,100500,1,0,0:0:0:0:
192,192,100500,1,0,0:0:0:0:
448,192,100616,1,2,0:0:0:0:
320,192,100673,1,0,0:0:0:0:
64,192,100731,1,2,0:0:0:0:
192,192,100789,1,0,0:0:0:0:
448,192,100846,1,2,0:0:0:0:
320,192,100904,1,0,0:0:0:0:
64,192,100962,1,2,0:0:0:0:
192,192,101020,1,0,0:0:0:0:
448,192,101077,1,2,0:0:0:0:
320,192,101135,1,0,0:0:0:0:
192,192,101193,1,2,0:0:0:0:
64,192,101250,1,0,0:0:0:0:
448,192,101308,1,2,0:0:0:0:
320,192,101366,1,0,0:0:0:0:
192,192,101423,1,2,0:0:0:0:
64,192,101481,1,0,0:0:0:0:
448,192,101539,128,0,102000:0:0:0:0:
320,192,101539,128,0,101770:0:0:0:0:
64,192,101770,1,0,0:0:0:0:
192,192,101770,128,0,102000:0:0:0:0:
64,192,102000,1,0,0:0:0:0:
320,192,102000,1,0,0:0:0:0:
448,192,102462,1,4,0:0:0:0:
64,192,102462,1,0,0:0:0:0:
320,192,102462,1,0,0:0:0:0:
64,192,102693,1,0,0:0:0:0:
320,192,102923,1,0,0:0:0:0:
448,192,102923,1,0,0:0:0:0:
448,192,103154,1,0,0:0:0:0:
64,192,103308,1,0,0:0:0:0:
320,192,103385,1,0,0:0:0:0:
320,192,103539,1,0,0:0:0:0:
64,192,103616,1,0,0:0:0:0:
192,192,103846,1,0,0:0:0:0:
64,192,103846,1,0,0:0:0:0:
448,192,104077,1,0,0:0:0:0:
192,192,104308,1,0,0:0:0:0:
64,192,104308,1,0,0:0:0:0:
448,192,104539,1,0,0:0:0:0:
320,192,104770,1,0,0:0:0:0:
64,192,104770,1,0,0:0:0:0:
192,192,105000,1,0,0:0:0:0:
320,192,105231,1,0,0:0:0:0:
448,192,105231,1,0,0:0:0:0:
64,192,105462,1,0,0:0:0:0:
192,192,105693,1,0,0:0:0:0:
320,192,105693,1,0,0:0:0:0:
448,192,105923,1,0,0:0:0:0:
192,192,106154,1,0,0:0:0:0:
64,192,106154,1,0,0:0:0:0:
448,192,106385,1,0,0:0:0:0:
192,192,106616,1,0,0:0:0:0:
64,192,106616,1,0,0:0:0:0:
64,192,106846,1,0,0:0:0:0:
448,192,107000,1,0,0:0:0:0:
192,192,107077,1,0,0:0:0:0:
192,192,107231,1,0,0:0:0:0:
448,192,107308,1,0,0:0:0:0:
320,192,107539,1,0,0:0:0:0:
448,192,107539,1,0,0:0:0:0:
64,192,107770,1,0,0:0:0:0:
320,192,108000,1,0,0:0:0:0:
448,192,108000,1,0,0:0:0:0:
64,192,108231,1,0,0:0:0:0:
192,192,108462,1,0,0:0:0:0:
320,192,108462,1,0,0:0:0:0:
448,192,108693,1,0,0:0:0:0:
192,192,108923,1,0,0:0:0:0:
64,192,108923,1,0,0:0:0:0:
448,192,109154,1,0,0:0:0:0:
192,192,109385,1,0,0:0:0:0:
320,192,109385,1,0,0:0:0:0:
64,192,109616,1,0,0:0:0:0:
320,192,109846,1,4,0:0:0:0:
448,192,109846,1,2,0:0:0:0:
192,192,110077,1,2,0:0:0:0:
64,192,110077,1,0,0:0:0:0:
320,192,110308,1,2,0:0:0:0:
448,192,110308,1,0,0:0:0:0:
448,192,110539,1,2,0:0:0:0:
192,192,110693,1,0,0:0:0:0:
64,192,110770,1,2,0:0:0:0:
448,192,110770,1,0,0:0:0:0:
192,192,110923,1,0,0:0:0:0:
64,192,111000,1,2,0:0:0:0:
192,192,111231,1,2,0:0:0:0:
320,192,111231,1,0,0:0:0:0:
448,192,111462,1,2,0:0:0:0:
320,192,111693,1,2,0:0:0:0:
192,192,111693,1,0,0:0:0:0:
64,192,111923,1,2,0:0:0:0:
320,192,112154,1,2,0:0:0:0:
448,192,112154,1,0,0:0:0:0:
192,192,112385,1,2,0:0:0:0:
320,192,112616,1,2,0:0:0:0:
64,192,112846,1,2,0:0:0:0:
192,192,113077,1,2,0:0:0:0:
448,192,113077,1,0,0:0:0:0:
320,192,113308,1,2,0:0:0:0:
192,192,113539,1,2,0:0:0:0:
64,192,113539,1,0,0:0:0:0:
448,192,113770,1,2,0:0:0:0:
192,192,114000,1,2,0:0:0:0:
64,192,114000,1,0,0:0:0:0:
64,192,114231,1,2,0:0:0:0:
320,192,114385,1,0,0:0:0:0:
64,192,114462,1,2,0:0:0:0:
448,192,114462,1,0,0:0:0:0:
320,192,114616,1,0,0:0:0:0:
448,192,114693,1,2,0:0:0:0:
320,192,114923,1,2,0:0:0:0:
192,192,114923,1,0,0:0:0:0:
64,192,115154,1,2,0:0:0:0:
192,192,115385,1,2,0:0:0:0:
320,192,115385,1,0,0:0:0:0:
448,192,115616,1,2,0:0:0:0:
64,192,115846,1,2,0:0:0:0:
192,192,115846,1,0,0:0:0:0:
448,192,116077,1,2,0:0:0:0:
320,192,116308,1,2,0:0:0:0:
64,192,116308,1,0,0:0:0:0:
192,192,116539,1,2,0:0:0:0:
320,192,116770,1,2,0:0:0:0:
448,192,116770,1,0,0:0:0:0:
64,192,117000,1,2,0:0:0:0:
192,192,117000,1,0,0:0:0:0:
64,192,117231,1,4,0:0:0:0:
448,192,117231,1,0,0:0:0:0:
320,192,117462,1,0,0:0:0:0:
192,192,117577,1,0,0:0:0:0:
64,192,117693,1,8,0:0:0:0:
448,192,117693,1,0,0:0:0:0:
320,192,117923,1,0,0:0:0:0:
448,192,118039,1,0,0:0:0:0:
64,192,118039,1,0,0:0:0:0:
320,192,118270,1,0,0:0:0:0:
64,192,118385,1,0,0:0:0:0:
448,192,118385,1,0,0:0:0:0:
192,192,118500,1,0,0:0:0:0:
448,192,118616,1,8,0:0:0:0:
64,192,118616,1,0,0:0:0:0:
320,192,118846,1,0,0:0:0:0:
192,192,118846,1,0,0:0:0:0:
448,192,119077,1,0,0:0:0:0:
64,192,119077,1,0,0:0:0:0:
320,192,119308,1,0,0:0:0:0:
192,192,119423,1,0,0:0:0:0:
320,192,119539,1,8,0:0:0:0:
448,192,119539,1,0,0:0:0:0:
192,192,119770,1,0,0:0:0:0:
64,192,119885,1,0,0:0:0:0:
448,192,119885,1,0,0:0:0:0:
192,192,120116,1,0,0:0:0:0:
320,192,120116,1,0,0:0:0:0:
64,192,120346,1,0,0:0:0:0:
448,192,120346,1,0,0:0:0:0:
448,192,120462,1,8,0:0:0:0:
320,192,120462,1,0,0:0:0:0:
320,192,120693,1,0,0:0:0:0:
192,192,120693,1,0,0:0:0:0:
192,192,120923,1,0,0:0:0:0:
64,192,120923,1,0,0:0:0:0:
448,192,121154,1,0,0:0:0:0:
320,192,121270,1,0,0:0:0:0:
448,192,121385,1,8,0:0:0:0:
64,192,121385,1,0,0:0:0:0:
320,192,121616,1,0,0:0:0:0:
448,192,121731,1,0,0:0:0:0:
64,192,121731,1,0,0:0:0:0:
192,192,121962,1,0,0:0:0:0:
320,192,121962,1,0,0:0:0:0:
64,192,122193,1,0,0:0:0:0:
448,192,122193,1,0,0:0:0:0:
64,192,122308,1,8,0:0:0:0:
192,192,122308,1,0,0:0:0:0:
320,192,122539,1,0,0:0:0:0:
192,192,122539,1,0,0:0:0:0:
320,192,122770,1,0,0:0:0:0:
448,192,122770,1,0,0:0:0:0:
64,192,123000,1,0,0:0:0:0:
192,192,123116,1,0,0:0:0:0:
448,192,123231,1,8,0:0:0:0:
64,192,123231,1,0,0:0:0:0:
192,192,123462,1,0,0:0:0:0:
64,192,123577,1,0,0:0:0:0:
448,192,123577,1,0,0:0:0:0:
448,192,123808,1,0,0:0:0:0:
320,192,123808,1,0,0:0:0:0:
64,192,124039,1,0,0:0:0:0:
192,192,124039,1,0,0:0:0:0:
320,192,124154,1,2,0:0:0:0:
448,192,124154,1,0,0:0:0:0:
448,192,124270,1,2,0:0:0:0:
192,192,124385,1,2,0:0:0:0:
64,192,124385,1,0,0:0:0:0:
448,192,124500,1,2,0:0:0:0:
320,192,124500,1,0,0:0:0:0:
64,192,124616,1,2,0:0:0:0:
192,192,124616,1,4,0:0:0:0:
448,192,124846,1,0,0:0:0:0:
64,192,124846,1,0,0:0:0:0:
192,192,124962,1,0,0:0:0:0:
448,192,125077,1,8,0:0:0:0:
64,192,125077,1,0,0:0:0:0:
448,192,125308,1,2,0:0:0:0:
320,192,125308,1,0,0:0:0:0:
64,192,125423,1,2,0:0:0:0:
192,192,125423,1,0,0:0:0:0:
448,192,125539,1,0,0:0:0:0:
320,192,125654,1,0,0:0:0:0:
64,192,125770,1,2,0:0:0:0:
448,192,125770,1,0,0:0:0:0:
192,192,126000,1,8,0:0:0:0:
320,192,126000,1,0,0:0:0:0:
448,192,126231,1,0,0:0:0:0:
64,192,126231,1,0,0:0:0:0:
192,192,126346,1,0,0:0:0:0:
448,192,126462,1,2,0:0:0:0:
64,192,126462,1,0,0:0:0:0:
320,192,126693,1,0,0:0:0:0:
64,192,126808,1,0,0:0:0:0:
192,192,126808,1,0,0:0:0:0:
320,192,126923,1,8,0:0:0:0:
448,192,126923,1,0,0:0:0:0:
192,192,127154,1,2,0:0:0:0:
448,192,127270,1,2,0:0:0:0:
64,192,127270,1,0,0:0:0:0:
320,192,127385,1,0,0:0:0:0:
64,192,127500,1,0,0:0:0:0:
448,192,127500,1,0,0:0:0:0:
192,192,127616,1,2,0:0:0:0:
320,192,127731,1,0,0:0:0:0:
448,192,127846,1,8,0:0:0:0:
64,192,127846,1,0,0:0:0:0:
192,192,127962,1,2,0:0:0:0:
448,192,128077,1,2,0:0:0:0:
64,192,128077,1,0,0:0:0:0:
320,192,128308,1,2,0:0:0:0:
192,192,128308,1,0,0:0:0:0:
448,192,128539,1,0,0:0:0:0:
64,192,128539,1,0,0:0:0:0:
320,192,128654,1,0,0:0:0:0:
64,192,128770,1,8,0:0:0:0:
448,192,128770,1,0,0:0:0:0:
192,192,129000,1,2,0:0:0:0:
448,192,129116,1,2,0:0:0:0:
64,192,129116,1,0,0:0:0:0:
320,192,129231,1,0,0:0:0:0:
448,192,129346,1,0,0:0:0:0:
64,192,129346,1,0,0:0:0:0:
192,192,129462,1,2,0:0:0:0:
448,192,129693,1,8,0:0:0:0:
320,192,129693,1,0,0:0:0:0:
320,192,129923,1,0,0:0:0:0:
64,192,129923,1,0,0:0:0:0:
192,192,130039,1,0,0:0:0:0:
320,192,130154,1,2,0:0:0:0:
64,192,130154,1,0,0:0:0:0:
192,192,130385,1,0,0:0:0:0:
320,192,130500,1,0,0:0:0:0:
448,192,130616,1,8,0:0:0:0:
64,192,130616,1,0,0:0:0:0:
448,192,130846,1,2,0:0:0:0:
192,192,130962,1,2,0:0:0:0:
64,192,130962,1,0,0:0:0:0:
448,192,131077,1,0,0:0:0:0:
320,192,131193,1,0,0:0:0:0:
192,192,131193,1,0,0:0:0:0:
64,192,131308,1,2,0:0:0:0:
448,192,131423,1,0,0:0:0:0:
320,192,131423,1,0,0:0:0:0:
192,192,131539,1,8,0:0:0:0:
64,192,131539,1,0,0:0:0:0:
320,192,131770,1,2,0:0:0:0:
192,192,131770,1,0,0:0:0:0:
320,192,132000,1,4,0:0:0:0:
448,192,132000,1,2,0:0:0:0:
64,192,132000,1,0,0:0:0:0:
192,192,132231,1,0,0:0:0:0:
320,192,132346,1,0,0:0:0:0:
192,192,132462,1,8,0:0:0:0:
64,192,132462,1,0,0:0:0:0:
448,192,132693,1,2,0:0:0:0:
320,192,132693,1,0,0:0:0:0:
448,192,132808,1,2,0:0:0:0:
64,192,132923,1,0,0:0:0:0:
192,192,133039,1,0,0:0:0:0:
448,192,133154,1,2,0:0:0:0:
64,192,133154,1,0,0:0:0:0:
320,192,133270,1,0,0:0:0:0:
192,192,133385,1,8,0:0:0:0:
64,192,133385,1,0,0:0:0:0:
448,192,133616,1,0,0:0:0:0:
320,192,133616,1,0,0:0:0:0:
64,192,133846,1,2,0:0:0:0:
448,192,133846,1,0,0:0:0:0:
192,192,133962,1,0,0:0:0:0:
320,192,134077,1,0,0:0:0:0:
192,192,134193,1,0,0:0:0:0:
448,192,134308,1,8,0:0:0:0:
64,192,134308,1,0,0:0:0:0:
320,192,134423,1,0,0:0:0:0:
192,192,134539,1,2,0:0:0:0:
64,192,134539,1,0,0:0:0:0:
64,192,134654,1,2,0:0:0:0:
448,192,134770,1,0,0:0:0:0:
320,192,134885,1,0,0:0:0:0:
64,192,135000,1,2,0:0:0:0:
448,192,135000,1,0,0:0:0:0:
192,192,135116,1,0,0:0:0:0:
448,192,135231,1,8,0:0:0:0:
64,192,135231,1,0,0:0:0:0:
320,192,135462,1,2,0:0:0:0:
192,192,135462,1,0,0:0:0:0:
448,192,135693,1,2,0:0:0:0:
64,192,135693,1,0,0:0:0:0:
192,192,135808,1,0,0:0:0:0:
320,192,135923,1,0,0:0:0:0:
448,192,136039,1,0,0:0:0:0:
192,192,136154,1,8,0:0:0:0:
64,192,136154,1,0,0:0:0:0:
448,192,136270,1,0,0:0:0:0:
192,192,136385,1,2,0:0:0:0:
64,192,136385,1,0,0:0:0:0:
64,192,136500,1,2,0:0:0:0:
320,192,136616,1,0,0:0:0:0:
192,192,136731,1,0,0:0:0:0:
64,192,136846,1,2,0:0:0:0:
448,192,136846,1,0,0:0:0:0:
320,192,136962,1,0,0:0:0:0:
448,192,137077,1,8,0:0:0:0:
64,192,137077,1,0,0:0:0:0:
192,192,137193,1,0,0:0:0:0:
320,192,137308,1,0,0:0:0:0:
448,192,137308,1,0,0:0:0:0:
64,192,137423,1,0,0:0:0:0:
192,192,137539,1,2,0:0:0:0:
320,192,137539,1,0,0:0:0:0:
448,192,137654,1,0,0:0:0:0:
192,192,137770,1,0,0:0:0:0:
320,192,137885,1,0,0:0:0:0:
448,192,138000,1,8,0:0:0:0:
64,192,138000,1,0,0:0:0:0:
192,192,138116,1,0,0:0:0:0:
320,192,138231,1,2,0:0:0:0:
448,192,138231,1,0,0:0:0:0:
192,192,138346,1,0,0:0:0:0:
64,192,138346,128,0,138923:0:0:0:0:
448,192,138577,1,0,0:0:0:0:
320,192,138693,1,0,0:0:0:0:
192,192,138808,1,0,0:0:0:0:
448,192,138923,128,0,139385:0:0:0:0:
320,192,138923,1,0,0:0:0:0:
64,192,139039,1,0,0:0:0:0:
192,192,139154,1,0,0:0:0:0:
320,192,139270,1,0,0:0:0:0:
64,192,139385,1,4,0:0:0:0:
192,192,139385,1,0,0:0:0:0:
320,192,139616,1,0,0:0:0:0:
192,192,139616,1,0,0:0:0:0:
320,192,139846,1,0,0:0:0:0:
448,192,139846,1,0,0:0:0:0:
64,192,140077,1,0,0:0:0:0:
192,192,140077,1,0,0:0:0:0:
192,192,140193,1,0,0:0:0:0:
448,192,140193,1,0,0:0:0:0:
64,192,140539,1,0,0:0:0:0:
448,192,140539,1,0,0:0:0:0:
320,192,140654,1,0,0:0:0:0:
192,192,140770,1,0,0:0:0:0:
64,192,140770,1,0,0:0:0:0:
320,192,141000,1,0,0:0:0:0:
448,192,141000,1,0,0:0:0:0:
448,192,141231,1,0,0:0:0:0:
64,192,141231,1,0,0:0:0:0:
320,192,141462,1,0,0:0:0:0:
192,192,141462,1,0,0:0:0:0:
192,192,141693,1,0,0:0:0:0:
64,192,141693,1,0,0:0:0:0:
320,192,141923,1,0,0:0:0:0:
448,192,141923,1,0,0:0:0:0:
64,192,142039,1,0,0:0:0:0:
320,192,142039,1,0,0:0:0:0:
448,192,142270,1,0,0:0:0:0:
64,192,142270,1,0,0:0:0:0:
320,192,142385,1,0,0:0:0:0:
192,192,142500,1,0,0:0:0:0:
64,192,142616,1,0,0:0:0:0:
448,192,142616,1,0,0:0:0:0:
192,192,142846,1,0,0:0:0:0:
320,192,142846,1,0,0:0:0:0:
448,192,143077,1,2,0:0:0:0:
64,192,143077,1,0,0:0:0:0:
192,192,143308,1,0,0:0:0:0:
320,192,143308,1,0,0:0:0:0:
320,192,143539,1,0,0:0:0:0:
448,192,143539,1,0,0:0:0:0:
64,192,143770,1,0,0:0:0:0:
192,192,143770,1,0,0:0:0:0:
448,192,143885,1,0,0:0:0:0:
192,192,143885,1,0,0:0:0:0:
64,192,144231,1,0,0:0:0:0:
448,192,144231,1,0,0:0:0:0:
192,192,144346,1,0,0:0:0:0:
448,192,144462,1,0,0:0:0:0:
64,192,144462,1,0,0:0:0:0:
320,192,144693,1,0,0:0:0:0:
192,192,144693,1,0,0:0:0:0:
448,192,144923,1,0,0:0:0:0:
64,192,144923,1,0,0:0:0:0:
320,192,145154,1,0,0:0:0:0:
448,192,145154,1,0,0:0:0:0:
64,192,145385,1,0,0:0:0:0:
192,192,145385,1,0,0:0:0:0:
448,192,145616,1,0,0:0:0:0:
320,192,145616,1,0,0:0:0:0:
320,192,145731,1,0,0:0:0:0:
64,192,145731,1,0,0:0:0:0:
448,192,145962,1,0,0:0:0:0:
64,192,145962,1,0,0:0:0:0:
192,192,146077,1,0,0:0:0:0:
320,192,146193,1,0,0:0:0:0:
64,192,146308,1,0,0:0:0:0:
448,192,146308,1,0,0:0:0:0:
192,192,146423,1,0,0:0:0:0:
320,192,146539,1,0,0:0:0:0:
192,192,146654,1,0,0:0:0:0:
448,192,146770,1,2,0:0:0:0:
64,192,146770,1,4,0:0:0:0:
320,192,146770,1,0,0:0:0:0:
320,192,147000,1,0,0:0:0:0:
448,192,147000,1,0,0:0:0:0:
64,192,147231,1,0,0:0:0:0:
192,192,147231,1,0,0:0:0:0:
192,192,147462,1,0,0:0:0:0:
320,192,147462,1,0,0:0:0:0:
448,192,147577,1,2,0:0:0:0:
64,192,147577,1,4,0:0:0:0:
320,192,147577,1,0,0:0:0:0:
448,192,147923,1,4,0:0:0:0:
192,192,147923,1,2,0:0:0:0:
64,192,147923,1,0,0:0:0:0:
320,192,148039,1,0,0:0:0:0:
192,192,148154,1,4,0:0:0:0:
448,192,148154,1,2,0:0:0:0:
64,192,148154,1,0,0:0:0:0:
320,192,148385,1,0,0:0:0:0:
192,192,148385,1,0,0:0:0:0:
448,192,148616,1,2,0:0:0:0:
64,192,148616,1,4,0:0:0:0:
320,192,148616,1,0,0:0:0:0:
448,192,148846,1,0,0:0:0:0:
192,192,148846,1,0,0:0:0:0:
320,192,149077,1,0,0:0:0:0:
64,192,149077,1,0,0:0:0:0:
192,192,149308,1,0,0:0:0:0:
320,192,149308,1,0,0:0:0:0:
64,192,149423,1,4,0:0:0:0:
192,192,149423,1,2,0:0:0:0:
448,192,149423,1,0,0:0:0:0:
64,192,149654,1,0,0:0:0:0:
192,192,149770,1,2,0:0:0:0:
448,192,149770,1,0,0:0:0:0:
320,192,149885,1,0,0:0:0:0:
192,192,150000,1,4,0:0:0:0:
64,192,150000,1,2,0:0:0:0:
448,192,150231,1,0,0:0:0:0:
320,192,150231,1,0,0:0:0:0:
448,192,150462,1,4,0:0:0:0:
64,192,150462,1,2,0:0:0:0:
192,192,150462,1,0,0:0:0:0:
64,192,150693,1,0,0:0:0:0:
320,192,150693,1,0,0:0:0:0:
192,192,150923,1,0,0:0:0:0:
448,192,150923,1,0,0:0:0:0:
192,192,151154,1,0,0:0:0:0:
320,192,151154,1,0,0:0:0:0:
448,192,151270,1,4,0:0:0:0:
320,192,151270,1,2,0:0:0:0:
64,192,151270,1,0,0:0:0:0:
448,192,151616,1,0,0:0:0:0:
64,192,151616,1,0,0:0:0:0:
192,192,151731,1,0,0:0:0:0:
448,192,151846,1,4,0:0:0:0:
64,192,151846,1,2,0:0:0:0:
320,192,151846,1,0,0:0:0:0:
320,192,152077,1,0,0:0:0:0:
192,192,152077,1,0,0:0:0:0:
448,192,152308,1,2,0:0:0:0:
64,192,152308,1,4,0:0:0:0:
192,192,152308,1,0,0:0:0:0:
320,192,152539,1,0,0:0:0:0:
448,192,152539,1,0,0:0:0:0:
448,192,152770,1,2,0:0:0:0:
320,192,152770,1,0,0:0:0:0:
64,192,152885,1,2,0:0:0:0:
320,192,153000,1,2,0:0:0:0:
448,192,153000,1,0,0:0:0:0:
192,192,153116,1,2,0:0:0:0:
64,192,153116,1,4,0:0:0:0:
448,192,153116,1,0,0:0:0:0:
448,192,153346,1,4,0:0:0:0:
64,192,153346,1,2,0:0:0:0:
320,192,153462,1,2,0:0:0:0:
192,192,153577,1,2,0:0:0:0:
448,192,153693,1,0,0:0:0:0:
64,192,153693,1,0,0:0:0:0:
320,192,153923,1,0,0:0:0:0:
192,192,153923,1,0,0:0:0:0:
320,192,154154,1,2,0:0:0:0:
448,192,154154,1,0,0:0:0:0:
64,192,154154,1,0,0:0:0:0:
192,192,154270,1,0,0:0:0:0:
448,192,154385,1,2,0:0:0:0:
320,192,154385,1,0,0:0:0:0:
64,192,154500,1,0,0:0:0:0:
192,192,154616,1,2,0:0:0:0:
448,192,154616,1,0,0:0:0:0:
320,192,154731,1,0,0:0:0:0:
192,192,154846,1,2,0:0:0:0:
64,192,154846,1,0,0:0:0:0:
320,192,154962,1,2,0:0:0:0:
448,192,154962,1,0,0:0:0:0:
64,192,154962,1,0,0:0:0:0:
192,192,155193,1,2,0:0:0:0:
448,192,155308,1,2,0:0:0:0:
64,192,155308,1,0,0:0:0:0:
320,192,155423,1,0,0:0:0:0:
448,192,155539,1,2,0:0:0:0:
64,192,155539,1,0,0:0:0:0:
320,192,155770,1,2,0:0:0:0:
192,192,155770,1,0,0:0:0:0:
64,192,156000,1,2,0:0:0:0:
448,192,156000,1,0,0:0:0:0:
192,192,156116,1,0,0:0:0:0:
448,192,156231,1,2,0:0:0:0:
64,192,156231,1,0,0:0:0:0:
320,192,156346,1,0,0:0:0:0:
448,192,156462,1,2,0:0:0:0:
64,192,156462,1,0,0:0:0:0:
192,192,156577,1,0,0:0:0:0:
320,192,156693,1,2,0:0:0:0:
448,192,156693,1,0,0:0:0:0:
64,192,156808,1,2,0:0:0:0:
192,192,156808,1,0,0:0:0:0:
448,192,156808,1,0,0:0:0:0:
448,192,157039,1,2,0:0:0:0:
320,192,157039,1,0,0:0:0:0:
192,192,157154,1,2,0:0:0:0:
64,192,157154,1,0,0:0:0:0:
448,192,157385,1,2,0:0:0:0:
320,192,157385,1,0,0:0:0:0:
192,192,157500,1,2,0:0:0:0:
64,192,157500,1,0,0:0:0:0:
448,192,157616,1,2,0:0:0:0:
320,192,157673,1,0,0:0:0:0:
192,192,157731,1,0,0:0:0:0:
64,192,157789,1,0,0:0:0:0:
320,192,157846,1,4,0:0:0:0:
448,192,157846,1,2,0:0:0:0:
192,192,157962,1,0,0:0:0:0:
448,192,158077,1,2,0:0:0:0:
320,192,158077,1,0,0:0:0:0:
64,192,158193,1,0,0:0:0:0:
448,192,158308,1,2,0:0:0:0:
192,192,158308,1,0,0:0:0:0:
320,192,158423,1,0,0:0:0:0:
192,192,158539,1,2,0:0:0:0:
64,192,158539,1,0,0:0:0:0:
320,192,158654,1,2,0:0:0:0:
448,192,158654,1,0,0:0:0:0:
64,192,158654,1,0,0:0:0:0:
448,192,158885,1,2,0:0:0:0:
320,192,159000,1,2,0:0:0:0:
64,192,159000,1,0,0:0:0:0:
192,192,159116,1,0,0:0:0:0:
320,192,159231,1,2,0:0:0:0:
448,192,159231,1,0,0:0:0:0:
192,192,159462,1,2,0:0:0:0:
64,192,159462,1,0,0:0:0:0:
320,192,159693,1,2,0:0:0:0:
448,192,159693,1,0,0:0:0:0:
64,192,159808,1,0,0:0:0:0:
320,192,159923,1,2,0:0:0:0:
192,192,159923,1,0,0:0:0:0:
448,192,160039,1,0,0:0:0:0:
64,192,160154,1,2,0:0:0:0:
192,192,160154,1,0,0:0:0:0:
448,192,160270,1,0,0:0:0:0:
192,192,160385,5,2,0:0:0:0:
320,192,160385,1,0,0:0:0:0:
64,192,160500,1,2,0:0:0:0:
448,192,160500,1,0,0:0:0:0:
192,192,160500,1,0,0:0:0:0:
192,192,160731,1,2,0:0:0:0:
64,192,160731,1,0,0:0:0:0:
320,192,160846,1,2,0:0:0:0:
448,192,160846,1,0,0:0:0:0:
64,192,161077,1,2,0:0:0:0:
192,192,161135,1,0,0:0:0:0:
448,192,161193,1,0,0:0:0:0:
320,192,161250,1,0,0:0:0:0:
192,192,161308,128,0,161539:0:0:0:0:
64,192,161539,5,2,0:0:0:0:
320,192,161539,1,4,0:0:0:0:
448,192,161539,1,0,0:0:0:0:
192,192,161654,1,2,0:0:0:0:
64,192,161770,1,2,0:0:0:0:
448,192,161770,1,0,0:0:0:0:
320,192,161885,1,2,0:0:0:0:
448,192,162000,1,2,0:0:0:0:
192,192,162000,1,0,0:0:0:0:
64,192,162116,1,2,0:0:0:0:
448,192,162231,1,2,0:0:0:0:
320,192,162231,1,0,0:0:0:0:
64,192,162346,1,2,0:0:0:0:
448,192,162346,1,0,0:0:0:0:
192,192,162346,1,0,0:0:0:0:
64,192,162577,1,2,0:0:0:0:
448,192,162577,1,0,0:0:0:0:
192,192,162693,1,2,0:0:0:0:
64,192,162693,1,0,0:0:0:0:
448,192,162808,1,2,0:0:0:0:
320,192,162808,1,0,0:0:0:0:
192,192,162923,1,2,0:0:0:0:
64,192,162923,1,0,0:0:0:0:
320,192,163039,1,2,0:0:0:0:
448,192,163039,1,0,0:0:0:0:
64,192,163154,1,2,0:0:0:0:
192,192,163212,1,0,0:0:0:0:
320,192,163270,1,0,0:0:0:0:
448,192,163327,1,0,0:0:0:0:
192,192,163385,1,2,0:0:0:0:
64,192,163385,1,0,0:0:0:0:
320,192,163500,1,2,0:0:0:0:
192,192,163616,1,2,0:0:0:0:
64,192,163616,1,0,0:0:0:0:
448,192,163731,1,2,0:0:0:0:
320,192,163846,1,2,0:0:0:0:
192,192,163846,1,0,0:0:0:0:
64,192,163962,1,2,0:0:0:0:
448,192,164077,1,2,0:0:0:0:
320,192,164077,1,0,0:0:0:0:
192,192,164193,1,2,0:0:0:0:
64,192,164193,1,0,0:0:0:0:
448,192,164193,1,0,0:0:0:0:
64,192,164423,1,2,0:0:0:0:
448,192,164423,1,0,0:0:0:0:
320,192,164539,1,2,0:0:0:0:
448,192,164539,1,0,0:0:0:0:
64,192,164654,1,2,0:0:0:0:
192,192,164654,1,0,0:0:0:0:
448,192,164770,1,2,0:0:0:0:
320,192,164827,1,0,0:0:0:0:
64,192,164885,1,0,0:0:0:0:
192,192,164943,1,0,0:0:0:0:
448,192,165000,1,0,0:0:0:0:
320,192,165058,1,0,0:0:0:0:
64,192,165116,1,0,0:0:0:0:
192,192,165173,1,0,0:0:0:0:
320,192,165231,1,8,0:0:0:0:
448,192,165231,1,2,0:0:0:0:
64,192,165289,1,0,0:0:0:0:
192,192,165346,1,2,0:0:0:0:
448,192,165404,1,0,0:0:0:0:
320,192,165462,1,2,0:0:0:0:
64,192,165520,1,0,0:0:0:0:
192,192,165577,1,2,0:0:0:0:
448,192,165635,1,0,0:0:0:0:
320,192,165693,1,8,0:0:0:0:
64,192,165750,1,0,0:0:0:0:
192,192,165808,1,2,0:0:0:0:
320,192,165866,1,0,0:0:0:0:
448,192,165923,1,2,0:0:0:0:
192,192,166039,1,2,0:0:0:0:
64,192,166039,1,0,0:0:0:0:
320,192,166154,1,10,0:0:0:0:
448,192,166154,1,0,0:0:0:0:
192,192,166270,1,2,0:0:0:0:
64,192,166270,1,0,0:0:0:0:
448,192,166385,1,2,0:0:0:0:
320,192,166385,1,0,0:0:0:0:
448,192,166500,1,2,0:0:0:0:
320,192,166500,1,0,0:0:0:0:
192,192,166616,1,8,0:0:0:0:
64,192,166616,1,2,0:0:0:0:
192,192,166731,1,2,0:0:0:0:
64,192,166731,1,0,0:0:0:0:
448,192,166846,1,2,0:0:0:0:
320,192,166846,1,0,0:0:0:0:
192,192,166962,1,2,0:0:0:0:
64,192,166962,1,0,0:0:0:0:
448,192,167077,1,8,0:0:0:0:
320,192,167077,1,2,0:0:0:0:
64,192,167077,1,0,0:0:0:0:
320,192,167193,1,2,0:0:0:0:
448,192,167193,1,0,0:0:0:0:
64,192,167308,1,2,0:0:0:0:
192,192,167308,1,8,0:0:0:0:
448,192,167308,1,0,0:0:0:0:
192,192,167423,1,2,0:0:0:0:
64,192,167423,1,0,0:0:0:0:
448,192,167539,1,2,0:0:0:0:
320,192,167539,1,8,0:0:0:0:
64,192,167539,1,0,0:0:0:0:
320,192,167654,1,2,0:0:0:0:
192,192,167654,1,0,0:0:0:0:
64,192,167770,1,8,0:0:0:0:
192,192,167770,1,2,0:0:0:0:
448,192,167770,1,0,0:0:0:0:
448,192,167885,1,4,0:0:0:0:
64,192,167885,128,0,168346:0:0:0:0:
320,192,167885,1,0,0:0:0:0:
448,192,168116,128,0,168808:0:0:0:0:
320,192,168231,128,0,168808:0:0:0:0:
192,192,168346,128,0,168808:0:0:0:0:
64,192,168462,128,0,168808:0:0:0:0:
448,192,168923,1,0,0:0:0:0:
64,192,168923,1,0,0:0:0:0:
192,192,169154,1,0,0:0:0:0:
320,192,169270,1,0,0:0:0:0:
192,192,169385,1,8,0:0:0:0:
64,192,169385,1,0,0:0:0:0:
448,192,169616,1,0,0:0:0:0:
320,192,169731,1,0,0:0:0:0:
64,192,169731,1,0,0:0:0:0:
64,192,169962,1,0,0:0:0:0:
320,192,169962,1,0,0:0:0:0:
448,192,170077,1,0,0:0:0:0:
192,192,170193,1,0,0:0:0:0:
320,192,170308,1,8,0:0:0:0:
64,192,170308,1,0,0:0:0:0:
320,192,170539,1,0,0:0:0:0:
448,192,170539,1,0,0:0:0:0:
192,192,170654,1,0,0:0:0:0:
448,192,170770,1,0,0:0:0:0:
64,192,170770,1,0,0:0:0:0:
320,192,171000,1,0,0:0:0:0:
192,192,171116,1,0,0:0:0:0:
320,192,171231,1,8,0:0:0:0:
448,192,171231,1,0,0:0:0:0:
64,192,171462,1,0,0:0:0:0:
192,192,171577,1,0,0:0:0:0:
448,192,171577,1,0,0:0:0:0:
192,192,171808,1,0,0:0:0:0:
448,192,171808,1,0,0:0:0:0:
64,192,171923,1,0,0:0:0:0:
320,192,172039,1,0,0:0:0:0:
192,192,172154,1,8,0:0:0:0:
448,192,172154,1,0,0:0:0:0:
64,192,172270,1,0,0:0:0:0:
320,192,172385,1,0,0:0:0:0:
448,192,172385,1,0,0:0:0:0:
192,192,172500,1,0,0:0:0:0:
448,192,172616,1,0,0:0:0:0:
320,192,172616,1,0,0:0:0:0:
64,192,172846,1,0,0:0:0:0:
192,192,172962,1,0,0:0:0:0:
320,192,173077,1,8,0:0:0:0:
448,192,173077,1,0,0:0:0:0:
64,192,173308,1,0,0:0:0:0:
192,192,173423,1,0,0:0:0:0:
448,192,173423,1,0,0:0:0:0:
320,192,173539,1,0,0:0:0:0:
192,192,173654,1,0,0:0:0:0:
64,192,173654,1,0,0:0:0:0:
448,192,173770,1,0,0:0:0:0:
320,192,173885,1,0,0:0:0:0:
192,192,174000,1,8,0:0:0:0:
64,192,174000,1,0,0:0:0:0:
320,192,174231,1,0,0:0:0:0:
448,192,174231,1,0,0:0:0:0:
64,192,174462,1,0,0:0:0:0:
448,192,174462,128,0,175846:0:0:0:0:
320,192,174693,1,0,0:0:0:0:
64,192,174808,1,0,0:0:0:0:
320,192,174923,1,8,0:0:0:0:
320,192,175154,1,0,0:0:0:0:
64,192,175270,1,0,0:0:0:0:
320,192,175385,128,0,175846:0:0:0:0:
64,192,175846,1,0,0:0:0:0:
64,192,176308,1,2,0:0:0:0:
192,192,176308,1,4,0:0:0:0:
448,192,176308,1,0,0:0:0:0:
64,192,176539,1,0,0:0:0:0:
448,192,176770,1,0,0:0:0:0:
192,192,177000,1,0,0:0:0:0:
320,192,177231,1,0,0:0:0:0:
64,192,177462,1,0,0:0:0:0:
448,192,177693,1,0,0:0:0:0:
320,192,177808,1,0,0:0:0:0:
448,192,177923,1,0,0:0:0:0:
64,192,177923,1,0,0:0:0:0:
64,192,178154,1,4,0:0:0:0:
448,192,178154,1,2,0:0:0:0:
192,192,178154,1,0,0:0:0:0:
64,192,178385,1,0,0:0:0:0:
320,192,178616,1,0,0:0:0:0:
192,192,178846,1,0,0:0:0:0:
448,192,179077,1,0,0:0:0:0:
64,192,179308,128,0,179423:0:0:0:0:
192,192,179308,128,0,179423:0:0:0:0:
192,192,179539,128,0,179654:0:0:0:0:
320,192,179539,128,0,179654:0:0:0:0:
320,192,179770,128,0,179885:0:0:0:0:
448,192,179770,128,0,179885:0:0:0:0:
448,192,180000,1,4,0:0:0:0:
192,192,180000,1,2,0:0:0:0:
64,192,180000,1,0,0:0:0:0:
64,192,180231,1,0,0:0:0:0:
448,192,180462,1,0,0:0:0:0:
320,192,180693,1,0,0:0:0:0:
192,192,180923,1,2,0:0:0:0:
448,192,180923,1,4,0:0:0:0:
64,192,180923,1,0,0:0:0:0:
448,192,181154,1,0,0:0:0:0:
192,192,181385,1,0,0:0:0:0:
320,192,181616,1,0,0:0:0:0:
192,192,181846,1,4,0:0:0:0:
64,192,181846,1,2,0:0:0:0:
448,192,181846,1,0,0:0:0:0:
64,192,182077,1,0,0:0:0:0:
64,192,182308,1,4,0:0:0:0:
320,192,182308,1,2,0:0:0:0:
448,192,182308,1,0,0:0:0:0:
320,192,182539,1,0,0:0:0:0:
320,192,182770,1,0,0:0:0:0:
448,192,182770,1,0,0:0:0:0:
64,192,182885,1,0,0:0:0:0:
448,192,183000,1,0,0:0:0:0:
320,192,183039,1,0,0:0:0:0:
192,192,183077,1,0,0:0:0:0:
64,192,183116,1,0,0:0:0:0:
448,192,183231,1,0,0:0:0:0:
64,192,183462,1,2,0:0:0:0:
192,192,183462,1,0,0:0:0:0:
320,192,183462,128,0,183923:0:0:0:0:
448,192,183462,128,0,184385:0:0:0:0:
