osu file format v14

[General]
AudioFilename: audio.mp3
AudioLeadIn: 0
PreviewTime: 108006
Countdown: 0
SampleSet: Normal
StackLeniency: 0
Mode: 1
LetterboxInBreaks: 0
WidescreenStoryboard: 1

[Editor]
DistanceSpacing: 0.1
BeatDivisor: 4
GridSize: 32
TimelineZoom: 2.1

[Metadata]
Title:Dimension Hacker
TitleUnicode:Dimension Hacker
Artist:Kobaryo
ArtistUnicode:Kobaryo
Creator:koul
Version:yassu-'s Futsuu
Source:WACCA Reverse
Tags:electronic instrumental speedcore psycho filth records chiptune 8-bit 8bit ワッカリバース paradigm:reboot paradigm: reboot rise _rise uone hz404 grape_tea grape tea eriha yassu- yassu maimaing
BeatmapID:4425985
BeatmapSetID:2093984

[Difficulty]
HPDrainRate:7
CircleSize:3
OverallDifficulty:4
ApproachRate:9
SliderMultiplier:1.4
SliderTickRate:1

[Events]
//Background and Video events
0,0,"bg.jpg",0,0
//Break Periods
2,1851,6648
2,87215,94986
//Storyboard Layer 0 (Background)
//Storyboard Layer 1 (Fail)
//Storyboard Layer 2 (Pass)
//Storyboard Layer 3 (Foreground)
//Storyboard Layer 4 (Overlay)
//Storyboard Sound Samples

[TimingPoints]
952,349.854227405248,4,1,0,60,1,8
952,-111.111111111111,4,1,0,60,0,0
1651,349.854227405248,4,1,0,50,1,0
1651,-111.111111111111,4,1,0,50,0,0
11435,-111.111111111111,4,1,0,70,0,0
12824,-100,4,1,0,100,0,0
24030,-100,4,1,0,60,0,0
25069,-90.9090909090909,4,1,0,100,0,0
25441,174.927113702624,4,1,0,100,1,0
25441,-181.818181818182,4,1,0,100,0,0
36636,349.854227405248,4,1,0,100,1,0
36658,-100,4,1,0,70,0,0
39413,-100,4,1,0,90,0,0
42223,-100,4,1,0,100,0,0
45021,-90.9090909090909,4,1,0,100,0,0
45032,174.927113702624,4,1,0,100,1,0
45032,-181.818181818182,4,1,0,100,0,0
47809,-181.818181818182,4,1,0,100,0,0
52281,-181.818181818182,4,1,0,60,0,0
53428,349.854227405248,4,1,0,60,1,8
53428,-111.111111111111,4,1,0,60,0,0
53429,349.854227405248,4,1,0,60,1,0
53429,-111.111111111111,4,1,0,60,0,0
59016,-100,4,1,0,90,0,0
61727,-100,4,1,0,100,0,0
64624,174.927113702624,4,1,0,100,1,0
64624,-200,4,1,0,100,0,0
75776,-222.222222222222,4,1,0,90,0,0
75819,349.854227405248,4,1,0,90,1,8
75819,-111.111111111111,4,1,0,90,0,0
75820,349.854227405248,4,1,0,90,1,0
75820,-111.111111111111,4,1,0,90,0,0
80717,-100,4,1,0,90,0,0
81406,-100,4,1,0,100,0,0
85594,-100,4,1,0,20,0,0
86993,-100,4,1,0,100,0,0
87037,-100,4,1,0,60,0,0
87715,-111.111111111111,4,1,0,60,0,0
98188,-100,4,1,0,90,0,0
109362,-100,4,1,0,100,0,0
109406,174.927113702624,4,1,0,100,1,0
109406,-181.818181818182,4,1,0,100,0,1
117780,-181.818181818182,4,1,0,90,0,1
117802,349.854227405248,4,1,0,90,1,0
117802,-90.9090909090909,4,1,0,90,0,0
118502,-111.111111111111,4,1,0,90,0,0
119185,-100,4,1,0,90,0,0
120579,-90.9090909090909,4,1,0,100,0,0
120600,174.927113702624,4,1,0,100,1,0
120600,-181.818181818182,4,1,0,100,0,1
130395,349.854227405248,4,1,0,100,1,8
130395,-90.9090909090909,4,1,0,100,0,0
130397,349.854227405248,4,1,0,100,1,0
130397,-90.9090909090909,4,1,0,100,0,0
131796,-100,4,1,0,100,0,0

[HitObjects]
241,221,1651,5,4,0:0:0:0:
260,208,7248,5,2,0:0:0:0:
162,131,9172,1,0,0:0:0:0:
180,131,9522,1,0,0:0:0:0:
281,202,9697,1,2,0:0:0:0:
272,191,10047,1,2,0:0:0:0:
272,190,10222,1,0,0:0:0:0:
272,191,10572,1,0,0:0:0:0:
272,191,10922,1,0,0:0:0:0:
277,196,11097,1,2,0:0:0:0:
313,229,11271,1,2,0:0:0:0:
306,229,11446,1,2,0:0:0:0:
312,229,11621,1,0,0:0:0:0:
253,181,12846,5,4,0:0:0:0:
287,198,13546,1,2,0:0:0:0:
287,198,13720,1,0,0:0:0:0:
287,198,13983,1,0,0:0:0:0:
307,198,14245,1,0,0:0:0:0:
308,198,14508,1,0,0:0:0:0:
308,197,14770,1,0,0:0:0:0:
308,188,14945,1,2,0:0:0:0:
310,188,15645,1,0,0:0:0:0:
274,203,16344,1,2,0:0:0:0:
310,241,16519,1,0,0:0:0:0:
338,225,16782,1,0,0:0:0:0:
352,220,17044,1,2,0:0:0:0:
377,218,17306,1,2,0:0:0:0:
380,225,17569,1,0,0:0:0:0:
387,227,17744,1,2,0:0:0:0:
390,229,18444,1,4,0:0:0:0:
258,204,19143,1,2,0:0:0:0:
307,182,19318,1,0,0:0:0:0:
243,148,19581,1,0,0:0:0:0:
258,146,19843,1,0,0:0:0:0:
258,152,20105,1,0,0:0:0:0:
259,154,20368,1,0,0:0:0:0:
259,155,20543,1,2,0:0:0:0:
258,152,20892,1,0,0:0:0:0:
315,135,21592,1,0,0:0:0:0:
315,135,21767,1,0,0:0:0:0:
315,135,21942,1,2,0:0:0:0:
315,135,22292,1,2,0:0:0:0:
371,118,22467,1,2,0:0:0:0:
371,118,22642,1,0,0:0:0:0:
299,190,22992,1,0,0:0:0:0:
268,178,23167,1,0,0:0:0:0:
288,183,23341,1,2,0:0:0:0:
299,190,23516,1,2,0:0:0:0:
299,190,23691,1,0,0:0:0:0:
304,196,24041,1,2,0:0:0:0:
285,200,25441,1,0,0:0:0:0:
302,206,25615,1,0,0:0:0:0:
318,216,25790,1,2,0:0:0:0:
320,216,26140,1,0,0:0:0:0:
314,206,26490,1,2,0:0:0:0:
281,163,26665,5,2,0:0:0:0:
310,209,26840,1,0,0:0:0:0:
281,163,27015,1,0,0:0:0:0:
281,163,27365,1,0,0:0:0:0:
283,170,27540,1,2,0:0:0:0:
288,173,28239,1,0,0:0:0:0:
292,176,28414,1,0,0:0:0:0:
278,224,28589,1,2,0:0:0:0:
315,245,28764,1,2,0:0:0:0:
356,209,28939,1,0,0:0:0:0:
342,222,29289,1,2,0:0:0:0:
346,227,29639,1,0,0:0:0:0:
253,198,30338,1,2,0:0:0:0:
261,190,30513,1,2,0:0:0:0:
261,197,30688,1,6,0:0:0:0:
276,192,31038,1,0,0:0:0:0:
242,203,31213,1,0,0:0:0:0:
265,196,31388,1,2,0:0:0:0:
317,196,31738,1,2,0:0:0:0:
257,213,32438,1,0,0:0:0:0:
270,208,32613,1,0,0:0:0:0:
283,202,32787,1,2,0:0:0:0:
286,211,32962,1,2,0:0:0:0:
283,202,33137,1,0,0:0:0:0:
290,203,33487,1,2,0:0:0:0:
308,193,34012,5,0,0:0:0:0:
314,196,34187,1,0,0:0:0:0:
315,200,34362,1,0,0:0:0:0:
329,215,34537,1,2,0:0:0:0:
320,231,34887,1,0,0:0:0:0:
329,213,35236,1,2,0:0:0:0:
333,207,35470,1,2,0:0:0:0:
336,207,35703,1,2,0:0:0:0:
342,209,36286,1,6,0:0:0:0:
304,205,36636,1,0,0:0:0:0:
304,206,38735,1,2,0:0:0:0:
297,226,39084,1,2,0:0:0:0:
302,222,39434,1,0,0:0:0:0:
294,213,39697,1,2,0:0:0:0:
299,215,40134,1,0,0:0:0:0:
317,201,40396,1,2,0:0:0:0:
315,205,40834,1,0,0:0:0:0:
290,230,41096,1,2,0:0:0:0:
297,230,41533,1,0,0:0:0:0:
304,208,41708,1,0,0:0:0:0:
276,216,41883,1,2,0:0:0:0:
278,215,42233,1,0,0:0:0:0:
278,218,42408,1,0,0:0:0:0:
278,215,42845,1,2,0:0:0:0:
281,220,43108,1,0,0:0:0:0:
292,218,43370,1,0,0:0:0:0:
278,215,43633,1,0,0:0:0:0:
292,218,43895,1,0,0:0:0:0:
292,218,44157,1,0,0:0:0:0:
276,213,44332,1,6,0:0:0:0:
266,184,45032,1,0,0:0:0:0:
265,186,45206,1,2,0:0:0:0:
248,185,45381,1,2,0:0:0:0:
248,185,45731,1,0,0:0:0:0:
281,202,45906,1,0,0:0:0:0:
294,184,46081,1,2,0:0:0:0:
302,180,46431,1,0,0:0:0:0:
266,193,47131,1,2,0:0:0:0:
298,140,47306,1,2,0:0:0:0:
300,200,47480,1,6,0:0:0:0:
245,179,47830,1,0,0:0:0:0:
260,182,48180,1,2,0:0:0:0:
249,172,48530,1,2,0:0:0:0:
245,179,48705,1,0,0:0:0:0:
245,182,48967,1,0,0:0:0:0:
266,177,49230,1,2,0:0:0:0:
268,174,49492,1,2,0:0:0:0:
260,182,49755,1,0,0:0:0:0:
242,195,50629,1,0,0:0:0:0:
242,195,50804,1,2,0:0:0:0:
242,195,50979,1,2,0:0:0:0:
242,195,51329,1,0,0:0:0:0:
242,195,51504,1,0,0:0:0:0:
242,195,51679,1,2,0:0:0:0:
242,195,51854,1,2,0:0:0:0:
242,195,52029,1,0,0:0:0:0:
242,195,52378,1,2,0:0:0:0:
242,195,52728,1,0,0:0:0:0:
249,192,52903,1,0,0:0:0:0:
249,192,53078,1,2,0:0:0:0:
256,192,53429,12,2,58326,0:0:0:0:
249,192,59026,5,0,0:0:0:0:
249,192,59376,1,2,0:0:0:0:
249,192,59726,1,0,0:0:0:0:
260,186,59901,1,0,0:0:0:0:
249,192,60076,1,2,0:0:0:0:
256,186,60426,1,0,0:0:0:0:
256,186,60775,1,2,0:0:0:0:
256,186,61125,1,0,0:0:0:0:
256,186,61475,1,2,0:0:0:0:
256,186,61650,1,2,0:0:0:0:
256,186,61825,1,0,0:0:0:0:
256,186,62175,1,2,0:0:0:0:
262,187,62525,1,0,0:0:0:0:
262,177,62700,1,0,0:0:0:0:
262,177,62875,1,2,0:0:0:0:
262,177,63049,1,2,0:0:0:0:
268,177,63749,2,4,L|251:165,20,17.5
305,169,65148,1,4,0:0:0:0:
273,158,65382,1,4,0:0:0:0:
278,152,65615,1,4,0:0:0:0:
278,152,65848,1,4,0:0:0:0:
251,151,66081,1,4,0:0:0:0:
251,151,66314,1,4,0:0:0:0:
252,151,66548,1,4,0:0:0:0:
260,178,67422,1,0,0:0:0:0:
293,186,67947,1,6,0:0:0:0:
301,190,68210,1,6,0:0:0:0:
306,210,68472,1,6,0:0:0:0:
262,202,68734,1,6,0:0:0:0:
245,193,69696,1,2,0:0:0:0:
276,187,70046,1,0,0:0:0:0:
290,163,70396,1,0,0:0:0:0:
276,177,70571,1,2,0:0:0:0:
276,177,70746,1,0,0:0:0:0:
279,174,71271,1,2,0:0:0:0:
276,177,71621,1,0,0:0:0:0:
279,174,71796,1,0,0:0:0:0:
279,174,71970,1,2,0:0:0:0:
285,175,72145,1,0,0:0:0:0:
288,181,72495,1,0,0:0:0:0:
288,182,72670,1,2,0:0:0:0:
289,184,73020,1,0,0:0:0:0:
288,181,73195,1,0,0:0:0:0:
288,181,73370,1,2,0:0:0:0:
288,182,73545,1,0,0:0:0:0:
295,186,73720,1,0,0:0:0:0:
297,184,74070,1,2,0:0:0:0:
297,185,74419,1,0,0:0:0:0:
291,212,75119,1,0,0:0:0:0:
291,212,75469,1,6,0:0:0:0:
282,177,75820,1,0,0:0:0:0:
282,177,76169,1,2,0:0:0:0:
282,177,76869,1,2,0:0:0:0:
294,181,77569,1,2,0:0:0:0:
308,195,78268,1,0,0:0:0:0:
308,195,78968,1,2,0:0:0:0:
308,195,79668,1,2,0:0:0:0:
309,184,80368,1,2,0:0:0:0:
293,201,80717,1,0,0:0:0:0:
310,229,80892,1,2,0:0:0:0:
310,219,81067,1,0,0:0:0:0:
293,201,81417,1,0,0:0:0:0:
293,202,81767,1,2,0:0:0:0:
294,162,82117,1,0,0:0:0:0:
275,220,82467,1,2,0:0:0:0:
291,213,82642,1,2,0:0:0:0:
308,201,82817,1,0,0:0:0:0:
248,192,82992,1,2,0:0:0:0:
248,192,83166,1,0,0:0:0:0:
248,192,83516,1,2,0:0:0:0:
248,192,83866,1,0,0:0:0:0:
248,192,84041,1,2,0:0:0:0:
248,192,84216,1,0,0:0:0:0:
248,192,84391,1,0,0:0:0:0:
248,192,84566,1,2,0:0:0:0:
248,192,84916,1,0,0:0:0:0:
248,192,85266,1,2,0:0:0:0:
248,192,85440,1,2,0:0:0:0:
256,192,85790,12,2,86840,0:0:0:0:
259,202,87015,5,4,0:0:0:0:
344,259,95586,5,0,0:0:0:0:
249,171,95936,1,0,0:0:0:0:
213,151,96286,1,0,0:0:0:0:
272,191,96461,1,2,0:0:0:0:
234,180,96636,1,2,0:0:0:0:
260,181,96811,1,2,0:0:0:0:
260,181,96986,1,0,0:0:0:0:
272,191,97336,1,2,0:0:0:0:
313,229,97685,1,2,0:0:0:0:
274,264,97860,1,0,0:0:0:0:
202,57,98210,1,6,0:0:0:0:
253,256,98735,1,0,0:0:0:0:
325,194,99085,1,2,0:0:0:0:
315,221,99260,1,0,0:0:0:0:
325,230,99610,1,2,0:0:0:0:
335,240,100134,1,0,0:0:0:0:
386,200,100659,1,0,0:0:0:0:
358,178,100834,1,0,0:0:0:0:
385,206,101009,1,2,0:0:0:0:
323,188,101534,1,0,0:0:0:0:
324,194,101884,1,2,0:0:0:0:
323,188,102059,1,0,0:0:0:0:
324,196,102408,1,0,0:0:0:0:
324,196,102758,1,2,0:0:0:0:
282,170,103021,1,0,0:0:0:0:
282,170,103283,1,0,0:0:0:0:
299,152,103458,1,2,0:0:0:0:
282,170,103808,1,0,0:0:0:0:
282,170,104158,1,2,0:0:0:0:
281,156,104857,1,2,0:0:0:0:
281,156,105207,1,0,0:0:0:0:
281,156,105557,1,2,0:0:0:0:
281,156,106257,1,2,0:0:0:0:
281,156,106607,1,0,0:0:0:0:
281,156,106869,1,0,0:0:0:0:
281,156,107131,1,2,0:0:0:0:
281,156,107394,1,2,0:0:0:0:
260,142,107656,1,0,0:0:0:0:
281,156,107831,1,2,0:0:0:0:
282,156,109056,1,6,0:0:0:0:
282,156,109406,1,4,0:0:0:0:
299,197,109668,1,0,0:0:0:0:
283,202,109930,1,2,0:0:0:0:
283,202,110193,1,2,0:0:0:0:
283,202,110455,1,0,0:0:0:0:
287,256,110630,1,0,0:0:0:0:
310,215,110805,1,2,0:0:0:0:
310,215,111330,1,0,0:0:0:0:
311,191,111592,1,2,0:0:0:0:
262,239,111854,1,0,0:0:0:0:
269,242,112029,1,0,0:0:0:0:
280,206,112204,1,2,0:0:0:0:
291,209,112729,1,2,0:0:0:0:
290,209,112992,1,0,0:0:0:0:
291,209,113254,1,2,0:0:0:0:
320,173,113429,1,2,0:0:0:0:
305,174,113604,1,0,0:0:0:0:
320,186,113779,1,0,0:0:0:0:
326,183,113954,1,2,0:0:0:0:
322,202,114216,1,2,0:0:0:0:
252,184,115003,1,4,0:0:0:0:
256,188,115266,1,0,0:0:0:0:
327,187,115528,1,2,0:0:0:0:
272,157,115790,1,2,0:0:0:0:
272,157,116053,1,0,0:0:0:0:
294,134,116228,1,0,0:0:0:0:
271,147,116403,1,2,0:0:0:0:
278,177,116927,1,0,0:0:0:0:
236,160,117190,1,2,0:0:0:0:
262,206,117452,1,0,0:0:0:0:
294,190,117627,1,0,0:0:0:0:
269,174,117802,1,2,0:0:0:0:
256,192,119201,12,0,120250,0:0:0:0:
260,194,120600,5,4,0:0:0:0:
285,182,120862,1,4,0:0:0:0:
290,186,121124,1,4,0:0:0:0:
338,199,121387,1,4,0:0:0:0:
343,203,121649,1,4,0:0:0:0:
347,204,121999,1,6,0:0:0:0:
329,221,122261,1,6,0:0:0:0:
324,193,122524,1,6,0:0:0:0:
320,194,122786,1,6,0:0:0:0:
333,176,123048,1,6,0:0:0:0:
337,177,123398,1,4,0:0:0:0:
334,177,123661,1,4,0:0:0:0:
333,176,123923,1,4,0:0:0:0:
288,182,124186,1,4,0:0:0:0:
334,177,124448,1,4,0:0:0:0:
255,198,124798,1,2,0:0:0:0:
318,134,124973,1,2,0:0:0:0:
314,145,125148,1,0,0:0:0:0:
314,145,125410,1,6,0:0:0:0:
269,168,126197,1,4,0:0:0:0:
278,195,126460,1,0,0:0:0:0:
240,191,126722,1,2,0:0:0:0:
250,187,126984,1,2,0:0:0:0:
268,177,127247,1,0,0:0:0:0:
268,177,127597,1,2,0:0:0:0:
259,166,127859,1,2,0:0:0:0:
260,172,128121,1,0,0:0:0:0:
260,173,128384,1,2,0:0:0:0:
281,185,128646,1,0,0:0:0:0:
259,188,128821,1,2,0:0:0:0:
291,184,128996,1,0,0:0:0:0:
291,184,129258,1,0,0:0:0:0:
288,190,129521,1,2,0:0:0:0:
288,190,129783,1,0,0:0:0:0:
286,191,130046,1,2,0:0:0:0:
295,216,130397,1,0,0:0:0:0:
297,228,130571,1,0,0:0:0:0:
297,228,130746,1,2,0:0:0:0:
241,204,130921,1,2,0:0:0:0:
241,204,131096,1,0,0:0:0:0:
297,228,131446,1,6,0:0:0:0:
279,237,131796,1,0,0:0:0:0:
271,213,132496,1,2,0:0:0:0:
269,213,132671,1,0,0:0:0:0:
271,213,132933,1,0,0:0:0:0:
271,213,133195,1,0,0:0:0:0:
260,213,133458,1,0,0:0:0:0:
260,213,133720,1,0,0:0:0:0:
260,213,133895,1,2,0:0:0:0:
260,213,134595,1,4,0:0:0:0:
260,213,135294,1,2,0:0:0:0:
260,213,135469,1,0,0:0:0:0:
260,213,135732,1,0,0:0:0:0:
279,222,135994,1,2,0:0:0:0:
279,222,136257,1,2,0:0:0:0:
279,222,136519,1,0,0:0:0:0:
279,224,136694,1,2,0:0:0:0:
279,222,137044,1,0,0:0:0:0:
279,222,137394,1,2,0:0:0:0:
275,187,137918,1,4,0:0:0:0:
283,166,138152,1,4,0:0:0:0:
307,218,138385,1,4,0:0:0:0:
315,158,138618,1,4,0:0:0:0:
310,163,138851,1,4,0:0:0:0:
310,163,139085,1,4,0:0:0:0:
310,163,139318,1,6,0:0:0:0:
325,169,139580,1,6,0:0:0:0:
325,169,139843,1,6,0:0:0:0:
325,169,140105,1,6,0:0:0:0:
325,169,140367,1,6,0:0:0:0:
325,169,140630,1,6,0:0:0:0:
299,177,141592,1,0,0:0:0:0:
260,201,142292,1,2,0:0:0:0:
297,225,142466,1,2,0:0:0:0:
278,202,142641,1,6,0:0:0:0:
244,196,142991,1,4,0:0:0:0:
