osu file format v14

[General]
AudioFilename: audio.mp3
AudioLeadIn: 0
PreviewTime: 108006
Countdown: 0
SampleSet: Normal
StackLeniency: 0
Mode: 1
LetterboxInBreaks: 0
WidescreenStoryboard: 1

[Editor]
DistanceSpacing: 0.1
BeatDivisor: 4
GridSize: 32
TimelineZoom: 2.3

[Metadata]
Title:Dimension Hacker
TitleUnicode:Dimension Hacker
Artist:Kobaryo
ArtistUnicode:Kobaryo
Creator:koul
Version:uone's Oni
Source:WACCA Reverse
Tags:electronic instrumental speedcore psycho filth records chiptune 8-bit 8bit ワッカリバース paradigm:reboot paradigm: reboot rise _rise uone hz404 grape_tea grape tea eriha yassu- yassu maimaing
BeatmapID:4414698
BeatmapSetID:2093984

[Difficulty]
HPDrainRate:5
CircleSize:3
OverallDifficulty:6
ApproachRate:9
SliderMultiplier:1.4
SliderTickRate:1

[Events]
//Background and Video events
0,0,"bg.jpg",0,0
//Break Periods
2,1851,6648
2,87215,97610
//Storyboard Layer 0 (Background)
//Storyboard Layer 1 (Fail)
//Storyboard Layer 2 (Pass)
//Storyboard Layer 3 (Foreground)
//Storyboard Layer 4 (Overlay)
//Storyboard Sound Samples

[TimingPoints]
952,349.854227405248,4,1,0,100,1,8
952,-125,4,1,0,50,0,8
1651,349.854227405248,4,1,0,100,1,0
1651,-125,4,1,0,50,0,0
7237,-100,4,1,0,50,0,0
7762,-103.897550111358,4,1,0,50,0,0
7937,-105.26513726965,4,1,0,50,0,0
8112,-106.669207317073,4,1,0,50,0,0
8374,-108.842743817079,4,1,0,50,0,0
8637,-111.115522032553,4,1,0,50,0,0
8899,-113.47603989297,4,1,0,50,0,0
9161,-115.939027421092,4,1,0,50,0,0
9336,-117.644586415602,4,1,0,50,0,0
9511,-119.401074993601,4,1,0,50,0,0
9686,-121.21080893816,4,1,0,50,0,0
10036,-125,4,1,0,50,0,0
10386,-117.017394477558,4,1,0,50,0,0
10561,-113.396593387164,4,1,0,50,0,0
10736,-109.993139721015,4,1,0,50,0,0
10911,-106.788033523894,4,1,0,50,0,0
11086,-103.764426706935,4,1,0,50,0,0
11261,-100.923206042803,4,1,0,50,0,0
11435,-98.218387870744,4,1,0,70,0,0
11610,-95.6547678234065,4,1,0,70,0,0
11960,-90.909090909091,4,1,0,70,0,0
12824,-90.909090909091,4,1,0,100,0,0
13524,-125,4,1,0,100,0,0
13710,-83.3333333333335,4,1,0,100,0,0
13972,-87.3095065312045,4,1,0,100,0,0
14234,-91.6666666666665,4,1,0,100,0,0
14497,-96.5009023461,4,1,0,100,0,0
14759,-101.851851851852,4,1,0,100,0,0
14934,-105.769230769231,4,1,0,100,0,0
15109,-110,4,1,0,100,0,0
15459,-119.565217391305,4,1,0,100,0,0
15634,-125,4,1,0,100,0,0
16508,-83.3333333333335,4,1,0,100,0,0
16771,-87.3095065312045,4,1,0,100,0,0
17033,-91.6666666666665,4,1,0,100,0,0
17296,-96.481555733761,4,1,0,100,0,0
17558,-101.851851851852,4,1,0,100,0,0
17733,-105.769230769231,4,1,0,100,0,0
17908,-110,4,1,0,100,0,0
18083,-114.583333333333,4,1,0,100,0,0
18258,-119.565217391305,4,1,0,100,0,0
18433,-125,4,1,0,100,0,0
19307,-83.3333333333335,4,1,0,100,0,0
19570,-87.311671809766,4,1,0,100,0,0
19832,-91.671431294073,4,1,0,100,0,0
20094,-96.4894684052155,4,1,0,100,0,0
20357,-101.863617111393,4,1,0,100,0,0
20532,-105.784033428635,4,1,0,100,0,0
20707,-110.018298261665,4,1,0,100,0,0
20882,-114.578370652692,4,1,0,100,0,0
21231,-125,4,1,0,100,0,0
21570,-98.0392156862745,4,1,0,100,0,0
21745,-104.166666666667,4,1,0,100,0,0
21920,-111.111111111111,4,1,0,100,0,0
22270,-98.0392156862745,4,1,0,100,0,0
22445,-104.166666666667,4,1,0,100,0,0
22620,-111.111111111111,4,1,0,100,0,0
22806,-105.259197953502,4,1,0,100,0,0
22893,-102.573502456192,4,1,0,100,0,0
22981,-99.9928525480665,4,1,0,100,0,0
23156,-95.228371111565,4,1,0,100,0,0
23331,-90.920907259375,4,1,0,100,0,0
23418,-88.887476968041,4,1,0,100,0,0
23505,-86.964629825325,4,1,0,100,0,0
23593,-85.1025001520775,4,1,0,100,0,0
23680,-83.338297492107,4,1,0,100,0,0
23855,-80.002287413507,4,1,0,100,0,0
24030,-76.923076923077,4,1,0,60,0,0
24719,-125,4,1,0,60,0,0
25069,-106.382978723405,4,1,0,100,0,0
25156,-102.040816326531,4,1,0,100,0,0
25244,-98.0392156862745,4,1,0,100,0,0
25331,-94.3396226415095,4,1,0,100,0,0
25419,-90.909090909091,4,1,0,100,0,0
25441,174.927113702624,4,1,0,100,1,0
25441,-181.818181818182,4,1,0,100,0,0
36636,349.854227405248,4,1,0,100,1,0
36636,-90.9090909090909,4,1,0,100,0,0
36658,-100,4,1,0,70,0,0
38112,-100.84517864003,4,1,0,70,0,0
38199,-101.694915254238,4,1,0,70,0,0
38374,-103.448275862069,4,1,0,70,0,0
38549,-105.263157894737,4,1,0,70,0,0
38637,-106.200060685749,4,1,0,70,0,0
38724,-107.142857142857,4,1,0,70,0,0
38899,-109.090909090909,4,1,0,70,0,0
39074,-111.111111111111,4,1,0,70,0,0
39413,-100,4,1,0,90,0,0
39686,-98.1623062355335,4,1,0,90,0,0
39949,-96.384297520661,4,1,0,90,0,0
40124,-95.2429563086975,4,1,0,90,0,0
40298,-94.1219987894275,4,1,0,90,0,0
40386,-93.5682289229125,4,1,0,90,0,0
40648,-91.9574216439975,4,1,0,90,0,0
40823,-90.9120436533715,4,1,0,90,0,0
40998,-89.8901663562205,4,1,0,90,0,0
41086,-89.38493964361,4,1,0,90,0,0
41261,-88.402501421262,4,1,0,90,0,0
41348,-87.913813681764,4,1,0,90,0,0
41435,-87.435961514432,4,1,0,90,0,0
41523,-86.957872499068,4,1,0,90,0,0
41698,-86.022496773004,4,1,0,90,0,0
41873,-85.1070299197275,4,1,0,90,0,0
42223,-111.111111111111,4,1,0,100,0,0
45021,-90.909090909091,4,1,0,60,0,0
45032,174.927113702624,4,1,0,100,1,0
45032,-181.818181818182,4,1,0,100,0,0
47809,-200,4,1,0,100,0,0
50619,-181.818181818182,4,1,0,100,0,0
50794,-179.775280898876,4,1,0,100,0,0
50882,-178.776656876516,4,1,0,100,0,0
50969,-177.777777777778,4,1,0,100,0,0
51144,-175.824175824176,4,1,0,100,0,0
51231,-174.868848363727,4,1,0,100,0,0
51319,-173.913043478261,4,1,0,100,0,0
51494,-172.043010752688,4,1,0,100,0,0
51669,-170.212765957447,4,1,0,100,0,0
51756,-169.317288504566,4,1,0,100,0,0
51844,-168.421052631579,4,1,0,100,0,0
51931,-167.544279559598,4,1,0,100,0,0
52019,-166.666666666667,4,1,0,100,0,0
52281,-172.036399409739,4,1,0,60,0,0
52368,-173.896830329397,4,1,0,60,0,0
52543,-177.763659466328,4,1,0,60,0,0
52718,-181.80636777128,4,1,0,60,0,0
52806,-183.909556986986,4,1,0,60,0,0
52893,-186.037234042553,4,1,0,60,0,0
53068,-190.469707283867,4,1,0,60,0,0
53156,-192.779385420973,4,1,0,60,0,0
53243,-195.118549511855,4,1,0,60,0,0
53331,-197.515177184809,4,1,0,60,0,0
53418,-200,4,1,0,60,0,0
53428,349.854227405248,4,1,0,100,1,8
53429,349.854227405248,4,1,0,100,1,0
53451,-125,4,1,0,60,0,0
59016,-125,4,1,0,90,0,0
59191,-122.44778905612,4,1,0,90,0,0
59366,-120.011435105774,4,1,0,90,0,0
59540,-117.656950672645,4,1,0,90,0,0
59628,-116.50754884547,4,1,0,90,0,0
59715,-115.393073117098,4,1,0,90,0,0
59803,-114.287269955353,4,1,0,90,0,0
59890,-113.214670981661,4,1,0,90,0,0
60065,-111.116993118052,4,1,0,90,0,0
60328,-108.106716110425,4,1,0,90,0,0
60415,-107.146503318019,4,1,0,90,0,0
60590,-105.265797392176,4,1,0,90,0,0
60765,-103.449975357319,4,1,0,90,0,0
60940,-101.695736434108,4,1,0,90,0,0
61027,-100.845584702604,4,1,0,90,0,0
61115,-100,4,1,0,90,0,0
61202,-99.177849177849,4,1,0,90,0,0
61290,-98.3598875351455,4,1,0,90,0,0
61465,-96.772706316275,4,1,0,90,0,0
61552,-96.002561287962,4,1,0,90,0,0
61640,-95.235934664247,4,1,0,90,0,0
61727,-100,4,1,0,100,0,0
61814,-93.7555833482225,4,1,0,100,0,0
61989,-92.312428533732,4,1,0,100,0,0
62077,-91.6033865758925,4,1,0,100,0,0
62164,-90.9130284130285,4,1,0,100,0,0
62339,-89.5554228176465,4,1,0,100,0,0
62427,-88.88794782756,4,1,0,100,0,0
62514,-88.237766941315,4,1,0,100,0,0
62689,-86.95832297622,4,1,0,100,0,0
62864,-85.715452466514,4,1,0,100,0,0
62952,-85.110696618279,4,1,0,100,0,0
63039,-84.507609308318,4,1,0,100,0,0
63126,-83.919718535103,4,1,0,100,0,0
63214,-83.3333333333335,4,1,0,100,0,0
63312,-86.2068965517241,4,1,0,100,0,0
63487,-89.2857142857143,4,1,0,100,0,0
63662,-92.5984752223635,4,1,0,100,0,0
63837,-96.1623048163625,4,1,0,100,0,0
64089,-99.988566201692,4,1,0,100,0,0
64176,-102.042007001167,4,1,0,100,0,0
64263,-104.156741305384,4,1,0,100,0,0
64624,174.927113702624,4,1,0,100,1,0
64624,-227.272727272727,4,1,0,100,0,0
64963,-250,4,1,0,100,0,0
65127,-166.666666666667,4,1,0,100,0,0
67751,-250.000000000001,4,1,0,100,0,0
67926,-166.666666666667,4,1,0,100,0,0
68987,-200,4,1,0,100,0,0
69249,-196.312136296712,4,1,0,100,0,0
69380,-194.525496734751,4,1,0,100,0,0
69511,-192.771084337349,4,1,0,100,0,0
69686,-190.47619047619,4,1,0,100,0,0
69861,-188.235294117647,4,1,0,100,0,0
69949,-187.12824968255,4,1,0,100,0,0
70036,-186.046511627907,4,1,0,100,0,0
70211,-183.908045977011,4,1,0,100,0,0
70386,-200,4,1,0,100,0,0
70561,-196.96838458207,4,1,0,100,0,0
70736,-194.027303754266,4,1,0,100,0,0
70823,-192.597611586347,4,1,0,100,0,0
70911,-191.172761664565,4,1,0,100,0,0
70998,-189.784677015523,4,1,0,100,0,0
71086,-188.400994200497,4,1,0,100,0,0
71261,-185.723619732114,4,1,0,100,0,0
71435,-183.106530316451,4,1,0,100,0,0
71610,-180.562172463078,4,1,0,100,0,0
71698,-179.30925721495,4,1,0,100,0,0
71785,-178.087555799201,4,1,0,100,0,0
71960,-175.679851668727,4,1,0,100,0,0
72135,-173.336382346215,4,1,0,100,0,0
72223,-172.181418944499,4,1,0,100,0,0
72310,-171.054611102753,4,1,0,100,0,0
72398,-169.929756389179,4,1,0,100,0,0
72485,-168.832133046254,4,1,0,100,0,0
72573,-167.74859840661,4,1,0,100,0,0
72660,-166.666666666667,4,1,0,100,0,0
73010,-181.818181818182,4,1,0,100,0,0
73185,-179.486239876873,4,1,0,100,0,0
73360,-177.213357936249,4,1,0,100,0,0
73535,-174.997320375862,4,1,0,100,0,0
73710,-172.848219642164,4,1,0,100,0,0
73797,-171.781292743661,4,1,0,100,0,0
73884,-170.739359291665,4,1,0,100,0,0
73972,-169.698229567266,4,1,0,100,0,0
74059,-168.681337603747,4,1,0,100,0,0
74234,-166.672338108688,4,1,0,100,0,0
74322,-165.680073064303,4,1,0,100,0,0
74409,-164.710629855063,4,1,0,100,0,0
74584,-162.794562435603,4,1,0,100,0,0
74672,-161.847800945048,4,1,0,100,0,0
74759,-160.922561356244,4,1,0,100,0,0
74847,-160.00784031884,4,1,0,100,0,0
75021,-158.199024579309,4,1,0,100,0,0
75109,-157.304814208177,4,1,0,100,0,0
75284,-155.556261314193,4,1,0,100,0,0
75371,-154.701367613152,4,1,0,100,0,0
75459,-153.846153846154,4,1,0,100,0,0
75776,-200,4,1,0,90,0,0
75819,349.854227405248,4,1,0,100,1,8
75820,349.854227405248,4,1,0,100,1,0
80696,-83.3333333333335,4,1,0,90,0,0
81406,-111.111111111111,4,1,0,100,0,0
85594,-111.111111111111,4,1,0,20,0,0
86993,-111.111111111111,4,1,0,100,0,0
87037,-125,4,1,0,60,0,0
98188,-125,4,1,0,90,0,0
104059,-121.217371217371,4,1,0,90,0,0
104147,-119.997713240338,4,1,0,90,0,0
104322,-117.6437619101,4,1,0,90,0,0
104497,-115.380386983289,4,1,0,90,0,0
104584,-114.287269955353,4,1,0,90,0,0
104672,-113.202459281631,4,1,0,90,0,0
104847,-111.116993118052,4,1,0,90,0,0
105021,-109.095634095634,4,1,0,90,0,0
105196,-107.146503318019,4,1,0,90,0,0
105459,-104.344800159077,4,1,0,90,0,0
105546,-103.449975357319,4,1,0,90,0,0
105721,-101.695736434108,4,1,0,90,0,0
105896,-100,4,1,0,90,0,0
105984,-99.1684777473305,4,1,0,90,0,0
106071,-98.3598875351455,4,1,0,90,0,0
106246,-96.772706316275,4,1,0,90,0,0
106421,-95.235934664247,4,1,0,90,0,0
106596,-93.747208575257,4,1,0,90,0,0
106683,-93.0242864740295,4,1,0,90,0,0
106771,-92.3043095866315,4,1,0,90,0,0
106858,-91.6033865758925,4,1,0,90,0,0
106946,-90.9051537462105,4,1,0,90,0,0
107121,-89.547781569966,4,1,0,90,0,0
107296,-88.237766941315,4,1,0,90,0,0
107383,-87.5897179101985,4,1,0,90,0,0
107470,-86.95832297622,4,1,0,90,0,0
107645,-85.715452466514,4,1,0,90,0,0
107820,-84.507609308318,4,1,0,90,0,0
107984,-83.3333333333335,4,1,0,90,0,0
108334,-89.2857142857145,4,1,0,90,0,0
108684,-96.153846153846,4,1,0,90,0,0
109034,-104.166666666667,4,1,0,90,0,0
109362,-100,4,1,0,100,0,0
109406,174.927113702624,4,1,0,100,1,0
109406,-166.666666666667,4,1,0,100,0,1
117780,-166.666666666667,4,1,0,90,0,1
117802,349.854227405248,4,1,0,100,1,0
117802,-83.3333333333335,4,1,0,90,0,0
118054,-84.653525214657,4,1,0,90,0,0
118316,-86.021505376344,4,1,0,90,0,0
118491,-86.9565217391305,4,1,0,90,0,0
118666,-87.912087912088,4,1,0,90,0,0
118841,-88.888888888889,4,1,0,90,0,0
119016,-89.887640449438,4,1,0,90,0,0
119191,-90.909090909091,4,1,0,90,0,0
119366,-92.3009238891335,4,1,0,90,0,0
119453,-93.021193579853,4,1,0,90,0,0
119540,-93.744414655943,4,1,0,90,0,0
119715,-95.233772128915,4,1,0,90,0,0
119803,-96.0007321314175,4,1,0,90,0,0
119890,-96.771217712177,4,1,0,90,0,0
119978,-97.563244047619,4,1,0,90,0,0
120065,-98.359118612283,4,1,0,90,0,0
120153,-99.17746052756,4,1,0,90,0,0
120240,-100,4,1,0,90,0,0
120579,-100,4,1,0,100,0,0
120600,174.927113702624,4,1,0,100,1,0
120600,-153.846153846154,4,1,0,100,0,1
121279,-181.818181818182,4,1,0,100,0,1
121978,-153.846153846154,4,1,0,100,0,1
122678,-181.818181818182,4,1,0,100,0,1
123378,-153.846153846154,4,1,0,100,0,1
124078,-181.818181818182,4,1,0,100,0,1
124963,-179.775280898876,4,1,0,100,0,1
125138,-177.777777777778,4,1,0,100,0,1
125226,-176.789998737214,4,1,0,100,0,1
125401,-174.868848363727,4,1,0,100,0,1
125575,-172.978315932538,4,1,0,100,0,1
125663,-172.043010752688,4,1,0,100,0,1
125838,-170.212765957447,4,1,0,100,0,1
125925,-169.317288504566,4,1,0,100,0,1
126013,-168.421052631579,4,1,0,100,0,1
126177,-166.666666666667,4,1,0,100,0,1
127762,-181.818181818182,4,1,0,100,0,1
127849,-180.728700323714,4,1,0,100,0,1
128024,-178.576289642031,4,1,0,100,0,1
128112,-177.513191719659,4,1,0,100,0,1
128287,-175.43625058501,4,1,0,100,0,1
128462,-173.407348665081,4,1,0,100,0,1
128637,-171.42483830927,4,1,0,100,0,1
128724,-170.456021826686,4,1,0,100,0,1
128812,-169.487146363519,4,1,0,100,0,1
128987,-167.603474706183,4,1,0,100,0,1
129161,-165.750742214642,4,1,0,100,0,1
129249,-164.834474527294,4,1,0,100,0,1
129336,-163.938523053855,4,1,0,100,0,1
129511,-162.165502750139,4,1,0,100,0,1
129599,-161.288339787326,4,1,0,100,0,1
129686,-160.430423086329,4,1,0,100,0,1
129861,-158.73207912407,4,1,0,100,0,1
130036,-157.069316413265,4,1,0,100,0,1
130124,-156.255582683261,4,1,0,100,0,1
130211,-155.441028375096,4,1,0,100,0,1
130298,-154.644035832155,4,1,0,100,0,1
130395,349.854227405248,4,1,0,100,1,8
130397,349.854227405248,4,1,0,100,1,0
130397,-76.923076923077,4,1,0,100,0,0
130561,-78.432471828222,4,1,0,100,0,0
130648,-79.2051180433675,4,1,0,100,0,0
130736,-80.002287413507,4,1,0,100,0,0
130911,-81.636225710451,4,1,0,100,0,0
131086,-83.338297492107,4,1,0,100,0,0
131173,-84.2111599349905,4,1,0,100,0,0
131261,-85.1025001520775,4,1,0,100,0,0
131435,-86.9538193797005,4,1,0,100,0,0
131785,-90.909090909091,4,1,0,100,0,0
132474,-125,4,1,0,100,0,0
132660,-83.3333333333335,4,1,0,100,0,0
132922,-87.3095065312045,4,1,0,100,0,0
133184,-91.6666666666665,4,1,0,100,0,0
133447,-96.5009023461,4,1,0,100,0,0
133709,-101.851851851852,4,1,0,100,0,0
133884,-105.769230769231,4,1,0,100,0,0
134223,-114.583333333333,4,1,0,100,0,0
134409,-119.565217391305,4,1,0,100,0,0
134584,-125,4,1,0,100,0,0
135458,-83.3333333333335,4,1,0,100,0,0
135721,-87.3095065312045,4,1,0,100,0,0
135983,-91.6666666666665,4,1,0,100,0,0
136246,-96.481555733761,4,1,0,100,0,0
136508,-101.851851851852,4,1,0,100,0,0
136683,-105.769230769231,4,1,0,100,0,0
137033,-114.583333333333,4,1,0,100,0,0
137372,-125,4,1,0,100,0,0
137897,-83.3333333333335,4,1,0,100,0,0
139296,-80.6451612903225,4,1,0,100,0,0
140871,-96.153846153846,4,1,0,100,0,0
141570,-90.909090909091,4,1,0,100,0,0
142970,-76.923076923077,4,1,0,100,0,0

[Colours]
Combo1 : 255,192,0
Combo2 : 0,202,0
Combo3 : 18,124,255
Combo4 : 242,24,57

[HitObjects]
256,192,1651,5,0,1:0:0:0:
256,192,7248,5,0,1:0:0:0:
256,192,7773,1,8,1:1:0:0:
256,192,7948,1,8,1:1:0:0:
256,192,8123,1,0,1:0:0:0:
256,192,8385,1,8,1:1:0:0:
256,192,8648,1,0,1:0:0:0:
256,192,8910,1,8,1:1:0:0:
256,192,9172,1,0,1:0:0:0:
256,192,9522,1,0,1:0:0:0:
256,192,9697,1,8,1:1:0:0:
256,192,10047,1,0,1:0:0:0:
256,192,10397,1,0,1:0:0:0:
256,192,10572,1,8,1:1:0:0:
256,192,10922,1,8,1:1:0:0:
256,192,11097,1,0,1:0:0:0:
256,192,11271,1,0,1:0:0:0:
256,192,11446,1,8,1:1:0:0:
256,192,11621,1,8,1:1:0:0:
256,192,11971,1,8,1:1:0:0:
256,192,12321,1,8,1:1:0:0:
256,192,12496,1,8,1:1:0:0:
256,192,12671,1,8,1:1:0:0:
256,192,12846,1,0,1:0:0:0:
256,192,13546,1,8,1:1:0:0:
256,192,13720,1,4,1:1:0:0:
256,192,13983,1,4,1:1:0:0:
256,192,14245,1,12,1:1:0:0:
256,192,14508,1,12,1:1:0:0:
256,192,14770,1,4,1:1:0:0:
256,192,15120,1,8,1:1:0:0:
256,192,15470,1,8,1:1:0:0:
256,192,15645,1,0,1:0:0:0:
256,192,16344,1,8,1:1:0:0:
256,192,16519,1,4,1:1:0:0:
256,192,16782,1,4,1:1:0:0:
256,192,17044,1,12,1:1:0:0:
256,192,17306,1,4,1:1:0:0:
256,192,17569,1,12,1:1:0:0:
256,192,17919,1,8,1:1:0:0:
256,192,18094,1,0,1:0:0:0:
256,192,18269,1,8,1:1:0:0:
256,192,18444,1,0,1:0:0:0:
256,192,19143,1,8,1:1:0:0:
256,192,19318,1,4,1:1:0:0:
256,192,19581,1,4,1:1:0:0:
256,192,19843,1,12,1:1:0:0:
256,192,20105,1,12,1:1:0:0:
256,192,20368,1,4,1:1:0:0:
256,192,20718,1,8,1:1:0:0:
256,192,20892,1,0,1:0:0:0:
256,192,21242,1,0,1:0:0:0:
256,192,21592,1,0,1:0:0:0:
256,192,21767,1,0,1:0:0:0:
256,192,21942,1,8,1:1:0:0:
256,192,22292,1,0,1:0:0:0:
256,192,22467,1,8,1:1:0:0:
256,192,22642,1,0,1:0:0:0:
256,192,22817,1,8,1:1:0:0:
256,192,22904,1,8,1:1:0:0:
256,192,22992,1,0,1:0:0:0:
256,192,23167,1,0,1:0:0:0:
256,192,23341,1,8,1:1:0:0:
256,192,23429,1,8,1:1:0:0:
256,192,23516,1,0,1:0:0:0:
256,192,23604,1,0,1:0:0:0:
256,192,23691,1,8,1:1:0:0:
256,192,23866,1,8,1:1:0:0:
256,192,24041,8,0,24916,1:0:0:0:
256,192,25091,5,8,1:1:0:0:
256,192,25178,1,8,1:1:0:0:
256,192,25266,1,8,1:1:0:0:
256,192,25353,1,8,1:1:0:0:
256,192,25441,1,0,1:0:0:0:
256,192,25790,1,0,1:0:0:0:
256,192,25878,1,0,1:0:0:0:
256,192,25965,1,0,1:0:0:0:
256,192,26140,1,0,1:0:0:0:
256,192,26315,1,0,1:0:0:0:
256,192,26490,1,8,1:1:0:0:
256,192,26578,1,8,1:1:0:0:
256,192,26665,1,8,1:1:0:0:
256,192,26840,1,0,1:0:0:0:
256,192,27015,1,0,1:0:0:0:
256,192,27102,1,0,1:0:0:0:
256,192,27190,1,8,1:1:0:0:
256,192,27365,1,0,1:0:0:0:
256,192,27540,1,8,1:1:0:0:
256,192,27627,1,8,1:1:0:0:
256,192,27715,1,0,1:0:0:0:
256,192,27802,1,8,1:1:0:0:
256,192,27977,1,0,1:0:0:0:
256,192,28064,1,8,1:1:0:0:
256,192,28239,1,0,1:0:0:0:
256,192,28589,1,0,1:0:0:0:
256,192,28677,1,0,1:0:0:0:
256,192,28764,1,0,1:0:0:0:
256,192,28939,1,8,1:1:0:0:
256,192,29114,1,0,1:0:0:0:
256,192,29289,1,8,1:1:0:0:
256,192,29376,1,8,1:1:0:0:
256,192,29464,1,0,1:0:0:0:
256,192,29639,1,0,1:0:0:0:
256,192,29919,1,8,1:1:0:0:
256,192,30059,1,8,1:1:0:0:
256,192,30199,1,8,1:1:0:0:
256,192,30339,1,0,1:0:0:0:
256,192,30688,1,8,1:1:0:0:
256,192,31038,1,0,1:0:0:0:
256,192,31388,1,0,1:0:0:0:
256,192,31476,1,8,1:1:0:0:
256,192,31563,1,0,1:0:0:0:
256,192,31738,1,8,1:1:0:0:
256,192,31913,1,0,1:0:0:0:
256,192,32088,1,8,1:1:0:0:
256,192,32175,1,8,1:1:0:0:
256,192,32263,1,8,1:1:0:0:
256,192,32438,1,0,1:0:0:0:
256,192,32613,1,0,1:0:0:0:
256,192,32788,1,0,1:0:0:0:
256,192,32875,1,0,1:0:0:0:
256,192,32962,1,0,1:0:0:0:
256,192,33137,1,8,1:1:0:0:
256,192,33225,1,8,1:1:0:0:
256,192,33312,1,0,1:0:0:0:
256,192,33487,1,8,1:1:0:0:
256,192,33662,1,0,1:0:0:0:
256,192,33750,1,0,1:0:0:0:
256,192,33837,1,8,1:1:0:0:
256,192,34012,1,0,1:0:0:0:
256,192,34187,1,0,1:0:0:0:
256,192,34362,1,0,1:0:0:0:
256,192,34537,1,8,1:1:0:0:
256,192,34624,1,8,1:1:0:0:
256,192,34712,1,0,1:0:0:0:
256,192,34887,1,8,1:1:0:0:
256,192,35003,1,8,1:1:0:0:
256,192,35237,1,8,1:1:0:0:
256,192,35470,1,8,1:1:0:0:
256,192,35703,1,8,1:1:0:0:
256,192,35936,1,0,1:0:0:0:
256,192,36024,1,0,1:0:0:0:
256,192,36111,1,0,1:0:0:0:
256,192,36286,1,8,1:1:0:0:
256,192,36636,1,4,1:1:0:0:
256,192,38035,1,8,1:1:0:0:
256,192,38123,1,8,1:1:0:0:
256,192,38210,1,8,1:1:0:0:
256,192,38385,1,8,1:1:0:0:
256,192,38560,1,0,1:0:0:0:
256,192,38648,1,0,1:0:0:0:
256,192,38735,1,8,1:1:0:0:
256,192,38910,1,0,1:0:0:0:
256,192,39085,1,8,1:1:0:0:
256,192,39435,1,0,1:0:0:0:
256,192,39697,1,0,1:0:0:0:
256,192,39960,1,8,1:1:0:0:
256,192,40134,1,0,1:0:0:0:
256,192,40309,1,8,1:1:0:0:
256,192,40397,1,0,1:0:0:0:
256,192,40659,1,8,1:1:0:0:
256,192,40834,1,0,1:0:0:0:
256,192,41009,1,8,1:1:0:0:
256,192,41097,1,0,1:0:0:0:
256,192,41271,1,0,1:0:0:0:
256,192,41359,1,8,1:1:0:0:
256,192,41446,1,8,1:1:0:0:
256,192,41534,1,0,1:0:0:0:
256,192,41709,1,0,1:0:0:0:
256,192,41884,1,8,1:1:0:0:
256,192,42234,1,4,1:1:0:0:
256,192,42409,1,0,1:0:0:0:
256,192,42846,1,0,1:0:0:0:
256,192,42933,1,8,1:1:0:0:
256,192,43108,1,0,1:0:0:0:
256,192,43371,1,0,1:0:0:0:
256,192,43633,1,0,1:0:0:0:
256,192,43895,1,0,1:0:0:0:
256,192,44158,1,0,1:0:0:0:
256,192,44333,1,8,1:1:0:0:
256,192,44420,1,8,1:1:0:0:
256,192,44508,1,0,1:0:0:0:
256,192,44595,1,0,1:0:0:0:
256,192,44770,1,8,1:1:0:0:
256,192,44857,1,0,1:0:0:0:
256,192,45032,1,8,1:1:0:0:
256,192,45207,1,8,1:1:0:0:
256,192,45295,1,0,1:0:0:0:
256,192,45382,1,8,1:1:0:0:
256,192,45557,1,0,1:0:0:0:
256,192,45732,1,8,1:1:0:0:
256,192,45820,1,8,1:1:0:0:
256,192,45907,1,8,1:1:0:0:
256,192,46082,1,8,1:1:0:0:
256,192,46257,1,0,1:0:0:0:
256,192,46432,1,0,1:0:0:0:
256,192,46607,1,8,1:1:0:0:
256,192,46738,1,8,1:1:0:0:
256,192,46869,1,8,1:1:0:0:
256,192,47000,1,8,1:1:0:0:
256,192,47132,1,0,1:0:0:0:
256,192,47481,1,8,1:1:0:0:
256,192,47831,1,0,1:0:0:0:
256,192,47919,1,0,1:0:0:0:
256,192,48006,1,0,1:0:0:0:
256,192,48181,1,8,1:1:0:0:
256,192,48269,1,8,1:1:0:0:
256,192,48356,1,0,1:0:0:0:
256,192,48531,1,8,1:1:0:0:
256,192,48706,1,0,1:0:0:0:
256,192,48793,1,0,1:0:0:0:
256,192,48968,1,0,1:0:0:0:
256,192,49056,1,0,1:0:0:0:
256,192,49231,1,8,1:1:0:0:
256,192,49406,1,0,1:0:0:0:
256,192,49493,1,8,1:1:0:0:
256,192,49581,1,0,1:0:0:0:
256,192,49755,1,0,1:0:0:0:
256,192,49930,1,8,1:1:0:0:
256,192,50018,1,8,1:1:0:0:
256,192,50105,1,0,1:0:0:0:
256,192,50193,1,8,1:1:0:0:
256,192,50368,1,0,1:0:0:0:
256,192,50455,1,8,1:1:0:0:
256,192,50630,1,0,1:0:0:0:
256,192,50805,1,8,1:1:0:0:
256,192,50892,1,8,1:1:0:0:
256,192,50980,1,0,1:0:0:0:
256,192,51155,1,8,1:1:0:0:
256,192,51242,1,8,1:1:0:0:
256,192,51330,1,0,1:0:0:0:
256,192,51505,1,0,1:0:0:0:
256,192,51680,1,8,1:1:0:0:
256,192,51767,1,8,1:1:0:0:
256,192,51855,1,8,1:1:0:0:
256,192,51942,1,8,1:1:0:0:
256,192,52030,1,0,1:0:0:0:
256,192,52292,1,0,1:0:0:0:
256,192,52379,1,8,1:1:0:0:
256,192,52554,1,0,1:0:0:0:
256,192,52729,1,8,1:1:0:0:
256,192,52817,1,8,1:1:0:0:
256,192,52904,1,0,1:0:0:0:
256,192,53079,1,0,1:0:0:0:
256,192,53167,1,0,1:0:0:0:
256,192,53254,1,8,1:1:0:0:
256,192,53341,1,8,1:1:0:0:
256,192,53429,12,0,58326,0:0:0:0:
256,192,59027,5,0,1:0:0:0:
256,192,59202,1,0,1:0:0:0:
256,192,59376,1,8,1:1:0:0:
256,192,59551,1,0,1:0:0:0:
256,192,59639,1,8,1:1:0:0:
256,192,59814,1,8,1:1:0:0:
256,192,59901,1,0,1:0:0:0:
256,192,60076,1,8,1:1:0:0:
256,192,60339,1,8,1:1:0:0:
256,192,60426,1,0,1:0:0:0:
256,192,60601,1,0,1:0:0:0:
256,192,60776,1,8,1:1:0:0:
256,192,60951,1,0,1:0:0:0:
256,192,61038,1,8,1:1:0:0:
256,192,61213,1,8,1:1:0:0:
256,192,61301,1,0,1:0:0:0:
256,192,61476,1,8,1:1:0:0:
256,192,61563,1,8,1:1:0:0:
256,192,61651,1,8,1:1:0:0:
256,192,61825,1,0,1:0:0:0:
256,192,62000,1,8,1:1:0:0:
256,192,62088,1,8,1:1:0:0:
256,192,62175,1,0,1:0:0:0:
256,192,62350,1,8,1:1:0:0:
256,192,62438,1,8,1:1:0:0:
256,192,62525,1,0,1:0:0:0:
256,192,62700,1,8,1:1:0:0:
256,192,62875,1,0,1:0:0:0:
256,192,62962,1,0,1:0:0:0:
256,192,63050,1,8,1:1:0:0:
256,192,63137,1,8,1:1:0:0:
256,192,63225,1,0,1:0:0:0:
256,192,63399,1,8,1:1:0:0:
266,142,63574,1,0,0:0:0:0:
256,192,63750,1,0,1:0:0:0:
256,192,63925,1,8,1:1:0:0:
256,192,64099,1,0,1:0:0:0:
256,192,64187,1,0,1:0:0:0:
256,192,64274,1,8,1:1:0:0:
256,192,64624,1,0,1:0:0:0:
256,192,64974,1,8,1:1:0:0:
256,192,65149,1,4,1:1:0:0:
256,192,65382,1,4,1:1:0:0:
256,192,65616,1,4,1:1:0:0:
256,192,65849,1,4,1:1:0:0:
256,192,66082,1,4,1:1:0:0:
256,192,66315,1,4,1:1:0:0:
256,192,66548,1,4,1:1:0:0:
256,192,66782,1,8,1:1:0:0:
256,192,66898,1,8,1:1:0:0:
256,192,67015,1,8,1:1:0:0:
256,192,67132,1,8,1:1:0:0:
256,192,67248,1,8,1:1:0:0:
256,192,67423,1,0,1:0:0:0:
256,192,67773,1,8,1:1:0:0:
256,192,67948,1,4,1:1:0:0:
256,192,68210,1,4,1:1:0:0:
256,192,68473,1,4,1:1:0:0:
256,192,68735,1,4,1:1:0:0:
256,192,68997,1,8,1:1:0:0:
256,192,69260,1,8,1:1:0:0:
256,192,69391,1,8,1:1:0:0:
256,192,69522,1,0,1:0:0:0:
256,192,69697,1,8,1:1:0:0:
256,192,69872,1,0,1:0:0:0:
256,192,69960,1,0,1:0:0:0:
256,192,70047,1,8,1:1:0:0:
256,192,70397,1,0,1:0:0:0:
256,192,70572,1,8,1:1:0:0:
256,192,70747,1,0,1:0:0:0:
256,192,70834,1,8,1:1:0:0:
256,192,71009,1,8,1:1:0:0:
256,192,71097,1,0,1:0:0:0:
256,192,71271,1,8,1:1:0:0:
256,192,71446,1,0,1:0:0:0:
256,192,71621,1,8,1:1:0:0:
256,192,71709,1,8,1:1:0:0:
256,192,71796,1,0,1:0:0:0:
256,192,71971,1,8,1:1:0:0:
256,192,72146,1,0,1:0:0:0:
256,192,72234,1,8,1:1:0:0:
256,192,72409,1,8,1:1:0:0:
256,192,72496,1,0,1:0:0:0:
256,192,72583,1,0,1:0:0:0:
256,192,72671,1,8,1:1:0:0:
256,192,73021,1,0,1:0:0:0:
256,192,73196,1,0,1:0:0:0:
256,192,73371,1,8,1:1:0:0:
256,192,73546,1,8,1:1:0:0:
256,192,73720,1,0,1:0:0:0:
256,192,73808,1,0,1:0:0:0:
256,192,73895,1,8,1:1:0:0:
256,192,73983,1,8,1:1:0:0:
256,192,74070,1,0,1:0:0:0:
256,192,74420,1,0,1:0:0:0:
256,192,74595,1,8,1:1:0:0:
256,192,74683,1,8,1:1:0:0:
256,192,74770,1,0,1:0:0:0:
256,192,74857,1,8,1:1:0:0:
256,192,75032,1,8,1:1:0:0:
256,192,75120,1,0,1:0:0:0:
256,192,75295,1,0,1:0:0:0:
256,192,75382,1,0,1:0:0:0:
256,192,75470,1,8,1:1:0:0:
256,192,75820,1,0,1:0:0:0:
256,192,76169,1,8,1:1:0:0:
256,192,76519,1,0,1:0:0:0:
256,192,76869,1,8,1:1:0:0:
256,192,77044,1,8,1:1:0:0:
256,192,77219,1,0,1:0:0:0:
256,192,77569,1,8,1:1:0:0:
256,192,77919,1,0,1:0:0:0:
256,192,78094,1,8,1:1:0:0:
256,192,78269,1,0,1:0:0:0:
256,192,78618,1,0,1:0:0:0:
256,192,78968,1,8,1:1:0:0:
256,192,79318,1,0,1:0:0:0:
256,192,79668,1,8,1:1:0:0:
256,192,79843,1,8,1:1:0:0:
256,192,80018,1,0,1:0:0:0:
256,192,80280,1,0,1:0:0:0:
256,192,80368,1,8,1:1:0:0:
256,192,80543,1,8,1:1:0:0:
256,192,80718,1,4,1:1:0:0:
256,192,81067,1,4,1:1:0:0:
256,192,81417,1,0,1:0:0:0:
256,192,81592,1,8,1:1:0:0:
256,192,81767,1,0,1:0:0:0:
256,192,81855,1,0,1:0:0:0:
256,192,81942,1,8,1:1:0:0:
256,192,82117,1,0,1:0:0:0:
256,192,82292,1,8,1:1:0:0:
256,192,82467,1,0,1:0:0:0:
256,192,82554,1,8,1:1:0:0:
256,192,82729,1,8,1:1:0:0:
256,192,82817,1,0,1:0:0:0:
256,192,82992,1,8,1:1:0:0:
256,192,83167,1,0,1:0:0:0:
256,192,83254,1,0,1:0:0:0:
256,192,83341,1,8,1:1:0:0:
256,192,83516,1,0,1:0:0:0:
256,192,83604,1,0,1:0:0:0:
256,192,83691,1,8,1:1:0:0:
256,192,83779,1,8,1:1:0:0:
256,192,83866,1,0,1:0:0:0:
256,192,84041,1,8,1:1:0:0:
256,192,84216,1,0,1:0:0:0:
256,192,84391,1,8,1:1:0:0:
256,192,84566,1,0,1:0:0:0:
256,192,84741,1,8,1:1:0:0:
256,192,84828,1,8,1:1:0:0:
256,192,84916,1,0,1:0:0:0:
256,192,85091,1,8,1:1:0:0:
256,192,85178,1,8,1:1:0:0:
256,192,85266,1,0,1:0:0:0:
256,192,85353,1,0,1:0:0:0:
256,192,85441,1,8,1:1:0:0:
256,192,85615,12,0,86665,1:0:0:0:
256,192,87015,5,0,1:0:0:0:
256,192,98210,5,4,1:1:0:0:
256,192,98473,1,0,1:0:0:0:
256,192,98560,1,8,1:1:0:0:
256,192,98735,1,0,1:0:0:0:
256,192,98910,1,8,1:1:0:0:
256,192,99085,1,0,1:0:0:0:
256,192,99260,1,8,1:1:0:0:
256,192,99610,1,8,1:1:0:0:
256,192,99872,1,0,1:0:0:0:
256,192,99960,1,8,1:1:0:0:
256,192,100134,1,0,1:0:0:0:
256,192,100309,1,8,1:1:0:0:
256,192,100397,1,8,1:1:0:0:
256,192,100484,1,0,1:0:0:0:
256,192,100659,1,8,1:1:0:0:
256,192,101009,1,8,1:1:0:0:
256,192,101271,1,0,1:0:0:0:
256,192,101359,1,8,1:1:0:0:
256,192,101534,1,0,1:0:0:0:
256,192,101709,1,8,1:1:0:0:
256,192,101884,1,0,1:0:0:0:
256,192,102059,1,8,1:1:0:0:
256,192,102409,1,0,1:0:0:0:
256,192,102583,1,0,1:0:0:0:
256,192,102758,1,8,1:1:0:0:
256,192,102933,1,0,1:0:0:0:
256,192,103021,1,8,1:1:0:0:
256,192,103196,1,8,1:1:0:0:
256,192,103283,1,0,1:0:0:0:
256,192,103458,1,8,1:1:0:0:
256,192,103808,1,0,1:0:0:0:
256,192,104070,1,8,1:1:0:0:
256,192,104158,1,0,1:0:0:0:
256,192,104333,1,8,1:1:0:0:
256,192,104508,1,0,1:0:0:0:
256,192,104595,1,8,1:1:0:0:
256,192,104683,1,8,1:1:0:0:
256,192,104857,1,0,1:0:0:0:
256,192,105032,1,0,1:0:0:0:
256,192,105207,1,8,1:1:0:0:
256,192,105470,1,8,1:1:0:0:
256,192,105557,1,0,1:0:0:0:
256,192,105732,1,8,1:1:0:0:
256,192,105907,1,0,1:0:0:0:
256,192,105995,1,8,1:1:0:0:
256,192,106082,1,8,1:1:0:0:
256,192,106257,1,0,1:0:0:0:
256,192,106432,1,8,1:1:0:0:
256,192,106607,1,0,1:0:0:0:
256,192,106694,1,0,1:0:0:0:
256,192,106782,1,8,1:1:0:0:
256,192,106869,1,8,1:1:0:0:
256,192,106957,1,0,1:0:0:0:
256,192,107132,1,8,1:1:0:0:
256,192,107306,1,0,1:0:0:0:
256,192,107394,1,8,1:1:0:0:
256,192,107481,1,8,1:1:0:0:
256,192,107656,1,0,1:0:0:0:
256,192,107831,1,0,1:0:0:0:
256,192,108006,1,8,1:1:0:0:
256,192,108356,1,8,1:1:0:0:
256,192,108706,1,8,1:1:0:0:
256,192,109056,1,12,1:1:0:0:
256,192,109406,1,4,1:1:0:0:
256,192,109668,1,8,1:1:0:0:
256,192,109755,1,0,1:0:0:0:
256,192,109930,1,8,1:1:0:0:
256,192,110105,1,0,1:0:0:0:
151,118,110193,1,0,0:0:0:0:
151,118,110280,1,8,0:0:0:0:
256,192,110455,1,0,1:0:0:0:
256,192,110630,1,8,1:1:0:0:
256,192,110718,1,8,1:1:0:0:
256,192,110805,1,0,1:0:0:0:
256,192,110980,1,8,1:1:0:0:
256,192,111155,1,0,1:0:0:0:
256,192,111330,1,8,1:1:0:0:
256,192,111417,1,0,1:0:0:0:
256,192,111592,1,0,1:0:0:0:
256,192,111680,1,8,1:1:0:0:
256,192,111855,1,0,1:0:0:0:
256,192,112030,1,8,1:1:0:0:
256,192,112117,1,8,1:1:0:0:
256,192,112204,1,0,1:0:0:0:
256,192,112379,1,8,1:1:0:0:
256,192,112554,1,0,1:0:0:0:
256,192,112729,1,8,1:1:0:0:
256,192,112904,1,0,1:0:0:0:
218,62,112992,1,8,0:0:0:0:
218,62,113079,1,8,0:0:0:0:
256,192,113254,1,0,1:0:0:0:
256,192,113604,1,0,1:0:0:0:
256,192,113779,1,0,1:0:0:0:
256,192,113954,1,8,1:1:0:0:
256,192,114041,1,8,1:1:0:0:
256,192,114216,1,0,1:0:0:0:
256,192,114391,1,8,1:1:0:0:
256,192,114478,1,0,1:0:0:0:
256,192,114653,1,0,1:0:0:0:
256,192,114741,1,0,1:0:0:0:
256,192,114828,1,8,1:1:0:0:
256,192,115003,1,0,1:0:0:0:
256,192,115266,1,0,1:0:0:0:
256,192,115353,1,8,1:1:0:0:
256,192,115528,1,0,1:0:0:0:
277,86,115703,1,8,0:0:0:0:
277,86,115790,1,8,0:0:0:0:
277,86,115878,1,0,0:0:0:0:
256,192,116053,1,8,1:1:0:0:
256,192,116228,1,0,1:0:0:0:
256,192,116315,1,0,1:0:0:0:
256,192,116403,1,8,1:1:0:0:
256,192,116578,1,8,1:1:0:0:
256,192,116665,1,0,1:0:0:0:
256,192,116753,1,8,1:1:0:0:
256,192,116927,1,8,1:1:0:0:
256,192,117015,1,0,1:0:0:0:
256,192,117190,1,0,1:0:0:0:
256,192,117277,1,8,1:1:0:0:
256,192,117452,1,0,1:0:0:0:
256,192,117627,1,8,1:1:0:0:
256,192,117715,1,8,1:1:0:0:
256,192,117802,1,0,1:0:0:0:
256,192,118064,1,8,1:1:0:0:
256,192,118327,1,8,1:1:0:0:
256,192,118677,1,0,1:0:0:0:
256,192,118852,1,8,1:1:0:0:
256,192,119027,1,8,1:1:0:0:
256,192,119202,1,0,1:0:0:0:
256,192,119376,1,8,1:1:0:0:
256,192,119464,1,8,1:1:0:0:
256,192,119551,1,8,1:1:0:0:
256,192,119726,1,0,1:0:0:0:
256,192,119814,1,8,1:1:0:0:
256,192,119989,1,8,1:1:0:0:
256,192,120076,1,0,1:0:0:0:
256,192,120164,1,0,1:0:0:0:
256,192,120251,1,8,1:1:0:0:
256,192,120601,1,4,1:1:0:0:
256,192,120863,1,4,1:1:0:0:
256,192,121125,1,12,1:1:0:0:
256,192,121387,1,8,1:1:0:0:
256,192,121475,1,0,1:0:0:0:
256,192,121650,1,8,1:1:0:0:
256,192,121824,1,8,1:1:0:0:
256,192,121999,1,4,1:1:0:0:
256,192,122262,1,4,1:1:0:0:
256,192,122524,1,12,1:1:0:0:
256,192,122787,1,0,1:0:0:0:
256,192,122874,1,8,1:1:0:0:
256,192,123049,1,0,1:0:0:0:
256,192,123224,1,8,1:1:0:0:
256,192,123399,1,4,1:1:0:0:
256,192,123661,1,4,1:1:0:0:
256,192,123924,1,12,1:1:0:0:
256,192,124186,1,8,1:1:0:0:
256,192,124273,1,0,1:0:0:0:
256,192,124448,1,0,1:0:0:0:
256,192,124536,1,0,1:0:0:0:
256,192,124623,1,8,1:1:0:0:
400,208,124973,1,0,1:1:0:0:
256,192,125148,1,8,1:1:0:0:
256,192,125236,1,8,1:1:0:0:
256,192,125410,1,0,1:0:0:0:
256,192,125585,1,0,1:0:0:0:
256,192,125673,1,8,1:1:0:0:
256,192,125848,1,0,1:0:0:0:
256,192,125935,1,0,1:0:0:0:
256,192,126023,1,8,1:1:0:0:
256,192,126198,1,0,1:0:0:0:
256,192,126460,1,8,1:1:0:0:
256,192,126547,1,0,1:0:0:0:
256,192,126722,1,8,1:1:0:0:
256,192,126810,1,8,1:1:0:0:
256,192,126897,1,0,1:0:0:0:
256,192,127072,1,0,1:0:0:0:
256,192,127247,1,8,1:1:0:0:
256,192,127335,1,8,1:1:0:0:
256,192,127422,1,8,1:1:0:0:
256,192,127510,1,8,1:1:0:0:
256,192,127772,1,0,1:0:0:0:
256,192,127859,1,8,1:1:0:0:
256,192,128034,1,8,1:1:0:0:
256,192,128122,1,0,1:0:0:0:
256,192,128297,1,8,1:1:0:0:
256,192,128472,1,0,1:0:0:0:
256,192,128647,1,8,1:1:0:0:
256,192,128734,1,8,1:1:0:0:
256,192,128822,1,8,1:1:0:0:
256,192,128996,1,0,1:0:0:0:
256,192,129171,1,8,1:1:0:0:
256,192,129259,1,8,1:1:0:0:
256,192,129346,1,0,1:0:0:0:
256,192,129521,1,8,1:1:0:0:
256,192,129609,1,8,1:1:0:0:
256,192,129696,1,0,1:0:0:0:
256,192,129871,1,0,1:0:0:0:
256,192,130046,1,8,1:1:0:0:
256,192,130133,1,8,1:1:0:0:
256,192,130221,1,8,1:1:0:0:
256,192,130308,1,8,1:1:0:0:
256,192,130397,1,0,1:0:0:0:
256,192,130572,1,8,1:1:0:0:
256,192,130659,1,8,1:1:0:0:
256,192,130747,1,8,1:1:0:0:
256,192,130922,1,0,1:0:0:0:
256,192,131097,1,8,1:1:0:0:
256,192,131184,1,8,1:1:0:0:
256,192,131271,1,0,1:0:0:0:
256,192,131446,1,8,1:1:0:0:
256,192,131796,1,0,1:0:0:0:
256,192,132496,1,8,1:1:0:0:
256,192,132671,1,4,1:1:0:0:
256,192,132933,1,12,1:1:0:0:
256,192,133196,1,12,1:1:0:0:
256,192,133458,1,4,1:1:0:0:
256,192,133720,1,4,1:1:0:0:
256,192,133895,1,8,1:1:0:0:
256,192,134245,1,8,1:1:0:0:
256,192,134420,1,8,1:1:0:0:
256,192,134595,1,0,1:0:0:0:
256,192,135295,1,8,1:1:0:0:
256,192,135470,1,4,1:1:0:0:
256,192,135732,1,4,1:1:0:0:
256,192,135995,1,12,1:1:0:0:
256,192,136257,1,12,1:1:0:0:
256,192,136519,1,4,1:1:0:0:
256,192,136694,1,8,1:1:0:0:
256,192,137044,1,0,1:0:0:0:
256,192,137394,1,0,1:0:0:0:
256,192,137744,1,8,1:1:0:0:
256,192,137919,1,4,1:1:0:0:
256,192,138152,1,4,1:1:0:0:
256,192,138385,1,4,1:1:0:0:
256,192,138618,1,4,1:1:0:0:
256,192,138852,1,4,1:1:0:0:
256,192,139085,1,4,1:1:0:0:
256,192,139318,1,12,1:1:0:0:
256,192,139581,1,12,1:1:0:0:
256,192,139843,1,12,1:1:0:0:
256,192,140105,1,12,1:1:0:0:
256,192,140368,1,12,1:1:0:0:
256,192,140630,1,12,1:1:0:0:
256,192,140892,1,0,1:0:0:0:
256,192,141067,1,8,1:1:0:0:
256,192,141155,1,0,1:0:0:0:
256,192,141330,1,8,1:1:0:0:
256,192,141417,1,0,1:0:0:0:
256,192,141592,1,8,1:1:0:0:
256,192,141732,1,8,1:1:0:0:
256,192,141872,1,8,1:1:0:0:
256,192,142012,1,8,1:1:0:0:
256,192,142152,1,8,1:1:0:0:
256,192,142292,1,0,1:0:0:0:
256,192,142642,1,8,1:1:0:0:
256,192,142992,1,4,1:1:0:0:
