osu file format v14

[General]
AudioFilename: audio.mp3
AudioLeadIn: 0
PreviewTime: 108006
Countdown: 0
SampleSet: Normal
StackLeniency: 0
Mode: 1
LetterboxInBreaks: 0
WidescreenStoryboard: 1

[Editor]
DistanceSpacing: 1.2
BeatDivisor: 5
GridSize: 32
TimelineZoom: 2.4

[Metadata]
Title:Dimension Hacker
TitleUnicode:Dimension Hacker
Artist:Kobaryo
ArtistUnicode:Kobaryo
Creator:koul
Version:hz404's Inner Oni
Source:WACCA Reverse
Tags:electronic instrumental speedcore psycho filth records chiptune 8-bit 8bit ワッカリバース paradigm:reboot paradigm: reboot rise _rise uone hz404 grape_tea grape tea eriha yassu- yassu maimaing
BeatmapID:4414229
BeatmapSetID:2093984

[Difficulty]
HPDrainRate:5
CircleSize:4.4
OverallDifficulty:6.3
ApproachRate:10
SliderMultiplier:1.4
SliderTickRate:1

[Events]
//Background and Video events
0,0,"bg.jpg",0,0
//Break Periods
//Storyboard Layer 0 (Background)
//Storyboard Layer 1 (Fail)
//Storyboard Layer 2 (Pass)
//Storyboard Layer 3 (Foreground)
//Storyboard Layer 4 (Overlay)
//Storyboard Sound Samples

[TimingPoints]
952,349.854227405248,4,1,0,100,1,8
1300,-100,4,1,0,51,0,0
1651,349.854227405248,4,1,0,100,1,0
1651,-100,4,1,0,51,0,0
10036,-100.876017330256,4,1,0,60,0,0
11435,-100.057941662173,4,1,0,70,0,0
12788,-76.923076923077,4,1,0,100,0,0
13487,-76.923076923077,4,1,0,100,0,0
15237,-90.909090909091,4,1,0,100,0,0
15586,-76.923076923077,4,1,0,100,0,0
16286,-76.923076923077,4,1,0,100,0,0
17734,-76.923076923077,4,1,0,100,0,0
17909,-81.081081081081,4,1,0,100,0,0
18084,-85.7142857142855,4,1,0,100,0,0
18259,-90.909090909091,4,1,0,100,0,0
18434,-76.923076923077,4,1,0,100,0,0
19085,-76.923076923077,4,1,0,100,0,0
20533,-76.923076923077,4,1,0,100,0,0
20708,-81.089445991953,4,1,0,100,0,0
20882,-85.7049394831535,4,1,0,100,0,0
21057,-90.909090909091,4,1,0,100,0,0
21184,-83.3333333333335,4,1,0,100,0,0
21534,-90.909090909091,4,1,0,100,0,0
22632,-90.909090909091,4,1,0,100,0,0
22719,-89.3929712460065,4,1,0,100,0,0
22807,-87.9100163378155,4,1,0,100,0,0
22894,-86.4914992272025,4,1,0,100,0,0
22982,-85.1025001520775,4,1,0,100,0,0
23069,-83.7724550898205,4,1,0,100,0,0
23157,-82.468757368545,4,1,0,100,0,0
23244,-81.2191582002905,4,1,0,100,0,0
23331,-80.0068626329635,4,1,0,100,0,0
23419,-78.8169014084505,4,1,0,100,0,0
23506,-77.6747543168065,4,1,0,100,0,0
23594,-76.5526675786595,4,1,0,100,0,0
23681,-75.4747518342685,4,1,0,100,0,0
23769,-74.4148936170215,4,1,0,100,0,0
23856,-73.395939352605,4,1,0,100,0,0
23944,-72.393272962484,4,1,0,100,0,0
24031,-71.4285714285715,4,1,0,60,0,0
24683,-76.923076923077,4,1,0,60,0,0
25081,-76.923076923077,4,1,0,100,0,0
25139,-77.9162956366875,4,1,0,100,0,0
25197,-78.93549842129,4,1,0,100,0,0
25256,-80,4,1,0,100,0,0
25343,-81.623134328358,4,1,0,100,0,0
25441,174.927113702624,4,1,0,100,1,0
25441,-166.666666666667,4,1,0,100,0,0
36636,349.854227405248,4,1,0,100,1,0
36636,-83.3333333333333,4,1,0,100,0,0
36658,-83.3333333333335,4,1,0,70,0,0
36976,-83.3333333333335,4,1,0,70,0,0
37063,-84.501369421621,4,1,0,70,0,0
37151,-85.7166203628045,4,1,0,70,0,0
37238,-86.9529177718835,4,1,0,70,0,0
37326,-88.2402422611035,4,1,0,70,0,0
37501,-90.916970012134,4,1,0,70,0,0
37588,-92.3090461105245,4,1,0,70,0,0
37763,-95.2424187397855,4,1,0,70,0,0
37850,-96.771217712177,4,1,0,70,0,0
37938,-98.3683420855215,4,1,0,70,0,0
38025,-100,4,1,0,70,0,0
38200,-98.360655737705,4,1,0,70,0,0
38375,-96.774193548387,4,1,0,70,0,0
38550,-95.2380952380955,4,1,0,70,0,0
38638,-94.483937730586,4,1,0,70,0,0
38725,-93.75,4,1,0,70,0,0
38900,-92.3076923076925,4,1,0,70,0,0
39075,-90.909090909091,4,1,0,70,0,0
39376,-83.3333333333335,4,1,0,90,0,0
42175,-90.909090909091,4,1,0,100,0,0
45032,174.927113702624,4,1,0,100,1,0
45032,-181.818181818182,4,1,0,100,0,0
45149,-166.666666666667,4,1,0,100,0,0
50620,-166.666666666667,4,1,0,100,0,0
50795,-163.265306122449,4,1,0,100,0,0
50882,-161.625490648811,4,1,0,100,0,0
50970,-160,4,1,0,100,0,0
51145,-156.862745098039,4,1,0,100,0,0
51232,-155.348424323125,4,1,0,100,0,0
51320,-153.846153846154,4,1,0,100,0,0
51407,-152.389245673234,4,1,0,100,0,0
51495,-150.943396226415,4,1,0,100,0,0
51582,-149.540696432386,4,1,0,100,0,0
51670,-148.148148148148,4,1,0,100,0,0
51728,-147.24442574674,4,1,0,100,0,0
51786,-146.351662136734,4,1,0,100,0,0
51845,-145.454545454545,4,1,0,100,0,0
51932,-144.151565074135,4,1,0,100,0,0
52020,-142.857142857143,4,1,0,100,0,0
52282,-153.846153846154,4,1,0,100,0,0
52369,-156.236975290265,4,1,0,100,0,0
52544,-161.278426551936,4,1,0,100,0,0
52719,-166.656081295649,4,1,0,100,0,0
52807,-169.498094438344,4,1,0,100,0,0
52894,-172.404730617608,4,1,0,100,0,0
52982,-175.447980743514,4,1,0,100,0,0
53069,-178.564137461722,4,1,0,100,0,0
53244,-185.179957657022,4,1,0,100,0,0
53331,-188.654827809332,4,1,0,100,0,0
53428,349.854227405248,4,1,0,100,1,8
53429,349.854227405248,4,1,0,100,1,0
53429,-96.1538461538461,4,1,0,60,0,0
53594,-100,4,1,0,60,0,0
59017,-100,4,1,0,90,0,0
59192,-98.3598875351455,4,1,0,90,0,0
59366,-96.7816303946885,4,1,0,90,0,0
59541,-95.244577547872,4,1,0,90,0,0
59629,-94.4899612856755,4,1,0,90,0,0
59716,-93.755583348222,4,1,0,90,0,0
59804,-93.0242864740295,4,1,0,90,0,0
59979,-91.6033865758925,4,1,0,90,0,0
60066,-90.9130284130285,4,1,0,90,0,0
60241,-89.5554228176465,4,1,0,90,0,0
60329,-88.88794782756,4,1,0,90,0,0
60416,-88.237766941315,4,1,0,90,0,0
60591,-86.95832297622,4,1,0,90,0,0
60766,-85.715452466514,4,1,0,90,0,0
60941,-84.507609308318,4,1,0,90,0,0
61028,-83.919718535103,4,1,0,90,0,0
61116,-83.3333333333335,4,1,0,90,0,0
61203,-82.7616118602635,4,1,0,90,0,0
61378,-81.6350342252645,4,1,0,90,0,0
61466,-81.0800370828185,4,1,0,90,0,0
61553,-80.5387153710385,4,1,0,90,0,0
61728,-79.471452370135,4,1,0,100,0,0
61815,-78.9513277664935,4,1,0,100,0,0
61903,-78.432105223825,4,1,0,100,0,0
61990,-77.925452925453,4,1,0,100,0,0
62078,-77.419592800236,4,1,0,100,0,0
62165,-76.9258960639155,4,1,0,100,0,0
62253,-76.4328890830965,4,1,0,100,0,0
62340,-75.951657258648,4,1,0,100,0,0
62428,-75.471019703725,4,1,0,100,0,0
62515,-75.0017866075895,4,1,0,100,0,0
62603,-74.533058731624,4,1,0,100,0,0
62690,-74.0753811405985,4,1,0,100,0,0
62778,-73.618125701459,4,1,0,100,0,0
62865,-73.171581956355,4,1,0,100,0,0
62952,-72.7304227304225,4,1,0,100,0,0
63040,-72.2895715663315,4,1,0,100,0,0
63127,-71.858952413557,4,1,0,100,0,0
63215,-71.4285714285715,4,1,0,100,0,0
63866,-76.923076923077,4,1,0,100,0,0
64624,174.927113702624,4,1,0,100,1,0
64624,-153.846153846154,4,1,0,100,0,0
64916,-166.666666666667,4,1,0,100,0,0
65091,-153.846153846154,4,1,0,100,0,0
66723,-166.666666666667,4,1,0,100,0,0
67365,-153.846153846154,4,1,0,100,0,0
67715,-166.666666666667,4,1,0,100,0,0
67890,-153.846153846154,4,1,0,100,0,0
68801,-181.818181818182,4,1,0,100,0,0
69687,-181.818181818182,4,1,0,100,0,0
69775,-177.755205688167,4,1,0,100,0,0
69862,-173.913043478261,4,1,0,100,0,0
69950,-170.192073911986,4,1,0,100,0,0
70037,-166.666666666667,4,1,0,100,0,0
70164,-181.818181818182,4,1,0,100,0,0
70737,-149.253731343284,4,1,0,100,0,0
70824,-150.82227475884,4,1,0,100,0,0
70912,-152.442746760156,4,1,0,100,0,0
70999,-154.079402016783,4,1,0,100,0,0
71087,-155.771013046268,4,1,0,100,0,0
71261,-159.227546001093,4,1,0,100,0,0
71349,-161.034749603862,4,1,0,100,0,0
71436,-162.862200689462,4,1,0,100,0,0
71524,-164.753341250542,4,1,0,100,0,0
71611,-166.666666666667,4,1,0,100,0,0
71786,-149.253731343284,4,1,0,100,0,0
71961,-152.439024390244,4,1,0,100,0,0
72136,-155.763239875389,4,1,0,100,0,0
72224,-157.490235605393,4,1,0,100,0,0
72311,-159.235668789809,4,1,0,100,0,0
72399,-161.040968822468,4,1,0,100,0,0
72486,-162.866449511401,4,1,0,100,0,0
72573,-164.733790195045,4,1,0,100,0,0
72661,-166.666666666667,4,1,0,100,0,0
73011,-178.571428571429,4,1,0,100,0,0
73186,-175.437339713741,4,1,0,100,0,0
73361,-172.411365492383,4,1,0,100,0,0
73536,-169.488006422412,4,1,0,100,0,0
73710,-166.678009936705,4,1,0,100,0,0
73798,-165.292045193774,4,1,0,100,0,0
73885,-163.944303119561,4,1,0,100,0,0
73973,-162.603245425331,4,1,0,100,0,0
74060,-161.298821049858,4,1,0,100,0,0
74148,-160.000522664018,4,1,0,100,0,0
74235,-158.737360642987,4,1,0,100,0,0
74323,-157.479808632131,4,1,0,100,0,0
74410,-156.25598162445,4,1,0,100,0,0
74468,-155.450609996064,4,1,0,100,0,0
74527,-154.639826227521,4,1,0,100,0,0
74585,-153.850986304812,4,1,0,100,0,0
74673,-152.669376355884,4,1,0,100,0,0
74760,-151.518901194085,4,1,0,100,0,0
74847,-150.38563568481,4,1,0,100,0,0
74935,-149.256460263286,4,1,0,100,0,0
75022,-148.156662512553,4,1,0,100,0,0
75110,-147.060589683541,4,1,0,100,0,0
75168,-146.347001948106,4,1,0,100,0,0
75227,-145.628181342467,4,1,0,100,0,0
75285,-144.928393892768,4,1,0,100,0,0
75372,-143.891232564425,4,1,0,100,0,0
75460,-142.857142857143,4,1,0,100,0,0
75761,-181.818181818182,4,1,0,90,0,0
75819,349.854227405248,4,1,0,100,1,8
75820,349.854227405248,4,1,0,100,1,0
75820,-90.9090909090909,4,1,0,100,0,0
81046,-86.9565217391305,4,1,0,90,0,0
81359,-83.3333333333335,4,1,0,100,0,0
85594,-83.3333333333335,4,1,0,20,0,0
86257,-90.909090909091,4,1,0,20,0,0
86957,-100,4,1,0,60,0,0
95576,-100,4,1,0,60,0,0
95926,-98.6837156825875,4,1,0,60,0,0
96276,-97.4016332590945,4,1,0,60,0,0
96451,-96.7730038723955,4,1,0,60,0,0
96626,-96.152436790033,4,1,0,60,0,0
96801,-95.5397778991445,4,1,0,60,0,0
96976,-94.93487698987,4,1,0,60,0,0
97326,-93.747767059664,4,1,0,60,0,0
97675,-92.593246056671,4,1,0,60,0,0
97850,-92.024970190082,4,1,0,60,0,0
98025,-91.4636271741785,4,1,0,60,0,0
98200,-90.909090909091,4,1,0,90,0,0
102399,-90.909090909091,4,1,0,90,0,0
102573,-92.099322799097,4,1,0,90,0,0
102661,-92.7132252688985,4,1,0,90,0,0
102748,-93.3282500953105,4,1,0,90,0,0
102923,-94.5904173106645,4,1,0,90,0,0
103011,-95.2380952380955,4,1,0,90,0,0
103098,-95.8871915393655,4,1,0,90,0,0
103186,-96.552812179538,4,1,0,90,0,0
103273,-97.2200158856235,4,1,0,90,0,0
103448,-98.5904148207815,4,1,0,90,0,0
103623,-100,4,1,0,90,0,0
103764,-90.909090909091,4,1,0,90,0,0
106597,-90.909090909091,4,1,0,90,0,0
106684,-89.2942217382425,4,1,0,90,0,0
106772,-87.718125292505,4,1,0,90,0,0
106859,-86.2136943093705,4,1,0,90,0,0
106947,-84.7435731817595,4,1,0,90,0,0
107034,-83.338626691228,4,1,0,90,0,0
107122,-81.964140688449,4,1,0,90,0,0
107209,-80.649127120728,4,1,0,90,0,0
107296,-79.3756428096075,4,1,0,90,0,0
107384,-78.1277913416305,4,1,0,90,0,0
107471,-76.932098041515,4,1,0,90,0,0
107559,-75.7593255572235,4,1,0,90,0,0
107646,-74.634507082314,4,1,0,90,0,0
107734,-73.53023594687,4,1,0,90,0,0
107821,-72.470172337605,4,1,0,90,0,0
107909,-71.4285714285715,4,1,0,90,0,0
107948,-90.909090909091,4,1,0,90,0,0
108997,-66.6666666666665,4,1,0,100,0,0
109347,-76.923076923077,4,1,0,100,0,0
109406,174.927113702624,4,1,0,100,1,0
109406,-153.846153846154,4,1,0,100,0,1
114381,-153.846153846154,4,1,0,100,0,1
114468,-155.832591273375,4,1,0,100,0,1
114527,-157.20916304836,4,1,0,100,0,1
114585,-158.586316266425,4,1,0,100,0,1
114643,-159.987810452537,4,1,0,100,0,1
114731,-162.162162162162,4,1,0,100,0,1
114818,-164.370695053225,4,1,0,100,0,1
114906,-166.666666666667,4,1,0,100,0,1
114945,-153.846153846154,4,1,0,100,0,1
117802,349.854227405248,4,1,0,100,1,0
117802,-76.923076923077,4,1,0,90,0,0
117967,-76.923076923077,4,1,0,90,0,0
118054,-77.9162956366875,4,1,0,90,0,0
118317,-81.081081081081,4,1,0,90,0,0
118492,-83.3333333333335,4,1,0,90,0,0
118579,-84.500241429261,4,1,0,90,0,0
118667,-85.7142857142855,4,1,0,90,0,0
118842,-88.235294117647,4,1,0,90,0,0
119017,-90.909090909091,4,1,0,90,0,0
119192,-88.2328202540165,4,1,0,90,0,0
119279,-86.9601260051395,4,1,0,90,0,0
119366,-85.7236250715045,4,1,0,90,0,0
119541,-83.339953920712,4,1,0,90,0,0
119716,-81.085259333694,4,1,0,90,0,0
119804,-79.996949592008,4,1,0,90,0,0
119891,-78.9493489877325,4,1,0,90,0,0
119979,-77.9172546980615,4,1,0,90,0,0
120066,-76.923076923077,4,1,0,90,0,0
120193,-66.6666666666665,4,1,0,100,0,0
120600,174.927113702624,4,1,0,100,1,0
120600,-133.333333333333,4,1,0,100,0,1
121242,-153.846153846154,4,1,0,100,0,1
121942,-133.333333333333,4,1,0,100,0,1
122699,-153.846153846154,4,1,0,100,0,1
123341,-133.333333333333,4,1,0,100,0,1
124041,-153.846153846154,4,1,0,100,0,1
130387,-153.846153846154,4,1,0,100,0,1
130395,349.854227405248,4,1,0,100,1,8
130397,349.854227405248,4,1,0,100,1,0
130397,-76.9230769230769,4,1,0,100,0,0
130571,-79.3679622230295,4,1,0,100,0,1
130649,-80.642184904964,4,1,0,100,0,1
130737,-81.973363346464,4,1,0,100,0,1
130912,-84.755624515128,4,1,0,100,0,1
131087,-87.7333868701065,4,1,0,100,0,1
131261,-90.909090909091,4,1,0,100,0,1
131388,-66.6666666666665,4,1,0,100,0,1
131738,-71.4285714285715,4,1,0,100,0,1
131796,-71.4285714285715,4,1,0,100,0,0
134187,-83.3333333333335,4,1,0,100,0,0
134537,-71.4285714285715,4,1,0,100,0,0
136986,-83.3333333333335,4,1,0,100,0,0
137336,-71.4285714285715,4,1,0,100,0,0
137685,-83.3333333333335,4,1,0,100,0,0
137860,-71.4285714285715,4,1,0,100,0,0
140834,-83.3333333333335,4,1,0,100,0,0
142933,-71.4285714285715,4,1,0,100,0,0

[HitObjects]
256,128,1651,5,4,0:0:0:0:
256,192,2175,1,0,0:0:0:0:
256,192,2350,1,8,0:0:0:0:
256,192,2525,1,0,0:0:0:0:
256,192,2700,1,0,0:0:0:0:
256,192,2788,1,8,0:0:0:0:
256,192,2875,1,8,0:0:0:0:
256,192,3050,1,0,0:0:0:0:
256,192,3312,1,8,0:0:0:0:
256,192,3575,1,8,0:0:0:0:
256,192,3750,1,0,0:0:0:0:
256,192,3837,1,8,0:0:0:0:
256,192,4099,1,0,0:0:0:0:
256,192,4274,1,8,0:0:0:0:
256,192,4449,1,0,0:0:0:0:
256,192,4974,1,8,0:0:0:0:
256,192,5324,1,0,0:0:0:0:
256,192,7248,1,0,0:0:0:0:
256,192,7773,1,8,0:0:0:0:
256,192,7948,1,8,0:0:0:0:
256,192,8123,1,0,0:0:0:0:
256,192,8298,1,8,0:0:0:0:
256,192,8385,1,8,0:0:0:0:
256,192,8648,1,0,0:0:0:0:
256,192,8910,1,8,0:0:0:0:
256,192,9172,1,0,0:0:0:0:
256,192,9347,1,8,0:0:0:0:
256,192,9697,1,0,0:0:0:0:
256,192,10047,1,0,0:0:0:0:
256,192,10397,1,8,0:0:0:0:
256,192,10572,1,0,0:0:0:0:
256,192,10922,1,0,0:0:0:0:
256,192,11097,1,8,0:0:0:0:
256,192,11271,1,8,0:0:0:0:
256,192,11446,1,0,0:0:0:0:
256,192,11621,1,0,0:0:0:0:
256,192,11796,1,8,0:0:0:0:
256,192,11971,1,0,0:0:0:0:
256,192,12321,1,8,0:0:0:0:
256,192,12496,1,0,0:0:0:0:
256,192,12671,1,8,0:0:0:0:
256,128,12846,1,4,0:0:0:0:
256,128,13546,1,12,0:0:0:0:
256,128,13720,1,4,0:0:0:0:
256,128,13983,1,4,0:0:0:0:
256,128,14245,1,12,0:0:0:0:
256,128,14508,1,4,0:0:0:0:
256,128,14770,1,4,0:0:0:0:
256,128,14945,1,12,0:0:0:0:
256,192,15295,1,8,0:0:0:0:
256,128,15645,1,4,0:0:0:0:
256,128,16344,1,12,0:0:0:0:
256,128,16519,1,4,0:0:0:0:
256,128,16782,1,4,0:0:0:0:
256,128,17044,1,12,0:0:0:0:
256,128,17306,1,4,0:0:0:0:
256,128,17569,1,4,0:0:0:0:
256,128,17744,1,12,0:0:0:0:
256,192,17919,1,0,0:0:0:0:
256,192,18094,1,8,0:0:0:0:
256,192,18269,1,8,0:0:0:0:
256,128,18444,1,4,0:0:0:0:
256,128,19143,1,12,0:0:0:0:
256,128,19318,1,12,0:0:0:0:
256,128,19581,1,4,0:0:0:0:
256,128,19843,1,12,0:0:0:0:
256,128,20105,1,4,0:0:0:0:
256,128,20368,1,4,0:0:0:0:
256,128,20543,1,12,0:0:0:0:
256,192,20718,1,8,0:0:0:0:
256,192,20892,1,0,0:0:0:0:
256,192,21067,1,8,0:0:0:0:
256,192,21242,1,0,0:0:0:0:
256,128,21592,1,4,0:0:0:0:
256,192,21767,1,8,0:0:0:0:
256,192,21942,1,0,0:0:0:0:
256,128,22292,1,4,0:0:0:0:
256,192,22467,1,8,0:0:0:0:
256,192,22642,1,0,0:0:0:0:
256,192,22729,1,0,0:0:0:0:
256,192,22817,1,0,0:0:0:0:
256,192,22904,1,0,0:0:0:0:
256,192,22992,1,8,0:0:0:0:
256,192,23079,1,8,0:0:0:0:
256,192,23167,1,0,0:0:0:0:
256,192,23254,1,8,0:0:0:0:
256,192,23341,1,0,0:0:0:0:
256,192,23429,1,0,0:0:0:0:
256,192,23516,1,8,0:0:0:0:
256,192,23604,1,0,0:0:0:0:
256,192,23691,1,8,0:0:0:0:
256,192,23779,1,8,0:0:0:0:
256,192,23866,1,0,0:0:0:0:
256,192,23954,1,8,0:0:0:0:
256,192,24041,1,0,0:0:0:0:
256,192,25091,1,8,0:0:0:0:
256,192,25149,1,8,0:0:0:0:
256,192,25207,1,8,0:0:0:0:
256,192,25266,1,0,0:0:0:0:
256,192,25353,1,8,0:0:0:0:
256,192,25441,1,0,0:0:0:0:
256,192,25615,1,8,0:0:0:0:
256,192,25790,1,0,0:0:0:0:
256,192,25878,1,0,0:0:0:0:
256,192,25965,1,8,0:0:0:0:
256,192,26053,1,8,0:0:0:0:
256,192,26140,1,0,0:0:0:0:
256,192,26315,1,0,0:0:0:0:
256,192,26490,1,8,0:0:0:0:
256,192,26578,1,0,0:0:0:0:
256,192,26665,1,8,0:0:0:0:
256,192,26840,1,0,0:0:0:0:
256,192,26927,1,0,0:0:0:0:
256,192,27015,1,0,0:0:0:0:
256,192,27190,1,8,0:0:0:0:
256,192,27365,1,0,0:0:0:0:
256,192,27540,1,8,0:0:0:0:
256,192,27627,1,8,0:0:0:0:
256,192,27715,1,0,0:0:0:0:
256,192,27802,1,8,0:0:0:0:
256,192,27889,1,0,0:0:0:0:
256,192,27977,1,0,0:0:0:0:
256,192,28064,1,8,0:0:0:0:
256,192,28239,1,0,0:0:0:0:
256,192,28414,1,8,0:0:0:0:
256,192,28589,1,0,0:0:0:0:
256,192,28677,1,8,0:0:0:0:
256,192,28764,1,0,0:0:0:0:
256,192,28852,1,0,0:0:0:0:
256,192,28939,1,8,0:0:0:0:
256,192,29114,1,8,0:0:0:0:
256,192,29289,1,0,0:0:0:0:
256,192,29376,1,0,0:0:0:0:
256,192,29464,1,8,0:0:0:0:
256,192,29639,1,0,0:0:0:0:
256,192,29779,1,0,0:0:0:0:
256,192,29919,1,8,0:0:0:0:
256,192,30059,1,8,0:0:0:0:
256,192,30199,1,0,0:0:0:0:
256,192,30338,1,8,0:0:0:0:
256,192,30408,1,8,0:0:0:0:
256,192,30478,1,8,0:0:0:0:
256,192,30548,1,8,0:0:0:0:
256,192,30618,1,8,0:0:0:0:
256,192,30688,1,0,0:0:0:0:
256,192,31038,1,0,0:0:0:0:
256,192,31213,1,8,0:0:0:0:
256,192,31388,1,0,0:0:0:0:
256,192,31475,1,0,0:0:0:0:
256,192,31563,1,8,0:0:0:0:
256,192,31738,1,8,0:0:0:0:
256,192,31825,1,8,0:0:0:0:
256,192,31913,1,0,0:0:0:0:
256,192,32000,1,0,0:0:0:0:
256,192,32088,1,8,0:0:0:0:
256,192,32175,1,0,0:0:0:0:
256,192,32263,1,8,0:0:0:0:
256,192,32438,1,0,0:0:0:0:
256,192,32613,1,0,0:0:0:0:
256,192,32787,1,8,0:0:0:0:
256,192,32846,1,0,0:0:0:0:
256,192,32904,1,0,0:0:0:0:
256,192,32962,1,8,0:0:0:0:
256,192,33137,1,8,0:0:0:0:
256,192,33225,1,8,0:0:0:0:
256,192,33312,1,8,0:0:0:0:
256,192,33487,1,0,0:0:0:0:
256,192,33575,1,0,0:0:0:0:
256,192,33662,1,8,0:0:0:0:
256,192,33720,1,8,0:0:0:0:
256,192,33779,1,8,0:0:0:0:
256,192,33837,1,0,0:0:0:0:
256,192,34012,1,8,0:0:0:0:
256,192,34187,1,0,0:0:0:0:
256,192,34274,1,0,0:0:0:0:
256,192,34362,1,8,0:0:0:0:
256,192,34537,1,0,0:0:0:0:
256,192,34624,1,8,0:0:0:0:
256,192,34712,1,0,0:0:0:0:
256,192,34887,1,8,0:0:0:0:
256,192,35003,1,8,0:0:0:0:
256,192,35120,1,8,0:0:0:0:
256,192,35236,1,0,0:0:0:0:
256,192,35353,1,8,0:0:0:0:
256,192,35470,1,0,0:0:0:0:
256,192,35586,1,8,0:0:0:0:
256,192,35703,1,0,0:0:0:0:
256,192,35820,1,8,0:0:0:0:
256,128,35936,1,4,0:0:0:0:
256,128,36286,1,12,0:0:0:0:
256,128,36636,1,4,0:0:0:0:
256,192,36985,1,8,0:0:0:0:
256,192,37073,1,8,0:0:0:0:
256,192,37160,1,0,0:0:0:0:
256,192,37248,1,0,0:0:0:0:
256,192,37335,1,8,0:0:0:0:
256,192,37510,1,0,0:0:0:0:
256,192,37598,1,8,0:0:0:0:
256,192,37773,1,8,0:0:0:0:
256,192,37860,1,0,0:0:0:0:
256,192,37947,1,0,0:0:0:0:
256,192,38035,1,8,0:0:0:0:
256,192,38210,1,0,0:0:0:0:
256,192,38385,1,8,0:0:0:0:
256,192,38560,1,0,0:0:0:0:
256,192,38647,1,0,0:0:0:0:
256,192,38735,1,0,0:0:0:0:
256,192,38910,1,8,0:0:0:0:
256,192,39084,1,0,0:0:0:0:
256,192,39434,1,0,0:0:0:0:
256,192,39609,1,8,0:0:0:0:
256,192,39697,1,0,0:0:0:0:
256,192,39872,1,0,0:0:0:0:
256,192,39959,1,8,0:0:0:0:
256,192,40047,1,8,0:0:0:0:
256,192,40134,1,0,0:0:0:0:
256,192,40309,1,8,0:0:0:0:
256,192,40396,1,0,0:0:0:0:
256,192,40571,1,8,0:0:0:0:
256,192,40659,1,8,0:0:0:0:
256,192,40746,1,8,0:0:0:0:
256,192,40834,1,0,0:0:0:0:
256,192,41009,1,0,0:0:0:0:
256,192,41096,1,8,0:0:0:0:
256,192,41271,1,0,0:0:0:0:
256,192,41359,1,0,0:0:0:0:
256,192,41446,1,0,0:0:0:0:
256,192,41533,1,8,0:0:0:0:
256,192,41621,1,8,0:0:0:0:
256,192,41708,1,0,0:0:0:0:
256,128,41883,1,12,0:0:0:0:
256,192,42233,1,0,0:0:0:0:
256,192,42321,1,0,0:0:0:0:
256,192,42408,1,0,0:0:0:0:
256,192,42845,1,0,0:0:0:0:
256,192,42933,1,8,0:0:0:0:
256,192,43108,1,8,0:0:0:0:
256,192,43283,1,0,0:0:0:0:
256,192,43370,1,0,0:0:0:0:
256,192,43458,1,0,0:0:0:0:
256,192,43633,1,8,0:0:0:0:
256,192,43895,1,8,0:0:0:0:
256,192,43982,1,0,0:0:0:0:
256,192,44157,1,0,0:0:0:0:
256,192,44332,1,8,0:0:0:0:
256,192,44420,1,0,0:0:0:0:
256,192,44507,1,8,0:0:0:0:
256,192,44566,1,0,0:0:0:0:
256,192,44624,1,0,0:0:0:0:
256,192,44682,1,8,0:0:0:0:
256,192,44770,1,0,0:0:0:0:
256,192,44857,1,8,0:0:0:0:
256,192,44915,1,8,0:0:0:0:
256,192,44974,1,8,0:0:0:0:
256,192,45032,1,0,0:0:0:0:
256,192,45206,1,0,0:0:0:0:
256,192,45294,1,8,0:0:0:0:
256,192,45381,1,0,0:0:0:0:
256,192,45731,1,8,0:0:0:0:
256,192,45819,1,8,0:0:0:0:
256,192,45906,1,8,0:0:0:0:
256,192,46081,1,0,0:0:0:0:
256,192,46431,1,0,0:0:0:0:
256,192,46606,1,8,0:0:0:0:
256,192,46737,1,8,0:0:0:0:
256,192,46868,1,0,0:0:0:0:
256,192,46999,1,8,0:0:0:0:
256,192,47131,1,0,0:0:0:0:
256,192,47189,1,0,0:0:0:0:
256,192,47247,1,0,0:0:0:0:
256,192,47306,1,8,0:0:0:0:
256,192,47393,1,8,0:0:0:0:
256,192,47480,1,0,0:0:0:0:
256,192,47830,1,0,0:0:0:0:
256,192,47918,1,0,0:0:0:0:
256,192,48005,1,0,0:0:0:0:
256,192,48180,1,8,0:0:0:0:
256,192,48238,1,8,0:0:0:0:
256,192,48297,1,8,0:0:0:0:
256,192,48355,1,0,0:0:0:0:
256,192,48443,1,0,0:0:0:0:
256,192,48705,1,0,0:0:0:0:
256,192,48792,1,8,0:0:0:0:
256,192,48967,1,0,0:0:0:0:
256,192,49055,1,0,0:0:0:0:
256,192,49230,1,8,0:0:0:0:
256,192,49317,1,0,0:0:0:0:
256,192,49405,1,0,0:0:0:0:
256,192,49492,1,8,0:0:0:0:
256,192,49580,1,0,0:0:0:0:
256,192,49667,1,0,0:0:0:0:
256,192,49755,1,8,0:0:0:0:
256,192,49929,1,8,0:0:0:0:
256,192,50017,1,8,0:0:0:0:
256,192,50104,1,0,0:0:0:0:
256,192,50192,1,0,0:0:0:0:
256,192,50279,1,8,0:0:0:0:
256,192,50367,1,0,0:0:0:0:
256,192,50454,1,8,0:0:0:0:
256,192,50629,1,0,0:0:0:0:
256,192,50804,1,8,0:0:0:0:
256,192,50892,1,8,0:0:0:0:
256,192,50979,1,0,0:0:0:0:
256,192,51154,1,8,0:0:0:0:
256,192,51241,1,8,0:0:0:0:
256,192,51329,1,0,0:0:0:0:
256,192,51416,1,8,0:0:0:0:
256,192,51504,1,0,0:0:0:0:
256,192,51591,1,0,0:0:0:0:
256,192,51679,1,8,0:0:0:0:
256,192,51737,1,8,0:0:0:0:
256,192,51795,1,8,0:0:0:0:
256,192,51854,1,0,0:0:0:0:
256,192,51941,1,0,0:0:0:0:
256,192,52029,1,8,0:0:0:0:
256,192,52291,1,0,0:0:0:0:
256,192,52378,1,8,0:0:0:0:
256,192,52553,1,0,0:0:0:0:
256,192,52728,1,0,0:0:0:0:
256,192,52816,1,8,0:0:0:0:
256,192,52903,1,0,0:0:0:0:
256,192,52991,1,0,0:0:0:0:
256,192,53078,1,8,0:0:0:0:
256,192,53253,1,8,0:0:0:0:
256,192,53341,1,8,0:0:0:0:
256,192,53429,1,0,0:0:0:0:
256,192,53603,12,0,58326,0:0:0:0:
256,192,59026,5,0,0:0:0:0:
256,192,59201,1,0,0:0:0:0:
256,192,59376,1,8,0:0:0:0:
256,192,59551,1,0,0:0:0:0:
256,192,59638,1,8,0:0:0:0:
256,192,59726,1,0,0:0:0:0:
256,192,59813,1,0,0:0:0:0:
256,192,59988,1,0,0:0:0:0:
256,192,60076,1,8,0:0:0:0:
256,192,60251,1,0,0:0:0:0:
256,192,60338,1,8,0:0:0:0:
256,192,60426,1,0,0:0:0:0:
256,192,60601,1,0,0:0:0:0:
256,192,60775,1,8,0:0:0:0:
256,192,60950,1,0,0:0:0:0:
256,192,61038,1,8,0:0:0:0:
256,192,61125,1,0,0:0:0:0:
256,192,61213,1,0,0:0:0:0:
256,192,61388,1,0,0:0:0:0:
256,192,61475,1,8,0:0:0:0:
256,192,61563,1,8,0:0:0:0:
256,192,61738,1,8,0:0:0:0:
256,192,61825,1,0,0:0:0:0:
256,192,61912,1,0,0:0:0:0:
256,192,62000,1,8,0:0:0:0:
256,192,62087,1,0,0:0:0:0:
256,192,62175,1,8,0:0:0:0:
256,192,62262,1,8,0:0:0:0:
256,192,62350,1,0,0:0:0:0:
256,192,62437,1,8,0:0:0:0:
256,192,62525,1,0,0:0:0:0:
256,192,62612,1,0,0:0:0:0:
256,192,62700,1,8,0:0:0:0:
256,192,62787,1,8,0:0:0:0:
256,192,62875,1,0,0:0:0:0:
256,192,62962,1,8,0:0:0:0:
256,192,63049,1,8,0:0:0:0:
256,192,63137,1,8,0:0:0:0:
256,192,63224,12,0,64449,0:0:0:0:
256,128,64624,5,4,0:0:0:0:
256,192,64973,1,8,0:0:0:0:
256,128,65148,1,4,0:0:0:0:
256,128,65382,1,4,0:0:0:0:
256,128,65615,1,4,0:0:0:0:
256,128,65848,1,4,0:0:0:0:
256,128,66081,1,4,0:0:0:0:
256,128,66314,1,4,0:0:0:0:
256,128,66548,1,4,0:0:0:0:
256,192,66781,1,2,0:0:0:0:
256,192,66898,1,2,0:0:0:0:
256,192,67014,1,2,0:0:0:0:
256,192,67131,1,2,0:0:0:0:
256,192,67247,1,2,0:0:0:0:
256,128,67422,1,12,0:0:0:0:
256,192,67772,1,0,0:0:0:0:
256,128,67947,1,12,0:0:0:0:
256,128,68210,1,12,0:0:0:0:
256,128,68472,1,12,0:0:0:0:
256,128,68734,1,12,0:0:0:0:
256,192,68997,1,0,0:0:0:0:
256,192,69128,1,0,0:0:0:0:
256,192,69259,1,8,0:0:0:0:
256,192,69390,1,8,0:0:0:0:
256,192,69521,1,0,0:0:0:0:
256,192,69696,1,8,0:0:0:0:
256,192,69784,1,8,0:0:0:0:
256,192,69871,1,0,0:0:0:0:
256,192,69959,1,0,0:0:0:0:
256,192,70046,1,8,0:0:0:0:
256,192,70396,1,0,0:0:0:0:
256,192,70571,1,8,0:0:0:0:
256,192,70746,1,0,0:0:0:0:
256,192,70833,1,8,0:0:0:0:
256,192,70921,1,8,0:0:0:0:
256,192,71008,1,8,0:0:0:0:
256,192,71096,1,0,0:0:0:0:
256,192,71271,1,0,0:0:0:0:
256,192,71358,1,0,0:0:0:0:
256,192,71446,1,8,0:0:0:0:
256,192,71533,1,0,0:0:0:0:
256,192,71621,1,8,0:0:0:0:
256,192,71796,1,0,0:0:0:0:
256,192,71970,1,8,0:0:0:0:
256,192,72145,1,0,0:0:0:0:
256,192,72233,1,0,0:0:0:0:
256,192,72320,1,8,0:0:0:0:
256,192,72408,1,8,0:0:0:0:
256,192,72495,1,0,0:0:0:0:
256,192,72583,1,8,0:0:0:0:
256,192,72670,1,0,0:0:0:0:
256,192,73020,1,0,0:0:0:0:
256,192,73195,1,0,0:0:0:0:
256,192,73370,1,8,0:0:0:0:
256,192,73545,1,8,0:0:0:0:
256,192,73720,1,0,0:0:0:0:
256,192,73807,1,0,0:0:0:0:
256,192,73895,1,8,0:0:0:0:
256,192,73982,1,0,0:0:0:0:
256,192,74070,1,8,0:0:0:0:
256,192,74157,1,8,0:0:0:0:
256,192,74244,1,8,0:0:0:0:
256,192,74332,1,8,0:0:0:0:
256,192,74419,1,0,0:0:0:0:
256,192,74478,1,0,0:0:0:0:
256,192,74536,1,0,0:0:0:0:
256,192,74594,1,8,0:0:0:0:
256,192,74682,1,0,0:0:0:0:
256,192,74769,1,8,0:0:0:0:
256,192,74857,1,8,0:0:0:0:
256,192,74944,1,0,0:0:0:0:
256,192,75032,1,0,0:0:0:0:
256,192,75119,1,8,0:0:0:0:
256,192,75177,1,0,0:0:0:0:
256,192,75236,1,0,0:0:0:0:
256,192,75294,1,8,0:0:0:0:
256,192,75382,1,8,0:0:0:0:
256,192,75469,1,0,0:0:0:0:
256,128,75820,1,4,0:0:0:0:
256,192,76082,1,8,0:0:0:0:
256,192,76169,1,0,0:0:0:0:
256,192,76344,1,8,0:0:0:0:
256,192,76519,1,0,0:0:0:0:
256,192,76607,1,8,0:0:0:0:
256,192,76694,1,8,0:0:0:0:
256,192,76869,1,0,0:0:0:0:
256,192,77044,1,8,0:0:0:0:
256,192,77219,1,0,0:0:0:0:
256,192,77481,1,8,0:0:0:0:
256,192,77569,1,0,0:0:0:0:
256,192,77744,1,8,0:0:0:0:
256,192,77919,1,0,0:0:0:0:
256,192,78006,1,0,0:0:0:0:
256,192,78094,1,8,0:0:0:0:
256,192,78268,1,0,0:0:0:0:
256,192,78443,1,8,0:0:0:0:
256,192,78618,1,0,0:0:0:0:
256,192,78881,1,8,0:0:0:0:
256,192,78968,1,0,0:0:0:0:
256,192,79143,1,8,0:0:0:0:
256,192,79318,1,0,0:0:0:0:
256,192,79406,1,8,0:0:0:0:
256,192,79493,1,8,0:0:0:0:
256,192,79668,1,0,0:0:0:0:
256,192,79843,1,8,0:0:0:0:
256,192,80018,1,0,0:0:0:0:
256,192,80280,1,8,0:0:0:0:
256,192,80368,1,0,0:0:0:0:
256,192,80543,1,8,0:0:0:0:
256,128,80717,1,4,0:0:0:0:
256,128,81067,1,12,0:0:0:0:
256,128,81417,1,4,0:0:0:0:
256,192,81767,1,8,0:0:0:0:
256,192,81942,1,8,0:0:0:0:
256,192,82117,1,0,0:0:0:0:
256,192,82204,1,0,0:0:0:0:
256,192,82292,1,8,0:0:0:0:
256,192,82467,1,0,0:0:0:0:
256,192,82554,1,0,0:0:0:0:
256,192,82642,1,8,0:0:0:0:
256,192,82729,1,8,0:0:0:0:
256,192,82817,1,0,0:0:0:0:
256,192,82992,1,8,0:0:0:0:
256,192,83166,1,0,0:0:0:0:
256,192,83341,1,8,0:0:0:0:
256,192,83516,1,0,0:0:0:0:
256,192,83604,1,0,0:0:0:0:
256,192,83779,1,8,0:0:0:0:
256,192,83866,1,0,0:0:0:0:
256,192,84041,1,8,0:0:0:0:
256,192,84216,1,0,0:0:0:0:
256,192,84566,1,8,0:0:0:0:
256,192,84741,1,8,0:0:0:0:
256,192,84916,1,0,0:0:0:0:
256,192,85003,1,0,0:0:0:0:
256,192,85091,1,8,0:0:0:0:
256,192,85178,1,0,0:0:0:0:
256,192,85266,1,8,0:0:0:0:
256,192,85440,1,8,0:0:0:0:
256,192,87015,1,8,0:0:0:0:
256,192,87190,1,0,0:0:0:0:
256,192,87540,1,8,0:0:0:0:
256,192,87889,1,0,0:0:0:0:
256,192,88064,1,8,0:0:0:0:
256,192,88239,1,8,0:0:0:0:
256,192,88414,1,0,0:0:0:0:
256,192,88589,1,8,0:0:0:0:
256,192,88939,1,0,0:0:0:0:
256,192,89289,1,0,0:0:0:0:
256,192,89464,1,8,0:0:0:0:
256,192,89639,1,0,0:0:0:0:
256,192,89814,1,8,0:0:0:0:
256,192,89989,1,0,0:0:0:0:
256,192,90338,1,8,0:0:0:0:
256,192,90688,1,0,0:0:0:0:
256,192,90863,1,8,0:0:0:0:
256,192,91038,1,8,0:0:0:0:
256,192,91213,1,0,0:0:0:0:
256,192,91388,1,0,0:0:0:0:
256,192,91738,1,8,0:0:0:0:
256,192,92088,1,8,0:0:0:0:
256,192,92263,1,0,0:0:0:0:
256,192,92438,1,0,0:0:0:0:
256,192,92613,1,8,0:0:0:0:
256,192,92787,1,0,0:0:0:0:
256,192,93137,1,8,0:0:0:0:
256,192,93487,1,0,0:0:0:0:
256,192,93662,1,0,0:0:0:0:
256,192,93837,1,8,0:0:0:0:
256,192,94012,1,8,0:0:0:0:
256,192,94187,1,0,0:0:0:0:
256,192,94537,1,8,0:0:0:0:
256,192,94887,1,8,0:0:0:0:
256,192,95061,1,8,0:0:0:0:
256,192,95236,1,0,0:0:0:0:
256,192,95411,1,8,0:0:0:0:
256,192,95586,1,0,0:0:0:0:
256,192,95936,1,8,0:0:0:0:
256,192,96286,1,8,0:0:0:0:
256,192,96461,1,0,0:0:0:0:
256,192,96636,1,0,0:0:0:0:
256,192,96811,1,8,0:0:0:0:
256,192,96986,1,8,0:0:0:0:
256,192,97336,1,8,0:0:0:0:
256,192,97685,1,8,0:0:0:0:
256,192,97860,1,0,0:0:0:0:
256,192,98035,1,0,0:0:0:0:
256,192,98210,1,8,0:0:0:0:
256,192,98473,1,8,0:0:0:0:
256,192,98560,1,0,0:0:0:0:
256,192,98735,1,8,0:0:0:0:
256,192,98910,1,0,0:0:0:0:
256,192,98997,1,8,0:0:0:0:
256,192,99085,1,8,0:0:0:0:
256,192,99260,1,0,0:0:0:0:
256,192,99435,1,0,0:0:0:0:
256,192,99610,1,8,0:0:0:0:
256,192,99872,1,0,0:0:0:0:
256,192,99959,1,8,0:0:0:0:
256,192,100134,1,0,0:0:0:0:
256,192,100222,1,0,0:0:0:0:
256,192,100309,1,8,0:0:0:0:
256,192,100397,1,8,0:0:0:0:
256,192,100484,1,0,0:0:0:0:
256,192,100659,1,8,0:0:0:0:
256,192,100834,1,0,0:0:0:0:
256,192,101009,1,8,0:0:0:0:
256,192,101271,1,8,0:0:0:0:
256,192,101359,1,0,0:0:0:0:
256,192,101534,1,8,0:0:0:0:
256,192,101709,1,0,0:0:0:0:
256,192,101796,1,8,0:0:0:0:
256,192,101884,1,0,0:0:0:0:
256,192,102059,1,8,0:0:0:0:
256,192,102233,1,8,0:0:0:0:
256,192,102408,1,0,0:0:0:0:
256,192,102583,1,0,0:0:0:0:
256,192,102671,1,0,0:0:0:0:
256,192,102758,1,8,0:0:0:0:
256,192,102933,1,0,0:0:0:0:
256,192,103021,1,8,0:0:0:0:
256,192,103196,1,8,0:0:0:0:
256,192,103283,1,0,0:0:0:0:
256,192,103458,1,8,0:0:0:0:
256,192,103633,1,8,0:0:0:0:
256,192,103808,1,0,0:0:0:0:
256,192,103983,1,0,0:0:0:0:
256,192,104070,1,8,0:0:0:0:
256,192,104158,1,0,0:0:0:0:
256,192,104333,1,8,0:0:0:0:
256,192,104508,1,0,0:0:0:0:
256,192,104595,1,0,0:0:0:0:
256,192,104682,1,8,0:0:0:0:
256,192,104857,1,0,0:0:0:0:
256,192,105032,1,8,0:0:0:0:
256,192,105207,1,0,0:0:0:0:
256,192,105382,1,8,0:0:0:0:
256,192,105470,1,8,0:0:0:0:
256,192,105557,1,0,0:0:0:0:
256,192,105732,1,8,0:0:0:0:
256,192,105907,1,0,0:0:0:0:
256,192,105994,1,8,0:0:0:0:
256,192,106082,1,0,0:0:0:0:
256,192,106257,1,0,0:0:0:0:
256,192,106432,1,8,0:0:0:0:
256,192,106607,1,0,0:0:0:0:
256,192,106694,1,0,0:0:0:0:
256,192,106782,1,8,0:0:0:0:
256,192,106869,1,8,0:0:0:0:
256,192,106957,1,0,0:0:0:0:
256,192,107044,1,8,0:0:0:0:
256,192,107131,1,0,0:0:0:0:
256,192,107219,1,8,0:0:0:0:
256,192,107306,1,0,0:0:0:0:
256,192,107394,1,0,0:0:0:0:
256,192,107481,1,8,0:0:0:0:
256,192,107569,1,0,0:0:0:0:
256,192,107656,1,8,0:0:0:0:
256,192,107744,1,8,0:0:0:0:
256,192,107831,1,0,0:0:0:0:
256,192,107919,1,8,0:0:0:0:
256,128,109056,1,12,0:0:0:0:
256,128,109406,1,4,0:0:0:0:
256,192,109580,1,0,0:0:0:0:
256,192,109668,1,8,0:0:0:0:
256,192,109755,1,0,0:0:0:0:
256,192,109930,1,8,0:0:0:0:
256,192,110018,1,8,0:0:0:0:
256,192,110105,1,0,0:0:0:0:
256,192,110193,1,8,0:0:0:0:
256,192,110280,1,0,0:0:0:0:
256,192,110368,1,0,0:0:0:0:
256,192,110455,1,8,0:0:0:0:
256,192,110630,1,0,0:0:0:0:
256,192,110805,1,8,0:0:0:0:
256,192,110980,1,0,0:0:0:0:
256,192,111067,1,8,0:0:0:0:
256,192,111155,1,8,0:0:0:0:
256,192,111330,1,0,0:0:0:0:
256,192,111417,1,0,0:0:0:0:
256,192,111505,1,8,0:0:0:0:
256,192,111592,1,8,0:0:0:0:
256,192,111680,1,0,0:0:0:0:
256,192,111854,1,8,0:0:0:0:
256,192,111942,1,0,0:0:0:0:
256,192,112029,1,8,0:0:0:0:
256,192,112088,1,8,0:0:0:0:
256,192,112146,1,8,0:0:0:0:
256,192,112204,1,0,0:0:0:0:
256,192,112379,1,8,0:0:0:0:
256,192,112467,1,0,0:0:0:0:
256,192,112554,1,8,0:0:0:0:
256,192,112729,1,0,0:0:0:0:
256,192,112817,1,0,0:0:0:0:
256,192,112904,1,8,0:0:0:0:
256,192,112992,1,0,0:0:0:0:
256,192,113079,1,8,0:0:0:0:
256,192,113166,1,8,0:0:0:0:
256,192,113254,1,0,0:0:0:0:
256,192,113429,1,8,0:0:0:0:
256,192,113604,1,0,0:0:0:0:
256,192,113691,1,0,0:0:0:0:
256,192,113779,1,8,0:0:0:0:
256,192,113954,1,8,0:0:0:0:
256,192,114041,1,8,0:0:0:0:
256,192,114129,1,0,0:0:0:0:
256,192,114216,1,8,0:0:0:0:
256,192,114391,1,0,0:0:0:0:
256,192,114478,1,8,0:0:0:0:
256,192,114537,1,0,0:0:0:0:
256,192,114595,1,0,0:0:0:0:
256,192,114653,1,8,0:0:0:0:
256,192,114741,1,8,0:0:0:0:
256,192,114828,1,0,0:0:0:0:
256,192,114916,1,0,0:0:0:0:
256,192,115003,1,8,0:0:0:0:
256,192,115178,1,0,0:0:0:0:
256,192,115266,1,8,0:0:0:0:
256,192,115353,1,0,0:0:0:0:
256,192,115528,1,8,0:0:0:0:
256,192,115615,1,8,0:0:0:0:
256,192,115703,1,0,0:0:0:0:
256,192,115790,1,8,0:0:0:0:
256,192,115878,1,0,0:0:0:0:
256,192,115965,1,0,0:0:0:0:
256,192,116053,1,8,0:0:0:0:
256,192,116228,1,0,0:0:0:0:
256,192,116403,1,8,0:0:0:0:
256,192,116578,1,0,0:0:0:0:
256,192,116665,1,8,0:0:0:0:
256,192,116752,1,8,0:0:0:0:
256,192,116927,1,0,0:0:0:0:
256,192,117015,1,0,0:0:0:0:
256,192,117102,1,8,0:0:0:0:
256,192,117190,1,8,0:0:0:0:
256,192,117277,1,0,0:0:0:0:
256,192,117452,1,8,0:0:0:0:
256,192,117540,1,0,0:0:0:0:
256,192,117627,1,8,0:0:0:0:
256,192,117685,1,8,0:0:0:0:
256,192,117744,1,8,0:0:0:0:
256,192,117802,1,0,0:0:0:0:
256,192,117976,1,0,0:0:0:0:
256,192,118064,1,8,0:0:0:0:
256,192,118326,1,8,0:0:0:0:
256,192,118501,1,0,0:0:0:0:
256,192,118589,1,8,0:0:0:0:
256,192,118676,1,0,0:0:0:0:
256,192,118851,1,8,0:0:0:0:
256,192,119026,1,8,0:0:0:0:
256,192,119201,1,0,0:0:0:0:
256,192,119288,1,0,0:0:0:0:
256,192,119376,1,8,0:0:0:0:
256,192,119551,1,8,0:0:0:0:
256,192,119726,1,0,0:0:0:0:
256,192,119813,1,8,0:0:0:0:
256,192,119901,1,0,0:0:0:0:
256,192,119988,1,8,0:0:0:0:
256,192,120076,1,0,0:0:0:0:
256,128,120250,1,12,0:0:0:0:
256,128,120600,1,4,0:0:0:0:
256,128,120862,1,4,0:0:0:0:
256,128,121124,1,12,0:0:0:0:
256,192,121387,1,8,0:0:0:0:
256,192,121474,1,0,0:0:0:0:
256,192,121649,1,8,0:0:0:0:
256,192,121824,1,8,0:0:0:0:
256,128,121999,1,4,0:0:0:0:
256,128,122261,1,4,0:0:0:0:
256,128,122524,1,12,0:0:0:0:
256,192,122786,1,0,0:0:0:0:
256,192,122874,1,8,0:0:0:0:
256,192,123048,1,0,0:0:0:0:
256,192,123136,1,0,0:0:0:0:
256,192,123223,1,8,0:0:0:0:
256,128,123398,1,4,0:0:0:0:
256,128,123661,1,4,0:0:0:0:
256,128,123923,1,12,0:0:0:0:
256,192,124186,1,8,0:0:0:0:
256,192,124273,1,0,0:0:0:0:
256,192,124448,1,8,0:0:0:0:
256,192,124535,1,0,0:0:0:0:
256,192,124623,1,8,0:0:0:0:
256,192,124710,1,8,0:0:0:0:
256,192,124798,1,0,0:0:0:0:
256,192,124973,1,0,0:0:0:0:
256,192,125060,1,0,0:0:0:0:
256,192,125148,1,8,0:0:0:0:
256,192,125235,1,0,0:0:0:0:
256,192,125410,1,8,0:0:0:0:
256,192,125585,1,8,0:0:0:0:
256,192,125672,1,0,0:0:0:0:
256,192,125847,1,8,0:0:0:0:
256,192,125935,1,0,0:0:0:0:
256,192,126022,1,8,0:0:0:0:
256,192,126197,1,8,0:0:0:0:
256,192,126285,1,8,0:0:0:0:
256,192,126372,1,0,0:0:0:0:
256,192,126460,1,8,0:0:0:0:
256,192,126547,1,0,0:0:0:0:
256,192,126634,1,0,0:0:0:0:
256,192,126722,1,8,0:0:0:0:
256,192,126809,1,8,0:0:0:0:
256,192,126984,1,8,0:0:0:0:
256,192,127072,1,0,0:0:0:0:
256,192,127159,1,0,0:0:0:0:
256,192,127247,1,8,0:0:0:0:
256,192,127334,1,0,0:0:0:0:
256,192,127422,1,8,0:0:0:0:
256,192,127597,1,8,0:0:0:0:
256,192,127684,1,8,0:0:0:0:
256,192,127772,1,0,0:0:0:0:
256,192,127859,1,0,0:0:0:0:
256,192,127946,1,8,0:0:0:0:
256,192,128034,1,0,0:0:0:0:
256,192,128121,1,8,0:0:0:0:
256,192,128209,1,8,0:0:0:0:
256,192,128384,1,8,0:0:0:0:
256,192,128471,1,8,0:0:0:0:
256,192,128559,1,0,0:0:0:0:
256,192,128646,1,8,0:0:0:0:
256,192,128734,1,8,0:0:0:0:
256,192,128821,1,0,0:0:0:0:
256,192,128996,1,8,0:0:0:0:
256,192,129083,1,0,0:0:0:0:
256,192,129171,1,0,0:0:0:0:
256,192,129258,1,0,0:0:0:0:
256,192,129346,1,8,0:0:0:0:
256,192,129433,1,0,0:0:0:0:
256,192,129521,1,8,0:0:0:0:
256,192,129608,1,8,0:0:0:0:
256,192,129696,1,0,0:0:0:0:
256,192,129783,1,8,0:0:0:0:
256,192,129871,1,0,0:0:0:0:
256,192,129958,1,0,0:0:0:0:
256,192,130046,1,8,0:0:0:0:
256,192,130104,1,8,0:0:0:0:
256,192,130162,1,8,0:0:0:0:
256,192,130220,1,0,0:0:0:0:
256,192,130308,1,8,0:0:0:0:
256,192,130397,1,0,0:0:0:0:
256,192,130571,1,0,0:0:0:0:
256,192,130659,1,0,0:0:0:0:
256,192,130746,1,8,0:0:0:0:
256,192,130921,1,8,0:0:0:0:
256,192,131096,1,0,0:0:0:0:
256,192,131271,1,0,0:0:0:0:
256,128,131446,1,12,0:0:0:0:
256,128,131796,1,4,0:0:0:0:
256,128,132496,1,12,0:0:0:0:
256,128,132671,1,4,0:0:0:0:
256,128,132933,1,4,0:0:0:0:
256,128,133195,1,12,0:0:0:0:
256,128,133458,1,4,0:0:0:0:
256,128,133720,1,4,0:0:0:0:
256,128,133895,1,12,0:0:0:0:
256,192,134245,1,8,0:0:0:0:
256,128,134595,1,4,0:0:0:0:
256,128,135294,1,12,0:0:0:0:
256,128,135469,1,4,0:0:0:0:
256,128,135732,1,4,0:0:0:0:
256,128,135994,1,12,0:0:0:0:
256,128,136257,1,4,0:0:0:0:
256,128,136519,1,4,0:0:0:0:
256,128,136694,1,12,0:0:0:0:
256,192,137044,1,0,0:0:0:0:
256,128,137394,1,4,0:0:0:0:
256,192,137743,1,8,0:0:0:0:
256,128,137918,1,4,0:0:0:0:
256,128,138152,1,4,0:0:0:0:
256,128,138385,1,4,0:0:0:0:
256,128,138618,1,4,0:0:0:0:
256,128,138851,1,4,0:0:0:0:
256,128,139085,1,4,0:0:0:0:
256,128,139318,1,12,0:0:0:0:
256,128,139580,1,12,0:0:0:0:
256,128,139843,1,12,0:0:0:0:
256,128,140105,1,12,0:0:0:0:
256,128,140367,1,12,0:0:0:0:
256,128,140630,1,12,0:0:0:0:
256,192,140892,1,0,0:0:0:0:
256,192,140980,1,0,0:0:0:0:
256,192,141067,1,8,0:0:0:0:
256,192,141155,1,0,0:0:0:0:
256,192,141329,1,0,0:0:0:0:
256,192,141417,1,8,0:0:0:0:
256,192,141504,1,0,0:0:0:0:
256,192,141592,1,8,0:0:0:0:
256,192,141732,1,8,0:0:0:0:
256,192,141872,1,8,0:0:0:0:
256,192,142012,1,8,0:0:0:0:
256,192,142152,1,8,0:0:0:0:
256,192,142292,1,0,0:0:0:0:
256,192,142362,1,0,0:0:0:0:
256,192,142431,1,0,0:0:0:0:
256,192,142501,1,0,0:0:0:0:
256,192,142571,1,0,0:0:0:0:
256,192,142641,1,8,0:0:0:0:
256,128,142991,1,4,0:0:0:0:
