osu file format v14

[General]
AudioFilename: audio.mp3
AudioLeadIn: 0
PreviewTime: 108006
Countdown: 0
SampleSet: Normal
StackLeniency: 0
Mode: 1
LetterboxInBreaks: 0
WidescreenStoryboard: 1

[Editor]
DistanceSpacing: 0.1
BeatDivisor: 4
GridSize: 32
TimelineZoom: 5.099998

[Metadata]
Title:Dimension Hacker
TitleUnicode:Dimension Hacker
Artist:Kobaryo
ArtistUnicode:Kobaryo
Creator:koul
Version:G-Tea's Hell Oni
Source:WACCA Reverse
Tags:electronic instrumental speedcore psycho filth records chiptune 8-bit 8bit ワッカリバース paradigm:reboot paradigm: reboot rise _rise uone hz404 grape_tea grape tea eriha yassu- yassu maimaing
BeatmapID:4411564
BeatmapSetID:2093984

[Difficulty]
HPDrainRate:5.5
CircleSize:4.4
OverallDifficulty:7
ApproachRate:0
SliderMultiplier:1.4
SliderTickRate:1

[Events]
//Background and Video events
0,0,"bg.jpg",0,0
//Break Periods
//Storyboard Layer 0 (Background)
//Storyboard Layer 1 (Fail)
//Storyboard Layer 2 (Pass)
//Storyboard Layer 3 (Foreground)
//Storyboard Layer 4 (Overlay)
//Storyboard Sound Samples

[TimingPoints]
952,349.854227405248,4,1,0,100,1,8
952,-100,4,1,0,50,0,0
1651,349.854227405248,4,1,0,100,1,0
1651,-100,4,1,0,50,0,0
9686,-100,4,1,0,60,0,0
11435,-100,4,1,0,70,0,0
12846,-50,4,1,0,100,0,0
13720,-52.957121726246,4,1,0,100,0,0
13983,-57.7620711463235,4,1,0,100,0,0
14245,-62.982185342129,4,1,0,100,0,0
14508,-68.696737135545,4,1,0,100,0,0
14770,-74.905046595543,4,1,0,100,0,0
14945,-79.3613163588725,4,1,0,100,0,0
15295,-89.084968630445,4,1,0,100,0,0
15470,-94.384833861403,4,1,0,100,0,0
15645,-100,4,1,0,100,0,0
16344,-50,4,1,0,100,0,0
16518,-52.9556727495285,4,1,0,100,0,0
16781,-57.758101946167,4,1,0,100,0,0
17043,-62.975262813496,4,1,0,100,0,0
17306,-68.686345783435,4,1,0,100,0,0
17568,-74.890630606976,4,1,0,100,0,0
17743,-79.343859241386,4,1,0,100,0,0
18094,-89.089871814037,4,1,0,100,0,0
18181,-91.6852717890345,4,1,0,100,0,0
18269,-94.387431268173,4,1,0,100,0,0
18356,-97.1371617567835,4,1,0,100,0,0
18444,-100,4,1,0,100,0,0
19143,-50,4,1,0,100,0,0
19317,-53.234616621125,4,1,0,100,0,0
19580,-58.525245130564,4,1,0,100,0,0
19842,-64.3184976375355,4,1,0,100,0,0
20105,-70.710678118655,4,1,0,100,0,0
20367,-77.710133009731,4,1,0,100,0,0
20542,-82.767195404854,4,1,0,100,0,0
20892,-93.8900160016465,4,1,0,100,0,0
21067,-100,4,1,0,100,0,0
21242,-100,4,1,0,100,0,0
21301,-97.971901267322,4,1,0,100,0,0
21359,-96.0182737350165,4,1,0,100,0,0
21417,-94.1036028881035,4,1,0,100,0,0
21592,-88.5548807652185,4,1,0,100,0,0
21680,-85.889528290877,4,1,0,100,0,0
21767,-83.3333333333335,4,1,0,100,0,0
21942,-66.6666666666665,4,1,0,100,0,0
22292,-100,4,1,0,100,0,0
22467,-95.592071727346,4,1,0,100,0,0
22642,-91.378441771261,4,1,0,100,0,0
22729,-89.353305342147,4,1,0,100,0,0
22817,-87.350545601315,4,1,0,100,0,0
22904,-85.41467573342,4,1,0,100,0,0
22992,-83.5001962054375,4,1,0,100,0,0
23167,-79.8195674491765,4,1,0,100,0,0
23254,-78.0505997291745,4,1,0,100,0,0
23341,-76.3208360150875,4,1,0,100,0,0
23429,-74.6101852767365,4,1,0,100,0,0
23516,-72.9566683064525,4,1,0,100,0,0
23691,-69.740790697386,4,1,0,100,0,0
23779,-68.1776247085325,4,1,0,100,0,0
23866,-66.6666666666665,4,1,0,100,0,0
24041,-25,4,1,0,60,0,0
24741,-100,4,1,0,60,0,0
25069,-100,4,1,0,100,0,0
25441,174.927113702624,4,1,0,100,1,0
25441,-200,4,1,0,100,0,0
25615,-133.333333333333,4,1,0,100,0,0
31038,-125,4,1,0,100,0,0
34887,-117.647058823529,4,1,0,100,0,0
36286,-111.111111111111,4,1,0,100,0,0
36636,349.854227405248,4,1,0,100,1,0
36636,-100,4,1,0,70,0,0
39434,-66.6666666666667,4,1,0,90,0,0
41883,-50,4,1,0,100,0,0
42233,-100,4,1,0,100,0,0
45032,174.927113702624,4,1,0,100,1,0
45032,-125,4,1,0,100,0,0
47830,-111.111111111111,4,1,0,100,0,0
50629,-100,4,1,0,100,0,0
52204,-111.111111111111,4,1,0,100,0,0
53428,349.854227405248,4,1,0,100,1,8
53429,349.854227405248,4,1,0,100,1,0
53429,-58.8235294117647,4,1,0,60,0,0
54823,-62.5,4,1,0,60,0,0
55523,-66.6666666666665,4,1,0,60,0,0
56223,-71.4285714285715,4,1,0,60,0,0
56922,-76.923076923077,4,1,0,60,0,0
57622,-83.3333333333335,4,1,0,60,0,0
58322,-90.909090909091,4,1,0,60,0,0
59022,-100,4,1,0,90,0,0
59197,-97.553878095224,4,1,0,90,0,0
59284,-96.3601656704835,4,1,0,90,0,0
59371,-95.1810600392485,4,1,0,90,0,0
59546,-92.85281528043,4,1,0,90,0,0
59634,-91.7036486549505,4,1,0,90,0,0
59809,-89.460465617723,4,1,0,90,0,0
59896,-88.3657877697885,4,1,0,90,0,0
59984,-87.272153572133,4,1,0,90,0,0
60071,-86.2042528788235,4,1,0,90,0,0
60246,-84.095591766306,4,1,0,90,0,0
60334,-83.0548064426095,4,1,0,90,0,0
60421,-82.0385110751595,4,1,0,90,0,0
60596,-80.031749085398,4,1,0,90,0,0
60683,-79.0524451856215,4,1,0,90,0,0
60771,-78.0740749402445,4,1,0,90,0,0
60946,-76.16428789118,4,1,0,90,0,0
61033,-75.232307958117,4,1,0,90,0,0
61121,-74.301216561457,4,1,0,90,0,0
61208,-73.392033993685,4,1,0,90,0,0
61296,-72.483718227632,4,1,0,90,0,0
61471,-70.71067811867,4,1,0,90,0,0
61558,-69.8454309682725,4,1,0,90,0,0
61733,-68.1369265818725,4,1,0,100,0,0
61820,-67.3031729942905,4,1,0,100,0,0
61995,-65.656855337068,4,1,0,100,0,0
62083,-64.844271823478,4,1,0,100,0,0
62170,-64.050808616681,4,1,0,100,0,0
62258,-63.2581018864115,4,1,0,100,0,0
62345,-62.484047756922,4,1,0,100,0,0
62433,-61.710731599622,4,1,0,100,0,0
62520,-60.955611777749,4,1,0,100,0,0
62608,-60.201211876366,4,1,0,100,0,0
62695,-59.4645632058635,4,1,0,100,0,0
62783,-58.728616845718,4,1,0,100,0,0
62870,-58.0099874997055,4,1,0,100,0,0
62957,-57.3001516203995,4,1,0,100,0,0
63045,-56.590992488517,4,1,0,100,0,0
63132,-55.898520060143,4,1,0,100,0,0
63220,-55.2067078251255,4,1,0,100,0,0
63307,-54.531174116506,4,1,0,100,0,0
63395,-53.856284452109,4,1,0,100,0,0
63453,-53.4160439983265,4,1,0,100,0,0
63511,-52.9794022268355,4,1,0,100,0,0
63570,-52.5388940810275,4,1,0,100,0,0
63628,-52.1094224454185,4,1,0,100,0,0
63686,-51.6834614639455,4,1,0,100,0,0
63745,-51.2537286843845,4,1,0,100,0,0
63803,-50.834762448529,4,1,0,100,0,0
63861,-50.4192209919295,4,1,0,100,0,0
63920,-50,4,1,0,100,0,0
64624,174.927113702624,4,1,0,100,1,0
64973,-133.333333333333,4,1,0,100,0,0
65148,-100,4,1,0,100,0,0
65323,-133.333333333333,4,1,0,100,0,0
65378,-100,4,1,0,100,0,0
66019,-133.333333333333,4,1,0,100,0,0
66077,-100,4,1,0,100,0,0
66718,-133.333333333333,4,1,0,100,0,0
67418,-100,4,1,0,100,0,0
67768,-133.333333333333,4,1,0,100,0,0
67943,-100,4,1,0,100,0,0
68118,-200,4,1,0,100,0,0
68205,-100,4,1,0,100,0,0
68818,-200,4,1,0,100,0,0
69692,-133.333333333333,4,1,0,100,0,0
70217,-200,4,1,0,100,0,0
70392,-200,4,1,0,100,0,0
70567,-195.27451084883,4,1,0,100,0,0
70742,-190.66067293625,4,1,0,100,0,0
70829,-188.407667417517,4,1,0,100,0,0
70917,-186.155848228675,4,1,0,100,0,0
71004,-183.956075475624,4,1,0,100,0,0
71092,-181.757461022518,4,1,0,100,0,0
71266,-177.487245708549,4,1,0,100,0,0
71354,-175.36594570447,4,1,0,100,0,0
71441,-173.293675438215,4,1,0,100,0,0
71529,-171.222496334915,4,1,0,100,0,0
71616,-169.199188521967,4,1,0,100,0,0
71791,-165.201443873231,4,1,0,100,0,0
71966,-161.298155719329,4,1,0,100,0,0
72141,-157.487092294552,4,1,0,100,0,0
72229,-155.604831018858,4,1,0,100,0,0
72316,-153.766074564116,4,1,0,100,0,0
72404,-151.928286314612,4,1,0,100,0,0
72491,-150.132974978263,4,1,0,100,0,0
72578,-148.358878537919,4,1,0,100,0,0
72666,-146.5857162558,4,1,0,100,0,0
73016,-139.740656520865,4,1,0,100,0,0
73103,-138.089364382406,4,1,0,100,0,0
73191,-136.438941739031,4,1,0,100,0,0
73278,-134.826665416001,4,1,0,100,0,0
73366,-133.215238044107,4,1,0,100,0,0
73453,-131.641055692443,4,1,0,100,0,0
73541,-130.067702233367,4,1,0,100,0,0
73628,-128.530713789827,4,1,0,100,0,0
73715,-127.011887683554,4,1,0,100,0,0
73803,-125.493861321798,4,1,0,100,0,0
73890,-124.010921196963,4,1,0,100,0,0
73978,-122.528761920725,4,1,0,100,0,0
74065,-121.080859883249,4,1,0,100,0,0
74153,-119.633720244912,4,1,0,100,0,0
74240,-118.220028434286,4,1,0,100,0,0
74415,-115.4267911252,4,1,0,100,0,0
74473,-114.515671289619,4,1,0,100,0,0
74532,-113.596221134906,4,1,0,100,0,0
74590,-112.699550879118,4,1,0,100,0,0
74648,-111.809958478029,4,1,0,100,0,0
74707,-110.912232581972,4,1,0,100,0,0
74765,-110.036748354013,4,1,0,100,0,0
74852,-108.73646236694,4,1,0,100,0,0
74940,-107.436861051129,4,1,0,100,0,0
75027,-106.167297500682,4,1,0,100,0,0
75115,-104.898402444465,4,1,0,100,0,0
75173,-104.070388304452,4,1,0,100,0,0
75232,-103.234803676166,4,1,0,100,0,0
75290,-102.419921130833,4,1,0,100,0,0
75465,-100,4,1,0,100,0,0
75819,349.854227405248,4,1,0,100,1,8
75820,349.854227405248,4,1,0,100,1,0
75820,-100,4,1,0,90,0,0
76082,-98.1198846073625,4,1,0,90,0,0
76169,-97.496358989977,4,1,0,90,0,0
76344,-96.275117553621,4,1,0,90,0,0
76607,-94.45819113898,4,1,0,90,0,0
76694,-93.864734228101,4,1,0,90,0,0
76869,-92.682268147769,4,1,0,90,0,0
77044,-91.514698248017,4,1,0,90,0,0
77219,-90.361836873402,4,1,0,90,0,0
77481,-88.662930069275,4,1,0,90,0,0
77569,-88.0995008680295,4,1,0,90,0,0
77744,-86.9896626276375,4,1,0,90,0,0
78006,-85.3541565905715,4,1,0,90,0,0
78094,-84.811753759611,4,1,0,90,0,0
78268,-83.743333091733,4,1,0,90,0,0
78618,-81.652615631353,4,1,0,90,0,0
78881,-80.1116484745745,4,1,0,90,0,0
78968,-79.6083272606505,4,1,0,90,0,0
79143,-78.6054570403085,4,1,0,90,0,0
79231,-78.10594038956,4,1,0,90,0,0
79406,-77.1219965693105,4,1,0,90,0,0
79493,-76.6374585817315,4,1,0,90,0,0
79668,-75.6720140407015,4,1,0,90,0,0
79843,-74.71873173964,4,1,0,90,0,0
79930,-74.2492928568035,4,1,0,90,0,0
80018,-73.7774584640685,4,1,0,90,0,0
80280,-72.3903571111885,4,1,0,90,0,0
80368,-71.9303357578095,4,1,0,90,0,0
80543,-71.0241894518515,4,1,0,90,0,0
80630,-70.5779624432505,4,1,0,90,0,0
80717,-70.1294583731295,4,1,0,90,0,0
80892,-69.251015307545,4,1,0,90,0,0
80980,-68.810943631483,4,1,0,90,0,0
81067,-68.3786218862765,4,1,0,90,0,0
81155,-67.9440940370215,4,1,0,90,0,0
81242,-67.517218488448,4,1,0,90,0,0
81330,-67.0881646273415,4,1,0,90,0,0
81417,-66.6666666666665,4,1,0,100,0,0
85594,-66.6666666666665,4,1,0,20,0,0
86315,-100,4,1,0,20,0,0
86993,-111.111111111111,4,1,0,100,0,0
87037,-111.111111111111,4,1,0,60,0,0
87715,-125,4,1,0,60,0,0
88414,-166.666666666667,4,1,0,60,0,0
89114,-166.666666666666,4,1,0,60,0,0
89814,-200,4,1,0,60,0,0
98210,-100,4,1,0,90,0,0
103808,-100,4,1,0,90,0,0
103895,-98.7892511112145,4,1,0,90,0,0
103983,-97.579497715347,4,1,0,90,0,0
104070,-96.3980550310755,4,1,0,90,0,0
104158,-95.217583743794,4,1,0,90,0,0
104245,-94.064737906687,4,1,0,90,0,0
104333,-92.912839953884,4,1,0,90,0,0
104420,-91.787898776603,4,1,0,90,0,0
104508,-90.663882540064,4,1,0,90,0,0
104595,-89.56617058968,4,1,0,90,0,0
104682,-88.4693611918265,4,1,0,90,0,0
104770,-87.3982193842805,4,1,0,90,0,0
104857,-86.340046414267,4,1,0,90,0,0
104945,-85.282743487338,4,1,0,90,0,0
105032,-84.250183618239,4,1,0,90,0,0
105207,-82.210905998935,4,1,0,90,0,0
105295,-81.204167699061,4,1,0,90,0,0
105382,-80.2209891409965,4,1,0,90,0,0
105470,-79.2386189646715,4,1,0,90,0,0
105557,-78.2792382660675,4,1,0,90,0,0
105645,-77.320646382304,4,1,0,90,0,0
105732,-76.3844875154285,4,1,0,90,0,0
105820,-75.4490983701115,4,1,0,90,0,0
105907,-74.535599249997,4,1,0,90,0,0
105994,-73.622851220313,4,1,0,90,0,0
106082,-72.7314633672705,4,1,0,90,0,0
106169,-71.850867982754,4,1,0,90,0,0
106257,-70.970996634804,4,1,0,90,0,0
106344,-70.111716081688,4,1,0,90,0,0
106432,-69.2531420398175,4,1,0,90,0,0
106607,-67.57686815455,4,1,0,90,0,0
106694,-66.7586819742925,4,1,0,90,0,0
106782,-65.941168516972,4,1,0,90,0,0
106869,-65.1427865519005,4,1,0,90,0,0
106957,-64.3450610264915,4,1,0,90,0,0
107044,-63.566003915125,4,1,0,90,0,0
107131,-62.787587354284,4,1,0,90,0,0
107219,-62.0273873380965,4,1,0,90,0,0
107306,-61.2763914351575,4,1,0,90,0,0
107394,-60.5260130104675,4,1,0,90,0,0
107481,-59.7931949805165,4,1,0,90,0,0
107569,-59.0609794827395,4,1,0,90,0,0
107656,-58.345899329946,4,1,0,90,0,0
107744,-57.631407125021,4,1,0,90,0,0
107831,-56.9336355036635,4,1,0,90,0,0
107919,-56.2364375988825,4,1,0,90,0,0
108006,-55.5555555555555,4,1,0,90,0,0
108356,-62.5,4,1,0,90,0,0
108706,-71.4285714285715,4,1,0,90,0,0
109056,-47.6190476190476,4,1,0,100,0,0
109406,174.927113702624,4,1,0,100,1,0
109406,-111.111111111111,4,1,0,100,0,1
115003,-105.263157894737,4,1,0,100,0,1
117802,349.854227405248,4,1,0,100,1,0
117802,-52.6315789473684,4,1,0,100,0,0
117977,-66.6666666666665,4,1,0,100,0,0
119202,-66.6666666666665,4,1,0,100,0,0
119284,-65.094876246224,4,1,0,100,0,0
119371,-63.5601437026685,4,1,0,100,0,0
119459,-62.0445776343305,4,1,0,100,0,0
119546,-60.5817615428395,4,1,0,100,0,0
119634,-59.1372137994615,4,1,0,100,0,0
119721,-57.7429442073365,4,1,0,100,0,0
119809,-56.366086921803,4,1,0,100,0,0
119896,-55.0371517898805,4,1,0,100,0,0
119984,-53.7248130365115,4,1,0,100,0,0
120071,-52.4581508394485,4,1,0,100,0,0
120159,-51.207307326697,4,1,0,100,0,0
120246,-50,4,1,0,100,0,0
120600,174.927113702624,4,1,0,100,1,0
120600,-100,4,1,0,100,0,1
121646,-111.111111111111,4,1,0,100,0,1
121995,-100,4,1,0,100,0,1
123045,-111.111111111111,4,1,0,100,0,1
123395,-100,4,1,0,100,0,1
124444,-111.111111111111,4,1,0,100,0,1
124532,-110.253154328076,4,1,0,100,0,1
124619,-109.411459558226,4,1,0,100,0,1
124707,-108.566626823398,4,1,0,100,0,1
124794,-107.737807343952,4,1,0,100,0,1
124838,-107.321046546993,4,1,0,100,0,1
124882,-106.905897900551,4,1,0,100,0,1
124925,-106.501736078064,4,1,0,100,0,1
124969,-106.089756759943,4,1,0,100,0,1
125057,-105.270572922138,4,1,0,100,0,1
125144,-104.466916181543,4,1,0,100,0,1
125232,-103.660263287476,4,1,0,100,0,1
125406,-102.083578088774,4,1,0,100,0,1
125581,-100.52201948057,4,1,0,100,0,1
125669,-99.7458275444505,4,1,0,100,0,1
125844,-98.2200291883329,4,1,0,100,0,1
125887,-97.8487046236355,4,1,0,100,0,1
125931,-97.470197717604,4,1,0,100,0,1
125975,-97.093154985048,4,1,0,100,0,1
126019,-96.7175707621235,4,1,0,100,0,1
126106,-95.9792093614074,4,1,0,100,0,1
126194,-95.2380952380952,4,1,0,100,0,1
130395,349.854227405248,4,1,0,100,1,8
130397,349.854227405248,4,1,0,100,1,0
130397,-47.6190476190476,4,1,0,100,0,0
130571,-55.5555555555556,4,1,0,100,0,1
131441,-50,4,1,0,100,0,1
131796,-50,4,1,0,100,0,0
132665,-52.957121726246,4,1,0,100,0,0
132928,-57.7620711463235,4,1,0,100,0,0
133190,-62.982185342129,4,1,0,100,0,0
133453,-68.696737135545,4,1,0,100,0,0
133715,-74.905046595543,4,1,0,100,0,0
133890,-79.3613163588725,4,1,0,100,0,0
134065,-84.082699637327,4,1,0,100,0,0
134153,-86.561993030583,4,1,0,100,0,0
134240,-89.084968630445,4,1,0,100,0,0
134328,-91.7117607662415,4,1,0,100,0,0
134415,-94.384833861403,4,1,0,100,0,0
134590,-100,4,1,0,100,0,0
135290,-50,4,1,0,100,0,0
135464,-52.957121726246,4,1,0,100,0,0
135727,-57.7620711463235,4,1,0,100,0,0
135989,-62.982185342129,4,1,0,100,0,0
136252,-68.696737135545,4,1,0,100,0,0
136514,-74.905046595543,4,1,0,100,0,0
136689,-79.3613163588725,4,1,0,100,0,0
136864,-84.082699637327,4,1,0,100,0,0
136952,-86.561993030583,4,1,0,100,0,0
137039,-89.084968630445,4,1,0,100,0,0
137127,-91.7117607662415,4,1,0,100,0,0
137214,-94.384833861403,4,1,0,100,0,0
137389,-100,4,1,0,100,0,0
137739,-66.6666666666665,4,1,0,100,0,0
137914,-50,4,1,0,100,0,0
138089,-51.2820512820515,4,1,0,100,0,0
138147,-52.6315789473685,4,1,0,100,0,0
138380,-55.5555555555555,4,1,0,100,0,0
138613,-58.8235294117645,4,1,0,100,0,0
138788,-61.5384615384615,4,1,0,100,0,0
138847,-62.5,4,1,0,100,0,0
139080,-66.6666666666665,4,1,0,100,0,0
139313,-71.4285714285715,4,1,0,100,0,0
139488,-74.074074074074,4,1,0,100,0,0
139576,-76.923076923077,4,1,0,100,0,0
139838,-83.3333333333335,4,1,0,100,0,0
140100,-90.909090909091,4,1,0,100,0,0
140188,-93.8086303939962,4,1,0,100,0,0
140363,-100,4,1,0,100,0,0
140625,-111.111111111111,4,1,0,100,0,0
140887,-66.6666666666665,4,1,0,100,0,0
142987,-50,4,1,0,100,0,0

[HitObjects]
256,192,1651,5,0,0:0:0:0:
206,168,2175,1,0,0:0:0:0:
256,192,2350,1,2,0:0:0:0:
256,192,2525,1,0,0:0:0:0:
256,192,2700,1,0,0:0:0:0:
256,192,2788,1,2,0:0:0:0:
256,192,3050,1,0,0:0:0:0:
256,192,3312,1,2,0:0:0:0:
256,192,3575,1,2,0:0:0:0:
256,192,3750,1,0,0:0:0:0:
256,192,3837,1,2,0:0:0:0:
256,192,4099,1,0,0:0:0:0:
256,192,4274,1,2,0:0:0:0:
256,192,4449,1,0,0:0:0:0:
256,192,4974,1,2,0:0:0:0:
256,192,5324,1,0,0:0:0:0:
256,192,7248,1,0,0:0:0:0:
256,192,7773,1,0,0:0:0:0:
256,192,7948,1,2,0:0:0:0:
256,192,8123,1,0,0:0:0:0:
256,192,8298,1,0,0:0:0:0:
256,192,8385,1,2,0:0:0:0:
256,192,8648,1,0,0:0:0:0:
256,192,8910,1,2,0:0:0:0:
256,192,9172,1,2,0:0:0:0:
256,192,9347,1,0,0:0:0:0:
256,192,9610,1,0,0:0:0:0:
256,192,9697,1,2,0:0:0:0:
256,192,9872,1,2,0:0:0:0:
256,192,10047,1,0,0:0:0:0:
256,192,10222,1,0,0:0:0:0:
256,192,10397,1,2,0:0:0:0:
256,192,10572,1,0,0:0:0:0:
256,192,10922,1,0,0:0:0:0:
256,192,11097,1,2,0:0:0:0:
256,192,11271,1,2,0:0:0:0:
256,192,11446,1,0,0:0:0:0:
256,192,11621,1,0,0:0:0:0:
256,192,11796,1,2,0:0:0:0:
256,192,11971,1,0,0:0:0:0:
256,192,12321,1,0,0:0:0:0:
256,192,12496,1,2,0:0:0:0:
256,192,12846,1,4,0:0:0:0:
256,192,13546,1,6,0:0:0:0:
256,192,13720,1,4,0:0:0:0:
256,192,13983,1,4,0:0:0:0:
256,192,14245,1,4,0:0:0:0:
256,192,14508,1,4,0:0:0:0:
256,192,14770,1,4,0:0:0:0:
256,192,14945,1,6,0:0:0:0:
256,192,15295,1,2,0:0:0:0:
256,192,15470,1,2,0:0:0:0:
256,192,15645,1,0,0:0:0:0:
256,192,16344,1,6,0:0:0:0:
256,192,16519,1,4,0:0:0:0:
256,192,16782,1,4,0:0:0:0:
256,192,17044,1,4,0:0:0:0:
256,192,17306,1,4,0:0:0:0:
256,192,17569,1,4,0:0:0:0:
256,192,17744,1,6,0:0:0:0:
256,192,18094,1,2,0:0:0:0:
256,192,18181,1,2,0:0:0:0:
256,192,18269,1,2,0:0:0:0:
256,192,18356,1,2,0:0:0:0:
256,192,18444,1,0,0:0:0:0:
256,192,19143,1,6,0:0:0:0:
256,192,19318,1,4,0:0:0:0:
256,192,19581,1,4,0:0:0:0:
256,192,19843,1,4,0:0:0:0:
256,192,20105,1,4,0:0:0:0:
256,192,20368,1,4,0:0:0:0:
256,192,20543,1,6,0:0:0:0:
256,192,20892,1,0,0:0:0:0:
256,192,21067,1,2,0:0:0:0:
256,192,21242,1,2,0:0:0:0:
256,192,21301,1,2,0:0:0:0:
256,192,21359,1,2,0:0:0:0:
256,192,21417,1,0,0:0:0:0:
256,192,21592,1,0,0:0:0:0:
256,192,21680,1,0,0:0:0:0:
256,192,21767,1,2,0:0:0:0:
256,192,21942,1,4,0:0:0:0:
256,192,22292,1,0,0:0:0:0:
256,192,22467,1,2,0:0:0:0:
256,192,22642,1,0,0:0:0:0:
256,192,22729,1,0,0:0:0:0:
256,192,22817,1,2,0:0:0:0:
256,192,22904,1,0,0:0:0:0:
256,192,22992,1,2,0:0:0:0:
256,192,23167,1,2,0:0:0:0:
256,192,23254,1,2,0:0:0:0:
256,192,23341,1,0,0:0:0:0:
256,192,23429,1,0,0:0:0:0:
256,192,23516,1,0,0:0:0:0:
256,192,23691,1,2,0:0:0:0:
256,192,23779,1,2,0:0:0:0:
256,192,23866,1,2,0:0:0:0:
256,192,24041,8,0,24916,0:0:0:0:
256,192,25091,5,2,0:0:0:0:
256,192,25149,1,2,0:0:0:0:
256,192,25207,1,2,0:0:0:0:
256,192,25266,1,2,0:0:0:0:
256,192,25324,1,2,0:0:0:0:
256,192,25382,1,2,0:0:0:0:
256,192,25441,1,0,0:0:0:0:
256,192,25615,1,0,0:0:0:0:
256,192,25703,1,0,0:0:0:0:
256,192,25790,1,2,0:0:0:0:
256,192,25878,1,0,0:0:0:0:
256,192,25965,1,0,0:0:0:0:
256,192,26053,1,0,0:0:0:0:
256,192,26140,1,2,0:0:0:0:
256,192,26228,1,2,0:0:0:0:
256,192,26315,1,0,0:0:0:0:
256,192,26490,1,0,0:0:0:0:
256,192,26578,1,0,0:0:0:0:
256,192,26665,1,2,0:0:0:0:
256,192,26840,1,0,0:0:0:0:
256,192,26927,1,2,0:0:0:0:
256,192,27015,1,0,0:0:0:0:
256,192,27102,1,2,0:0:0:0:
256,192,27190,1,0,0:0:0:0:
256,192,27365,1,0,0:0:0:0:
256,192,27540,1,2,0:0:0:0:
256,192,27627,1,0,0:0:0:0:
256,192,27715,1,0,0:0:0:0:
256,192,27758,1,0,0:0:0:0:
256,192,27802,1,2,0:0:0:0:
256,192,27889,1,0,0:0:0:0:
256,192,27977,1,0,0:0:0:0:
256,192,28064,1,0,0:0:0:0:
256,192,28239,1,0,0:0:0:0:
256,192,28414,1,0,0:0:0:0:
256,192,28589,1,0,0:0:0:0:
256,192,28677,1,0,0:0:0:0:
256,192,28764,1,0,0:0:0:0:
256,192,28852,1,0,0:0:0:0:
256,192,28939,1,2,0:0:0:0:
256,192,29114,1,2,0:0:0:0:
256,192,29289,1,0,0:0:0:0:
256,192,29347,1,0,0:0:0:0:
256,192,29406,1,0,0:0:0:0:
256,192,29464,1,2,0:0:0:0:
256,192,29551,1,2,0:0:0:0:
256,192,29639,1,0,0:0:0:0:
256,192,29779,1,2,0:0:0:0:
256,192,29919,1,2,0:0:0:0:
256,192,30059,1,0,0:0:0:0:
256,192,30199,1,2,0:0:0:0:
256,192,30338,1,0,0:0:0:0:
256,192,30408,1,0,0:0:0:0:
256,192,30478,1,0,0:0:0:0:
256,192,30548,1,0,0:0:0:0:
256,192,30618,1,0,0:0:0:0:
256,192,30688,1,2,0:0:0:0:
256,192,31038,1,0,0:0:0:0:
256,192,31126,1,2,0:0:0:0:
256,192,31213,1,2,0:0:0:0:
256,192,31301,1,2,0:0:0:0:
256,192,31388,1,0,0:0:0:0:
256,192,31475,1,2,0:0:0:0:
256,192,31563,1,0,0:0:0:0:
256,192,31650,1,2,0:0:0:0:
256,192,31738,1,0,0:0:0:0:
256,192,31782,1,0,0:0:0:0:
256,192,31825,1,2,0:0:0:0:
256,192,31913,1,0,0:0:0:0:
256,192,32000,1,2,0:0:0:0:
256,192,32088,1,0,0:0:0:0:
256,192,32175,1,0,0:0:0:0:
256,192,32263,1,2,0:0:0:0:
256,192,32438,1,4,0:0:0:0:
256,192,32613,1,4,0:0:0:0:
256,192,32787,1,2,0:0:0:0:
256,192,32831,1,2,0:0:0:0:
256,192,32875,1,2,0:0:0:0:
256,192,32919,1,2,0:0:0:0:
256,192,32962,1,0,0:0:0:0:
256,192,33137,1,0,0:0:0:0:
256,192,33225,1,0,0:0:0:0:
256,192,33312,1,2,0:0:0:0:
256,192,33400,1,2,0:0:0:0:
256,192,33487,1,0,0:0:0:0:
256,192,33575,1,0,0:0:0:0:
256,192,33662,1,2,0:0:0:0:
256,192,33720,1,2,0:0:0:0:
256,192,33779,1,2,0:0:0:0:
256,192,33837,1,0,0:0:0:0:
256,192,34012,1,0,0:0:0:0:
256,192,34099,1,2,0:0:0:0:
256,192,34187,1,0,0:0:0:0:
256,192,34274,1,2,0:0:0:0:
256,192,34362,1,0,0:0:0:0:
256,192,34537,1,0,0:0:0:0:
256,192,34624,1,0,0:0:0:0:
256,192,34712,1,2,0:0:0:0:
256,192,34887,1,6,0:0:0:0:
256,192,35003,1,6,0:0:0:0:
256,192,35236,1,6,0:0:0:0:
256,192,35470,1,6,0:0:0:0:
256,192,35703,1,6,0:0:0:0:
256,192,35936,1,0,0:0:0:0:
256,192,35994,1,2,0:0:0:0:
256,192,36053,1,2,0:0:0:0:
256,192,36111,1,0,0:0:0:0:
256,192,36286,1,6,0:0:0:0:
256,192,36636,1,0,0:0:0:0:
256,192,36985,1,2,0:0:0:0:
256,192,37073,1,0,0:0:0:0:
256,192,37160,1,2,0:0:0:0:
256,192,37248,1,2,0:0:0:0:
256,192,37335,1,0,0:0:0:0:
256,192,37510,1,2,0:0:0:0:
256,192,37598,1,2,0:0:0:0:
256,192,37773,1,2,0:0:0:0:
256,192,37860,1,0,0:0:0:0:
256,192,38035,1,0,0:0:0:0:
256,192,38385,1,2,0:0:0:0:
256,192,38472,1,2,0:0:0:0:
256,192,38560,1,2,0:0:0:0:
256,192,38735,1,0,0:0:0:0:
256,192,39084,1,2,0:0:0:0:
256,192,39434,1,0,0:0:0:0:
256,192,39609,1,2,0:0:0:0:
256,192,39697,1,0,0:0:0:0:
256,192,39872,1,0,0:0:0:0:
256,192,39959,1,2,0:0:0:0:
256,192,40047,1,2,0:0:0:0:
256,192,40134,1,0,0:0:0:0:
256,192,40309,1,2,0:0:0:0:
256,192,40396,1,0,0:0:0:0:
256,192,40571,1,2,0:0:0:0:
256,192,40659,1,2,0:0:0:0:
256,192,40746,1,2,0:0:0:0:
256,192,40834,1,0,0:0:0:0:
256,192,41009,1,2,0:0:0:0:
256,192,41096,1,0,0:0:0:0:
256,192,41271,1,0,0:0:0:0:
256,192,41359,1,2,0:0:0:0:
256,192,41446,1,2,0:0:0:0:
256,192,41533,1,0,0:0:0:0:
256,192,41621,1,0,0:0:0:0:
256,192,41708,1,0,0:0:0:0:
256,192,41883,1,6,0:0:0:0:
256,192,42233,1,0,0:0:0:0:
256,192,42408,1,0,0:0:0:0:
256,192,42845,1,2,0:0:0:0:
256,192,42933,1,0,0:0:0:0:
256,192,43108,1,2,0:0:0:0:
256,192,43195,1,2,0:0:0:0:
256,192,43370,1,0,0:0:0:0:
256,192,43458,1,2,0:0:0:0:
256,192,43633,1,0,0:0:0:0:
256,192,43895,1,0,0:0:0:0:
256,192,44157,1,0,0:0:0:0:
256,192,44332,1,2,0:0:0:0:
256,192,44507,1,2,0:0:0:0:
256,192,44595,1,2,0:0:0:0:
256,192,44682,1,0,0:0:0:0:
256,192,44770,1,0,0:0:0:0:
256,192,44857,1,2,0:0:0:0:
256,192,44945,1,2,0:0:0:0:
256,192,45032,1,4,0:0:0:0:
256,192,45206,1,4,0:0:0:0:
256,192,45381,1,4,0:0:0:0:
256,192,45731,1,4,0:0:0:0:
256,192,45819,1,4,0:0:0:0:
256,192,45906,1,4,0:0:0:0:
256,192,46081,1,4,0:0:0:0:
256,192,46256,1,2,0:0:0:0:
256,192,46343,1,2,0:0:0:0:
256,192,46431,1,0,0:0:0:0:
256,192,46606,1,2,0:0:0:0:
256,192,46737,1,2,0:0:0:0:
256,192,46868,1,0,0:0:0:0:
256,192,46999,1,2,0:0:0:0:
256,192,47131,1,0,0:0:0:0:
256,192,47189,1,0,0:0:0:0:
256,192,47247,1,0,0:0:0:0:
256,192,47306,1,0,0:0:0:0:
256,192,47364,1,0,0:0:0:0:
256,192,47422,1,0,0:0:0:0:
256,192,47480,1,2,0:0:0:0:
256,192,47830,1,0,0:0:0:0:
256,192,47918,1,0,0:0:0:0:
256,192,48005,1,0,0:0:0:0:
256,192,48180,1,2,0:0:0:0:
256,192,48224,1,2,0:0:0:0:
256,192,48268,1,2,0:0:0:0:
256,192,48355,1,0,0:0:0:0:
256,192,48443,1,2,0:0:0:0:
256,192,48530,1,0,0:0:0:0:
256,192,48705,1,0,0:0:0:0:
256,192,48792,1,0,0:0:0:0:
256,192,48967,1,0,0:0:0:0:
256,192,49055,1,0,0:0:0:0:
256,192,49230,1,2,0:0:0:0:
256,192,49273,1,2,0:0:0:0:
256,192,49317,1,0,0:0:0:0:
256,192,49405,1,2,0:0:0:0:
256,192,49492,1,0,0:0:0:0:
256,192,49536,1,0,0:0:0:0:
256,192,49580,1,2,0:0:0:0:
256,192,49667,1,0,0:0:0:0:
256,192,49755,1,2,0:0:0:0:
256,192,49842,1,2,0:0:0:0:
256,192,49929,1,0,0:0:0:0:
256,192,50017,1,0,0:0:0:0:
256,192,50104,1,2,0:0:0:0:
256,192,50148,1,2,0:0:0:0:
256,192,50192,1,0,0:0:0:0:
256,192,50367,1,0,0:0:0:0:
256,192,50454,1,2,0:0:0:0:
256,192,50629,1,0,0:0:0:0:
256,192,50717,1,0,0:0:0:0:
256,192,50804,1,2,0:0:0:0:
256,192,50848,1,2,0:0:0:0:
256,192,50892,1,2,0:0:0:0:
256,192,50979,1,0,0:0:0:0:
256,192,51066,1,0,0:0:0:0:
256,192,51154,1,2,0:0:0:0:
256,192,51329,1,0,0:0:0:0:
256,192,51416,1,0,0:0:0:0:
256,192,51504,1,2,0:0:0:0:
256,192,51591,1,0,0:0:0:0:
256,192,51679,1,2,0:0:0:0:
256,192,51737,1,2,0:0:0:0:
256,192,51795,1,2,0:0:0:0:
256,192,51854,1,2,0:0:0:0:
256,192,51912,1,2,0:0:0:0:
256,192,51970,1,2,0:0:0:0:
256,192,52029,1,0,0:0:0:0:
256,192,52291,1,0,0:0:0:0:
256,192,52378,1,2,0:0:0:0:
256,192,52553,1,0,0:0:0:0:
256,192,52728,1,0,0:0:0:0:
256,192,52816,1,2,0:0:0:0:
256,192,52903,1,0,0:0:0:0:
256,192,53078,1,0,0:0:0:0:
256,192,53166,1,0,0:0:0:0:
256,192,53253,1,2,0:0:0:0:
256,192,53429,12,0,58327,0:0:0:0:
256,192,59026,5,0,0:0:0:0:
256,192,59201,1,0,0:0:0:0:
256,192,59289,1,0,0:0:0:0:
256,192,59376,1,2,0:0:0:0:
256,192,59551,1,2,0:0:0:0:
256,192,59638,1,0,0:0:0:0:
256,192,59813,1,0,0:0:0:0:
256,192,59901,1,0,0:0:0:0:
256,192,59988,1,0,0:0:0:0:
256,192,60076,1,2,0:0:0:0:
256,192,60251,1,0,0:0:0:0:
256,192,60338,1,2,0:0:0:0:
256,192,60426,1,0,0:0:0:0:
256,192,60601,1,0,0:0:0:0:
256,192,60688,1,0,0:0:0:0:
256,192,60775,1,2,0:0:0:0:
256,192,60950,1,0,0:0:0:0:
256,192,61038,1,2,0:0:0:0:
256,192,61125,1,0,0:0:0:0:
256,192,61213,1,0,0:0:0:0:
256,192,61300,1,0,0:0:0:0:
256,192,61475,1,2,0:0:0:0:
256,192,61563,1,2,0:0:0:0:
256,192,61738,1,2,0:0:0:0:
256,192,61825,1,0,0:0:0:0:
256,192,62000,1,0,0:0:0:0:
256,192,62087,1,2,0:0:0:0:
256,192,62175,1,0,0:0:0:0:
256,192,62262,1,0,0:0:0:0:
256,192,62350,1,2,0:0:0:0:
256,192,62437,1,2,0:0:0:0:
256,192,62525,1,0,0:0:0:0:
256,192,62612,1,2,0:0:0:0:
256,192,62700,1,0,0:0:0:0:
256,192,62787,1,0,0:0:0:0:
256,192,62875,1,2,0:0:0:0:
256,192,62962,1,2,0:0:0:0:
256,192,63049,1,0,0:0:0:0:
256,192,63137,1,2,0:0:0:0:
256,192,63224,1,0,0:0:0:0:
256,192,63312,1,0,0:0:0:0:
256,192,63399,1,2,0:0:0:0:
256,192,63458,1,2,0:0:0:0:
256,192,63516,1,2,0:0:0:0:
256,192,63574,1,0,0:0:0:0:
256,192,63633,1,2,0:0:0:0:
256,192,63691,1,2,0:0:0:0:
256,192,63749,1,0,0:0:0:0:
256,192,63808,1,2,0:0:0:0:
256,192,63866,1,2,0:0:0:0:
256,192,63924,8,0,64449,0:0:0:0:
256,192,64624,5,4,0:0:0:0:
256,192,64973,1,2,0:0:0:0:
256,192,65148,1,4,0:0:0:0:
256,192,65382,1,4,0:0:0:0:
256,192,65615,1,4,0:0:0:0:
256,192,65848,1,4,0:0:0:0:
256,192,66081,1,4,0:0:0:0:
256,192,66314,1,4,0:0:0:0:
256,192,66548,1,4,0:0:0:0:
256,192,66781,1,2,0:0:0:0:
256,192,66898,1,2,0:0:0:0:
256,192,67014,1,2,0:0:0:0:
256,192,67131,1,2,0:0:0:0:
256,192,67247,1,2,0:0:0:0:
256,192,67422,1,6,0:0:0:0:
256,192,67772,1,2,0:0:0:0:
256,192,67947,1,4,0:0:0:0:
256,192,68210,1,4,0:0:0:0:
256,192,68472,1,4,0:0:0:0:
256,192,68734,1,4,0:0:0:0:
256,192,68997,1,2,0:0:0:0:
256,192,69128,1,2,0:0:0:0:
256,192,69259,1,2,0:0:0:0:
256,192,69390,1,2,0:0:0:0:
256,192,69521,1,2,0:0:0:0:
256,192,69696,1,0,0:0:0:0:
256,192,69784,1,0,0:0:0:0:
256,192,69871,1,0,0:0:0:0:
256,192,69959,1,0,0:0:0:0:
256,192,70046,1,2,0:0:0:0:
256,192,70396,1,0,0:0:0:0:
256,192,70571,1,2,0:0:0:0:
256,192,70746,1,0,0:0:0:0:
256,192,70833,1,2,0:0:0:0:
256,192,70921,1,2,0:0:0:0:
256,192,71008,1,2,0:0:0:0:
256,192,71096,1,2,0:0:0:0:
256,192,71271,1,0,0:0:0:0:
256,192,71358,1,2,0:0:0:0:
256,192,71446,1,2,0:0:0:0:
256,192,71533,1,2,0:0:0:0:
256,192,71621,1,0,0:0:0:0:
256,192,71796,1,0,0:0:0:0:
256,192,71970,1,2,0:0:0:0:
256,192,72145,1,0,0:0:0:0:
256,192,72233,1,2,0:0:0:0:
256,192,72320,1,2,0:0:0:0:
256,192,72408,1,2,0:0:0:0:
256,192,72495,1,0,0:0:0:0:
256,192,72583,1,2,0:0:0:0:
256,192,72670,1,0,0:0:0:0:
256,192,73020,1,0,0:0:0:0:
256,192,73107,1,0,0:0:0:0:
256,192,73195,1,2,0:0:0:0:
256,192,73282,1,2,0:0:0:0:
256,192,73370,1,0,0:0:0:0:
256,192,73457,1,2,0:0:0:0:
256,192,73545,1,2,0:0:0:0:
256,192,73632,1,2,0:0:0:0:
256,192,73720,1,0,0:0:0:0:
256,192,73807,1,0,0:0:0:0:
256,192,73895,1,0,0:0:0:0:
256,192,73982,1,0,0:0:0:0:
256,192,74070,1,2,0:0:0:0:
256,192,74157,1,2,0:0:0:0:
256,192,74244,1,2,0:0:0:0:
256,192,74419,1,2,0:0:0:0:
256,192,74478,1,0,0:0:0:0:
256,192,74536,1,0,0:0:0:0:
256,192,74594,1,2,0:0:0:0:
256,192,74653,1,0,0:0:0:0:
256,192,74711,1,0,0:0:0:0:
256,192,74769,1,2,0:0:0:0:
256,192,74857,1,0,0:0:0:0:
256,192,74944,1,0,0:0:0:0:
256,192,75032,1,0,0:0:0:0:
256,192,75119,1,2,0:0:0:0:
256,192,75177,1,0,0:0:0:0:
256,192,75236,1,0,0:0:0:0:
256,192,75294,1,2,0:0:0:0:
256,192,75469,1,6,0:0:0:0:
256,192,75820,1,0,0:0:0:0:
256,192,76082,1,0,0:0:0:0:
256,192,76169,1,2,0:0:0:0:
256,192,76344,1,0,0:0:0:0:
256,192,76607,1,2,0:0:0:0:
256,192,76694,1,0,0:0:0:0:
256,192,76869,1,2,0:0:0:0:
256,192,77044,1,2,0:0:0:0:
256,192,77219,1,0,0:0:0:0:
256,192,77481,1,0,0:0:0:0:
256,192,77569,1,2,0:0:0:0:
256,192,77744,1,0,0:0:0:0:
256,192,78006,1,0,0:0:0:0:
256,192,78094,1,0,0:0:0:0:
256,192,78268,1,2,0:0:0:0:
256,192,78618,1,0,0:0:0:0:
256,192,78881,1,0,0:0:0:0:
256,192,78968,1,2,0:0:0:0:
256,192,79143,1,0,0:0:0:0:
256,192,79231,1,0,0:0:0:0:
256,192,79406,1,0,0:0:0:0:
256,192,79493,1,0,0:0:0:0:
256,192,79668,1,2,0:0:0:0:
256,192,79843,1,2,0:0:0:0:
256,192,79930,1,2,0:0:0:0:
256,192,80018,1,0,0:0:0:0:
256,192,80280,1,0,0:0:0:0:
256,192,80368,1,2,0:0:0:0:
256,192,80543,1,0,0:0:0:0:
256,192,80630,1,0,0:0:0:0:
256,192,80717,1,0,0:0:0:0:
256,192,80892,1,0,0:0:0:0:
256,192,80980,1,0,0:0:0:0:
256,192,81067,1,2,0:0:0:0:
256,192,81155,1,2,0:0:0:0:
256,192,81242,1,2,0:0:0:0:
256,192,81330,1,2,0:0:0:0:
256,192,81417,1,0,0:0:0:0:
256,192,81592,1,0,0:0:0:0:
256,192,81680,1,0,0:0:0:0:
256,192,81767,1,2,0:0:0:0:
256,192,81825,1,2,0:0:0:0:
256,192,81884,1,2,0:0:0:0:
256,192,81942,1,0,0:0:0:0:
256,192,82029,1,2,0:0:0:0:
256,192,82117,1,0,0:0:0:0:
256,192,82175,1,0,0:0:0:0:
256,192,82233,1,0,0:0:0:0:
256,192,82292,1,2,0:0:0:0:
256,192,82379,1,2,0:0:0:0:
256,192,82467,1,0,0:0:0:0:
256,192,82525,1,2,0:0:0:0:
256,192,82583,1,2,0:0:0:0:
256,192,82642,1,0,0:0:0:0:
256,192,82817,1,0,0:0:0:0:
256,192,82992,1,2,0:0:0:0:
256,192,83166,1,0,0:0:0:0:
256,192,83225,1,0,0:0:0:0:
256,192,83283,1,0,0:0:0:0:
256,192,83341,1,2,0:0:0:0:
256,192,83516,1,2,0:0:0:0:
256,192,83575,1,2,0:0:0:0:
256,192,83633,1,2,0:0:0:0:
256,192,83691,1,0,0:0:0:0:
256,192,83779,1,2,0:0:0:0:
256,192,83866,1,0,0:0:0:0:
256,192,84041,1,2,0:0:0:0:
256,192,84129,1,2,0:0:0:0:
256,192,84216,1,0,0:0:0:0:
256,192,84391,1,2,0:0:0:0:
256,192,84478,1,2,0:0:0:0:
256,192,84566,1,0,0:0:0:0:
256,192,84653,1,0,0:0:0:0:
256,192,84741,1,2,0:0:0:0:
256,192,84828,1,2,0:0:0:0:
256,192,84916,1,0,0:0:0:0:
256,192,84974,1,0,0:0:0:0:
256,192,85032,1,0,0:0:0:0:
256,192,85091,1,2,0:0:0:0:
256,192,85178,1,2,0:0:0:0:
256,192,85266,1,0,0:0:0:0:
256,192,85324,1,2,0:0:0:0:
256,192,85382,1,2,0:0:0:0:
256,192,85440,1,2,0:0:0:0:
256,192,85499,1,2,0:0:0:0:
256,192,85557,1,2,0:0:0:0:
256,192,85615,8,0,86840,0:0:0:0:
256,192,87015,5,0,0:0:0:0:
256,192,89814,1,2,0:0:0:0:
256,192,89989,1,2,0:0:0:0:
256,192,90338,1,2,0:0:0:0:
256,192,90688,1,2,0:0:0:0:
256,192,90863,1,2,0:0:0:0:
256,192,91213,1,2,0:0:0:0:
256,192,91388,1,2,0:0:0:0:
256,192,91738,1,2,0:0:0:0:
256,192,92088,1,2,0:0:0:0:
256,192,92263,1,2,0:0:0:0:
256,192,92613,1,2,0:0:0:0:
256,192,92787,1,0,0:0:0:0:
256,192,93137,1,2,0:0:0:0:
256,192,93487,1,0,0:0:0:0:
256,192,93662,1,2,0:0:0:0:
256,192,93837,1,2,0:0:0:0:
256,192,94012,1,0,0:0:0:0:
256,192,94187,1,2,0:0:0:0:
256,192,94537,1,0,0:0:0:0:
256,192,94887,1,0,0:0:0:0:
256,192,95061,1,2,0:0:0:0:
256,192,95411,1,2,0:0:0:0:
256,192,95586,1,0,0:0:0:0:
256,192,95761,1,0,0:0:0:0:
256,192,95936,1,2,0:0:0:0:
256,192,96111,1,0,0:0:0:0:
256,192,96286,1,0,0:0:0:0:
256,192,96461,1,2,0:0:0:0:
256,192,96636,1,2,0:0:0:0:
256,192,96811,1,0,0:0:0:0:
256,192,96986,1,0,0:0:0:0:
256,192,97161,1,2,0:0:0:0:
256,192,97336,1,0,0:0:0:0:
256,192,97510,1,2,0:0:0:0:
256,192,97685,1,2,0:0:0:0:
256,192,97860,1,0,0:0:0:0:
256,192,98210,1,2,0:0:0:0:
256,192,98473,1,0,0:0:0:0:
256,192,98560,1,2,0:0:0:0:
256,192,98735,1,0,0:0:0:0:
256,192,98910,1,0,0:0:0:0:
256,192,98997,1,2,0:0:0:0:
256,192,99085,1,0,0:0:0:0:
256,192,99260,1,2,0:0:0:0:
256,192,99435,1,2,0:0:0:0:
256,192,99610,1,0,0:0:0:0:
256,192,99872,1,2,0:0:0:0:
256,192,99959,1,0,0:0:0:0:
256,192,100134,1,2,0:0:0:0:
256,192,100222,1,2,0:0:0:0:
256,192,100397,1,2,0:0:0:0:
256,192,100484,1,0,0:0:0:0:
256,192,100659,1,2,0:0:0:0:
256,192,100834,1,2,0:0:0:0:
256,192,101009,1,0,0:0:0:0:
256,192,101271,1,0,0:0:0:0:
256,192,101359,1,2,0:0:0:0:
256,192,101534,1,0,0:0:0:0:
256,192,101709,1,2,0:0:0:0:
256,192,101796,1,2,0:0:0:0:
256,192,101884,1,0,0:0:0:0:
256,192,102059,1,2,0:0:0:0:
256,192,102146,1,0,0:0:0:0:
256,192,102233,1,2,0:0:0:0:
256,192,102408,1,0,0:0:0:0:
256,192,102583,1,0,0:0:0:0:
256,192,102671,1,0,0:0:0:0:
256,192,102758,1,2,0:0:0:0:
256,192,102846,1,0,0:0:0:0:
256,192,103021,1,2,0:0:0:0:
256,192,103108,1,0,0:0:0:0:
256,192,103196,1,2,0:0:0:0:
256,192,103371,1,2,0:0:0:0:
256,192,103458,1,0,0:0:0:0:
256,192,103545,1,0,0:0:0:0:
256,192,103633,1,2,0:0:0:0:
256,192,103808,1,0,0:0:0:0:
256,192,103895,1,0,0:0:0:0:
256,192,103983,1,2,0:0:0:0:
256,192,104070,1,0,0:0:0:0:
256,192,104158,1,0,0:0:0:0:
256,192,104245,1,0,0:0:0:0:
256,192,104333,1,2,0:0:0:0:
256,192,104420,1,2,0:0:0:0:
256,192,104508,1,0,0:0:0:0:
256,192,104595,1,0,0:0:0:0:
256,192,104682,1,2,0:0:0:0:
256,192,104770,1,0,0:0:0:0:
256,192,104857,1,2,0:0:0:0:
256,192,104945,1,2,0:0:0:0:
256,192,105032,1,0,0:0:0:0:
256,192,105207,1,2,0:0:0:0:
256,192,105295,1,0,0:0:0:0:
256,192,105382,1,0,0:0:0:0:
256,192,105470,1,0,0:0:0:0:
256,192,105557,1,2,0:0:0:0:
256,192,105645,1,2,0:0:0:0:
256,192,105732,1,0,0:0:0:0:
256,192,105820,1,0,0:0:0:0:
256,192,105907,1,2,0:0:0:0:
256,192,105994,1,0,0:0:0:0:
256,192,106082,1,2,0:0:0:0:
256,192,106169,1,2,0:0:0:0:
256,192,106257,1,0,0:0:0:0:
256,192,106344,1,0,0:0:0:0:
256,192,106432,1,2,0:0:0:0:
256,192,106607,1,0,0:0:0:0:
256,192,106694,1,0,0:0:0:0:
256,192,106782,1,2,0:0:0:0:
256,192,106869,1,0,0:0:0:0:
256,192,106957,1,2,0:0:0:0:
256,192,107044,1,2,0:0:0:0:
256,192,107131,1,0,0:0:0:0:
256,192,107219,1,2,0:0:0:0:
256,192,107306,1,0,0:0:0:0:
256,192,107394,1,0,0:0:0:0:
256,192,107481,1,0,0:0:0:0:
256,192,107569,1,0,0:0:0:0:
256,192,107656,1,2,0:0:0:0:
256,192,107744,1,2,0:0:0:0:
256,192,107831,1,2,0:0:0:0:
256,192,107919,1,2,0:0:0:0:
256,192,108006,1,0,0:0:0:0:
256,192,108356,1,0,0:0:0:0:
256,192,108706,1,0,0:0:0:0:
256,192,109056,1,6,0:0:0:0:
256,192,109406,1,0,0:0:0:0:
256,192,109580,1,0,0:0:0:0:
256,192,109668,1,0,0:0:0:0:
256,192,109755,1,2,0:0:0:0:
256,192,109843,1,0,0:0:0:0:
256,192,109930,1,2,0:0:0:0:
256,192,109974,1,2,0:0:0:0:
256,192,110018,1,2,0:0:0:0:
256,192,110105,1,0,0:0:0:0:
256,192,110193,1,2,0:0:0:0:
256,192,110280,1,2,0:0:0:0:
256,192,110368,1,2,0:0:0:0:
256,192,110455,1,0,0:0:0:0:
256,192,110499,1,0,0:0:0:0:
256,192,110543,1,0,0:0:0:0:
256,192,110630,1,2,0:0:0:0:
256,192,110717,1,2,0:0:0:0:
256,192,110805,1,0,0:0:0:0:
256,192,110980,1,2,0:0:0:0:
256,192,111067,1,0,0:0:0:0:
256,192,111155,1,2,0:0:0:0:
256,192,111242,1,2,0:0:0:0:
256,192,111330,1,0,0:0:0:0:
256,192,111417,1,2,0:0:0:0:
256,192,111592,1,0,0:0:0:0:
256,192,111680,1,2,0:0:0:0:
256,192,111767,1,2,0:0:0:0:
256,192,111854,1,0,0:0:0:0:
256,192,111942,1,0,0:0:0:0:
256,192,112029,1,2,0:0:0:0:
256,192,112073,1,2,0:0:0:0:
256,192,112117,1,2,0:0:0:0:
256,192,112161,1,2,0:0:0:0:
256,192,112204,1,0,0:0:0:0:
256,192,112379,1,2,0:0:0:0:
256,192,112467,1,2,0:0:0:0:
256,192,112554,1,0,0:0:0:0:
256,192,112642,1,0,0:0:0:0:
256,192,112729,1,2,0:0:0:0:
256,192,112817,1,2,0:0:0:0:
256,192,112904,1,0,0:0:0:0:
256,192,112992,1,0,0:0:0:0:
256,192,113079,1,2,0:0:0:0:
256,192,113166,1,0,0:0:0:0:
256,192,113254,1,2,0:0:0:0:
256,192,113298,1,2,0:0:0:0:
256,192,113341,1,2,0:0:0:0:
256,192,113429,1,0,0:0:0:0:
256,192,113516,1,2,0:0:0:0:
256,192,113604,1,0,0:0:0:0:
256,192,113779,1,2,0:0:0:0:
256,192,113866,1,0,0:0:0:0:
256,192,113954,1,2,0:0:0:0:
256,192,114041,1,2,0:0:0:0:
256,192,114129,1,0,0:0:0:0:
256,192,114216,1,2,0:0:0:0:
256,192,114303,1,0,0:0:0:0:
256,192,114391,1,2,0:0:0:0:
256,192,114435,1,2,0:0:0:0:
256,192,114478,1,0,0:0:0:0:
256,192,114566,1,2,0:0:0:0:
256,192,114653,1,0,0:0:0:0:
256,192,114741,1,0,0:0:0:0:
256,192,114828,1,2,0:0:0:0:
256,192,115003,1,0,0:0:0:0:
256,192,115091,1,2,0:0:0:0:
256,192,115178,1,0,0:0:0:0:
256,192,115222,1,0,0:0:0:0:
256,192,115266,1,2,0:0:0:0:
256,192,115353,1,0,0:0:0:0:
256,192,115440,1,2,0:0:0:0:
256,192,115528,1,0,0:0:0:0:
256,192,115615,1,2,0:0:0:0:
256,192,115659,1,2,0:0:0:0:
256,192,115703,1,0,0:0:0:0:
256,192,115790,1,2,0:0:0:0:
256,192,115878,1,0,0:0:0:0:
256,192,115965,1,2,0:0:0:0:
256,192,116053,1,0,0:0:0:0:
256,192,116096,1,0,0:0:0:0:
256,192,116140,1,2,0:0:0:0:
256,192,116228,1,0,0:0:0:0:
256,192,116403,1,0,0:0:0:0:
256,192,116490,1,2,0:0:0:0:
256,192,116578,1,0,0:0:0:0:
256,192,116621,1,0,0:0:0:0:
256,192,116665,1,2,0:0:0:0:
256,192,116752,1,0,0:0:0:0:
256,192,116840,1,0,0:0:0:0:
256,192,116927,1,2,0:0:0:0:
256,192,116971,1,2,0:0:0:0:
256,192,117015,1,2,0:0:0:0:
256,192,117102,1,0,0:0:0:0:
256,192,117190,1,2,0:0:0:0:
256,192,117277,1,2,0:0:0:0:
256,192,117452,1,0,0:0:0:0:
256,192,117540,1,0,0:0:0:0:
256,192,117627,1,2,0:0:0:0:
256,192,117671,1,2,0:0:0:0:
256,192,117715,1,2,0:0:0:0:
256,192,117758,1,2,0:0:0:0:
256,192,117802,1,0,0:0:0:0:
256,192,118064,1,0,0:0:0:0:
256,192,118151,1,2,0:0:0:0:
256,192,118326,1,0,0:0:0:0:
256,192,118589,1,2,0:0:0:0:
256,192,118676,1,0,0:0:0:0:
256,192,118851,1,2,0:0:0:0:
256,192,119026,1,2,0:0:0:0:
256,192,119201,1,0,0:0:0:0:
256,192,119288,1,0,0:0:0:0:
256,192,119376,1,2,0:0:0:0:
256,192,119463,1,0,0:0:0:0:
256,192,119551,1,2,0:0:0:0:
256,192,119638,1,2,0:0:0:0:
256,192,119726,1,0,0:0:0:0:
256,192,119813,1,2,0:0:0:0:
256,192,119901,1,0,0:0:0:0:
256,192,119988,1,0,0:0:0:0:
256,192,120076,1,0,0:0:0:0:
256,192,120163,1,0,0:0:0:0:
256,192,120250,1,6,0:0:0:0:
256,192,120600,1,4,0:0:0:0:
256,192,120862,1,4,0:0:0:0:
256,192,121124,1,6,0:0:0:0:
256,192,121387,1,4,0:0:0:0:
256,192,121474,1,4,0:0:0:0:
256,192,121649,1,2,0:0:0:0:
256,192,121693,1,2,0:0:0:0:
256,192,121737,1,0,0:0:0:0:
256,192,121824,1,2,0:0:0:0:
256,192,121868,1,2,0:0:0:0:
256,192,121911,1,0,0:0:0:0:
256,192,121999,1,6,0:0:0:0:
256,192,122261,1,4,0:0:0:0:
256,192,122524,1,6,0:0:0:0:
256,192,122786,1,6,0:0:0:0:
256,192,122874,1,4,0:0:0:0:
256,192,123048,1,0,0:0:0:0:
256,192,123136,1,0,0:0:0:0:
256,192,123223,1,2,0:0:0:0:
256,192,123267,1,2,0:0:0:0:
256,192,123311,1,2,0:0:0:0:
256,192,123398,1,4,0:0:0:0:
256,192,123661,1,6,0:0:0:0:
256,192,123923,1,6,0:0:0:0:
256,192,124186,1,6,0:0:0:0:
256,192,124273,1,4,0:0:0:0:
256,192,124448,1,0,0:0:0:0:
256,192,124535,1,0,0:0:0:0:
256,192,124623,1,0,0:0:0:0:
256,192,124710,1,0,0:0:0:0:
256,192,124798,1,2,0:0:0:0:
256,192,124841,1,2,0:0:0:0:
256,192,124885,1,2,0:0:0:0:
256,192,124929,1,2,0:0:0:0:
256,192,124973,1,0,0:0:0:0:
256,192,125060,1,0,0:0:0:0:
256,192,125148,1,2,0:0:0:0:
256,192,125235,1,0,0:0:0:0:
256,192,125410,1,4,0:0:0:0:
256,192,125585,1,4,0:0:0:0:
256,192,125672,1,6,0:0:0:0:
256,192,125847,1,2,0:0:0:0:
256,192,125891,1,2,0:0:0:0:
256,192,125935,1,2,0:0:0:0:
256,192,125979,1,2,0:0:0:0:
256,192,126022,1,0,0:0:0:0:
256,192,126110,1,0,0:0:0:0:
256,192,126197,1,2,0:0:0:0:
256,192,126241,1,2,0:0:0:0:
256,192,126285,1,2,0:0:0:0:
256,192,126372,1,0,0:0:0:0:
256,192,126460,1,2,0:0:0:0:
256,192,126503,1,2,0:0:0:0:
256,192,126547,1,0,0:0:0:0:
256,192,126634,1,0,0:0:0:0:
256,192,126722,1,2,0:0:0:0:
256,192,126766,1,0,0:0:0:0:
256,192,126809,1,0,0:0:0:0:
256,192,126897,1,2,0:0:0:0:
256,192,126984,1,2,0:0:0:0:
256,192,127072,1,0,0:0:0:0:
256,192,127247,1,2,0:0:0:0:
256,192,127290,1,2,0:0:0:0:
256,192,127334,1,2,0:0:0:0:
256,192,127378,1,2,0:0:0:0:
256,192,127422,1,0,0:0:0:0:
256,192,127597,1,2,0:0:0:0:
256,192,127684,1,0,0:0:0:0:
256,192,127772,1,2,0:0:0:0:
256,192,127815,1,2,0:0:0:0:
256,192,127859,1,0,0:0:0:0:
256,192,127946,1,0,0:0:0:0:
256,192,128034,1,2,0:0:0:0:
256,192,128121,1,0,0:0:0:0:
256,192,128165,1,0,0:0:0:0:
256,192,128209,1,0,0:0:0:0:
256,192,128296,1,2,0:0:0:0:
256,192,128384,1,2,0:0:0:0:
256,192,128471,1,0,0:0:0:0:
256,192,128646,1,2,0:0:0:0:
256,192,128690,1,2,0:0:0:0:
256,192,128734,1,2,0:0:0:0:
256,192,128777,1,2,0:0:0:0:
256,192,128821,1,0,0:0:0:0:
256,192,128996,1,2,0:0:0:0:
256,192,129083,1,0,0:0:0:0:
256,192,129171,1,2,0:0:0:0:
256,192,129215,1,2,0:0:0:0:
256,192,129258,1,2,0:0:0:0:
256,192,129346,1,0,0:0:0:0:
256,192,129433,1,0,0:0:0:0:
256,192,129521,1,2,0:0:0:0:
256,192,129565,1,2,0:0:0:0:
256,192,129608,1,0,0:0:0:0:
256,192,129696,1,2,0:0:0:0:
256,192,129739,1,2,0:0:0:0:
256,192,129783,1,0,0:0:0:0:
256,192,129827,1,0,0:0:0:0:
256,192,129871,1,2,0:0:0:0:
256,192,129958,1,0,0:0:0:0:
256,192,130046,1,2,0:0:0:0:
256,192,130089,1,2,0:0:0:0:
256,192,130133,1,2,0:0:0:0:
256,192,130177,1,2,0:0:0:0:
256,192,130220,1,0,0:0:0:0:
256,192,130308,1,2,0:0:0:0:
256,192,130397,1,0,0:0:0:0:
256,192,130571,1,0,0:0:0:0:
256,192,130659,1,0,0:0:0:0:
256,192,130746,1,2,0:0:0:0:
256,192,130921,1,2,0:0:0:0:
256,192,131096,1,0,0:0:0:0:
256,192,131184,1,0,0:0:0:0:
256,192,131271,1,0,0:0:0:0:
256,192,131446,1,6,0:0:0:0:
256,192,131796,1,4,0:0:0:0:
256,192,132496,1,6,0:0:0:0:
256,192,132671,1,4,0:0:0:0:
256,192,132933,1,4,0:0:0:0:
256,192,133195,1,4,0:0:0:0:
256,192,133458,1,4,0:0:0:0:
256,192,133720,1,4,0:0:0:0:
256,192,133895,1,6,0:0:0:0:
256,192,134070,1,2,0:0:0:0:
256,192,134157,1,2,0:0:0:0:
256,192,134245,1,0,0:0:0:0:
256,192,134332,1,2,0:0:0:0:
256,192,134420,1,0,0:0:0:0:
256,192,134595,1,4,0:0:0:0:
256,192,135294,1,6,0:0:0:0:
256,192,135469,1,4,0:0:0:0:
256,192,135732,1,4,0:0:0:0:
256,192,135994,1,4,0:0:0:0:
256,192,136257,1,4,0:0:0:0:
256,192,136519,1,4,0:0:0:0:
256,192,136694,1,6,0:0:0:0:
256,192,136869,1,0,0:0:0:0:
256,192,136956,1,0,0:0:0:0:
256,192,137044,1,2,0:0:0:0:
256,192,137131,1,2,0:0:0:0:
256,192,137219,1,2,0:0:0:0:
256,192,137394,1,4,0:0:0:0:
256,192,137743,1,2,0:0:0:0:
256,192,137918,1,4,0:0:0:0:
256,192,138152,1,4,0:0:0:0:
256,192,138385,1,4,0:0:0:0:
256,192,138618,1,4,0:0:0:0:
256,192,138851,1,4,0:0:0:0:
256,192,139085,1,4,0:0:0:0:
256,192,139318,1,6,0:0:0:0:
256,192,139580,1,6,0:0:0:0:
256,192,139843,1,6,0:0:0:0:
256,192,140105,1,6,0:0:0:0:
256,192,140367,1,6,0:0:0:0:
256,192,140630,1,6,0:0:0:0:
256,192,140892,1,0,0:0:0:0:
256,192,140980,1,0,0:0:0:0:
256,192,141067,1,2,0:0:0:0:
256,192,141111,1,2,0:0:0:0:
256,192,141155,1,2,0:0:0:0:
256,192,141242,1,0,0:0:0:0:
256,192,141329,1,0,0:0:0:0:
256,192,141417,1,2,0:0:0:0:
256,192,141504,1,0,0:0:0:0:
256,192,141592,1,2,0:0:0:0:
256,192,141732,1,2,0:0:0:0:
256,192,141872,1,2,0:0:0:0:
256,192,142012,1,2,0:0:0:0:
256,192,142152,1,2,0:0:0:0:
256,192,142292,1,2,0:0:0:0:
256,192,142362,1,0,0:0:0:0:
256,192,142431,1,0,0:0:0:0:
256,192,142501,1,0,0:0:0:0:
256,192,142571,1,0,0:0:0:0:
256,192,142641,1,2,0:0:0:0:
256,192,142991,1,4,0:0:0:0:
