osu file format v14

[General]
AudioFilename: audio.mp3
AudioLeadIn: 0
PreviewTime: 108006
Countdown: 0
SampleSet: Normal
StackLeniency: 0
Mode: 1
LetterboxInBreaks: 0
WidescreenStoryboard: 0

[Editor]
DistanceSpacing: 0.1
BeatDivisor: 5
GridSize: 4
TimelineZoom: 4.399998

[Metadata]
Title:Dimension Hacker
TitleUnicode:Dimension Hacker
Artist:Kobaryo
ArtistUnicode:Kobaryo
Creator:koul
Version:Beyond
Source:WACCA Reverse
Tags:electronic instrumental speedcore psycho filth records chiptune 8-bit 8bit ワッカリバース paradigm:reboot paradigm: reboot rise _rise uone hz404 grape_tea grape tea eriha yassu- yassu maimaing
BeatmapID:4390368
BeatmapSetID:2093984

[Difficulty]
HPDrainRate:4.4
CircleSize:4.4
OverallDifficulty:7.5
ApproachRate:0
SliderMultiplier:1.4
SliderTickRate:1

[Events]
//Background and Video events
0,0,"bg.jpg",0,0
//Break Periods
//Storyboard Layer 0 (Background)
//Storyboard Layer 1 (Fail)
//Storyboard Layer 2 (Pass)
//Storyboard Layer 3 (Foreground)
//Storyboard Layer 4 (Overlay)
//Storyboard Sound Samples

[TimingPoints]
952,349.854227405248,4,1,0,100,1,8
1651,349.854227405248,4,1,0,100,1,0
1651,-50.125313283208,4,1,0,50,0,0
2155,-125.786163522013,4,1,0,50,0,0
7729,-125,4,1,0,50,0,0
7904,-122.716145225783,4,1,0,50,0,0
8079,-120.474018392604,4,1,0,50,0,0
8341,-117.193578289995,4,1,0,50,0,0
8604,-113.990450889038,4,1,0,50,0,0
8866,-110.886554701294,4,1,0,50,0,0
9128,-107.867175869778,4,1,0,50,0,0
9303,-105.896352153046,4,1,0,50,0,0
9653,-102.062072615966,4,1,0,50,0,0
9828,-100.197313001482,4,1,0,50,0,0
10003,-98.366624108185,4,1,0,60,0,0
10178,-96.5693834354405,4,1,0,60,0,0
10353,-94.8049798562225,4,1,0,60,0,0
10528,-93.072813409309,4,1,0,60,0,0
10703,-91.372295095272,4,1,0,60,0,0
10878,-89.702846676196,4,1,0,60,0,0
11053,-88.0639004790575,4,1,0,60,0,0
11227,-86.4640094656805,4,1,0,60,0,0
11402,-84.8842395391515,4,1,0,70,0,0
11577,-83.3333333333335,4,1,0,70,0,0
11927,-125,4,1,0,70,0,0
12102,-121.372942926831,4,1,0,70,0,0
12277,-117.851130197758,4,1,0,70,0,0
12452,-114.43150799484,4,1,0,70,0,0
12627,-111.111111111111,4,1,0,70,0,0
12846,-62.6959247648905,4,1,0,100,0,1
13196,-62.6959247648905,4,1,0,100,0,0
13546,-50,4,1,0,100,0,1
13676,-49.4107911363731,4,1,0,100,0,1
13939,-48.5333576497645,4,1,0,100,0,1
14201,-47.6747534122188,4,1,0,100,0,1
14464,-46.8281483660816,4,1,0,100,0,1
14726,-45.9997110073131,4,1,0,100,0,1
14901,-45.4545454545455,4,1,0,100,0,1
15076,-55.5555555555555,4,1,0,100,0,1
15163,-54.5939886383695,4,1,0,100,0,1
15251,-53.638299144757,4,1,0,100,0,1
15338,-52.709916493626,4,1,0,100,0,1
15426,-51.7872084325645,4,1,0,100,0,1
15645,-50,4,1,0,100,0,0
16344,-50,4,1,0,100,0,0
16476,-49.4107911363731,4,1,0,100,0,1
16738,-48.5333576497645,4,1,0,100,0,1
17000,-47.6747534122188,4,1,0,100,0,1
17263,-46.8281483660816,4,1,0,100,0,1
17525,-45.9997110073131,4,1,0,100,0,1
17700,-45.4545454545455,4,1,0,100,0,1
17875,-55.5555555555555,4,1,0,100,0,1
17962,-54.5939886383695,4,1,0,100,0,1
18050,-53.638299144757,4,1,0,100,0,1
18137,-52.709916493626,4,1,0,100,0,1
18225,-51.7872084325645,4,1,0,100,0,1
18444,-50,4,1,0,100,0,0
19143,-50,4,1,0,100,0,1
19273,-49.4107911363731,4,1,0,100,0,1
19536,-48.5333576497645,4,1,0,100,0,1
19798,-47.6747534122188,4,1,0,100,0,1
20061,-46.8281483660816,4,1,0,100,0,1
20323,-45.9997110073131,4,1,0,100,0,1
20498,-45.4545454545455,4,1,0,100,0,1
20673,-55.5555555555555,4,1,0,100,0,1
20760,-54.5939886383695,4,1,0,100,0,1
20848,-53.638299144757,4,1,0,100,0,1
20935,-52.709916493626,4,1,0,100,0,1
21023,-51.7872084325645,4,1,0,100,0,1
21242,-50,4,1,0,100,0,0
21592,-47.6731294622796,4,1,0,100,0,1
21723,-46.5506222311111,4,1,0,100,0,1
21811,-45.9961878118524,4,1,0,100,0,1
21942,-45.4545454545455,4,1,0,100,0,0
22292,-55.5555555555555,4,1,0,100,0,1
22423,-54.451204921463,4,1,0,100,0,1
22510,-53.9103819207675,4,1,0,100,0,1
22598,-53.3688069131845,4,1,0,100,0,1
22685,-52.838734560517,4,1,0,100,0,1
22773,-52.3079251495885,4,1,0,100,0,1
22860,-51.788389740219,4,1,0,100,0,1
22948,-51.268131924062,4,1,0,100,0,1
23035,-50.7589240013505,4,1,0,100,0,1
23123,-50.2490080320785,4,1,0,100,0,1
23210,-49.7499223030288,4,1,0,100,0,1
23297,-49.2557936184003,4,1,0,100,0,1
23385,-48.7609778546835,4,1,0,100,0,1
23472,-48.2766716139264,4,1,0,100,0,1
23560,-47.7916919520531,4,1,0,100,0,1
23647,-47.3170129015694,4,1,0,100,0,1
23735,-46.8416738164442,4,1,0,100,0,1
23822,-46.3764305839475,4,1,0,100,0,1
23910,-45.9105404371834,4,1,0,100,0,1
24041,-45.4545454545455,4,1,0,60,0,0
24085,-62.5,4,1,0,60,0,0
25069,-58.9940849433855,4,1,0,60,0,0
25109,-57.8072887318095,4,1,0,60,0,0
25153,-56.617603065937,4,1,0,60,0,0
25197,-55.452401371111,4,1,0,60,0,0
25241,-54.311179762267,4,1,0,60,0,0
25284,-53.2185905230245,4,1,0,60,0,0
25328,-52.12334119215,4,1,0,60,0,0
25372,-51.0506323134935,4,1,0,60,0,0
25441,174.927113702624,4,1,0,100,1,0
25441,-100,4,1,0,100,0,1
26490,-125,4,1,0,100,0,0
26568,-117.811477259136,4,1,0,100,0,0
26655,-111.111111111111,4,1,0,100,0,0
26840,-100.20651138342,4,1,0,100,0,1
27540,-124.486493215486,4,1,0,100,0,0
27602,-121.138721317953,4,1,0,100,0,0
27690,-117.84404844339,4,1,0,100,0,0
27733,-116.266894255693,4,1,0,100,0,0
27777,-114.674909499236,4,1,0,100,0,0
27865,-111.55603628009,4,1,0,100,0,0
27952,-108.555998656633,4,1,0,100,0,0
28039,-105.63663999993,4,1,0,100,0,0
28127,-102.763585302132,4,1,0,100,0,0
28239,-100,4,1,0,100,0,1
28306,-100.739065160502,4,1,0,100,0,1
28394,-101.483592494119,4,1,0,100,0,1
28437,-101.849394388598,4,1,0,100,0,1
28481,-102.225068242788,4,1,0,100,0,1
28568,-102.97196148085,4,1,0,100,0,1
28656,-103.732991373241,4,1,0,100,0,1
28743,-104.490902041851,4,1,0,100,0,1
28787,-104.876319158306,4,1,0,100,0,1
28831,-105.263157894737,4,1,0,100,0,1
28939,-111.111111111111,4,1,0,100,0,0
29267,-103.574416865129,4,1,0,100,0,0
29442,-99.6731008499724,4,1,0,100,0,0
29639,-97.1105386095701,4,1,0,100,0,1
29748,-95.235489285732,4,1,0,100,0,1
29879,-93.3966441681229,4,1,0,100,0,1
30010,-91.5933042113726,4,1,0,100,0,1
30142,-89.8114158873415,4,1,0,100,0,1
30317,-87.5023942842473,4,1,0,100,0,1
30382,-86.6599596919828,4,1,0,100,0,1
30448,-85.8128628741031,4,1,0,100,0,1
30513,-84.9866943476562,4,1,0,100,0,1
30579,-84.1559536157208,4,1,0,100,0,1
30688,-83.3333333333333,4,1,0,100,0,0
31038,-100,4,1,0,100,0,1
31738,-100,4,1,0,100,0,0
31891,-111.111111111111,4,1,0,100,0,0
32438,-100,4,1,0,100,0,1
33137,-125,4,1,0,100,0,0
34012,-100,4,1,0,100,0,1
34887,-97.0056071979592,4,1,0,100,0,1
34951,-96.2753064557705,4,1,0,100,0,1
35214,-94.1008782784475,4,1,0,100,0,1
35432,-92.335773872362,4,1,0,100,0,1
35651,-90.5959089401469,4,1,0,100,0,1
35913,-88.557444795305,4,1,0,100,0,1
36263,-85.9056870426832,4,1,0,100,0,1
36636,349.854227405248,4,1,0,100,1,0
36636,-41.6666666666667,4,1,0,100,0,0
36963,-83.3333333333335,4,1,0,70,0,0
39434,-62.5,4,1,0,90,0,1
39587,-60.9355003646995,4,1,0,90,0,1
39674,-60.172356501039,4,1,0,90,0,1
39849,-58.666122424222,4,1,0,90,0,1
39937,-57.923008414707,4,1,0,90,0,1
40024,-57.197592390027,4,1,0,90,0,1
40111,-56.481261328702,4,1,0,90,0,1
40286,-55.067422724701,4,1,0,90,0,1
40373,-54.377769476784,4,1,0,90,0,1
40548,-53.016585468546,4,1,0,90,0,1
40636,-52.345033203451,4,1,0,90,0,1
40723,-51.6894746104595,4,1,0,90,0,1
40810,-48.119940533843,4,1,0,90,0,1
40811,-51.0421261004985,4,1,0,90,0,1
40829,-51.0347326377455,4,1,0,90,0,1
40986,-49.7572315081549,4,1,0,90,0,1
41073,-49.134082019418,4,1,0,90,0,1
41248,-47.9041579650147,4,1,0,90,0,1
41336,-47.2973639682952,4,1,0,90,0,1
41423,-46.7050213623644,4,1,0,90,0,1
41511,-46.11341662943,4,1,0,90,0,1
41598,-45.5359015401544,4,1,0,90,0,1
41686,-44.9591058534428,4,1,0,90,0,1
41773,-44.396047118512,4,1,0,90,0,1
41861,-43.8336897780643,4,1,0,90,0,1
41948,-43.2847255261009,4,1,0,90,0,1
42036,-42.7364451113178,4,1,0,90,0,1
42123,-42.2012225293062,4,1,0,90,0,1
42233,-41.6666666666667,4,1,0,100,0,0
42823,-111.111111111111,4,1,0,100,0,0
44310,-76.923076923077,4,1,0,100,0,0
44397,-72.8828651239435,4,1,0,100,0,0
44485,-69.012045829774,4,1,0,100,0,0
44528,-67.1960831515645,4,1,0,100,0,0
44572,-65.387343165805,4,1,0,100,0,0
44660,-61.9146121049405,4,1,0,100,0,0
44747,-58.662686202194,4,1,0,100,0,0
44834,-55.5815604016755,4,1,0,100,0,0
44878,-54.085452502906,4,1,0,100,0,0
44922,-52.629615852885,4,1,0,100,0,0
44966,-51.212966456616,4,1,0,100,0,0
45032,174.927113702624,4,1,0,100,1,0
45032,-99.7307270370001,4,1,0,100,0,1
45095,-98.6102318292665,4,1,0,100,0,1
45139,-98.0547139755492,4,1,0,100,0,1
45182,-97.5148452713455,4,1,0,100,0,1
45270,-96.4192459504974,4,1,0,100,0,1
45314,-95.8760709515764,4,1,0,100,0,1
45357,-95.3481973992485,4,1,0,100,0,1
45401,-94.8110561209807,4,1,0,100,0,1
45445,-94.2769408123767,4,1,0,100,0,1
45532,-93.229689510234,4,1,0,100,0,1
45576,-92.7044827841295,4,1,0,100,0,1
45620,-92.1822347947384,4,1,0,100,0,1
45706,-91.1699570526844,4,1,0,100,0,1
45707,-91.1582519990372,4,1,0,100,0,1
45795,-90.1340703095525,4,1,0,100,0,1
45837,-89.6493208327655,4,1,0,100,0,1
45882,-89.1328390255745,4,1,0,100,0,1
45970,-88.1314132669636,4,1,0,100,0,1
46013,-87.6461801766714,4,1,0,100,0,1
46057,-87.1524279869131,4,1,0,100,0,1
46101,-86.6614573356589,4,1,0,100,0,1
46144,-86.1843175146415,4,1,0,100,0,1
46232,-85.2160190009736,4,1,0,100,0,1
46276,-84.7359570530439,4,1,0,100,0,1
46319,-84.2694186330237,4,1,0,100,0,1
46407,-83.3333333333333,4,1,0,100,0,1
46431,-83.3333333333333,4,1,0,100,0,0
46584,-100,4,1,0,100,0,0
47109,-94.4356497743691,4,1,0,100,0,0
47167,-93.8402356879325,4,1,0,100,0,0
47225,-93.2485756703796,4,1,0,100,0,0
47283,-92.6606460524127,4,1,0,100,0,0
47342,-92.0663828769262,4,1,0,100,0,0
47400,-91.485906950905,4,1,0,100,0,0
47458,-90.9090909090909,4,1,0,100,0,0
47830,-100,4,1,0,100,0,1
49929,-153.846153846154,4,1,0,100,0,0
49995,-149.277418006387,4,1,0,100,0,0
50082,-144.942517423452,4,1,0,100,0,0
50126,-142.798317097264,4,1,0,100,0,0
50170,-140.685836897927,4,1,0,100,0,0
50257,-136.600429175015,4,1,0,100,0,0
50345,-132.588739596389,4,1,0,100,0,0
50432,-128.738465306794,4,1,0,100,0,0
50520,-124.957666353534,4,1,0,100,0,0
50629,-100.270730973628,4,1,0,100,0,1
52008,-90.9090909090909,4,1,0,100,0,1
52181,-125,4,1,0,100,0,1
53428,349.854227405248,4,1,0,100,1,8
53429,349.854227405248,4,1,0,100,1,0
53429,-50,4,1,0,100,0,0
53511,-50,4,1,0,60,0,0
54124,-52.959736300768,4,1,0,60,0,0
54823,-56.5490835234015,4,1,0,60,0,0
55523,-60.3873638357565,4,1,0,60,0,0
56223,-64.4861681891445,4,1,0,60,0,0
56922,-68.856719571301,4,1,0,60,0,0
57622,-73.5303831328775,4,1,0,60,0,0
58322,-83.3333333333335,4,1,0,60,0,0
59027,-83.3333333333335,4,1,0,80,0,0
59179,-81.90698709812,4,1,0,81,0,0
59353,-80.512996907838,4,1,0,82,0,0
59441,-79.817049322848,4,1,0,82,0,0
59528,-79.1349239875355,4,1,0,82,0,0
59616,-78.450888349158,4,1,0,83,0,0
59703,-77.780438376693,4,1,0,83,0,0
59791,-77.1081107982065,4,1,0,84,0,0
59878,-76.449136351271,4,1,0,84,0,0
59966,-75.7883164357095,4,1,0,85,0,0
60053,-75.140621097432,4,1,0,85,0,0
60141,-74.4911118778545,4,1,0,85,0,0
60316,-73.2161104740485,4,1,0,86,0,0
60403,-72.5903974925355,4,1,0,87,0,0
60490,-71.9700319233975,4,1,0,87,0,0
60578,-71.347929010422,4,1,0,88,0,0
60753,-70.1267268112105,4,1,0,88,0,0
60840,-69.527416044322,4,1,0,89,0,0
60928,-68.9264268979105,4,1,0,89,0,0
61015,-68.337374026895,4,1,0,90,0,0
61103,-67.74667150376,4,1,0,90,0,0
61278,-66.5871089855885,4,1,0,91,0,0
61365,-66.0180481842985,4,1,0,91,0,0
61453,-65.4473937190045,4,1,0,92,0,0
61540,-64.8880730504925,4,1,0,92,0,0
61628,-64.327185995377,4,1,0,93,0,0
61715,-63.777438746023,4,1,0,93,0,0
61802,-63.2323896974915,4,1,0,94,0,0
61890,-62.6858142302595,4,1,0,94,0,0
61977,-62.150094325629,4,1,0,94,0,0
62065,-61.6128741287165,4,1,0,95,0,0
62152,-61.0863236889145,4,1,0,95,0,0
62240,-60.5582986360665,4,1,0,96,0,0
62327,-60.040760715114,4,1,0,96,0,0
62415,-59.5217734208205,4,1,0,96,0,0
62502,-59.01309375905,4,1,0,97,0,0
62590,-58.5029895316365,4,1,0,97,0,0
62677,-58.003016509712,4,1,0,98,0,0
62765,-57.5016433052305,4,1,0,98,0,0
62852,-57.010227898956,4,1,0,99,0,0
62939,-56.523012183119,4,1,0,99,0,0
63027,-56.034432011768,4,1,0,99,0,0
63114,-55.5555555555555,4,1,0,100,0,0
64624,174.927113702624,4,1,0,100,1,0
64624,-100,4,1,0,100,0,1
64951,-96.7377377834499,4,1,0,100,0,1
65126,-95.1467351926747,4,1,0,100,0,1
65301,-93.5818991145951,4,1,0,100,0,1
65345,-93.1925202276207,4,1,0,100,0,1
65607,-90.9072623416186,4,1,0,100,0,1
65826,-89.0401217388398,4,1,0,100,0,1
66001,-87.5757184189426,4,1,0,100,0,1
66053,-86.856688563331,4,1,0,100,0,1
66307,-85.0727425323739,4,1,0,100,0,1
66548,-83.3333333333333,4,1,0,100,0,1
66570,-110.803324099723,4,1,0,100,0,0
66767,-110.803324099723,4,1,0,100,0,0
66875,-109.116560120312,4,1,0,100,0,0
66992,-107.015444768184,4,1,0,100,0,0
67109,-104.954787855344,4,1,0,100,0,0
67225,-102.950917677361,4,1,0,100,0,0
67283,-101.96337580681,4,1,0,100,0,0
67342,-100.968526064126,4,1,0,100,0,0
67400,-99.7046351270717,4,1,0,100,0,0
67750,-95.1212855906873,4,1,0,100,0,0
67947,-92.9092368088621,4,1,0,100,0,1
68100,-90.7486292978607,4,1,0,100,0,1
68187,-89.6932707614111,4,1,0,100,0,1
68450,-86.5769808334761,4,1,0,100,0,1
68691,-83.5801998845155,4,1,0,100,0,1
68801,-142.857142857143,4,1,0,100,0,1
68974,-142.478563661395,4,1,0,70,0,1
68997,-142.478563661395,4,1,0,70,0,0
69105,-140.121788546915,4,1,0,70,0,0
69236,-137.821411556762,4,1,0,70,0,0
69367,-135.558799816051,4,1,0,70,0,0
69499,-133.333333333333,4,1,0,70,0,0
69674,-111.111111111111,4,1,0,100,0,0
69717,-109.682125012256,4,1,0,100,0,0
69762,-108.206350584664,4,1,0,100,0,0
69805,-106.814722247524,4,1,0,100,0,0
69849,-105.409255338946,4,1,0,100,0,0
69937,-102.65355754267,4,1,0,100,0,0
70024,-99.6174021587933,4,1,0,100,0,0
70199,-96.625683626163,4,1,0,100,0,0
70374,-93.7238126461142,4,1,0,100,0,0
70549,-90.9090909090909,4,1,0,100,0,0
70746,-100,4,1,0,100,0,1
70811,-102.42075341386,4,1,0,100,0,1
70899,-104.928951770992,4,1,0,100,0,1
70986,-107.469022953116,4,1,0,100,0,1
71074,-110.100849197592,4,1,0,100,0,1
71161,-112.766119263232,4,1,0,100,0,1
71250,-90.9090909090909,4,1,0,100,0,1
71423,-121.188646594342,4,1,0,100,0,1
71511,-124.156454915989,4,1,0,100,0,1
71598,-90.9090909090909,4,1,0,100,0,1
71773,-87.0388279778489,4,1,0,100,0,1
71948,-83.3333333333333,4,1,0,100,0,1
72123,-146.907264745661,4,1,0,100,0,1
72211,-150.504900457214,4,1,0,100,0,1
72298,-154.148252973059,4,1,0,100,0,1
72386,-157.923214413731,4,1,0,100,0,1
72473,-161.746146017929,4,1,0,100,0,1
72560,-165.661621369445,4,1,0,100,0,1
72670,-90.9090909090909,4,1,0,100,0,0
73020,-125,4,1,0,100,0,1
73085,-123.784885925194,4,1,0,100,0,1
73173,-122.567821026797,4,1,0,100,0,1
73260,-121.376349951213,4,1,0,100,0,1
73348,-120.182966010055,4,1,0,100,0,1
73435,-119.014677901649,4,1,0,100,0,1
73523,-117.844514147121,4,1,0,100,0,1
73610,-116.69895792489,4,1,0,100,0,1
73697,-115.564537554572,4,1,0,100,0,1
73785,-114.428295911613,4,1,0,100,0,1
73872,-113.315948448267,4,1,0,100,0,1
73960,-112.201815149567,4,1,0,100,0,1
74070,-111.111111111111,4,1,0,100,0,0
74419,-100,4,1,0,100,0,1
75469,-90.9090909090909,4,1,0,100,0,0
75797,-166.666666666667,4,1,0,80,0,0
75819,349.854227405248,4,1,0,100,1,8
75820,349.854227405248,4,1,0,100,1,0
75820,-83.3333333333333,4,1,0,100,0,0
80695,-55.5555555555555,4,1,0,100,0,0
81044,-52.708599912681,4,1,0,100,0,0
81417,-50,4,1,0,100,0,1
81745,-47.5059382422803,4,1,0,100,0,1
81917,-46.4689232626985,4,1,0,100,0,1
81975,-46.1302459825325,4,1,0,100,0,1
82034,-45.7882619023518,4,1,0,100,0,1
82112,-45.4545454545455,4,1,0,100,0,1
82269,-55.5555555555555,4,1,0,100,0,1
82327,-54.912647351719,4,1,0,100,0,1
82386,-54.2662874903045,4,1,0,100,0,1
82444,-53.638299144757,4,1,0,100,0,1
82488,-53.1667464697675,4,1,0,100,0,1
82531,-52.709916493626,4,1,0,100,0,1
82575,-52.246525548772,4,1,0,100,0,1
82619,-51.7872084325645,4,1,0,100,0,1
82706,-50.890864838045,4,1,0,100,0,1
82794,-50,4,1,0,100,0,1
83145,-48.6495559348573,4,1,0,100,0,1
83318,-47.626623034627,4,1,0,100,0,1
83406,-47.117703455078,4,1,0,100,0,1
83493,-46.189376443418,4,1,0,100,0,1
83668,-52.219321148825,4,1,0,100,0,1
83756,-50.898246307667,4,1,0,100,0,1
83843,-49.6277915632755,4,1,0,100,0,1
84018,-52.219321148825,4,1,0,100,0,1
84076,-51.344485620587,4,1,0,100,0,1
84135,-50.470882928631,4,1,0,100,0,1
84193,-49.6277915632755,4,1,0,100,0,1
84544,-47.5059382422803,4,1,0,100,0,1
84719,-51.9570674490425,4,1,0,100,0,1
84807,-51.351981465491,4,1,0,100,0,1
84894,-50.251256281407,4,1,0,100,0,1
85069,-52.219321148825,4,1,0,100,0,1
85157,-50.898246307667,4,1,0,100,0,1
85244,-49.6277915632755,4,1,0,100,0,1
85440,-49.6277915632755,4,1,0,20,0,0
86310,-78.7361361136675,4,1,0,20,0,0
87015,-125,4,1,0,100,0,0
87037,-125,4,1,0,60,0,0
95390,-125,4,1,0,60,0,0
95391,-125,4,1,0,60,0,0
95566,-122.373200723124,4,1,0,61,0,0
95916,-117.284043948882,4,1,0,64,0,0
96091,-114.81939081421,4,1,0,65,0,0
96266,-112.406530872114,4,1,0,67,0,0
96441,-110.044375720025,4,1,0,68,0,0
96616,-107.731859827501,4,1,0,69,0,0
96791,-105.46794005557,4,1,0,71,0,0
96966,-103.251595186198,4,1,0,72,0,0
97316,-98.957652133404,4,1,0,75,0,0
97491,-96.878117020881,4,1,0,76,0,0
97665,-94.8537930208455,4,1,0,77,0,0
97840,-92.8604980215165,4,1,0,79,0,0
98015,-90.909090909091,4,1,0,80,0,0
98210,-71.4285714285715,4,1,0,90,0,0
98365,-83.3333333333335,4,1,0,90,0,0
103808,-125,4,1,0,60,0,0
103875,-124.345873211834,4,1,0,60,0,0
103963,-123.017846552262,4,1,0,61,0,0
104050,-121.718854283266,4,1,0,62,0,0
104138,-120.418884454873,4,1,0,62,0,0
104225,-119.147335615969,4,1,0,63,0,0
104313,-117.874829870279,4,1,0,64,0,0
104400,-116.630144672138,4,1,0,64,0,0
104488,-115.384522783503,4,1,0,65,0,0
104575,-114.166133685837,4,1,0,66,0,0
104663,-112.946827686862,4,1,0,66,0,0
104750,-111.75417913964,4,1,0,67,0,0
104837,-110.574124222416,4,1,0,68,0,0
104925,-109.393181252351,4,1,0,68,0,0
105012,-108.238057010541,4,1,0,69,0,0
105100,-107.082063477525,4,1,0,70,0,0
105187,-105.951343208037,4,1,0,70,0,0
105274,-104.832562644287,4,1,0,71,0,0
105362,-103.712940139843,4,1,0,72,0,0
105449,-102.617795726148,4,1,0,72,0,0
105537,-101.521827159192,4,1,0,73,0,0
105624,-100.449819541517,4,1,0,74,0,0
105712,-99.3770051822255,4,1,0,74,0,0
105799,-98.327645556239,4,1,0,75,0,0
105887,-97.2774962324325,4,1,0,76,0,0
105974,-96.250306120634,4,1,0,76,0,0
106062,-95.2223429947305,4,1,0,77,0,0
106149,-94.2168540282715,4,1,0,77,0,0
106236,-93.2219824025525,4,1,0,78,0,0
106324,-92.226362084074,4,1,0,79,0,0
106411,-91.252508820483,4,1,0,79,0,0
106499,-90.2779226815455,4,1,0,80,0,0
106587,-89.3137452223745,4,1,0,81,0,0
106674,-88.370647388926,4,1,0,81,0,0
106762,-87.426839825195,4,1,0,82,0,0
106849,-86.5036665440935,4,1,0,83,0,0
106937,-85.579798526974,4,1,0,83,0,0
107024,-84.6761288580245,4,1,0,84,0,0
107112,-83.771779130542,4,1,0,85,0,0
107199,-82.887201026629,4,1,0,85,0,0
107286,-82.011963519634,4,1,0,86,0,0
107287,-82.001957231581,4,1,0,86,0,0
107374,-81.1360673507895,4,1,0,87,0,0
107462,-80.269525842725,4,1,0,87,0,0
107549,-79.4219293644255,4,1,0,88,0,0
107636,-78.5832829799815,4,1,0,89,0,0
107724,-77.7440054704155,4,1,0,89,0,0
107811,-76.923076923077,4,1,0,90,0,0
107962,-125,4,1,0,90,0,0
108050,-122.812020178442,4,1,0,90,0,0
108156,-120.385933757502,4,1,0,90,0,0
108244,-117.980713107051,4,1,0,90,0,0
108331,-115.650066598785,4,1,0,90,0,0
108419,-113.339465021613,4,1,0,90,0,0
108593,-108.90577229224,4,1,0,90,0,0
108681,-106.729916656163,4,1,0,90,0,0
108768,-104.621523673689,4,1,0,90,0,0
108856,-102.531264111235,4,1,0,90,0,0
108943,-100.505813286302,4,1,0,90,0,0
109012,-45.5580865603645,4,1,0,100,0,0
109406,174.927113702624,4,1,0,100,1,0
109406,-111.42061281337,4,1,0,100,0,1
111286,-91.1161731207289,4,1,0,100,0,1
111986,-111.42061281337,4,1,0,100,0,1
114303,-129.651238169325,4,1,0,100,0,0
114366,-125.52784916985,4,1,0,100,0,0
114453,-121.53559919443,4,1,0,100,0,0
114497,-119.565131530966,4,1,0,100,0,0
114541,-117.626611237972,4,1,0,100,0,0
114628,-113.885649858253,4,1,0,100,0,0
114716,-110.222709644356,4,1,0,100,0,0
114803,-106.71721972496,4,1,0,100,0,0
114847,-104.987003788257,4,1,0,100,0,0
114891,-103.284839999047,4,1,0,100,0,0
114935,-101.610273545323,4,1,0,100,0,0
115003,-100,4,1,0,100,0,1
117802,349.854227405248,4,1,0,100,1,0
117802,-76.923076923077,4,1,0,80,0,0
118044,-79.7211595112565,4,1,0,80,0,0
118307,-82.632290413075,4,1,0,80,0,0
118502,-82.632290413075,4,1,0,80,0,0
118569,-85.638046062416,4,1,0,80,0,0
118657,-86.671947025486,4,1,0,80,0,0
118832,-88.76524044584,4,1,0,80,0,0
119007,-90.909090909091,4,1,0,80,0,0
119191,-111.111111111111,4,1,0,70,0,0
119269,-108.862183557114,4,1,0,71,0,0
119356,-106.658775079406,4,1,0,73,0,0
119444,-104.475406158572,4,1,0,74,0,0
119531,-102.360787581946,4,1,0,76,0,0
119619,-100.265401035907,4,1,0,77,0,0
119706,-98.2359944279865,4,1,0,78,0,0
119794,-96.2250448649375,4,1,0,80,0,0
119881,-94.2774164719055,4,1,0,81,0,0
119969,-92.34750136733,4,1,0,83,0,0
120056,-90.4783558040205,4,1,0,84,0,0
120144,-88.626209743618,4,1,0,85,0,0
120231,-86.8323844177295,4,1,0,87,0,0
120406,-83.3333333333335,4,1,0,90,0,0
120600,174.927113702624,4,1,0,100,1,0
120600,-100,4,1,0,100,0,1
120774,-100,4,1,0,100,0,0
120862,-100,4,1,0,100,0,1
121037,-100,4,1,0,100,0,0
121124,-100,4,1,0,100,0,1
121299,-125,4,1,0,100,0,0
121387,-100,4,1,0,100,0,1
121430,-122.872016002695,4,1,0,100,0,1
121514,-120.812640513391,4,1,0,100,0,1
121558,-118.741097095216,4,1,0,100,0,1
121646,-114.70396187666,4,1,0,100,0,1
121689,-112.781485666864,4,1,0,100,0,1
121733,-110.847650404821,4,1,0,100,0,1
121820,-107.120986923554,4,1,0,100,0,1
121864,-105.284210784344,4,1,0,100,0,1
121908,-103.478929375368,4,1,0,100,0,1
121952,-101.70460266455,4,1,0,100,0,1
121999,-100,4,1,0,100,0,1
122174,-100,4,1,0,100,0,0
122261,-100,4,1,0,100,0,1
122436,-100,4,1,0,100,0,0
122524,-100,4,1,0,100,0,1
122699,-125,4,1,0,100,0,0
122775,-100,4,1,0,100,0,0
122830,-122.86157909443,4,1,0,100,0,1
122893,-120.807108325442,4,1,0,100,0,1
122937,-118.740416757565,4,1,0,100,0,1
123025,-114.712495734594,4,1,0,100,0,1
123068,-112.794292574083,4,1,0,100,0,1
123112,-110.864679187927,4,1,0,100,0,1
123199,-107.145930464971,4,1,0,100,0,1
123258,-104.695258845918,4,1,0,100,0,1
123316,-102.34076656963,4,1,0,100,0,1
123398,-100,4,1,0,100,0,1
123573,-100,4,1,0,100,0,0
123661,-100,4,1,0,100,0,1
123836,-100,4,1,0,100,0,0
123923,-100,4,1,0,100,0,1
124098,-125,4,1,0,100,0,0
124186,-100,4,1,0,100,0,1
124248,-125,4,1,0,100,0,1
124292,-123.925236801941,4,1,0,100,0,1
124335,-122.883828905489,4,1,0,100,0,1
124423,-120.779777118769,4,1,0,100,0,1
124467,-119.741299842633,4,1,0,100,0,1
124510,-118.735051733647,4,1,0,100,0,1
124554,-117.714155222263,4,1,0,100,0,1
124598,-116.702036486876,4,1,0,100,0,1
124685,-114.726344676602,4,1,0,100,0,1
124773,-112.76196764953,4,1,0,100,0,1
124816,-111.814370480783,4,1,0,100,0,1
124860,-110.852978717529,4,1,0,100,0,1
124904,-109.899853102162,4,1,0,100,0,1
124948,-108.954922561472,4,1,0,100,0,1
125035,-107.110384499638,4,1,0,100,0,1
125123,-105.276410103739,4,1,0,100,0,1
125166,-104.391717948843,4,1,0,100,0,1
125210,-103.494146935775,4,1,0,100,0,1
125254,-102.604293333047,4,1,0,100,0,1
125298,-101.722090785549,4,1,0,100,0,1
125410,-100,4,1,0,100,0,0
125497,-117.647058823529,4,1,0,100,0,0
125541,-117.647058823529,4,1,0,100,0,0
125654,-113.413103774301,4,1,0,100,0,0
125829,-105.352439295095,4,1,0,100,0,0
125887,-103.417537999004,4,1,0,100,0,0
125910,-101.518173070657,4,1,0,100,0,0
125945,-93.8521655842508,4,1,0,100,0,0
126004,-97.8646743282391,4,1,0,100,0,0
126062,-96.0672932095269,4,1,0,100,0,0
126085,-94.3029227650756,4,1,0,100,0,0
126120,-92.6099640997503,4,1,0,100,0,0
126197,-90.9090909090909,4,1,0,100,0,1
126354,-100,4,1,0,100,0,1
127578,-90.9090909090909,4,1,0,100,0,1
127753,-100,4,1,0,100,0,1
128977,-90.9090909090909,4,1,0,100,0,1
129152,-100,4,1,0,100,0,1
130375,-90.9161763201057,4,1,0,100,0,1
130395,349.854227405248,4,1,0,100,1,8
130397,349.854227405248,4,1,0,100,1,0
130397,-45.4545454545455,4,1,0,100,0,1
130528,-55.566517021195,4,1,0,100,0,0
131774,-50.0043086673735,4,1,0,100,0,0
131796,-50,4,1,0,100,0,0
132496,-50,4,1,0,100,0,1
132626,-49.4107911363731,4,1,0,100,0,1
132889,-48.5333576497645,4,1,0,100,0,1
133151,-47.6747534122188,4,1,0,100,0,1
133414,-46.8281483660816,4,1,0,100,0,1
133676,-45.9997110073131,4,1,0,100,0,1
133851,-45.4545454545455,4,1,0,100,0,1
134026,-55.5555555555555,4,1,0,100,0,1
134113,-54.5939886383695,4,1,0,100,0,1
134201,-53.638299144757,4,1,0,100,0,1
134288,-52.709916493626,4,1,0,100,0,1
134376,-51.7872084325645,4,1,0,100,0,1
134595,-50,4,1,0,100,0,0
135294,-50,4,1,0,100,0,1
135404,-49.4107911363731,4,1,0,100,0,1
135688,-48.5333576497645,4,1,0,100,0,1
135950,-47.6747534122188,4,1,0,100,0,1
136213,-46.8281483660816,4,1,0,100,0,1
136475,-45.9997110073131,4,1,0,100,0,1
136650,-45.4545454545455,4,1,0,100,0,1
136825,-55.5555555555555,4,1,0,100,0,1
136912,-54.5939886383695,4,1,0,100,0,1
137000,-53.638299144757,4,1,0,100,0,1
137087,-52.709916493626,4,1,0,100,0,1
137175,-51.7872084325645,4,1,0,100,0,1
137372,-50,4,1,0,100,0,1
137394,-48.3346442221354,4,1,0,100,0,0
137918,-47.4689269449605,4,1,0,100,0,1
138071,-46.6187154487023,4,1,0,100,0,1
138129,-46.3403044484836,4,1,0,100,0,1
138362,-45.2385161111404,4,1,0,100,0,1
138595,-44.1629239232347,4,1,0,100,0,1
138770,-43.3719259368795,4,1,0,100,0,1
138829,-43.108452758789,4,1,0,100,0,1
139062,-42.0835050150093,4,1,0,100,0,1
139295,-41.0829264566271,4,1,0,100,0,1
139470,-40.3470940158842,4,1,0,100,0,1
139537,-39.8625033180418,4,1,0,100,0,1
139820,-38.9147313563374,4,1,0,100,0,1
140053,-37.9894936465395,4,1,0,100,0,1
140170,-37.5332190204262,4,1,0,100,0,1
140345,-36.8609650564859,4,1,0,100,0,1
140586,-35.7696548592147,4,1,0,100,0,0
140869,-55.5555555555555,4,1,0,100,0,0
142269,-51.5463917525775,4,1,0,100,0,0
142335,-50.2582623427105,4,1,0,100,0,0
142400,-49.0211161269322,4,1,0,100,0,0
142466,-47.7960926240127,4,1,0,100,0,0
142532,-46.6016821038499,4,1,0,100,0,0
142641,-45.4545454545455,4,1,0,100,0,1
142991,-45.4545454545455,4,1,0,100,0,0

[HitObjects]
316,155,1651,5,4,0:0:0:0:
416,114,2175,1,0,0:0:0:0:
416,114,2350,1,8,0:0:0:0:
264,114,2525,1,0,0:0:0:0:
259,115,2700,1,0,0:0:0:0:
259,115,2788,1,8,0:0:0:0:
258,115,2875,1,8,0:0:0:0:
293,205,3050,1,0,0:0:0:0:
312,128,3312,1,8,0:0:0:0:
312,128,3575,1,0,0:0:0:0:
319,125,3750,1,0,0:0:0:0:
319,125,3837,1,8,0:0:0:0:
321,119,4099,1,0,0:0:0:0:
321,119,4274,1,8,0:0:0:0:
325,123,4449,1,0,0:0:0:0:
276,77,4974,1,8,0:0:0:0:
318,111,5324,1,0,0:0:0:0:
361,166,7248,1,0,0:0:0:0:
347,159,7773,1,0,0:0:0:0:
347,159,7948,1,8,0:0:0:0:
336,148,8123,1,0,0:0:0:0:
329,101,8385,1,8,0:0:0:0:
294,84,8648,1,0,0:0:0:0:
294,84,8910,1,8,0:0:0:0:
294,84,9172,1,0,0:0:0:0:
294,84,9347,1,8,0:0:0:0:
271,142,9697,1,0,0:0:0:0:
271,142,9872,1,8,0:0:0:0:
209,62,10047,1,8,0:0:0:0:
327,93,10222,1,0,0:0:0:0:
199,102,10397,1,0,0:0:0:0:
199,102,10572,1,8,0:0:0:0:
324,66,10747,1,0,0:0:0:0:
324,66,10922,1,8,0:0:0:0:
308,80,11097,1,0,0:0:0:0:
308,80,11271,1,8,0:0:0:0:
308,80,11446,1,8,0:0:0:0:
253,78,11621,1,8,0:0:0:0:
259,73,11971,1,8,0:0:0:0:
255,190,12321,1,0,0:0:0:0:
357,72,12496,1,8,0:0:0:0:
357,72,12671,1,8,0:0:0:0:
415,211,12846,1,4,0:0:0:0:
266,173,13546,1,12,0:0:0:0:
266,173,13720,1,4,0:0:0:0:
296,158,13983,1,4,0:0:0:0:
356,152,14245,1,4,0:0:0:0:
343,127,14508,1,4,0:0:0:0:
244,147,14770,1,4,0:0:0:0:
237,142,14945,1,12,0:0:0:0:
333,146,15120,1,8,0:0:0:0:
333,145,15207,1,8,0:0:0:0:
306,120,15295,1,0,0:0:0:0:
307,127,15382,1,8,0:0:0:0:
307,127,15470,1,0,0:0:0:0:
411,226,15645,1,4,0:0:0:0:
266,173,16344,1,12,0:0:0:0:
266,173,16519,1,12,0:0:0:0:
296,158,16781,1,4,0:0:0:0:
356,152,17043,1,12,0:0:0:0:
343,127,17306,1,4,0:0:0:0:
244,147,17568,1,4,0:0:0:0:
237,142,17743,1,12,0:0:0:0:
333,146,17918,1,8,0:0:0:0:
333,145,18005,1,8,0:0:0:0:
306,120,18093,1,0,0:0:0:0:
271,32,18181,1,0,0:0:0:0:
193,52,18269,1,8,0:0:0:0:
411,226,18444,1,4,0:0:0:0:
266,173,19143,1,12,0:0:0:0:
266,173,19317,1,12,0:0:0:0:
296,158,19580,1,4,0:0:0:0:
356,152,19842,1,4,0:0:0:0:
343,127,20105,1,12,0:0:0:0:
244,147,20367,1,4,0:0:0:0:
237,142,20542,1,12,0:0:0:0:
333,146,20717,1,8,0:0:0:0:
333,145,20804,1,8,0:0:0:0:
306,120,20892,1,0,0:0:0:0:
307,127,20979,1,8,0:0:0:0:
307,127,21067,1,0,0:0:0:0:
248,124,21242,1,12,0:0:0:0:
304,147,21592,1,4,0:0:0:0:
173,143,21767,1,8,0:0:0:0:
370,126,21855,1,8,0:0:0:0:
491,243,21942,1,4,0:0:0:0:
414,212,22292,1,0,0:0:0:0:
428,115,22467,1,8,0:0:0:0:
324,79,22554,1,0,0:0:0:0:
316,97,22642,1,8,0:0:0:0:
316,97,22729,1,8,0:0:0:0:
293,146,22817,1,0,0:0:0:0:
293,146,22904,1,8,0:0:0:0:
293,146,22992,1,0,0:0:0:0:
293,146,23079,1,0,0:0:0:0:
293,146,23167,1,8,0:0:0:0:
293,146,23254,1,8,0:0:0:0:
293,146,23341,1,0,0:0:0:0:
340,139,23429,1,0,0:0:0:0:
340,139,23516,1,8,0:0:0:0:
340,139,23604,1,8,0:0:0:0:
373,125,23691,1,0,0:0:0:0:
373,125,23779,1,0,0:0:0:0:
373,125,23866,1,8,0:0:0:0:
295,197,23954,1,8,0:0:0:0:
295,197,24041,1,4,0:0:0:0:
256,192,25091,5,8,0:0:0:0:
256,192,25134,1,8,0:0:0:0:
256,192,25178,1,8,0:0:0:0:
256,192,25222,1,8,0:0:0:0:
125,160,25266,1,0,0:0:0:0:
125,160,25309,1,0,0:0:0:0:
153,164,25353,1,8,0:0:0:0:
153,164,25397,1,8,0:0:0:0:
301,72,25441,1,0,0:0:0:0:
486,180,25528,1,0,0:0:0:0:
424,128,25616,1,8,0:0:0:0:
405,128,25659,1,8,0:0:0:0:
405,128,25703,1,0,0:0:0:0:
405,128,25790,1,8,0:0:0:0:
405,134,25878,1,0,0:0:0:0:
404,133,25965,1,0,0:0:0:0:
404,133,26009,1,0,0:0:0:0:
404,133,26053,1,8,0:0:0:0:
299,137,26140,1,0,0:0:0:0:
409,61,26199,1,8,0:0:0:0:
407,46,26257,1,8,0:0:0:0:
403,45,26315,1,0,0:0:0:0:
151,124,26490,1,8,0:0:0:0:
443,221,26578,1,0,0:0:0:0:
443,221,26665,1,8,0:0:0:0:
293,142,26840,1,0,0:0:0:0:
293,142,26884,1,0,0:0:0:0:
293,142,26927,1,8,0:0:0:0:
293,142,27015,1,0,0:0:0:0:
293,142,27102,1,8,0:0:0:0:
298,214,27146,1,8,0:0:0:0:
237,142,27190,1,0,0:0:0:0:
255,166,27277,1,0,0:0:0:0:
377,177,27365,1,8,0:0:0:0:
351,138,27540,1,8,0:0:0:0:
401,113,27627,1,8,0:0:0:0:
401,113,27715,1,0,0:0:0:0:
401,113,27758,1,0,0:0:0:0:
401,113,27802,1,8,0:0:0:0:
401,113,27890,1,8,0:0:0:0:
401,113,27977,1,0,0:0:0:0:
401,113,28064,1,0,0:0:0:0:
360,278,28152,1,8,0:0:0:0:
401,113,28239,1,0,0:0:0:0:
486,180,28327,1,8,0:0:0:0:
424,128,28415,1,8,0:0:0:0:
405,128,28458,1,8,0:0:0:0:
405,128,28502,1,0,0:0:0:0:
405,128,28589,1,8,0:0:0:0:
405,134,28677,1,0,0:0:0:0:
404,133,28764,1,0,0:0:0:0:
404,133,28808,1,0,0:0:0:0:
404,133,28852,1,8,0:0:0:0:
299,137,28939,1,0,0:0:0:0:
409,61,28998,1,8,0:0:0:0:
407,46,29056,1,8,0:0:0:0:
403,45,29114,1,0,0:0:0:0:
314,55,29289,1,8,0:0:0:0:
314,55,29333,1,8,0:0:0:0:
314,55,29376,1,8,0:0:0:0:
314,55,29420,1,8,0:0:0:0:
281,64,29464,1,4,0:0:0:0:
281,64,29639,1,12,0:0:0:0:
341,168,29779,1,4,0:0:0:0:
404,152,29919,1,12,0:0:0:0:
410,122,30059,1,12,0:0:0:0:
326,135,30199,1,4,0:0:0:0:
336,85,30339,1,8,0:0:0:0:
257,127,30404,1,8,0:0:0:0:
306,42,30470,1,0,0:0:0:0:
416,77,30535,1,8,0:0:0:0:
317,54,30601,1,0,0:0:0:0:
403,142,30667,1,12,0:0:0:0:
410,176,31038,1,0,0:0:0:0:
410,176,31126,1,8,0:0:0:0:
410,176,31169,1,8,0:0:0:0:
410,176,31213,1,0,0:0:0:0:
423,160,31301,1,8,0:0:0:0:
442,145,31388,1,0,0:0:0:0:
191,152,31476,1,8,0:0:0:0:
359,65,31519,1,8,0:0:0:0:
318,114,31563,1,0,0:0:0:0:
440,166,31651,1,0,0:0:0:0:
397,218,31738,1,8,0:0:0:0:
430,142,31913,1,0,0:0:0:0:
399,141,31957,1,0,0:0:0:0:
399,141,32000,1,0,0:0:0:0:
399,141,32044,1,0,0:0:0:0:
399,141,32088,1,8,0:0:0:0:
399,141,32175,1,0,0:0:0:0:
433,189,32263,1,8,0:0:0:0:
390,133,32438,1,0,0:0:0:0:
390,133,32525,1,8,0:0:0:0:
390,133,32569,1,8,0:0:0:0:
390,133,32613,1,0,0:0:0:0:
430,142,32700,1,8,0:0:0:0:
430,142,32788,1,0,0:0:0:0:
426,147,32831,1,0,0:0:0:0:
426,146,32875,1,8,0:0:0:0:
426,146,32919,1,8,0:0:0:0:
426,146,32962,1,0,0:0:0:0:
262,55,33137,1,8,0:0:0:0:
262,55,33225,1,8,0:0:0:0:
262,55,33312,1,0,0:0:0:0:
440,95,33487,1,8,0:0:0:0:
458,114,33575,1,8,0:0:0:0:
458,114,33662,1,0,0:0:0:0:
458,114,33706,1,0,0:0:0:0:
358,142,33750,1,0,0:0:0:0:
358,142,33793,1,0,0:0:0:0:
358,142,33837,1,8,0:0:0:0:
419,170,34012,1,0,0:0:0:0:
419,170,34056,1,0,0:0:0:0:
419,170,34099,1,8,0:0:0:0:
419,170,34187,1,0,0:0:0:0:
419,170,34274,1,8,0:0:0:0:
419,170,34318,1,8,0:0:0:0:
419,170,34362,1,0,0:0:0:0:
419,170,34537,1,8,0:0:0:0:
327,130,34624,1,0,0:0:0:0:
327,130,34712,1,8,0:0:0:0:
294,76,34755,1,8,0:0:0:0:
327,130,34799,1,8,0:0:0:0:
327,130,34843,1,8,0:0:0:0:
389,139,34887,1,4,0:0:0:0:
389,139,35003,1,4,0:0:0:0:
389,139,35237,1,4,0:0:0:0:
270,118,35470,1,4,0:0:0:0:
217,152,35703,1,4,0:0:0:0:
256,192,35936,12,0,36199,0:0:0:0:
336,147,36286,5,12,0:0:0:0:
336,147,36636,1,4,0:0:0:0:
336,147,36986,1,8,0:0:0:0:
336,147,37073,1,8,0:0:0:0:
392,145,37161,1,0,0:0:0:0:
392,145,37248,1,8,0:0:0:0:
336,127,37336,1,0,0:0:0:0:
352,128,37511,1,0,0:0:0:0:
352,127,37598,1,8,0:0:0:0:
359,117,37773,1,8,0:0:0:0:
359,116,37860,1,0,0:0:0:0:
359,116,37948,1,8,0:0:0:0:
359,116,38035,1,0,0:0:0:0:
359,116,38210,1,8,0:0:0:0:
353,186,38385,1,0,0:0:0:0:
360,161,38473,1,0,0:0:0:0:
360,160,38560,1,8,0:0:0:0:
360,160,38648,1,8,0:0:0:0:
361,161,38735,1,0,0:0:0:0:
360,149,38910,1,0,0:0:0:0:
369,65,39085,1,8,0:0:0:0:
460,127,39434,1,4,0:0:0:0:
458,196,39610,1,12,0:0:0:0:
426,155,39697,1,4,0:0:0:0:
450,157,39872,1,0,0:0:0:0:
450,157,39960,1,8,0:0:0:0:
450,157,40047,1,8,0:0:0:0:
450,157,40134,1,4,0:0:0:0:
458,196,40309,1,12,0:0:0:0:
426,155,40396,1,4,0:0:0:0:
450,157,40571,1,0,0:0:0:0:
450,157,40659,1,8,0:0:0:0:
450,157,40746,1,8,0:0:0:0:
450,157,40833,1,4,0:0:0:0:
458,196,41009,1,12,0:0:0:0:
426,155,41096,1,4,0:0:0:0:
323,220,41271,1,8,0:0:0:0:
450,157,41359,1,8,0:0:0:0:
298,198,41446,1,8,0:0:0:0:
382,144,41534,1,0,0:0:0:0:
286,193,41621,1,0,0:0:0:0:
286,193,41709,1,8,0:0:0:0:
282,193,41796,1,8,0:0:0:0:
281,192,41884,1,0,0:0:0:0:
281,192,41971,1,8,0:0:0:0:
281,192,42059,1,0,0:0:0:0:
378,175,42146,1,8,0:0:0:0:
356,209,42234,1,4,0:0:0:0:
377,137,42846,1,8,0:0:0:0:
377,137,42933,1,0,0:0:0:0:
219,37,43108,1,0,0:0:0:0:
306,113,43196,1,8,0:0:0:0:
287,86,43371,1,8,0:0:0:0:
343,119,43633,1,0,0:0:0:0:
343,119,43895,1,0,0:0:0:0:
343,119,43982,1,8,0:0:0:0:
314,106,44158,1,0,0:0:0:0:
306,105,44333,1,8,0:0:0:0:
318,89,44420,1,8,0:0:0:0:
203,202,44508,1,0,0:0:0:0:
293,169,44551,1,0,0:0:0:0:
316,162,44595,1,8,0:0:0:0:
334,156,44683,1,0,0:0:0:0:
334,156,44770,1,8,0:0:0:0:
334,156,44857,1,0,0:0:0:0:
334,156,44901,1,0,0:0:0:0:
334,156,44945,1,8,0:0:0:0:
333,157,44989,1,8,0:0:0:0:
332,158,45032,1,0,0:0:0:0:
372,140,45120,1,8,0:0:0:0:
114,131,45164,1,8,0:0:0:0:
104,132,45207,1,0,0:0:0:0:
290,143,45295,1,8,0:0:0:0:
290,142,45339,1,8,0:0:0:0:
290,142,45382,1,0,0:0:0:0:
100,134,45426,1,0,0:0:0:0:
320,138,45470,1,8,0:0:0:0:
324,135,45557,1,0,0:0:0:0:
324,135,45601,1,0,0:0:0:0:
324,135,45645,1,8,0:0:0:0:
157,38,45732,1,0,0:0:0:0:
320,137,45820,1,8,0:0:0:0:
257,165,45862,1,0,0:0:0:0:
320,138,45907,1,0,0:0:0:0:
320,138,45995,1,8,0:0:0:0:
320,138,46038,1,8,0:0:0:0:
320,138,46082,1,0,0:0:0:0:
143,51,46126,1,0,0:0:0:0:
406,172,46169,1,8,0:0:0:0:
395,131,46257,1,0,0:0:0:0:
395,131,46301,1,0,0:0:0:0:
395,131,46344,1,8,0:0:0:0:
452,193,46432,1,4,0:0:0:0:
383,246,46607,1,8,0:0:0:0:
379,199,46738,1,0,0:0:0:0:
281,88,46869,1,0,0:0:0:0:
381,208,47000,1,8,0:0:0:0:
232,41,47132,5,0,0:0:0:0:
321,139,47190,1,8,0:0:0:0:
321,139,47248,1,8,0:0:0:0:
392,165,47306,1,0,0:0:0:0:
321,139,47365,1,8,0:0:0:0:
321,139,47423,1,8,0:0:0:0:
406,226,47481,1,4,0:0:0:0:
410,153,47830,1,0,0:0:0:0:
410,153,47875,1,0,0:0:0:0:
410,153,47919,1,8,0:0:0:0:
409,152,48006,1,0,0:0:0:0:
409,153,48094,1,8,0:0:0:0:
411,161,48181,1,0,0:0:0:0:
411,161,48225,1,0,0:0:0:0:
412,161,48269,1,8,0:0:0:0:
412,161,48312,1,8,0:0:0:0:
412,161,48356,1,0,0:0:0:0:
412,161,48444,1,8,0:0:0:0:
412,161,48531,1,0,0:0:0:0:
412,161,48618,1,0,0:0:0:0:
412,161,48706,1,8,0:0:0:0:
412,161,48750,1,8,0:0:0:0:
412,161,48793,1,0,0:0:0:0:
412,161,48881,1,8,0:0:0:0:
411,161,48968,1,0,0:0:0:0:
411,161,49056,1,0,0:0:0:0:
412,161,49143,1,8,0:0:0:0:
412,161,49231,1,0,0:0:0:0:
412,161,49274,1,0,0:0:0:0:
412,161,49318,1,8,0:0:0:0:
412,161,49406,1,0,0:0:0:0:
412,161,49493,1,8,0:0:0:0:
412,161,49537,1,8,0:0:0:0:
412,161,49581,1,0,0:0:0:0:
305,156,49668,1,0,0:0:0:0:
322,146,49755,1,8,0:0:0:0:
322,146,49929,1,8,0:0:0:0:
349,172,50018,1,0,0:0:0:0:
349,172,50105,1,8,0:0:0:0:
349,172,50149,1,8,0:0:0:0:
349,172,50193,1,0,0:0:0:0:
349,172,50280,1,8,0:0:0:0:
461,165,50368,1,0,0:0:0:0:
461,165,50455,1,8,0:0:0:0:
461,165,50543,1,8,0:0:0:0:
406,200,50629,1,0,0:0:0:0:
406,200,50674,1,0,0:0:0:0:
371,138,50718,1,8,0:0:0:0:
371,138,50805,1,0,0:0:0:0:
371,138,50849,1,0,0:0:0:0:
371,138,50892,1,8,0:0:0:0:
371,138,50936,1,8,0:0:0:0:
371,138,50980,1,0,0:0:0:0:
371,138,51067,1,0,0:0:0:0:
371,138,51155,1,8,0:0:0:0:
371,138,51199,1,8,0:0:0:0:
371,138,51242,1,0,0:0:0:0:
371,138,51286,1,0,0:0:0:0:
371,138,51330,1,8,0:0:0:0:
227,153,51417,1,0,0:0:0:0:
205,156,51461,1,0,0:0:0:0:
227,153,51505,1,8,0:0:0:0:
227,153,51592,1,8,0:0:0:0:
227,153,51680,1,0,0:0:0:0:
440,104,51738,1,0,0:0:0:0:
440,104,51796,1,8,0:0:0:0:
440,104,51855,1,0,0:0:0:0:
440,104,51913,1,8,0:0:0:0:
440,104,51971,1,8,0:0:0:0:
427,269,52030,1,4,0:0:0:0:
316,151,52204,1,8,0:0:0:0:
316,151,52292,1,0,0:0:0:0:
367,230,52379,1,8,0:0:0:0:
391,171,52554,1,0,0:0:0:0:
413,133,52729,1,8,0:0:0:0:
413,133,52817,1,8,0:0:0:0:
413,133,52904,1,0,0:0:0:0:
406,132,52992,1,0,0:0:0:0:
235,168,53079,1,8,0:0:0:0:
283,156,53167,1,0,0:0:0:0:
283,156,53254,1,8,0:0:0:0:
283,156,53341,1,8,0:0:0:0:
256,192,53429,12,4,58326,0:0:0:0:
255,190,59027,5,0,0:0:0:0:
429,184,59202,1,0,0:0:0:0:
429,184,59376,1,8,0:0:0:0:
429,184,59464,1,8,0:0:0:0:
429,184,59551,1,0,0:0:0:0:
429,184,59639,1,8,0:0:0:0:
394,162,59814,1,8,0:0:0:0:
394,162,59901,1,0,0:0:0:0:
394,162,59989,1,0,0:0:0:0:
394,162,60076,1,8,0:0:0:0:
394,162,60164,1,8,0:0:0:0:
394,162,60339,1,8,0:0:0:0:
394,162,60426,1,0,0:0:0:0:
383,163,60513,1,0,0:0:0:0:
383,163,60601,1,8,0:0:0:0:
394,162,60776,1,8,0:0:0:0:
394,162,60863,1,0,0:0:0:0:
394,162,60951,1,8,0:0:0:0:
394,162,61038,1,8,0:0:0:0:
394,162,61126,1,0,0:0:0:0:
393,163,61301,1,0,0:0:0:0:
387,169,61388,1,0,0:0:0:0:
387,170,61476,1,8,0:0:0:0:
388,161,61563,1,8,0:0:0:0:
388,161,61651,1,0,0:0:0:0:
388,161,61738,1,8,0:0:0:0:
434,184,61825,1,0,0:0:0:0:
369,139,61913,1,0,0:0:0:0:
374,134,62000,1,8,0:0:0:0:
374,134,62088,1,8,0:0:0:0:
374,133,62175,1,0,0:0:0:0:
374,133,62263,1,0,0:0:0:0:
374,133,62350,1,8,0:0:0:0:
374,133,62438,1,8,0:0:0:0:
374,133,62525,1,0,0:0:0:0:
374,133,62613,1,0,0:0:0:0:
374,133,62700,1,8,0:0:0:0:
374,134,62788,1,8,0:0:0:0:
374,134,62875,1,0,0:0:0:0:
374,133,62962,1,0,0:0:0:0:
374,133,63050,1,8,0:0:0:0:
391,188,63137,1,8,0:0:0:0:
256,192,63224,12,0,64536,0:0:0:0:
232,172,64624,5,4,0:0:0:0:
370,87,64974,5,4,0:0:0:0:
215,94,65149,1,12,0:0:0:0:
215,94,65382,1,12,0:0:0:0:
288,164,65616,1,4,0:0:0:0:
323,157,65849,1,12,0:0:0:0:
441,117,66082,1,4,0:0:0:0:
441,117,66315,1,4,0:0:0:0:
223,150,66548,1,4,0:0:0:0:
406,203,66782,1,8,0:0:0:0:
283,68,66898,1,8,0:0:0:0:
283,68,67015,1,0,0:0:0:0:
263,92,67132,1,8,0:0:0:0:
352,111,67248,1,0,0:0:0:0:
252,103,67306,1,0,0:0:0:0:
252,103,67365,1,0,0:0:0:0:
490,281,67423,1,12,0:0:0:0:
366,160,67773,1,12,0:0:0:0:
360,160,67948,1,4,0:0:0:0:
353,126,68210,1,4,0:0:0:0:
275,105,68473,1,4,0:0:0:0:
249,78,68735,1,4,0:0:0:0:
122,162,68997,1,0,0:0:0:0:
269,103,69129,1,0,0:0:0:0:
197,149,69260,1,8,0:0:0:0:
271,90,69391,1,8,0:0:0:0:
213,140,69522,1,0,0:0:0:0:
415,32,69697,1,8,0:0:0:0:
415,32,69740,1,8,0:0:0:0:
321,116,69785,1,0,0:0:0:0:
321,116,69828,1,0,0:0:0:0:
326,108,69872,1,8,0:0:0:0:
398,104,69960,1,8,0:0:0:0:
445,199,70047,1,4,0:0:0:0:
379,190,70397,1,4,0:0:0:0:
427,213,70572,1,12,0:0:0:0:
425,200,70747,1,0,0:0:0:0:
425,200,70834,1,0,0:0:0:0:
421,161,70922,1,8,0:0:0:0:
414,150,71009,1,8,0:0:0:0:
414,150,71097,1,0,0:0:0:0:
414,150,71184,1,0,0:0:0:0:
243,60,71271,1,12,0:0:0:0:
414,150,71446,1,8,0:0:0:0:
295,160,71534,1,8,0:0:0:0:
169,49,71621,1,4,0:0:0:0:
339,156,71796,1,4,0:0:0:0:
339,156,71971,1,12,0:0:0:0:
353,143,72146,1,0,0:0:0:0:
352,132,72234,1,0,0:0:0:0:
327,110,72321,1,8,0:0:0:0:
327,110,72409,1,8,0:0:0:0:
327,110,72496,1,0,0:0:0:0:
365,157,72583,1,0,0:0:0:0:
365,157,72671,1,12,0:0:0:0:
426,171,73021,1,0,0:0:0:0:
426,171,73108,1,8,0:0:0:0:
214,156,73196,1,0,0:0:0:0:
214,156,73283,1,0,0:0:0:0:
214,156,73371,1,8,0:0:0:0:
333,137,73458,1,8,0:0:0:0:
333,137,73546,1,0,0:0:0:0:
333,137,73633,1,0,0:0:0:0:
333,137,73720,1,8,0:0:0:0:
333,137,73808,1,0,0:0:0:0:
333,137,73895,1,8,0:0:0:0:
333,137,73983,1,8,0:0:0:0:
328,141,74070,1,4,0:0:0:0:
370,152,74420,1,0,0:0:0:0:
243,198,74508,1,8,0:0:0:0:
243,198,74551,1,8,0:0:0:0:
243,198,74595,1,0,0:0:0:0:
370,152,74683,1,8,0:0:0:0:
370,152,74770,1,0,0:0:0:0:
370,152,74814,1,0,0:0:0:0:
370,152,74857,1,8,0:0:0:0:
370,152,74901,1,8,0:0:0:0:
370,152,74945,1,0,0:0:0:0:
370,152,75032,1,8,0:0:0:0:
366,155,75120,1,0,0:0:0:0:
366,155,75207,1,8,0:0:0:0:
230,79,75251,1,8,0:0:0:0:
230,79,75295,1,0,0:0:0:0:
230,79,75382,1,8,0:0:0:0:
346,162,75470,1,4,0:0:0:0:
361,165,75820,1,0,0:0:0:0:
286,103,76082,1,0,0:0:0:0:
328,142,76344,1,8,0:0:0:0:
388,68,76607,1,0,0:0:0:0:
328,142,76694,1,8,0:0:0:0:
328,142,76869,1,0,0:0:0:0:
379,69,77044,1,8,0:0:0:0:
372,96,77219,1,0,0:0:0:0:
372,84,77481,1,8,0:0:0:0:
371,84,77744,1,0,0:0:0:0:
212,165,78006,1,0,0:0:0:0:
212,165,78094,1,0,0:0:0:0:
306,99,78269,1,0,0:0:0:0:
306,99,78444,1,8,0:0:0:0:
378,114,78618,1,0,0:0:0:0:
378,114,78881,1,0,0:0:0:0:
378,114,79143,1,8,0:0:0:0:
326,124,79406,1,0,0:0:0:0:
326,124,79493,1,8,0:0:0:0:
355,100,79668,1,0,0:0:0:0:
352,105,79843,1,8,0:0:0:0:
355,100,80018,1,0,0:0:0:0:
355,100,80280,1,0,0:0:0:0:
408,113,80368,1,8,0:0:0:0:
413,101,80543,1,0,0:0:0:0:
413,101,80718,1,4,0:0:0:0:
422,106,81067,1,4,0:0:0:0:
427,100,81417,1,4,0:0:0:0:
244,167,81591,1,8,0:0:0:0:
399,104,81767,1,4,0:0:0:0:
397,76,81942,1,8,0:0:0:0:
397,76,82000,1,8,0:0:0:0:
134,104,82059,1,8,0:0:0:0:
397,76,82117,1,4,0:0:0:0:
426,99,82292,1,8,0:0:0:0:
424,95,82350,1,8,0:0:0:0:
424,95,82409,1,8,0:0:0:0:
266,94,82467,1,0,0:0:0:0:
462,78,82511,1,0,0:0:0:0:
456,74,82554,1,8,0:0:0:0:
402,103,82598,1,8,0:0:0:0:
456,74,82642,1,0,0:0:0:0:
393,150,82729,1,8,0:0:0:0:
393,155,82817,1,4,0:0:0:0:
229,112,82991,1,8,0:0:0:0:
229,112,83049,1,8,0:0:0:0:
229,112,83107,1,8,0:0:0:0:
506,227,83167,1,4,0:0:0:0:
313,133,83341,1,8,0:0:0:0:
313,133,83429,1,8,0:0:0:0:
313,133,83516,1,4,0:0:0:0:
425,195,83691,1,0,0:0:0:0:
425,195,83779,1,8,0:0:0:0:
392,132,83866,1,4,0:0:0:0:
437,132,84041,1,8,0:0:0:0:
437,132,84099,1,8,0:0:0:0:
437,132,84158,1,8,0:0:0:0:
437,132,84216,1,4,0:0:0:0:
173,102,84390,1,8,0:0:0:0:
173,147,84566,1,4,0:0:0:0:
421,99,84741,1,8,0:0:0:0:
403,88,84828,1,8,0:0:0:0:
311,133,84916,1,4,0:0:0:0:
347,115,85091,1,0,0:0:0:0:
347,115,85178,1,8,0:0:0:0:
347,107,85266,1,4,0:0:0:0:
256,192,85615,12,0,86840,0:0:0:0:
370,204,87015,5,8,0:0:0:0:
376,183,87190,1,0,0:0:0:0:
376,183,87540,1,8,0:0:0:0:
353,113,87890,1,0,0:0:0:0:
164,147,88064,1,8,0:0:0:0:
164,147,88239,1,8,0:0:0:0:
296,56,88414,1,0,0:0:0:0:
296,56,88589,1,8,0:0:0:0:
280,75,88939,1,0,0:0:0:0:
243,190,89289,1,0,0:0:0:0:
255,187,89464,1,8,0:0:0:0:
256,186,89639,1,0,0:0:0:0:
256,186,89814,1,8,0:0:0:0:
256,186,89989,1,0,0:0:0:0:
256,186,90339,1,8,0:0:0:0:
256,186,90688,1,8,0:0:0:0:
256,186,90863,1,8,0:0:0:0:
256,186,91038,1,0,0:0:0:0:
343,177,91213,1,0,0:0:0:0:
343,177,91388,1,8,0:0:0:0:
343,177,91738,1,8,0:0:0:0:
348,171,92088,1,8,0:0:0:0:
356,166,92263,1,0,0:0:0:0:
356,166,92438,1,8,0:0:0:0:
356,166,92613,1,8,0:0:0:0:
356,166,92788,1,0,0:0:0:0:
337,197,93137,1,8,0:0:0:0:
194,156,93487,1,0,0:0:0:0:
207,131,93662,1,8,0:0:0:0:
213,129,93837,1,0,0:0:0:0:
213,129,94012,1,8,0:0:0:0:
207,131,94187,1,8,0:0:0:0:
213,129,94537,1,0,0:0:0:0:
235,154,94887,1,8,0:0:0:0:
235,154,95062,1,0,0:0:0:0:
292,108,95237,1,0,0:0:0:0:
292,108,95411,1,8,0:0:0:0:
305,128,95586,1,8,0:0:0:0:
301,160,95936,1,0,0:0:0:0:
365,188,96286,1,8,0:0:0:0:
365,188,96461,1,8,0:0:0:0:
365,188,96636,1,0,0:0:0:0:
365,188,96811,1,8,0:0:0:0:
351,160,96986,1,0,0:0:0:0:
351,160,97336,1,8,0:0:0:0:
351,160,97685,1,8,0:0:0:0:
356,164,97860,1,8,0:0:0:0:
356,164,98035,1,0,0:0:0:0:
381,186,98210,1,12,0:0:0:0:
389,175,98385,1,0,0:0:0:0:
389,175,98473,1,8,0:0:0:0:
394,177,98648,1,0,0:0:0:0:
394,177,98735,1,8,0:0:0:0:
344,143,98997,1,8,0:0:0:0:
406,164,99085,1,0,0:0:0:0:
367,139,99259,1,8,0:0:0:0:
390,165,99435,1,0,0:0:0:0:
390,165,99610,1,8,0:0:0:0:
389,175,99785,1,0,0:0:0:0:
389,175,99873,1,8,0:0:0:0:
394,177,100048,1,0,0:0:0:0:
394,177,100135,1,8,0:0:0:0:
344,143,100397,1,8,0:0:0:0:
406,164,100485,1,0,0:0:0:0:
367,139,100659,1,8,0:0:0:0:
390,165,100835,1,0,0:0:0:0:
390,165,101010,1,8,0:0:0:0:
389,175,101184,1,0,0:0:0:0:
389,175,101272,1,8,0:0:0:0:
394,177,101447,1,0,0:0:0:0:
394,177,101534,1,8,0:0:0:0:
344,143,101796,1,8,0:0:0:0:
406,164,101884,1,0,0:0:0:0:
367,139,102058,1,8,0:0:0:0:
296,178,102234,1,8,0:0:0:0:
296,178,102409,1,0,0:0:0:0:
368,202,102583,1,8,0:0:0:0:
368,202,102758,1,0,0:0:0:0:
368,202,102846,1,8,0:0:0:0:
393,171,103021,1,8,0:0:0:0:
411,190,103196,1,0,0:0:0:0:
411,190,103283,1,8,0:0:0:0:
351,193,103458,1,0,0:0:0:0:
411,190,103633,1,8,0:0:0:0:
421,240,103808,1,0,0:0:0:0:
222,222,103895,1,0,0:0:0:0:
222,222,103983,1,8,0:0:0:0:
396,167,104070,1,8,0:0:0:0:
216,217,104158,1,0,0:0:0:0:
398,161,104245,1,0,0:0:0:0:
398,161,104333,1,8,0:0:0:0:
216,217,104420,1,8,0:0:0:0:
211,212,104508,1,0,0:0:0:0:
311,137,104595,1,8,0:0:0:0:
209,211,104683,1,8,0:0:0:0:
209,211,104770,1,0,0:0:0:0:
310,134,104857,1,8,0:0:0:0:
310,134,104945,1,0,0:0:0:0:
310,135,105032,1,8,0:0:0:0:
310,135,105120,1,8,0:0:0:0:
421,240,105207,1,0,0:0:0:0:
222,222,105294,1,0,0:0:0:0:
222,222,105382,1,8,0:0:0:0:
396,167,105469,1,8,0:0:0:0:
216,217,105557,1,0,0:0:0:0:
398,161,105644,1,0,0:0:0:0:
398,161,105732,1,8,0:0:0:0:
216,217,105819,1,8,0:0:0:0:
211,212,105907,1,0,0:0:0:0:
311,137,105994,1,8,0:0:0:0:
209,211,106082,1,8,0:0:0:0:
209,211,106169,1,0,0:0:0:0:
310,134,106256,1,8,0:0:0:0:
310,134,106344,1,0,0:0:0:0:
310,135,106431,1,8,0:0:0:0:
310,135,106519,1,8,0:0:0:0:
421,240,106607,1,0,0:0:0:0:
222,222,106694,1,0,0:0:0:0:
222,222,106782,1,8,0:0:0:0:
396,167,106869,1,8,0:0:0:0:
216,217,106957,1,0,0:0:0:0:
398,161,107044,1,0,0:0:0:0:
398,161,107132,1,8,0:0:0:0:
216,217,107219,1,8,0:0:0:0:
211,212,107307,1,0,0:0:0:0:
311,137,107394,1,8,0:0:0:0:
209,211,107482,1,8,0:0:0:0:
209,211,107569,1,0,0:0:0:0:
310,134,107656,1,8,0:0:0:0:
310,134,107744,1,0,0:0:0:0:
310,135,107831,1,8,0:0:0:0:
383,218,108006,1,0,0:0:0:0:
456,176,108094,1,0,0:0:0:0:
491,75,108181,1,8,0:0:0:0:
491,75,108269,1,0,0:0:0:0:
456,176,108356,1,8,0:0:0:0:
491,75,108444,1,0,0:0:0:0:
481,88,108618,1,8,0:0:0:0:
456,176,108706,1,0,0:0:0:0:
477,88,108793,1,0,0:0:0:0:
474,81,108881,1,8,0:0:0:0:
474,81,108968,1,0,0:0:0:0:
386,117,109056,1,12,0:0:0:0:
340,246,109406,1,8,0:0:0:0:
186,91,109450,1,8,0:0:0:0:
431,251,109494,1,0,0:0:0:0:
217,238,109537,1,0,0:0:0:0:
351,186,109581,1,8,0:0:0:0:
349,323,109668,1,0,0:0:0:0:
89,271,109712,1,0,0:0:0:0:
349,323,109755,1,8,0:0:0:0:
292,338,109843,1,0,0:0:0:0:
272,134,109930,1,8,0:0:0:0:
188,152,109974,1,8,0:0:0:0:
188,152,110018,1,0,0:0:0:0:
272,134,110105,1,0,0:0:0:0:
132,251,110193,1,8,0:0:0:0:
477,299,110237,1,0,0:0:0:0:
436,306,110280,1,8,0:0:0:0:
384,328,110324,1,8,0:0:0:0:
372,331,110368,1,0,0:0:0:0:
227,71,110455,1,8,0:0:0:0:
504,251,110499,1,8,0:0:0:0:
92,131,110543,1,0,0:0:0:0:
461,291,110630,1,8,0:0:0:0:
461,291,110674,1,0,0:0:0:0:
351,66,110718,1,0,0:0:0:0:
340,246,110805,1,8,0:0:0:0:
186,91,110849,1,8,0:0:0:0:
431,251,110893,1,0,0:0:0:0:
217,238,110936,1,0,0:0:0:0:
351,186,110980,1,8,0:0:0:0:
487,137,111067,1,0,0:0:0:0:
487,137,111111,1,0,0:0:0:0:
426,109,111155,1,8,0:0:0:0:
272,134,111242,1,0,0:0:0:0:
267,263,111330,1,12,0:0:0:0:
221,219,111417,1,4,0:0:0:0:
267,263,111592,1,12,0:0:0:0:
221,219,111679,1,4,0:0:0:0:
156,149,111855,1,4,0:0:0:0:
176,146,112030,1,8,0:0:0:0:
396,122,112088,1,0,0:0:0:0:
171,20,112146,1,0,0:0:0:0:
340,246,112204,1,8,0:0:0:0:
186,91,112248,1,8,0:0:0:0:
431,251,112292,1,0,0:0:0:0:
217,238,112335,1,0,0:0:0:0:
351,186,112379,1,8,0:0:0:0:
349,323,112466,1,0,0:0:0:0:
89,271,112510,1,0,0:0:0:0:
349,323,112553,1,8,0:0:0:0:
292,338,112641,1,0,0:0:0:0:
272,134,112728,1,8,0:0:0:0:
188,152,112772,1,8,0:0:0:0:
188,152,112816,1,0,0:0:0:0:
272,134,112903,1,0,0:0:0:0:
132,251,112991,1,8,0:0:0:0:
477,299,113035,1,0,0:0:0:0:
436,306,113078,1,8,0:0:0:0:
384,328,113122,1,8,0:0:0:0:
372,331,113166,1,0,0:0:0:0:
184,6,113254,1,8,0:0:0:0:
125,149,113298,1,8,0:0:0:0:
125,149,113341,1,8,0:0:0:0:
141,28,113429,1,0,0:0:0:0:
302,116,113473,1,0,0:0:0:0:
147,29,113516,1,8,0:0:0:0:
433,138,113604,1,0,0:0:0:0:
433,138,113648,1,0,0:0:0:0:
433,138,113691,1,0,0:0:0:0:
433,138,113735,1,0,0:0:0:0:
433,138,113779,1,8,0:0:0:0:
500,124,113866,1,8,0:0:0:0:
413,108,113954,1,0,0:0:0:0:
366,252,113997,1,0,0:0:0:0:
410,100,114041,1,8,0:0:0:0:
411,69,114085,1,8,0:0:0:0:
417,71,114129,1,0,0:0:0:0:
436,81,114216,1,8,0:0:0:0:
287,149,114391,1,8,0:0:0:0:
305,248,114478,1,8,0:0:0:0:
305,248,114522,1,8,0:0:0:0:
308,142,114566,1,0,0:0:0:0:
341,125,114653,1,8,0:0:0:0:
261,251,114741,1,0,0:0:0:0:
244,201,114828,1,8,0:0:0:0:
162,56,114872,1,8,0:0:0:0:
162,56,114916,1,0,0:0:0:0:
448,238,114960,1,0,0:0:0:0:
176,66,115003,1,8,0:0:0:0:
412,90,115091,1,0,0:0:0:0:
350,189,115178,1,0,0:0:0:0:
350,189,115266,1,8,0:0:0:0:
346,69,115309,1,8,0:0:0:0:
350,189,115353,1,0,0:0:0:0:
240,106,115441,1,8,0:0:0:0:
240,106,115528,1,0,0:0:0:0:
126,156,115572,1,0,0:0:0:0:
444,127,115616,1,8,0:0:0:0:
176,92,115659,1,8,0:0:0:0:
444,127,115703,1,0,0:0:0:0:
186,234,115790,1,8,0:0:0:0:
186,234,115834,1,8,0:0:0:0:
186,234,115878,1,0,0:0:0:0:
444,292,115922,1,8,0:0:0:0:
186,234,115965,1,8,0:0:0:0:
233,47,116053,1,0,0:0:0:0:
233,47,116096,1,0,0:0:0:0:
233,47,116140,1,8,0:0:0:0:
244,60,116228,1,0,0:0:0:0:
505,278,116271,1,0,0:0:0:0:
140,25,116315,1,0,0:0:0:0:
176,66,116403,1,8,0:0:0:0:
387,226,116446,1,8,0:0:0:0:
412,90,116491,1,0,0:0:0:0:
350,189,116578,1,0,0:0:0:0:
350,189,116666,1,8,0:0:0:0:
346,69,116709,1,8,0:0:0:0:
350,189,116753,1,0,0:0:0:0:
240,106,116841,1,8,0:0:0:0:
240,106,116928,1,0,0:0:0:0:
62,119,116971,1,0,0:0:0:0:
444,127,117016,1,8,0:0:0:0:
285,259,117059,1,8,0:0:0:0:
444,127,117103,1,0,0:0:0:0:
289,45,117190,1,8,0:0:0:0:
289,45,117234,1,0,0:0:0:0:
289,45,117278,1,8,0:0:0:0:
289,45,117322,1,8,0:0:0:0:
289,45,117365,1,0,0:0:0:0:
362,37,117453,1,8,0:0:0:0:
362,37,117497,1,0,0:0:0:0:
362,37,117540,1,0,0:0:0:0:
362,37,117628,1,8,0:0:0:0:
218,224,117802,1,0,0:0:0:0:
369,171,118064,1,0,0:0:0:0:
269,127,118327,1,8,0:0:0:0:
448,142,118589,1,0,0:0:0:0:
173,164,118677,1,0,0:0:0:0:
173,164,118852,1,8,0:0:0:0:
265,184,119027,1,0,0:0:0:0:
387,119,119202,1,0,0:0:0:0:
281,103,119289,1,0,0:0:0:0:
281,103,119376,1,8,0:0:0:0:
284,110,119464,1,0,0:0:0:0:
284,109,119551,1,8,0:0:0:0:
284,109,119639,1,8,0:0:0:0:
356,259,119726,1,0,0:0:0:0:
356,259,119814,1,8,0:0:0:0:
405,206,119901,1,0,0:0:0:0:
355,139,119989,1,8,0:0:0:0:
355,139,120076,1,8,0:0:0:0:
251,97,120164,1,0,0:0:0:0:
251,97,120251,1,8,0:0:0:0:
235,103,120426,1,8,0:0:0:0:
269,175,120601,1,4,0:0:0:0:
256,192,120863,1,4,0:0:0:0:
246,144,121124,1,4,0:0:0:0:
301,145,121387,1,4,0:0:0:0:
232,27,121474,1,8,0:0:0:0:
289,89,121518,1,8,0:0:0:0:
218,61,121562,1,0,0:0:0:0:
226,44,121649,1,8,0:0:0:0:
321,247,121693,1,0,0:0:0:0:
194,56,121737,1,0,0:0:0:0:
184,51,121824,1,8,0:0:0:0:
374,154,121868,1,8,0:0:0:0:
374,154,121911,1,8,0:0:0:0:
140,43,121955,1,8,0:0:0:0:
269,175,121999,1,4,0:0:0:0:
256,192,122261,1,4,0:0:0:0:
246,144,122524,1,4,0:0:0:0:
301,145,122786,1,4,0:0:0:0:
232,27,122874,1,8,0:0:0:0:
289,89,122917,1,8,0:0:0:0:
218,61,122961,1,0,0:0:0:0:
226,44,123048,1,8,0:0:0:0:
137,152,123092,1,0,0:0:0:0:
194,56,123136,1,0,0:0:0:0:
184,51,123223,1,8,0:0:0:0:
374,154,123282,1,8,0:0:0:0:
374,154,123340,1,8,0:0:0:0:
269,175,123398,1,4,0:0:0:0:
256,192,123662,1,4,0:0:0:0:
246,144,123923,1,4,0:0:0:0:
301,145,124186,1,4,0:0:0:0:
232,27,124273,1,8,0:0:0:0:
289,89,124317,1,8,0:0:0:0:
218,61,124360,1,0,0:0:0:0:
226,44,124448,1,8,0:0:0:0:
137,152,124492,1,8,0:0:0:0:
194,56,124535,1,0,0:0:0:0:
184,51,124579,1,0,0:0:0:0:
184,51,124623,1,8,0:0:0:0:
374,154,124710,1,8,0:0:0:0:
433,138,124798,1,0,0:0:0:0:
433,138,124841,1,0,0:0:0:0:
433,138,124885,1,0,0:0:0:0:
433,138,124929,1,0,0:0:0:0:
433,138,124973,1,8,0:0:0:0:
500,124,125060,1,8,0:0:0:0:
413,108,125148,1,0,0:0:0:0:
366,252,125191,1,0,0:0:0:0:
410,100,125235,1,8,0:0:0:0:
411,69,125279,1,8,0:0:0:0:
417,71,125323,1,0,0:0:0:0:
436,81,125410,1,8,0:0:0:0:
373,125,125585,1,0,0:0:0:0:
373,125,125672,1,8,0:0:0:0:
235,125,125847,1,0,0:0:0:0:
235,125,125891,1,0,0:0:0:0:
235,125,125935,1,0,0:0:0:0:
235,125,126022,1,8,0:0:0:0:
235,125,126066,1,8,0:0:0:0:
235,125,126110,1,8,0:0:0:0:
0,167,126153,1,8,0:0:0:0:
305,163,126197,1,4,0:0:0:0:
341,40,126372,1,8,0:0:0:0:
442,134,126460,1,0,0:0:0:0:
442,134,126503,1,0,0:0:0:0:
436,105,126547,1,8,0:0:0:0:
361,188,126634,1,0,0:0:0:0:
366,186,126722,1,8,0:0:0:0:
366,186,126766,1,8,0:0:0:0:
376,179,126809,1,0,0:0:0:0:
254,57,126897,1,0,0:0:0:0:
268,55,126984,1,8,0:0:0:0:
281,53,127028,1,0,0:0:0:0:
281,53,127072,1,8,0:0:0:0:
281,53,127116,1,8,0:0:0:0:
281,53,127159,1,0,0:0:0:0:
366,100,127247,1,8,0:0:0:0:
366,100,127305,1,8,0:0:0:0:
366,100,127363,1,0,0:0:0:0:
370,96,127422,1,8,0:0:0:0:
185,190,127480,1,0,0:0:0:0:
185,190,127538,1,0,0:0:0:0:
445,266,127597,1,12,0:0:0:0:
305,163,127772,1,0,0:0:0:0:
205,205,127815,1,0,0:0:0:0:
215,195,127859,1,8,0:0:0:0:
341,40,127946,1,8,0:0:0:0:
442,134,128034,1,0,0:0:0:0:
436,105,128121,1,8,0:0:0:0:
75,253,128165,1,8,0:0:0:0:
361,188,128209,1,0,0:0:0:0:
201,78,128296,1,0,0:0:0:0:
88,148,128384,1,8,0:0:0:0:
88,148,128427,1,0,0:0:0:0:
220,146,128471,1,0,0:0:0:0:
277,116,128515,1,0,0:0:0:0:
163,125,128559,1,8,0:0:0:0:
154,50,128646,1,0,0:0:0:0:
281,53,128704,1,0,0:0:0:0:
281,53,128763,1,0,0:0:0:0:
366,100,128821,1,8,0:0:0:0:
366,100,128879,1,8,0:0:0:0:
366,100,128938,1,8,0:0:0:0:
221,48,128996,1,4,0:0:0:0:
341,40,129171,1,8,0:0:0:0:
442,134,129258,1,0,0:0:0:0:
442,134,129302,1,0,0:0:0:0:
436,105,129346,1,8,0:0:0:0:
361,188,129433,1,0,0:0:0:0:
366,186,129521,1,8,0:0:0:0:
366,186,129565,1,8,0:0:0:0:
376,179,129608,1,0,0:0:0:0:
254,57,129696,1,0,0:0:0:0:
268,55,129783,1,8,0:0:0:0:
281,53,129827,1,0,0:0:0:0:
281,53,129871,1,8,0:0:0:0:
281,53,129914,1,8,0:0:0:0:
281,53,129958,1,0,0:0:0:0:
366,100,130046,1,8,0:0:0:0:
17,114,130104,1,8,0:0:0:0:
42,101,130162,1,0,0:0:0:0:
42,101,130220,1,8,0:0:0:0:
502,317,130279,1,0,0:0:0:0:
185,190,130337,1,0,0:0:0:0:
445,266,130397,1,12,0:0:0:0:
305,163,130571,1,0,0:0:0:0:
215,195,130658,1,8,0:0:0:0:
341,40,130746,1,8,0:0:0:0:
442,134,130833,1,0,0:0:0:0:
442,134,130877,1,0,0:0:0:0:
436,105,130922,1,8,0:0:0:0:
361,188,131008,1,0,0:0:0:0:
366,186,131097,1,8,0:0:0:0:
255,190,131184,1,8,0:0:0:0:
88,148,131271,1,0,0:0:0:0:
176,12,131358,1,0,0:0:0:0:
281,53,131445,1,8,0:0:0:0:
281,53,131489,1,0,0:0:0:0:
281,53,131533,1,0,0:0:0:0:
366,100,131621,1,8,0:0:0:0:
366,100,131680,1,8,0:0:0:0:
260,166,131738,1,8,0:0:0:0:
221,48,131795,1,4,0:0:0:0:
266,173,132496,1,12,0:0:0:0:
266,173,132671,1,4,0:0:0:0:
296,158,132933,1,12,0:0:0:0:
356,152,133195,1,4,0:0:0:0:
343,127,133458,1,12,0:0:0:0:
244,147,133720,1,12,0:0:0:0:
237,142,133895,1,4,0:0:0:0:
333,146,134070,1,8,0:0:0:0:
333,145,134157,1,8,0:0:0:0:
306,120,134245,1,0,0:0:0:0:
307,127,134332,1,8,0:0:0:0:
307,127,134420,1,0,0:0:0:0:
411,226,134595,1,4,0:0:0:0:
266,173,135294,1,12,0:0:0:0:
266,173,135469,1,12,0:0:0:0:
296,158,135731,1,4,0:0:0:0:
356,152,135995,1,12,0:0:0:0:
343,127,136256,1,4,0:0:0:0:
244,147,136518,1,4,0:0:0:0:
237,142,136693,1,12,0:0:0:0:
333,146,136868,1,8,0:0:0:0:
333,145,136957,1,8,0:0:0:0:
306,120,137043,1,0,0:0:0:0:
271,32,137131,1,0,0:0:0:0:
193,52,137219,1,8,0:0:0:0:
411,226,137394,1,4,0:0:0:0:
351,102,137744,1,12,0:0:0:0:
335,157,137919,1,4,0:0:0:0:
303,146,138152,1,4,0:0:0:0:
292,140,138385,1,4,0:0:0:0:
339,135,138618,1,4,0:0:0:0:
325,134,138852,1,4,0:0:0:0:
325,134,139085,1,4,0:0:0:0:
404,166,139318,1,12,0:0:0:0:
404,166,139581,1,12,0:0:0:0:
404,166,139843,1,12,0:0:0:0:
317,88,140105,1,12,0:0:0:0:
406,223,140368,1,12,0:0:0:0:
396,164,140630,1,12,0:0:0:0:
385,78,140892,1,0,0:0:0:0:
385,78,140980,1,8,0:0:0:0:
385,86,141067,1,0,0:0:0:0:
385,86,141111,1,0,0:0:0:0:
385,86,141155,1,8,0:0:0:0:
386,115,141242,1,8,0:0:0:0:
386,115,141330,1,0,0:0:0:0:
375,140,141417,1,8,0:0:0:0:
375,140,141461,1,8,0:0:0:0:
375,140,141505,1,0,0:0:0:0:
375,140,141548,1,0,0:0:0:0:
417,152,141592,1,8,0:0:0:0:
434,80,141732,1,8,0:0:0:0:
434,80,141872,1,8,0:0:0:0:
202,93,142012,1,8,0:0:0:0:
202,93,142152,1,8,0:0:0:0:
213,170,142292,1,8,0:0:0:0:
340,152,142362,1,0,0:0:0:0:
237,68,142432,1,8,0:0:0:0:
333,134,142502,1,8,0:0:0:0:
232,62,142572,1,0,0:0:0:0:
242,71,142642,1,12,0:0:0:0:
243,71,142992,1,4,0:0:0:0:
