osu file format v14

[General]
AudioFilename: LOLISPEEDCORE.mp3
AudioLeadIn: 0
PreviewTime: 115631
Countdown: 0
SampleSet: Soft
StackLeniency: 0.7
Mode: 0
LetterboxInBreaks: 0
WidescreenStoryboard: 0

[Editor]
Bookmarks: 12245,23321,30706,34398,38091,49170,56554,63937,82398,89783,91629,104552,108245,115629,123016,130400,135939,137785,141475
DistanceSpacing: 1
BeatDivisor: 4
GridSize: 32
TimelineZoom: 2.2

[Metadata]
Title:Cross The Finish Line (feat. Nanahira)
TitleUnicode:Cross The Finish Line (feat. Nanahira)
Artist:Kobaryo
ArtistUnicode:Kobaryo
Creator:burntcedar13
Version:Finish Line
Source:
Tags:
BeatmapID:1057614
BeatmapSetID:496896

[Difficulty]
HPDrainRate:8
CircleSize:3.5
OverallDifficulty:8.3
ApproachRate:10
SliderMultiplier:1.4
SliderTickRate:1

[Events]
//Background and Video events
0,0,"shiiro.jpg",0,0
//Break Periods
2,82369,89335
//Storyboard Layer 0 (Background)
//Storyboard Layer 1 (Fail)
//Storyboard Layer 2 (Pass)
//Storyboard Layer 3 (Foreground)
//Storyboard Sound Samples

[TimingPoints]
247,230.769230769231,4,2,1,80,1,0
1170,-100,4,1,13,90,0,0
4862,-100,4,1,13,100,0,1
12247,-133.333333333333,4,2,2,90,0,0
15939,-133.333333333333,4,2,2,100,0,0
28862,-133.333333333333,4,1,13,70,0,0
29323,-117.647058823529,4,1,13,80,0,0
29785,-133.333333333333,4,1,13,90,0,0
30247,-100,4,1,13,100,0,0
30708,-100,4,1,13,100,0,1
38093,-100,4,2,2,90,0,0
41785,-100,4,1,13,80,0,0
45477,-100,4,1,13,100,0,0
47323,-200,4,2,2,100,0,0
49170,-100,4,1,13,100,0,1
71323,-100,4,2,2,70,0,0
74093,-100,4,2,1,80,0,0
75016,-100,4,1,13,90,0,0
89785,-200,4,2,2,80,0,0
108247,-133.333333333333,4,2,2,100,0,0
114708,-200,4,1,13,80,0,0
115631,-100,4,1,13,100,0,1
136862,-66.6666666666667,4,1,13,100,0,0
137785,-100,4,2,2,100,0,0
140554,-100,4,2,1,100,0,0
141477,-100,4,1,13,100,0,0
148170,-133.333333333333,4,1,13,100,0,0
148747,-100,4,2,2,5,0,0

[HitObjects]
435,68,247,5,0,0:0:0:0:
331,97,477,1,0,0:0:0:0:
433,79,708,1,0,0:0:0:0:
310,132,938,1,0,0:0:0:0:
503,147,1170,5,0,0:0:0:0:
504,178,2093,1,0,0:0:0:0:
505,209,3016,1,0,0:0:0:0:
348,175,3477,5,0,0:0:0:0:
279,305,3593,2,0,P|183:291|123:259,1,140
190,148,4054,2,0,L|286:162,1,70
162,163,4400,1,0,0:0:0:0:
338,80,4862,6,0,P|390:100|428:123,1,70
282,265,5093,2,0,P|243:293|192:308,1,70
75,146,5323,1,8,0:0:0:0:
339,169,5439,1,0,0:0:0:0:
74,82,5554,1,0,0:0:0:0:
322,225,5670,1,0,0:0:0:0:
170,47,5785,6,0,P|205:98|215:138,1,70
67,271,6016,2,0,P|35:213|31:192,1,70
8,37,6247,1,8,0:0:0:0:
166,261,6362,1,0,0:0:0:0:
134,6,6477,1,0,0:0:0:0:
197,240,6593,1,0,0:0:0:0:
250,2,6708,6,0,P|317:6|352:13,1,70
420,186,6939,2,0,P|353:182|318:175,1,70
160,77,7170,1,8,0:0:0:0:
386,115,7285,1,0,0:0:0:0:
90,117,7400,1,0,0:0:0:0:
356,144,7516,1,0,0:0:0:0:
252,266,7631,6,0,P|192:277|157:273,1,70
52,141,7862,2,0,P|90:108|136:91,1,70
297,111,8093,1,8,0:0:0:0:
86,217,8208,1,0,0:0:0:0:
86,217,8266,1,0,0:0:0:0:
86,217,8323,1,8,0:0:0:0:
365,164,8439,1,0,0:0:0:0:
188,269,8554,6,0,P|240:289|281:297,1,70
433,192,8785,2,0,P|383:160|344:145,1,70
178,133,9016,1,8,0:0:0:0:
408,257,9131,1,0,0:0:0:0:
146,177,9247,1,0,0:0:0:0:
370,300,9362,1,0,0:0:0:0:
227,112,9477,6,0,P|220:155|223:185,1,70
408,273,9708,2,0,P|422:227|428:186,1,70
327,33,9939,1,8,0:0:0:0:
341,301,10054,1,0,0:0:0:0:
268,44,10170,1,0,0:0:0:0:
410,290,10285,1,0,0:0:0:0:
223,91,10400,6,0,P|182:137|170:167,1,70
265,306,10631,2,0,P|316:320|352:325,1,70
483,99,10862,1,8,0:0:0:0:
424,328,10977,1,0,0:0:0:0:
366,120,11093,1,0,0:0:0:0:
302,359,11208,1,0,0:0:0:0:
393,204,11323,5,0,0:0:0:0:
152,242,11439,1,0,0:0:0:0:
424,303,11554,1,0,0:0:0:0:
154,341,11670,1,0,0:0:0:0:
410,217,11785,5,8,0:0:0:0:
137,265,11900,1,0,0:0:0:0:
466,302,12016,1,8,0:0:0:0:
136,376,12131,1,0,0:0:0:0:
512,384,12247,1,8,0:0:0:0:
338,366,12477,6,0,P|269:370|210:364,1,105.000004005432
186,280,12939,1,0,0:0:0:0:
306,284,13170,6,0,P|356:277|410:262,1,105.000004005432
478,195,13631,1,0,0:0:0:0:
509,95,13862,5,0,0:0:0:0:
509,95,13977,1,0,0:0:0:0:
509,95,14093,1,0,0:0:0:0:
419,35,14323,2,0,P|332:40|313:46,1,105.000004005432
372,124,14785,2,0,P|272:153|155:151,1,210.000008010865
166,152,15477,2,0,L|213:181,1,52.5000020027161
52,333,15939,6,0,P|46:280|55:222,1,105.000004005432
117,142,16400,1,0,0:0:0:0:
179,268,16631,5,0,0:0:0:0:
179,268,16747,2,0,P|113:294|77:316,1,105.000004005432
10,374,17093,1,0,0:0:0:0:
10,374,17323,1,0,0:0:0:0:
303,265,17785,6,0,P|329:197|342:142,1,105.000004005432
344,49,18247,1,0,0:0:0:0:
232,154,18477,5,0,0:0:0:0:
232,154,18593,2,0,P|297:191|340:198,1,105.000004005432
434,209,18939,1,0,0:0:0:0:
434,209,19169,1,0,0:0:0:0:
224,88,19631,6,0,P|152:98|97:113,1,105.000004005432
0,166,20093,1,0,0:0:0:0:
4,74,20323,5,0,0:0:0:0:
4,74,20439,2,0,P|53:93|89:138,1,105.000004005432
127,236,20785,1,0,0:0:0:0:
127,236,21016,1,0,0:0:0:0:
420,344,21477,6,0,P|411:277|401:235,1,105.000004005432
337,148,21939,1,0,0:0:0:0:
254,273,22169,5,0,0:0:0:0:
254,273,22285,2,0,P|314:291|363:294,1,105.000004005432
494,280,22631,1,0,0:0:0:0:
494,280,22862,1,0,0:0:0:0:
270,347,23323,5,8,0:0:0:0:
354,327,23439,1,0,0:0:0:0:
295,265,23554,2,0,P|234:267|188:280,1,105.000004005432
110,355,24016,5,0,0:0:0:0:
31,307,24131,2,0,P|14:255|10:191,1,105.000004005432
43,125,24477,1,0,0:0:0:0:
43,125,24708,1,0,0:0:0:0:
390,163,25170,5,0,0:0:0:0:
407,78,25286,1,0,0:0:0:0:
326,105,25401,2,0,P|302:161|294:208,1,105.000004005432
204,129,25863,5,0,0:0:0:0:
274,189,25978,2,0,P|328:189|390:173,1,105.000004005432
443,121,26324,1,0,0:0:0:0:
443,121,26555,1,0,0:0:0:0:
165,16,27016,5,0,0:0:0:0:
121,107,27131,1,0,0:0:0:0:
222,100,27247,1,0,0:0:0:0:
427,317,27477,5,0,0:0:0:0:
512,263,27592,1,0,0:0:0:0:
423,215,27708,1,0,0:0:0:0:
225,207,27939,5,0,0:0:0:0:
124,207,28054,1,0,0:0:0:0:
174,295,28170,1,0,0:0:0:0:
408,84,28400,5,0,0:0:0:0:
493,137,28515,1,0,0:0:0:0:
497,36,28631,1,0,0:0:0:0:
356,250,28862,6,0,P|255:276|168:272,1,183.750007009506
130,302,29323,6,0,P|125:169|106:88,1,208.250003972054
83,61,29785,6,0,P|262:62|316:69,1,210.000008010865
414,136,30362,1,0,0:0:0:0:
414,136,30420,1,0,0:0:0:0:
414,136,30477,1,0,0:0:0:0:
230,113,30593,1,0,0:0:0:0:
506,158,30708,6,0,P|500:202|489:237,1,70
237,261,30939,2,0,P|226:216|223:169,1,70
336,17,31170,1,8,0:0:0:0:
391,289,31285,1,0,0:0:0:0:
420,42,31400,1,0,0:0:0:0:
310,288,31516,1,0,0:0:0:0:
229,69,31631,6,0,P|285:61|312:64,1,70
441,222,31862,2,0,P|392:255|370:259,1,70
167,249,32093,1,8,0:0:0:0:
417,145,32208,1,0,0:0:0:0:
112,160,32323,1,0,0:0:0:0:
395,118,32439,1,0,0:0:0:0:
134,58,32554,6,0,P|183:15|205:2,1,70
381,164,32785,2,0,P|376:208|365:233,1,70
233,380,33016,1,8,0:0:0:0:
284,141,33131,1,0,0:0:0:0:
120,301,33247,1,0,0:0:0:0:
191,56,33362,1,0,0:0:0:0:
428,112,33477,6,0,P|430:166|424:199,1,70
217,282,33708,2,0,P|193:238|186:206,1,70
213,41,33939,1,8,0:0:0:0:
317,258,34054,1,0,0:0:0:0:
317,258,34112,1,0,0:0:0:0:
317,258,34170,1,8,0:0:0:0:
359,5,34285,1,0,0:0:0:0:
172,200,34400,5,8,0:0:0:0:
371,153,34516,1,0,0:0:0:0:
205,58,34631,1,8,0:0:0:0:
217,282,34747,1,0,0:0:0:0:
398,129,34862,5,8,0:0:0:0:
153,99,34978,1,0,0:0:0:0:
278,334,35093,1,8,0:0:0:0:
357,73,35209,1,0,0:0:0:0:
100,182,35323,5,8,0:0:0:0:
367,318,35439,1,0,0:0:0:0:
294,20,35554,1,8,0:0:0:0:
96,284,35670,1,0,0:0:0:0:
458,270,35785,5,8,0:0:0:0:
209,5,35901,1,0,0:0:0:0:
138,380,36016,1,8,0:0:0:0:
453,174,36132,1,0,0:0:0:0:
90,135,36247,5,8,0:0:0:0:
464,85,36362,1,0,0:0:0:0:
176,89,36477,1,8,0:0:0:0:
182,101,36535,1,0,0:0:0:0:
187,114,36593,1,0,0:0:0:0:
188,127,36650,1,0,0:0:0:0:
186,141,36708,1,8,0:0:0:0:
494,209,36823,5,0,0:0:0:0:
172,169,36939,1,8,0:0:0:0:
166,181,36997,1,0,0:0:0:0:
161,194,37055,1,0,0:0:0:0:
160,207,37112,1,0,0:0:0:0:
162,221,37170,1,8,0:0:0:0:
308,373,37285,5,0,0:0:0:0:
308,373,37343,1,0,0:0:0:0:
308,373,37400,1,8,0:0:0:0:
445,104,37516,1,0,0:0:0:0:
183,131,37631,5,8,0:0:0:0:
179,155,37689,1,0,0:0:0:0:
175,179,37747,1,8,0:0:0:0:
171,203,37804,1,0,0:0:0:0:
168,227,37862,1,8,0:0:0:0:
165,251,37920,1,0,0:0:0:0:
162,275,37977,1,8,0:0:0:0:
159,299,38035,1,0,0:0:0:0:
156,323,38093,5,8,0:0:0:0:
323,384,38323,1,0,0:0:0:0:
152,371,38554,1,0,0:0:0:0:
326,335,38784,1,0,0:0:0:0:
341,88,39016,5,0,0:0:0:0:
399,272,39247,1,0,0:0:0:0:
374,83,39477,1,0,0:0:0:0:
365,276,39708,1,0,0:0:0:0:
194,168,39939,5,0,0:0:0:0:
3,233,40170,1,0,0:0:0:0:
177,137,40400,1,0,0:0:0:0:
19,263,40631,1,0,0:0:0:0:
192,155,40862,5,0,0:0:0:0:
382,244,41093,1,0,0:0:0:0:
256,160,41323,6,0,L|256:256,1,70,8|0,0:0|0:0,0:0:0:0:
310,228,41785,6,0,P|325:188|330:153,1,70
202,156,42016,2,0,P|187:196|182:231,1,70
316,243,42247,2,0,P|340:208|354:175,1,70
196,141,42477,2,0,P|171:175|157:208,1,70
370,145,42708,6,0,P|370:202|365:222,1,70
142,239,42939,2,0,P|142:182|147:162,1,70
392,181,43170,2,0,P|377:236|367:254,1,70
120,203,43400,2,0,P|134:147|144:129,1,70
384,262,43631,6,0,P|400:210|403:177,1,70
128,122,43862,2,0,P|112:174|109:207,1,70
377,310,44093,2,0,P|405:263|417:232,1,70
135,74,44323,2,0,P|106:120|94:151,1,70
434,221,44554,6,0,P|426:255|417:289,1,70
77,162,44785,2,0,P|85:128|95:95,1,70
445,274,45016,2,0,P|429:305|412:336,1,70
66,109,45247,2,0,P|82:78|100:48,1,70
340,184,45477,5,8,0:0:0:0:
141,231,45593,1,0,0:0:0:0:
307,326,45708,1,8,0:0:0:0:
295,102,45824,1,0,0:0:0:0:
114,255,45939,5,8,0:0:0:0:
359,285,46055,1,0,0:0:0:0:
234,50,46170,1,8,0:0:0:0:
155,311,46286,1,0,0:0:0:0:
412,202,46400,5,8,0:0:0:0:
145,66,46516,1,0,0:0:0:0:
218,364,46631,1,8,0:0:0:0:
416,100,46747,1,0,0:0:0:0:
54,114,46862,5,8,0:0:0:0:
303,379,46978,1,0,0:0:0:0:
374,4,47093,1,8,0:0:0:0:
59,210,47209,1,0,0:0:0:0:
443,224,47323,2,0,B|480:218|511:224|511:224|458:192|441:149|441:149|397:134|342:135,1,262.5,8|0,0:0|0:0,0:0:0:0:
332,188,48247,6,0,B|266:219|229:218|229:218|201:204,1,140
110,17,49170,5,0,0:0:0:0:
48,284,49285,1,0,0:0:0:0:
347,189,49400,2,0,P|359:133|357:104,1,70
137,0,49631,1,8,0:0:0:0:
328,223,49747,1,0,0:0:0:0:
2,134,49862,1,0,0:0:0:0:
297,253,49977,1,0,0:0:0:0:
46,314,50093,6,0,L|-6:377,2,70
215,142,50439,1,0,0:0:0:0:
128,335,50554,2,0,P|161:355|201:365,1,70,8|0,0:0|0:0,0:0:0:0:
361,161,50785,2,0,P|323:154|279:157,1,70
81,268,51016,5,0,0:0:0:0:
396,233,51131,1,0,0:0:0:0:
114,188,51247,1,0,0:0:0:0:
366,323,51362,1,0,0:0:0:0:
149,127,51477,2,0,L|111:191,1,70,8|0,0:0|0:0,0:0:0:0:
331,384,51708,2,0,L|369:320,1,70
495,102,51939,6,0,P|396:86|328:86,1,140
164,171,52285,1,0,0:0:0:0:
431,321,52400,2,0,P|470:273|477:262,1,70,8|0,0:0|0:0,0:0:0:0:
503,9,52631,2,0,P|464:3|411:4,1,70
113,3,52862,6,0,P|97:86|89:143,1,140
180,331,53208,1,0,0:0:0:0:
185,117,53323,1,8,0:0:0:0:
305,309,53439,1,0,0:0:0:0:
263,70,53554,1,0,0:0:0:0:
426,246,53670,1,0,0:0:0:0:
313,4,53785,6,0,P|349:12|401:36,1,70
238,224,54016,2,0,P|182:234|147:230,1,70
4,90,54247,1,8,0:0:0:0:
305,137,54362,1,0,0:0:0:0:
42,159,54477,1,0,0:0:0:0:
311,62,54593,1,0,0:0:0:0:
141,177,54708,5,0,0:0:0:0:
285,220,54823,1,0,0:0:0:0:
85,301,54939,1,0,0:0:0:0:
286,384,55054,1,0,0:0:0:0:
119,164,55170,1,8,0:0:0:0:
307,220,55285,1,0,0:0:0:0:
55,306,55400,1,0,0:0:0:0:
308,384,55516,1,0,0:0:0:0:
54,274,55631,5,8,0:0:0:0:
42,250,55688,1,0,0:0:0:0:
34,225,55746,1,0,0:0:0:0:
29,199,55804,1,0,0:0:0:0:
28,173,55861,1,8,0:0:0:0:
30,147,55919,1,0,0:0:0:0:
35,121,55977,1,0,0:0:0:0:
44,96,56034,1,0,0:0:0:0:
57,76,56093,5,8,0:0:0:0:
94,98,56150,1,0,0:0:0:0:
133,118,56208,1,8,0:0:0:0:
174,133,56266,1,0,0:0:0:0:
216,145,56323,1,8,0:0:0:0:
259,153,56381,1,0,0:0:0:0:
303,157,56439,1,8,0:0:0:0:
346,157,56496,1,0,0:0:0:0:
393,153,56554,6,0,P|433:140|474:140,1,70,8|0,0:0|0:0,0:0:0:0:
426,357,56785,2,0,P|352:366|261:354,1,140,0|8,0:0|0:0,0:0:0:0:
103,239,57131,1,0,0:0:0:0:
325,274,57247,2,0,P|392:251|402:244,1,70
511,103,57477,5,0,0:0:0:0:
266,71,57593,1,0,0:0:0:0:
506,124,57708,1,0,0:0:0:0:
228,186,57823,1,0,0:0:0:0:
510,154,57939,2,0,P|510:211|504:222,1,70,8|0,0:0|0:0,0:0:0:0:
374,338,58170,5,0,0:0:0:0:
344,346,58227,1,0,0:0:0:0:
311,348,58285,1,0,0:0:0:0:
279,346,58343,1,0,0:0:0:0:
249,335,58400,6,0,P|190:308|178:306,1,70
5,289,58631,1,0,0:0:0:0:
221,127,58747,1,0,0:0:0:0:
228,344,58862,1,8,0:0:0:0:
9,246,58977,1,0,0:0:0:0:
279,249,59093,5,0,0:0:0:0:
17,153,59208,1,0,0:0:0:0:
333,181,59323,2,0,P|414:193|497:226,1,140
425,373,59670,1,0,0:0:0:0:
251,377,59785,2,0,P|202:382|158:374,1,70,8|0,0:0|0:0,0:0:0:0:
6,206,60016,5,0,0:0:0:0:
5,174,60073,1,0,0:0:0:0:
7,142,60131,1,0,0:0:0:0:
13,110,60189,1,0,0:0:0:0:
26,81,60247,6,0,P|122:89|170:109,1,140
354,224,60593,1,0,0:0:0:0:
79,157,60708,1,8,0:0:0:0:
325,305,60823,1,0,0:0:0:0:
161,104,60939,1,0,0:0:0:0:
251,347,61054,6,0,P|179:364|88:365,1,140
3,164,61400,2,0,L|-4:91,2,70,0|0|8,0:0|0:0|0:0,0:0:0:0:
28,362,61747,1,0,0:0:0:0:
101,140,61862,2,0,P|119:101|154:58,1,70
387,17,62093,5,0,0:0:0:0:
185,143,62208,1,0,0:0:0:0:
422,56,62323,2,0,P|429:116|426:137,1,70
180,257,62554,2,0,P|173:197|176:176,1,70,8|0,0:0|0:0,0:0:0:0:
352,98,62785,1,0,0:0:0:0:
457,283,62900,6,0,B|417:296|378:287|378:287|322:299|254:289|254:289|232:302|232:302|276:317|316:344,1,315
265,381,63477,2,0,P|177:384|126:376,1,140,8|0,0:0|0:0,0:0:0:0:
38,96,63939,5,0,0:0:0:0:
382,189,64054,1,0,0:0:0:0:
43,84,64170,5,0,0:0:0:0:
381,195,64285,1,0,0:0:0:0:
49,73,64400,5,8,0:0:0:0:
381,202,64515,1,0,0:0:0:0:
55,63,64631,5,0,0:0:0:0:
380,208,64746,1,0,0:0:0:0:
62,52,64862,5,0,0:0:0:0:
395,26,64977,1,0,0:0:0:0:
395,26,65035,1,0,0:0:0:0:
395,26,65093,1,0,0:0:0:0:
172,280,65208,1,0,0:0:0:0:
116,70,65323,2,0,P|55:78|33:92,1,70,8|0,0:0|0:0,0:0:0:0:
232,295,65554,2,0,P|293:287|315:273,1,70
361,42,65785,5,0,0:0:0:0:
437,376,65900,1,0,0:0:0:0:
353,36,66016,5,0,0:0:0:0:
446,366,66131,1,0,0:0:0:0:
344,31,66247,5,8,0:0:0:0:
455,356,66362,1,0,0:0:0:0:
336,27,66477,5,0,0:0:0:0:
463,345,66592,1,0,0:0:0:0:
327,23,66708,5,0,0:0:0:0:
220,329,66823,1,0,0:0:0:0:
220,329,66881,1,0,0:0:0:0:
220,329,66939,1,0,0:0:0:0:
469,173,67054,2,0,B|442:133|445:110|445:110|416:72|418:32|418:32|368:50|380:87,1,210
373,85,67458,1,0,0:0:0:0:
368,102,67516,1,0,0:0:0:0:
363,118,67573,1,0,0:0:0:0:
358,135,67631,5,8,0:0:0:0:
65,319,67747,1,0,0:0:0:0:
403,320,67862,5,8,0:0:0:0:
219,27,67978,1,0,0:0:0:0:
201,362,68093,5,8,0:0:0:0:
494,178,68209,1,0,0:0:0:0:
175,64,68323,5,8,0:0:0:0:
305,384,68439,1,0,0:0:0:0:
457,73,68554,5,8,0:0:0:0:
119,145,68670,1,0,0:0:0:0:
119,145,68727,1,0,0:0:0:0:
119,145,68785,1,0,0:0:0:0:
441,143,68900,2,0,B|463:169|496:170|496:170|477:224|457:242|457:242|433:329,1,210
345,349,69362,1,0,0:0:0:0:
456,78,69477,5,8,0:0:0:0:
384,384,69593,1,0,0:0:0:0:
133,167,69708,1,8,0:0:0:0:
512,214,69823,1,0,0:0:0:0:
172,384,69939,5,8,0:0:0:0:
235,61,70054,1,0,0:0:0:0:
390,375,70170,1,8,0:0:0:0:
47,271,70285,1,0,0:0:0:0:
423,75,70400,5,8,0:0:0:0:
423,75,70458,1,0,0:0:0:0:
423,75,70516,1,8,0:0:0:0:
290,377,70631,1,8,0:0:0:0:
290,377,70689,1,0,0:0:0:0:
290,377,70747,1,8,0:0:0:0:
90,122,70862,5,8,0:0:0:0:
123,110,70920,1,0,0:0:0:0:
157,106,70977,1,8,0:0:0:0:
192,109,71035,1,0,0:0:0:0:
225,120,71093,1,8,0:0:0:0:
258,128,71150,1,0,0:0:0:0:
293,129,71208,1,8,0:0:0:0:
327,120,71266,1,0,0:0:0:0:
348,92,71323,6,0,B|361:159|389:206|389:206|389:247|436:286|436:286|452:236|482:205,1,280,8|0,0:0|0:0,0:0:0:0:
473,182,72247,1,0,0:0:0:0:
230,177,72593,1,0,0:0:0:0:
468,255,72823,1,0,0:0:0:0:
468,255,72939,1,0,0:0:0:0:
230,177,73170,1,0,0:0:0:0:
132,92,74093,5,0,0:0:0:0:
160,177,74323,1,0,0:0:0:0:
188,262,74554,1,0,0:0:0:0:
216,347,74784,1,0,0:0:0:0:
112,51,75016,6,0,P|176:18|247:40,1,140
310,86,75477,1,8,0:0:0:0:
185,96,75592,1,0,0:0:0:0:
440,271,75939,6,0,P|362:321|297:293,1,140
254,255,76400,1,8,0:0:0:0:
361,240,76515,1,0,0:0:0:0:
130,212,76862,6,0,P|148:135|107:77,1,140
44,39,77323,1,8,0:0:0:0:
67,154,77439,1,0,0:0:0:0:
293,73,77670,5,0,0:0:0:0:
293,73,77728,1,0,0:0:0:0:
293,73,77785,1,0,0:0:0:0:
293,73,77843,1,0,0:0:0:0:
293,73,77901,1,8,0:0:0:0:
293,73,77958,1,0,0:0:0:0:
293,73,78016,1,8,0:0:0:0:
293,73,78074,1,0,0:0:0:0:
293,73,78131,2,0,L|294:151,1,70,8|0,0:0|0:0,0:0:0:0:
418,170,78362,2,0,L|420:257,1,70
183,290,78708,6,0,P|154:213|104:161,1,140
39,126,79170,1,8,0:0:0:0:
39,126,79285,1,0,0:0:0:0:
93,272,79631,6,0,P|157:220|227:202,1,140
300,205,80093,1,8,0:0:0:0:
300,205,80208,1,0,0:0:0:0:
385,59,80554,6,0,L|310:86,1,70
415,153,80785,2,0,L|490:180,1,70
442,92,81016,1,8,0:0:0:0:
360,119,81131,1,0,0:0:0:0:
268,249,81362,5,0,0:0:0:0:
263,254,81420,1,0,0:0:0:0:
258,259,81477,1,0,0:0:0:0:
253,264,81535,1,0,0:0:0:0:
248,269,81593,1,8,0:0:0:0:
243,274,81650,1,0,0:0:0:0:
238,279,81708,1,8,0:0:0:0:
233,284,81766,1,0,0:0:0:0:
228,288,81823,2,0,L|148:288,1,70,8|0,0:0|0:0,0:0:0:0:
154,193,82054,2,0,L|74:193,1,70
356,86,89785,6,0,B|315:93|247:155|247:155|317:178|317:178|228:231|175:236|175:236|154:274|154:274|212:273|246:285,1,490,8|0,0:0|0:0,0:0:0:0:
338,267,91631,2,0,B|426:205|465:108|465:108|381:138|261:132|175:92|175:92,1,490
161,170,93477,2,0,B|110:152|83:99|95:39|137:0|201:-5|242:20|261:60|267:77|267:77|251:142|286:183|286:183|279:253,1,490
364,293,95323,2,0,B|356:224|370:168|370:168|344:115|344:115|364:56|337:13|337:13|397:42|438:83|457:171|457:171,1,490
486,81,97170,6,0,P|249:139|0:139,1,490,8|0,0:0|0:0,0:0:0:0:
11,243,99016,2,0,P|248:301|497:301,1,490
375,238,100862,2,0,B|308:202|228:224|228:224|254:175|209:64|209:64|265:106|322:117|322:117|367:88,1,490
438,114,102708,2,0,B|410:145|397:169|397:169|277:159|182:173|182:173|245:226|238:308|155:348,1,490
256,192,104554,12,0,107093,0:0:0:0:
340,49,107323,6,0,P|306:93|355:73,1,140
9,104,108247,5,8,0:0:0:0:
52,111,108362,1,0,0:0:0:0:
84,136,108477,2,0,L|109:256,1,105.000004005432
15,189,108939,1,0,0:0:0:0:
15,189,109054,1,0,0:0:0:0:
130,69,109285,1,0,0:0:0:0:
130,69,109400,2,0,P|203:77|251:90,1,105.000004005432
406,80,110093,6,0,P|394:135|390:193,1,105.000004005432
423,266,110554,1,0,0:0:0:0:
321,308,110670,1,0,0:0:0:0:
419,260,110785,1,0,0:0:0:0:
325,315,110900,1,0,0:0:0:0:
417,255,111016,2,0,P|443:206|462:155,1,105.000004005432
440,72,111362,1,0,0:0:0:0:
345,46,111477,2,0,P|288:38|237:38,1,105.000004005432
290,133,111939,6,0,P|265:244|270:346,1,210.000008010865
356,188,112631,1,0,0:0:0:0:
335,200,112747,2,0,P|248:201|206:141,1,157.500006008148
194,51,113323,2,0,P|127:45|83:53,1,105.000004005432
83,217,113785,6,0,P|44:297|35:320,2,105.000004005432
182,167,114477,1,0,0:0:0:0:
291,110,114708,5,0,0:0:0:0:
407,225,114823,1,0,0:0:0:0:
226,156,114939,1,0,0:0:0:0:
465,183,115054,1,0,0:0:0:0:
160,212,115170,2,0,L|106:264,1,70,8|0,0:0|0:0,0:0:0:0:
427,65,115631,6,0,P|368:56|337:60,1,70
115,230,115862,2,0,P|183:256|279:271,1,140,0|8,0:0|0:0,0:0:0:0:
434,211,116208,1,0,0:0:0:0:
165,147,116323,2,0,P|127:174|110:195,1,70
30,351,116554,5,0,0:0:0:0:
294,234,116670,1,0,0:0:0:0:
4,318,116785,1,0,0:0:0:0:
316,272,116900,1,0,0:0:0:0:
1,274,117016,2,0,P|-2:217|5:175,1,70,8|0,0:0|0:0,0:0:0:0:
95,46,117247,5,0,0:0:0:0:
133,46,117304,1,0,0:0:0:0:
171,50,117362,1,0,0:0:0:0:
209,56,117420,1,0,0:0:0:0:
245,67,117477,6,0,P|298:88|332:88,1,70
511,31,117708,1,0,0:0:0:0:
310,246,117823,1,0,0:0:0:0:
321,4,117939,1,8,0:0:0:0:
482,222,118054,1,0,0:0:0:0:
181,178,118170,5,0,0:0:0:0:
359,0,118285,1,0,0:0:0:0:
482,222,118400,2,0,P|490:289|440:354,1,140
270,368,118747,1,0,0:0:0:0:
409,273,118862,2,0,P|410:224|394:188,1,70,8|0,0:0|0:0,0:0:0:0:
285,58,119093,5,0,0:0:0:0:
256,83,119150,1,0,0:0:0:0:
227,108,119208,1,0,0:0:0:0:
198,134,119266,1,0,0:0:0:0:
169,159,119323,6,0,P|154:232|159:308,1,140
325,372,119670,1,0,0:0:0:0:
51,274,119785,1,8,0:0:0:0:
345,288,119900,1,0,0:0:0:0:
48,166,120016,1,0,0:0:0:0:
203,11,120131,6,0,P|295:21|368:45,1,140
497,217,120477,2,0,L|513:300,2,70,0|0|8,0:0|0:0|0:0,0:0:0:0:
451,0,120823,1,0,0:0:0:0:
277,135,120939,2,0,P|248:163|229:186,1,70
161,356,121170,5,0,0:0:0:0:
13,148,121285,1,0,0:0:0:0:
291,215,121400,2,0,P|296:265|291:295,1,70
72,225,121631,2,0,P|67:175|72:145,1,70,8|0,0:0|0:0,0:0:0:0:
277,62,121862,1,0,0:0:0:0:
29,73,121977,6,0,B|31:113|61:145|61:145|67:198|108:226|108:226|127:276|127:276|141:227|136:182,1,315
111,134,122554,2,0,P|177:134|202:208,1,140,8|0,0:0|0:0,0:0:0:0:
251,322,123016,5,0,0:0:0:0:
506,93,123131,1,0,0:0:0:0:
257,322,123247,5,0,0:0:0:0:
500,80,123362,1,0,0:0:0:0:
264,321,123477,5,8,0:0:0:0:
494,67,123592,1,0,0:0:0:0:
271,321,123708,5,0,0:0:0:0:
487,55,123823,1,0,0:0:0:0:
278,320,123939,5,0,0:0:0:0:
264,0,124054,1,0,0:0:0:0:
264,0,124112,1,0,0:0:0:0:
264,0,124170,1,0,0:0:0:0:
508,170,124285,1,0,0:0:0:0:
170,156,124400,2,0,P|161:115|159:62,1,70,8|0,0:0|0:0,0:0:0:0:
424,0,124631,2,0,P|433:41|435:94,1,70
319,244,124862,5,0,0:0:0:0:
32,48,124977,1,0,0:0:0:0:
320,241,125093,5,0,0:0:0:0:
24,61,125208,1,0,0:0:0:0:
322,239,125323,5,8,0:0:0:0:
16,74,125438,1,0,0:0:0:0:
324,237,125554,5,0,0:0:0:0:
10,88,125669,1,0,0:0:0:0:
325,235,125785,5,0,0:0:0:0:
189,0,125900,1,0,0:0:0:0:
189,0,125958,1,0,0:0:0:0:
189,0,126016,1,0,0:0:0:0:
20,229,126131,2,0,B|15:255|-9:284|-9:284|-23:334|-40:353|-40:353|-40:381|-40:381|25:355,1,210
6,363,126535,1,0,0:0:0:0:
12,360,126593,1,0,0:0:0:0:
18,357,126650,1,0,0:0:0:0:
24,354,126708,5,8,0:0:0:0:
290,134,126823,1,0,0:0:0:0:
278,363,126939,5,8,0:0:0:0:
15,139,127054,1,0,0:0:0:0:
318,80,127170,5,8,0:0:0:0:
143,377,127285,1,0,0:0:0:0:
169,89,127400,5,8,0:0:0:0:
491,209,127515,1,0,0:0:0:0:
224,363,127631,5,8,0:0:0:0:
286,25,127746,1,0,0:0:0:0:
286,25,127804,1,0,0:0:0:0:
286,25,127862,1,0,0:0:0:0:
61,220,127977,2,0,B|62:263|81:290|81:290|111:317|123:360|123:360|158:303,1,210
192,169,128439,1,0,0:0:0:0:
33,114,128554,5,8,0:0:0:0:
265,172,128670,1,0,0:0:0:0:
66,57,128785,1,8,0:0:0:0:
231,228,128901,1,0,0:0:0:0:
124,26,129016,1,8,0:0:0:0:
173,259,129132,1,0,0:0:0:0:
189,30,129247,1,8,0:0:0:0:
108,255,129363,1,0,0:0:0:0:
234,76,129477,5,8,0:0:0:0:
255,80,129534,1,0,0:0:0:0:
277,83,129592,1,0,0:0:0:0:
299,85,129650,1,0,0:0:0:0:
321,86,129707,5,8,0:0:0:0:
342,86,129765,1,0,0:0:0:0:
364,85,129823,1,0,0:0:0:0:
386,82,129880,1,0,0:0:0:0:
408,80,129939,5,8,0:0:0:0:
427,103,129996,1,0,0:0:0:0:
440,130,130054,1,8,0:0:0:0:
445,160,130112,1,0,0:0:0:0:
442,191,130169,5,8,0:0:0:0:
431,219,130227,1,0,0:0:0:0:
412,243,130285,1,8,0:0:0:0:
388,262,130342,1,0,0:0:0:0:
359,273,130400,5,8,0:0:0:0:
77,258,130516,2,0,L|32:256,2,35
353,171,130747,2,0,L|396:168,2,35
117,28,130977,2,0,L|91:-1,2,35
310,294,131208,6,0,P|359:329|392:340,2,70
209,33,131554,2,0,B|262:44|328:44|328:44|352:70|352:70|319:114,1,210
128,262,132016,2,0,P|114:212|114:179,1,70
323,26,132247,5,8,0:0:0:0:
306,286,132362,2,0,L|328:318,2,35
239,22,132593,2,0,L|186:15,2,35
106,269,132823,2,0,L|89:302,2,35
381,127,133054,1,0,0:0:0:0:
392,144,133112,1,0,0:0:0:0:
400,163,133170,1,0,0:0:0:0:
404,183,133227,1,0,0:0:0:0:
405,204,133285,6,0,P|397:264|371:354,1,140
140,351,133631,1,0,0:0:0:0:
116,86,133747,1,0,0:0:0:0:
116,86,133804,1,0,0:0:0:0:
116,86,133862,1,0,0:0:0:0:
400,163,133977,1,0,0:0:0:0:
213,293,134093,5,8,0:0:0:0:
310,0,134208,1,0,0:0:0:0:
82,166,134323,5,8,0:0:0:0:
356,307,134438,1,0,0:0:0:0:
203,68,134554,5,8,0:0:0:0:
20,316,134669,1,0,0:0:0:0:
262,220,134785,5,8,0:0:0:0:
45,0,134900,1,0,0:0:0:0:
40,273,135016,2,0,P|71:324|81:337,1,70,8|0,0:0|0:0,0:0:0:0:
303,376,135247,1,0,0:0:0:0:
177,177,135362,2,0,B|189:138|196:101|196:101|238:81|257:54|257:54|333:49|333:49|294:97,1,280
261,377,135939,5,8,0:0:0:0:
276,363,135996,1,0,0:0:0:0:
290,348,136054,1,8,0:0:0:0:
304,333,136112,1,0,0:0:0:0:
317,317,136169,1,8,0:0:0:0:
329,300,136227,1,0,0:0:0:0:
340,283,136285,1,8,0:0:0:0:
350,265,136342,1,0,0:0:0:0:
359,246,136400,1,8,0:0:0:0:
366,227,136458,1,0,0:0:0:0:
373,208,136515,1,8,0:0:0:0:
379,188,136573,1,0,0:0:0:0:
384,168,136631,1,8,0:0:0:0:
387,148,136689,1,0,0:0:0:0:
389,127,136746,1,8,0:0:0:0:
391,107,136804,1,0,0:0:0:0:
390,90,136862,2,8,L|377:23,15,52.5000020027161
337,32,137785,6,0,B|296:64|249:68|249:68|286:102|286:102|206:95|157:129,2,280,8|0|0,0:0|0:0|0:0,0:0:0:0:
329,175,139054,5,0,0:0:0:0:
116,241,139285,1,0,0:0:0:0:
116,241,139400,1,0,0:0:0:0:
281,135,139631,1,0,0:0:0:0:
85,232,140554,5,0,0:0:0:0:
167,198,140784,1,0,0:0:0:0:
250,164,141015,1,0,0:0:0:0:
333,130,141247,1,0,0:0:0:0:
462,151,141477,6,0,P|423:199|447:286,1,140
501,227,141939,1,8,0:0:0:0:
501,227,142054,1,0,0:0:0:0:
216,31,142400,6,0,P|198:90|112:118,1,140
132,42,142862,1,8,0:0:0:0:
132,42,142977,1,0,0:0:0:0:
201,282,143323,6,0,P|262:274|323:340,1,140
244,355,143785,1,8,0:0:0:0:
244,355,143900,1,0,0:0:0:0:
321,182,144131,6,0,B|268:191|268:191|247:150|173:142,1,140
147,70,144477,2,0,P|260:78|303:111,1,140
33,206,145170,5,0,0:0:0:0:
7,64,145285,1,0,0:0:0:0:
24,222,145400,2,0,P|115:257|172:269,1,140,0|8,0:0|0:0,0:0:0:0:
239,252,145747,1,0,0:0:0:0:
379,87,146093,5,0,0:0:0:0:
240,16,146208,1,0,0:0:0:0:
404,67,146323,2,0,P|415:153|401:212,1,140,0|8,0:0|0:0,0:0:0:0:
337,284,146670,1,0,0:0:0:0:
182,293,147016,5,0,0:0:0:0:
131,164,147247,1,0,0:0:0:0:
281,175,147477,1,8,0:0:0:0:
281,175,147593,1,0,0:0:0:0:
267,13,147823,6,8,P|200:20|129:64,1,140
228,108,148170,2,8,P|311:131|349:207,1,157.500006008148
256,192,148862,12,0,153477,0:0:0:0:
