osu file format v14

[General]
AudioFilename: audio.ogg
AudioLeadIn: 0
PreviewTime: 49073
Countdown: 0
SampleSet: Soft
StackLeniency: 0.7
Mode: 3
LetterboxInBreaks: 0
SpecialStyle: 0
WidescreenStoryboard: 1

[Editor]
DistanceSpacing: 1.3
BeatDivisor: 4
GridSize: 32
TimelineZoom: 2.1

[Metadata]
Title:Cross The Finish Line [feat. Nanahira]
TitleUnicode:Cross The Finish Line [feat. ななひら]
Artist:Kobaryo
ArtistUnicode:Kobaryo
Creator:Rhezie
Version:Another
Source:
Tags:古葉玲 Psycho Filth Records Candy speed pops PFSA002 japanese electronic instrumental Syadow- Crumpey Ainer Ibrahim FAMoss FA Featured Artist
BeatmapID:3413572
BeatmapSetID:1671244

[Difficulty]
HPDrainRate:8.2
CircleSize:4
OverallDifficulty:8
ApproachRate:5
SliderMultiplier:1.4
SliderTickRate:1

[Events]
//Background and Video events
0,0,"BG.jpg",0,0
//Break Periods
//Storyboard Layer 0 (Background)
//Storyboard Layer 1 (Fail)
//Storyboard Layer 2 (Pass)
//Storyboard Layer 3 (Foreground)
//Storyboard Layer 4 (Overlay)
//Storyboard Sound Samples

[TimingPoints]
150,230.769230769231,4,2,1,60,1,0
49073,-100,4,2,1,60,0,1
71226,-100,4,2,1,60,0,0
115534,-100,4,2,1,60,0,1
137688,-100,4,2,1,60,0,0

[HitObjects]
64,192,150,5,0,0:0:0:70:Open Hat 5.wav
448,192,150,1,0,0:0:0:0:
192,192,380,1,0,0:0:0:70:Open Hat 5.wav
448,192,380,1,0,0:0:0:0:
64,192,611,1,0,0:0:0:70:Open Hat 5.wav
448,192,611,1,0,0:0:0:0:
192,192,842,1,0,0:0:0:70:Open Hat 5.wav
448,192,842,1,0,0:0:0:0:
64,192,1073,128,2,1303:0:0:0:0:
192,192,1073,128,0,1303:0:0:0:70:cymbal_s.wav
320,192,1073,1,0,0:0:0:0:
448,192,1303,128,0,1534:0:0:0:0:
64,192,1534,1,0,0:0:0:0:
64,192,1650,128,0,1880:0:0:0:0:
192,192,1996,1,2,0:0:0:0:
320,192,1996,128,0,2226:0:0:0:70:cymbal_s.wav
448,192,1996,128,0,2226:0:0:0:0:
64,192,2226,128,0,2457:0:0:0:0:
448,192,2457,1,0,0:0:0:0:
448,192,2573,128,0,2803:0:0:0:0:
64,192,2919,128,2,3150:0:0:0:0:
192,192,2919,128,0,3150:0:0:0:70:cymbal_s.wav
320,192,2919,1,0,0:0:0:0:
448,192,3034,1,0,0:0:0:0:
448,192,3150,1,0,0:0:0:0:
192,192,3265,1,0,0:0:0:0:
320,192,3380,128,2,3496:0:0:0:0:
448,192,3380,128,0,3496:0:0:0:70:cymbal_s.wav
64,192,3496,128,2,3726:0:0:0:0:
192,192,3496,128,0,3726:0:0:0:70:cymbal_s.wav
448,192,3726,1,0,0:0:0:70:cymbal_s.wav
320,192,3784,1,0,0:0:0:0:
192,192,3842,1,0,0:0:0:0:
320,192,3900,1,0,0:0:0:0:
64,192,3957,128,0,4073:0:0:0:70:cymbal_s.wav
448,192,3957,128,0,4073:0:0:0:0:
192,192,4073,128,0,4188:0:0:0:70:cymbal_s.wav
320,192,4073,128,0,4303:0:0:0:0:
64,192,4303,128,4,4534:0:0:0:0:
192,192,4303,128,2,4534:0:0:0:0:
448,192,4303,1,0,0:0:0:0:
320,192,4534,128,0,4650:0:0:0:0:
64,192,4765,128,4,4880:0:0:0:0:
320,192,4765,1,2,0:0:0:0:
448,192,4765,1,0,0:0:0:0:
448,192,4880,1,0,0:0:0:0:
192,192,4996,1,2,0:0:0:0:
320,192,4996,128,0,5111:0:0:0:0:
192,192,5111,1,0,0:0:0:0:
64,192,5226,128,2,5342:0:0:0:0:
448,192,5226,1,0,0:0:0:0:
192,192,5342,128,0,5457:0:0:0:0:
64,192,5457,1,2,0:0:0:0:
448,192,5457,128,0,5573:0:0:0:0:
320,192,5573,128,0,5803:0:0:0:0:
64,192,5688,1,2,0:0:0:0:
448,192,5688,1,0,0:0:0:0:
192,192,5803,128,0,5919:0:0:0:0:
320,192,5919,128,2,6034:0:0:0:0:
448,192,5919,1,0,0:0:0:0:
64,192,6034,128,0,6150:0:0:0:0:
192,192,6150,1,2,0:0:0:0:
448,192,6150,128,0,6265:0:0:0:0:
64,192,6265,128,0,6380:0:0:0:0:
320,192,6380,1,2,0:0:0:0:
448,192,6380,1,0,0:0:0:0:
64,192,6496,1,2,0:0:0:0:
320,192,6496,1,0,0:0:0:0:
192,192,6611,1,2,0:0:0:0:
448,192,6611,128,0,6726:0:0:0:0:
192,192,6726,1,0,0:0:0:0:
64,192,6842,128,2,6957:0:0:0:0:
320,192,6842,1,0,0:0:0:0:
320,192,6957,1,0,0:0:0:0:
192,192,7073,1,2,0:0:0:0:
448,192,7073,128,0,7188:0:0:0:0:
320,192,7188,128,0,7303:0:0:0:0:
192,192,7303,128,2,7419:0:0:0:0:
448,192,7303,1,0,0:0:0:0:
64,192,7419,128,0,7650:0:0:0:0:
192,192,7534,1,2,0:0:0:0:
448,192,7534,1,0,0:0:0:0:
320,192,7650,128,0,7765:0:0:0:0:
64,192,7765,128,2,7880:0:0:0:0:
192,192,7765,1,0,0:0:0:0:
320,192,7880,128,0,7996:0:0:0:0:
192,192,7996,128,2,8111:0:0:0:0:
448,192,7996,1,0,0:0:0:0:
320,192,8111,1,2,0:0:0:0:
448,192,8111,1,0,0:0:0:0:
64,192,8169,1,2,0:0:0:0:
192,192,8169,1,0,0:0:0:0:
320,192,8226,1,2,0:0:0:0:
448,192,8226,1,0,0:0:0:0:
64,192,8342,1,2,0:0:0:0:
192,192,8342,1,0,0:0:0:0:
64,192,8457,128,4,8573:0:0:0:0:
320,192,8457,1,2,0:0:0:0:
448,192,8457,1,0,0:0:0:0:
320,192,8573,1,0,0:0:0:0:
192,192,8688,1,2,0:0:0:0:
448,192,8688,128,0,8803:0:0:0:0:
192,192,8803,1,0,0:0:0:0:
64,192,8919,128,2,9034:0:0:0:0:
320,192,8919,1,0,0:0:0:0:
192,192,9034,128,0,9150:0:0:0:0:
64,192,9150,1,2,0:0:0:0:
320,192,9150,128,0,9265:0:0:0:0:
448,192,9265,128,0,9496:0:0:0:0:
64,192,9380,1,2,0:0:0:0:
320,192,9380,1,0,0:0:0:0:
192,192,9496,128,0,9611:0:0:0:0:
64,192,9611,1,2,0:0:0:0:
448,192,9611,128,0,9726:0:0:0:0:
192,192,9726,128,0,9842:0:0:0:0:
320,192,9842,128,2,9957:0:0:0:0:
448,192,9842,128,0,9957:0:0:0:0:
64,192,9957,128,0,10073:0:0:0:0:
192,192,10073,1,2,0:0:0:0:
320,192,10073,1,0,0:0:0:0:
320,192,10188,1,2,0:0:0:0:
448,192,10188,1,0,0:0:0:0:
64,192,10303,128,2,10419:0:0:0:0:
192,192,10303,1,0,0:0:0:0:
448,192,10419,128,0,10534:0:0:0:0:
64,192,10534,128,2,10650:0:0:0:0:
320,192,10534,1,0,0:0:0:0:
192,192,10650,128,0,10880:0:0:0:0:
64,192,10765,1,2,0:0:0:0:
448,192,10765,1,0,0:0:0:0:
320,192,10880,128,0,10996:0:0:0:0:
64,192,10996,128,2,11111:0:0:0:0:
192,192,10996,1,0,0:0:0:0:
320,192,11111,128,0,11226:0:0:0:0:
192,192,11226,1,2,0:0:0:0:
448,192,11226,128,0,12150:0:0:0:0:
64,192,11342,1,0,0:0:0:0:
192,192,11457,1,2,0:0:0:0:
320,192,11457,1,0,0:0:0:0:
320,192,11573,1,0,0:0:0:0:
64,192,11688,128,2,12150:0:0:0:0:
192,192,11688,1,0,0:0:0:0:
320,192,11919,1,0,0:0:0:0:
192,192,12150,1,2,0:0:0:0:
320,192,12150,1,4,0:0:0:0:
192,192,12380,128,0,12496:0:0:0:0:
192,192,12611,128,2,12726:0:0:0:0:
320,192,12611,1,0,0:0:0:0:
448,192,12842,1,0,0:0:0:0:
64,192,12957,1,2,0:0:0:0:
192,192,12957,1,0,0:0:0:0:
192,192,13073,1,2,0:0:0:0:
320,192,13073,128,0,13188:0:0:0:0:
448,192,13303,128,0,13419:0:0:0:0:
192,192,13534,1,2,0:0:0:0:
320,192,13534,1,0,0:0:0:0:
448,192,13765,1,0,0:0:0:0:
64,192,13880,1,2,0:0:0:0:
192,192,13880,1,0,0:0:0:0:
192,192,13996,1,2,0:0:0:0:
320,192,13996,1,0,0:0:0:0:
64,192,14226,128,0,14342:0:0:0:0:
192,192,14457,1,2,0:0:0:0:
320,192,14457,1,0,0:0:0:0:
320,192,14688,128,0,14803:0:0:0:0:
64,192,14803,1,2,0:0:0:0:
192,192,14803,1,0,0:0:0:0:
192,192,14919,1,2,0:0:0:0:
320,192,14919,1,0,0:0:0:0:
64,192,15034,1,2,0:0:0:0:
448,192,15034,1,0,0:0:0:0:
320,192,15150,1,2,0:0:0:0:
448,192,15150,1,0,0:0:0:0:
192,192,15207,1,2,0:0:0:0:
320,192,15265,1,2,0:0:0:0:
64,192,15323,1,2,0:0:0:0:
192,192,15323,1,0,0:0:0:0:
64,192,15842,1,4,0:0:0:0:
192,192,15842,1,0,0:0:0:50:kick23.wav
448,192,15842,1,0,0:0:0:0:
320,192,16073,1,0,0:0:0:0:
64,192,16303,1,0,0:0:0:70:snare15.wav
448,192,16303,128,0,16419:0:0:0:0:
192,192,16534,1,0,0:0:0:0:
320,192,16650,128,0,16996:0:0:0:0:
64,192,16996,1,0,0:0:0:50:kick23.wav
192,192,16996,1,0,0:0:0:0:
64,192,17226,128,0,17342:0:0:0:70:snare15.wav
448,192,17226,1,0,0:0:0:0:
320,192,17457,1,0,0:0:0:0:
64,192,17688,1,0,0:0:0:50:kick23.wav
192,192,17688,1,0,0:0:0:0:
448,192,17919,1,0,0:0:0:0:
320,192,18150,128,0,18265:0:0:0:70:snare15.wav
192,192,18380,1,0,0:0:0:0:
448,192,18496,128,0,18842:0:0:0:0:
64,192,18842,1,0,0:0:0:50:kick23.wav
192,192,18842,1,0,0:0:0:0:
64,192,19073,128,0,19188:0:0:0:70:snare15.wav
448,192,19073,1,0,0:0:0:0:
320,192,19303,1,0,0:0:0:0:
64,192,19534,1,0,0:0:0:50:kick23.wav
192,192,19534,1,0,0:0:0:0:
320,192,19765,1,0,0:0:0:50:kick23.wav
448,192,19765,1,0,0:0:0:0:
192,192,19996,128,0,20111:0:0:0:70:snare15.wav
320,192,20226,1,0,0:0:0:0:
64,192,20342,128,0,20688:0:0:0:0:
320,192,20688,1,0,0:0:0:50:kick23.wav
448,192,20688,1,0,0:0:0:0:
64,192,20919,1,0,0:0:0:70:snare15.wav
320,192,20919,128,0,21034:0:0:0:0:
192,192,21150,1,0,0:0:0:0:
320,192,21380,1,0,0:0:0:50:kick23.wav
448,192,21380,1,0,0:0:0:0:
192,192,21611,1,0,0:0:0:0:
64,192,21842,128,0,21957:0:0:0:70:snare15.wav
320,192,22073,1,0,0:0:0:0:
192,192,22188,128,0,22534:0:0:0:0:
320,192,22534,1,0,0:0:0:50:kick23.wav
448,192,22534,1,0,0:0:0:0:
64,192,22765,128,0,22880:0:0:0:70:snare15.wav
320,192,22765,128,0,22880:0:0:0:0:
192,192,22996,1,0,0:0:0:0:
320,192,23226,128,2,23688:0:0:0:0:
448,192,23226,128,4,23688:0:0:0:0:
192,192,23342,1,0,0:0:0:0:
64,192,23457,1,0,0:0:0:0:
192,192,23688,128,0,23919:0:0:0:0:
448,192,23803,128,0,24150:0:0:0:0:
64,192,23919,128,0,24150:0:0:0:0:
192,192,24150,128,2,24611:0:0:0:0:
320,192,24150,128,4,24611:0:0:0:0:
64,192,24265,1,0,0:0:0:0:
448,192,24380,1,0,0:0:0:0:
64,192,24611,128,0,24842:0:0:0:0:
448,192,24726,128,0,25073:0:0:0:0:
320,192,24842,128,0,25073:0:0:0:0:
64,192,25073,128,2,25534:0:0:0:0:
192,192,25073,128,4,25534:0:0:0:0:
448,192,25188,1,0,0:0:0:0:
320,192,25303,1,0,0:0:0:0:
448,192,25534,128,0,25765:0:0:0:0:
192,192,25650,128,0,25996:0:0:0:0:
320,192,25765,128,0,25996:0:0:0:0:
64,192,25996,128,2,26457:0:0:0:0:
448,192,25996,128,4,26457:0:0:0:0:
320,192,26111,1,0,0:0:0:0:
192,192,26226,1,0,0:0:0:0:
320,192,26457,128,0,26688:0:0:0:0:
192,192,26573,128,0,26919:0:0:0:0:
64,192,26688,128,0,26919:0:0:0:0:
320,192,26919,128,2,27380:0:0:0:0:
448,192,26919,128,4,27380:0:0:0:0:
64,192,27034,1,0,0:0:0:0:
192,192,27150,1,0,0:0:0:0:
192,192,27380,128,0,27611:0:0:0:0:
448,192,27496,128,0,27842:0:0:0:0:
64,192,27611,128,0,27842:0:0:0:0:
192,192,27842,128,2,28303:0:0:0:0:
320,192,27842,128,4,28303:0:0:0:0:
64,192,27957,1,0,0:0:0:0:
448,192,28073,1,0,0:0:0:0:
64,192,28303,128,0,28534:0:0:0:0:
448,192,28419,128,0,28765:0:0:0:0:
320,192,28534,128,0,28765:0:0:0:0:
64,192,28765,128,2,29111:0:0:0:0:
192,192,28765,128,4,29111:0:0:0:0:
320,192,28880,1,0,0:0:0:0:
448,192,28996,1,0,0:0:0:0:
192,192,29226,128,2,29573:0:0:0:0:
320,192,29226,128,4,29573:0:0:0:0:
448,192,29342,1,0,0:0:0:0:
64,192,29457,1,0,0:0:0:0:
320,192,29688,128,2,30034:0:0:0:0:
448,192,29688,128,4,30034:0:0:0:0:
192,192,29803,1,0,0:0:0:0:
64,192,29919,128,0,30150:0:0:0:0:
320,192,30150,1,0,0:0:0:50:kick23.wav
448,192,30150,1,0,0:0:0:0:
64,192,30265,1,0,0:0:0:50:kick23.wav
192,192,30265,1,0,0:0:0:0:
320,192,30323,1,0,0:0:0:50:kick23.wav
64,192,30380,1,0,0:0:0:50:kick23.wav
448,192,30380,128,0,30611:0:0:0:0:
64,192,30611,128,2,30726:0:0:0:0:
320,192,30611,1,4,0:0:0:0:
320,192,30726,1,0,0:0:0:0:
192,192,30842,1,2,0:0:0:0:
448,192,30842,128,0,30957:0:0:0:0:
192,192,30957,1,0,0:0:0:0:
64,192,31073,128,2,31188:0:0:0:0:
320,192,31073,1,0,0:0:0:0:
192,192,31188,128,0,31303:0:0:0:0:
64,192,31303,1,2,0:0:0:0:
320,192,31303,128,0,31419:0:0:0:0:
448,192,31419,128,0,31650:0:0:0:0:
64,192,31534,1,2,0:0:0:0:
320,192,31534,1,0,0:0:0:0:
192,192,31650,128,0,31765:0:0:0:0:
320,192,31765,1,2,0:0:0:0:
448,192,31765,128,0,31880:0:0:0:0:
64,192,31880,128,0,31996:0:0:0:0:
192,192,31996,1,2,0:0:0:0:
320,192,31996,128,0,32111:0:0:0:0:
64,192,32111,128,0,32226:0:0:0:0:
320,192,32226,1,2,0:0:0:0:
448,192,32226,1,0,0:0:0:0:
64,192,32342,1,2,0:0:0:0:
320,192,32342,1,0,0:0:0:0:
192,192,32457,1,2,0:0:0:0:
448,192,32457,128,0,32573:0:0:0:0:
192,192,32573,1,0,0:0:0:0:
64,192,32688,128,2,32803:0:0:0:0:
320,192,32688,1,0,0:0:0:0:
320,192,32803,1,0,0:0:0:0:
192,192,32919,1,2,0:0:0:0:
448,192,32919,128,0,33034:0:0:0:0:
320,192,33034,128,0,33150:0:0:0:0:
192,192,33150,128,2,33265:0:0:0:0:
448,192,33150,1,0,0:0:0:0:
64,192,33265,128,0,33496:0:0:0:0:
192,192,33380,1,2,0:0:0:0:
448,192,33380,1,0,0:0:0:0:
320,192,33496,128,0,33611:0:0:0:0:
64,192,33611,128,2,33726:0:0:0:0:
192,192,33611,1,0,0:0:0:0:
320,192,33726,128,0,33842:0:0:0:0:
192,192,33842,128,2,33957:0:0:0:0:
448,192,33842,1,0,0:0:0:0:
320,192,33957,1,2,0:0:0:0:
448,192,33957,1,0,0:0:0:0:
64,192,34015,1,2,0:0:0:0:
192,192,34015,1,0,0:0:0:0:
320,192,34073,1,2,0:0:0:0:
448,192,34073,1,0,0:0:0:0:
64,192,34188,1,2,0:0:0:0:
192,192,34188,1,0,0:0:0:0:
64,192,34303,1,2,0:0:0:0:
320,192,34303,1,4,0:0:0:0:
448,192,34303,1,0,0:0:0:0:
320,192,34419,1,2,0:0:0:0:
448,192,34419,1,0,0:0:0:0:
64,192,34534,1,2,0:0:0:0:
192,192,34534,1,0,0:0:0:0:
64,192,34650,1,2,0:0:0:0:
192,192,34650,1,0,0:0:0:0:
320,192,34765,1,2,0:0:0:0:
448,192,34765,1,0,0:0:0:0:
64,192,34880,1,2,0:0:0:0:
448,192,34880,1,0,0:0:0:0:
64,192,34996,1,2,0:0:0:0:
320,192,34996,1,0,0:0:0:0:
320,192,35111,1,2,0:0:0:0:
448,192,35111,1,0,0:0:0:0:
64,192,35226,1,2,0:0:0:0:
192,192,35226,1,0,0:0:0:0:
64,192,35342,1,2,0:0:0:0:
192,192,35342,1,0,0:0:0:0:
320,192,35457,1,2,0:0:0:0:
448,192,35457,1,0,0:0:0:0:
320,192,35573,1,2,0:0:0:0:
448,192,35573,1,0,0:0:0:0:
64,192,35688,1,2,0:0:0:0:
192,192,35688,1,0,0:0:0:0:
64,192,35803,1,2,0:0:0:0:
448,192,35803,1,0,0:0:0:0:
192,192,35919,1,2,0:0:0:0:
448,192,35919,1,0,0:0:0:0:
64,192,36034,1,2,0:0:0:0:
192,192,36034,1,0,0:0:0:0:
320,192,36150,1,2,0:0:0:0:
448,192,36150,1,0,0:0:0:0:
320,192,36265,1,2,0:0:0:0:
448,192,36265,1,0,0:0:0:0:
64,192,36380,1,2,0:0:0:0:
192,192,36380,1,0,0:0:0:0:
320,192,36438,1,2,0:0:0:0:
448,192,36496,1,2,0:0:0:0:
192,192,36553,1,2,0:0:0:0:
320,192,36611,1,2,0:0:0:0:
448,192,36611,1,0,0:0:0:0:
64,192,36726,1,2,0:0:0:0:
320,192,36842,1,2,0:0:0:0:
448,192,36842,1,0,0:0:0:0:
192,192,36900,1,2,0:0:0:0:
64,192,36957,1,2,0:0:0:0:
320,192,37015,1,2,0:0:0:0:
64,192,37073,1,2,0:0:0:0:
192,192,37073,1,0,0:0:0:0:
448,192,37188,1,2,0:0:0:0:
320,192,37246,1,2,0:0:0:0:
192,192,37303,1,2,0:0:0:0:
448,192,37303,1,0,0:0:0:0:
64,192,37419,1,2,0:0:0:0:
192,192,37476,1,2,0:0:0:0:
64,192,37534,1,0,0:0:0:0:
320,192,37534,128,0,37650:0:0:0:0:
448,192,37534,1,0,0:0:0:0:
192,192,37650,1,0,0:0:0:0:
64,192,37765,1,0,0:0:0:0:
192,192,37765,128,0,37880:0:0:0:0:
448,192,37765,1,0,0:0:0:0:
320,192,37880,1,0,0:0:0:0:
64,192,37996,1,4,0:0:0:0:
320,192,37996,1,2,0:0:0:0:
448,192,37996,1,0,0:0:0:0:
448,192,38226,1,0,0:0:0:0:
64,192,38457,128,0,38803:0:0:0:0:
320,192,38688,1,2,0:0:0:0:
448,192,38688,1,0,0:0:0:0:
320,192,38919,128,2,39265:0:0:0:0:
448,192,38919,1,0,0:0:0:0:
64,192,39150,1,0,0:0:0:0:
64,192,39380,1,0,0:0:0:50:snare33.wav
448,192,39380,128,0,39726:0:0:0:0:
320,192,39611,1,0,0:0:0:0:
64,192,39842,1,2,0:0:0:0:
192,192,39842,128,0,40188:0:0:0:0:
448,192,40073,1,0,0:0:0:0:
64,192,40303,128,0,40419:0:0:0:0:
320,192,40534,1,2,0:0:0:0:
448,192,40534,128,0,41226:0:0:0:0:
64,192,40765,1,2,0:0:0:0:
192,192,40765,1,0,0:0:0:0:
64,192,40996,1,2,0:0:0:0:
192,192,40996,1,0,0:0:0:0:
320,192,41226,1,0,0:0:0:0:
64,192,41688,1,2,0:0:0:0:
192,192,41688,128,4,41803:0:0:0:0:
448,192,41688,1,0,0:0:0:0:
320,192,41803,1,0,0:0:0:0:
64,192,41919,128,2,42034:0:0:0:0:
448,192,41919,1,0,0:0:0:0:
320,192,42034,1,0,0:0:0:0:
64,192,42150,1,2,0:0:0:0:
448,192,42150,128,0,42265:0:0:0:0:
192,192,42265,1,0,0:0:0:0:
64,192,42380,1,2,0:0:0:0:
320,192,42380,128,0,42726:0:0:0:0:
192,192,42496,1,0,0:0:0:0:
192,192,42611,1,2,0:0:0:0:
448,192,42611,1,0,0:0:0:0:
64,192,42726,1,0,0:0:0:0:
192,192,42842,128,2,42957:0:0:0:0:
448,192,42842,1,0,0:0:0:0:
448,192,42957,1,0,0:0:0:0:
320,192,43073,1,2,0:0:0:0:
64,192,43073,128,0,43188:0:0:0:0:
320,192,43188,1,0,0:0:0:0:
192,192,43303,1,2,0:0:0:0:
448,192,43303,128,0,43880:0:0:0:0:
192,192,43419,1,0,0:0:0:0:
64,192,43534,1,2,0:0:0:0:
320,192,43534,1,0,0:0:0:0:
64,192,43650,1,0,0:0:0:0:
192,192,43765,1,2,0:0:0:0:
320,192,43765,1,0,0:0:0:0:
320,192,43880,1,0,0:0:0:0:
64,192,43996,1,2,0:0:0:0:
448,192,43996,1,0,0:0:0:0:
320,192,44111,1,0,0:0:0:0:
64,192,44226,1,2,0:0:0:0:
192,192,44226,1,0,0:0:0:0:
320,192,44342,1,0,0:0:0:0:
448,192,44342,1,0,0:0:0:0:
192,192,44457,1,2,0:0:0:0:
448,192,44457,128,0,44573:0:0:0:0:
192,192,44573,1,0,0:0:0:0:
64,192,44688,128,2,44803:0:0:0:0:
448,192,44688,1,0,0:0:0:0:
448,192,44803,1,0,0:0:0:0:
64,192,44919,1,2,0:0:0:0:
320,192,44919,128,0,45034:0:0:0:0:
64,192,45034,1,0,0:0:0:0:
192,192,45150,128,2,45265:0:0:0:0:
320,192,45150,1,0,0:0:0:0:
320,192,45265,1,0,0:0:0:0:
64,192,45380,128,2,46073:0:0:0:0:
192,192,45380,1,4,0:0:0:0:
448,192,45380,1,0,0:0:0:0:
320,192,45496,1,2,0:0:0:0:
192,192,45611,1,2,0:0:0:0:
320,192,45611,1,0,0:0:0:0:
448,192,45726,1,2,0:0:0:0:
192,192,45842,1,2,0:0:0:0:
448,192,45842,1,0,0:0:0:0:
320,192,45957,1,2,0:0:0:0:
320,192,46073,1,2,0:0:0:0:
448,192,46073,1,0,0:0:0:0:
64,192,46188,1,2,0:0:0:0:
192,192,46188,1,0,0:0:0:0:
320,192,46303,1,2,0:0:0:0:
448,192,46303,128,0,47226:0:0:0:0:
192,192,46419,1,2,0:0:0:0:
192,192,46534,1,2,0:0:0:0:
320,192,46534,1,0,0:0:0:0:
64,192,46650,1,2,0:0:0:0:
64,192,46765,1,2,0:0:0:0:
320,192,46765,1,0,0:0:0:0:
192,192,46880,1,2,0:0:0:0:
192,192,46996,1,2,0:0:0:0:
320,192,46996,1,0,0:0:0:0:
64,192,47111,1,2,0:0:0:0:
64,192,47226,128,2,48150:0:0:0:0:
192,192,47226,128,4,47803:0:0:0:0:
320,192,48150,128,0,48496:0:0:0:0:
64,192,48611,128,0,48726:0:0:0:0:
448,192,48611,128,0,48726:0:0:0:0:
64,192,48842,1,0,0:0:0:70:Clap Drum.wav
192,192,48842,1,0,0:0:0:0:
448,192,48842,1,0,0:0:0:0:
64,192,49073,1,2,0:0:0:0:
320,192,49073,1,4,0:0:0:0:
448,192,49073,1,0,0:0:0:0:
192,192,49188,1,0,0:0:0:0:
64,192,49303,128,2,49419:0:0:0:0:
320,192,49303,1,0,0:0:0:0:
320,192,49419,1,0,0:0:0:0:
192,192,49534,1,2,0:0:0:0:
448,192,49534,128,0,49650:0:0:0:0:
192,192,49650,1,0,0:0:0:0:
64,192,49765,1,2,0:0:0:0:
320,192,49765,1,0,0:0:0:0:
320,192,49880,128,0,49996:0:0:0:0:
64,192,49996,1,2,0:0:0:0:
192,192,49996,1,0,0:0:0:0:
448,192,50111,1,0,0:0:0:0:
192,192,50226,128,2,50342:0:0:0:0:
320,192,50226,1,0,0:0:0:0:
64,192,50342,1,0,0:0:0:0:
192,192,50457,1,2,0:0:0:0:
320,192,50457,128,0,50573:0:0:0:0:
448,192,50573,1,0,0:0:0:0:
64,192,50688,1,2,0:0:0:0:
192,192,50688,1,0,0:0:0:0:
320,192,50803,1,0,0:0:0:0:
64,192,50919,1,2,0:0:0:0:
448,192,50919,128,0,51034:0:0:0:0:
192,192,51034,1,0,0:0:0:0:
64,192,51150,1,2,0:0:0:0:
320,192,51150,128,0,51265:0:0:0:0:
192,192,51265,1,0,0:0:0:0:
320,192,51380,1,2,0:0:0:0:
448,192,51380,1,0,0:0:0:0:
448,192,51496,1,0,0:0:0:0:
64,192,51611,1,2,0:0:0:0:
192,192,51611,1,0,0:0:0:0:
64,192,51726,1,0,0:0:0:0:
192,192,51842,1,2,0:0:0:0:
448,192,51842,128,0,51957:0:0:0:0:
64,192,51957,1,0,0:0:0:0:
320,192,52073,1,2,0:0:0:0:
448,192,52073,1,0,0:0:0:0:
320,192,52188,1,0,0:0:0:0:
64,192,52303,1,2,0:0:0:0:
192,192,52303,128,0,52419:0:0:0:0:
448,192,52419,1,0,0:0:0:0:
192,192,52534,1,2,0:0:0:0:
320,192,52534,128,0,52650:0:0:0:0:
64,192,52650,1,0,0:0:0:0:
320,192,52765,1,2,0:0:0:0:
448,192,52765,128,4,52996:0:0:0:0:
192,192,52880,1,0,0:0:0:0:
64,192,52996,1,2,0:0:0:0:
320,192,52996,1,0,0:0:0:0:
192,192,53111,1,0,0:0:0:0:
192,192,53226,128,2,53342:0:0:0:0:
448,192,53226,1,0,0:0:0:0:
64,192,53342,1,0,0:0:0:0:
320,192,53457,1,2,0:0:0:0:
448,192,53457,1,0,0:0:0:0:
320,192,53573,128,0,53688:0:0:0:0:
64,192,53688,1,2,0:0:0:0:
192,192,53688,1,0,0:0:0:0:
448,192,53803,1,0,0:0:0:0:
64,192,53919,128,2,54034:0:0:0:0:
320,192,53919,1,0,0:0:0:0:
320,192,54034,1,0,0:0:0:0:
192,192,54150,1,2,0:0:0:0:
448,192,54150,128,0,54265:0:0:0:0:
192,192,54265,1,0,0:0:0:0:
320,192,54380,1,2,0:0:0:0:
448,192,54380,1,0,0:0:0:0:
64,192,54496,1,0,0:0:0:0:
192,192,54611,1,2,0:0:0:0:
320,192,54611,128,0,54726:0:0:0:0:
448,192,54726,1,0,0:0:0:0:
64,192,54842,1,2,0:0:0:0:
192,192,54842,1,0,0:0:0:0:
192,192,54957,1,0,0:0:0:0:
320,192,55073,128,2,55188:0:0:0:0:
448,192,55073,1,0,0:0:0:0:
192,192,55188,1,0,0:0:0:0:
64,192,55303,1,2,0:0:0:0:
448,192,55303,1,0,0:0:0:0:
64,192,55419,128,0,55996:0:0:0:0:
320,192,55534,1,0,0:0:0:0:
448,192,55765,1,0,0:0:0:0:
192,192,55880,1,0,0:0:0:0:
448,192,55996,1,0,0:0:0:0:
192,192,56053,1,0,0:0:0:0:
320,192,56111,1,0,0:0:0:0:
64,192,56169,1,0,0:0:0:0:
192,192,56226,1,0,0:0:0:0:
448,192,56284,1,0,0:0:0:0:
320,192,56342,1,0,0:0:0:0:
192,192,56400,1,0,0:0:0:0:
64,192,56457,1,2,0:0:0:0:
448,192,56457,1,4,0:0:0:0:
192,192,56573,1,2,0:0:0:0:
320,192,56573,1,0,0:0:0:0:
64,192,56688,128,2,56803:0:0:0:0:
448,192,56688,1,0,0:0:0:0:
320,192,56803,1,0,0:0:0:0:
192,192,56919,1,2,0:0:0:0:
448,192,56919,128,0,57034:0:0:0:0:
192,192,57034,1,0,0:0:0:0:
64,192,57150,1,2,0:0:0:0:
320,192,57150,1,0,0:0:0:0:
320,192,57265,128,2,57496:0:0:0:0:
448,192,57265,1,0,0:0:0:0:
64,192,57380,1,0,0:0:0:0:
192,192,57496,1,2,0:0:0:0:
448,192,57496,1,0,0:0:0:0:
64,192,57611,1,2,0:0:0:0:
192,192,57611,128,0,57726:0:0:0:0:
320,192,57726,1,0,0:0:0:0:
320,192,57842,128,2,57957:0:0:0:0:
448,192,57842,1,0,0:0:0:0:
64,192,57957,1,2,0:0:0:0:
192,192,57957,1,0,0:0:0:0:
320,192,58073,1,2,0:0:0:0:
448,192,58073,1,0,0:0:0:0:
192,192,58130,1,2,0:0:0:0:
64,192,58188,1,2,0:0:0:0:
320,192,58246,1,2,0:0:0:0:
192,192,58303,1,2,0:0:0:0:
448,192,58303,128,0,58419:0:0:0:0:
192,192,58419,1,0,0:0:0:0:
64,192,58534,128,2,58650:0:0:0:0:
448,192,58534,1,0,0:0:0:0:
448,192,58650,1,0,0:0:0:0:
192,192,58765,1,2,0:0:0:0:
320,192,58765,128,0,58880:0:0:0:0:
448,192,58880,1,0,0:0:0:0:
64,192,58996,1,2,0:0:0:0:
192,192,58996,1,0,0:0:0:0:
192,192,59111,1,2,0:0:0:0:
320,192,59111,1,0,0:0:0:0:
320,192,59226,1,2,0:0:0:0:
448,192,59226,128,0,59342:0:0:0:0:
64,192,59342,1,0,0:0:0:0:
320,192,59457,1,2,0:0:0:0:
448,192,59457,1,0,0:0:0:0:
192,192,59573,1,2,0:0:0:0:
320,192,59573,1,0,0:0:0:0:
64,192,59688,128,2,59803:0:0:0:0:
192,192,59688,1,0,0:0:0:0:
448,192,59803,1,0,0:0:0:0:
192,192,59919,1,2,0:0:0:0:
320,192,59919,1,0,0:0:0:0:
448,192,59976,1,2,0:0:0:0:
64,192,60034,1,2,0:0:0:0:
320,192,60092,1,2,0:0:0:0:
64,192,60150,1,4,0:0:0:0:
192,192,60150,1,2,0:0:0:0:
448,192,60150,128,0,60380:0:0:0:0:
320,192,60265,1,0,0:0:0:0:
64,192,60380,1,2,0:0:0:0:
192,192,60380,1,0,0:0:0:0:
320,192,60496,1,0,0:0:0:0:
192,192,60611,128,2,60726:0:0:0:0:
448,192,60611,1,0,0:0:0:0:
64,192,60726,1,0,0:0:0:0:
192,192,60842,1,2,0:0:0:0:
320,192,60842,1,0,0:0:0:0:
320,192,60957,128,2,61188:0:0:0:0:
64,192,61073,1,0,0:0:0:0:
192,192,61188,1,2,0:0:0:0:
448,192,61188,1,0,0:0:0:0:
64,192,61303,128,2,61419:0:0:0:0:
320,192,61303,1,0,0:0:0:0:
320,192,61419,1,0,0:0:0:0:
192,192,61534,1,2,0:0:0:0:
448,192,61534,128,0,61650:0:0:0:0:
64,192,61650,1,2,0:0:0:0:
192,192,61650,1,0,0:0:0:0:
320,192,61765,1,2,0:0:0:0:
448,192,61765,1,0,0:0:0:0:
64,192,61880,1,0,0:0:0:0:
192,192,61996,128,2,62111:0:0:0:0:
448,192,61996,1,0,0:0:0:0:
64,192,62111,1,2,0:0:0:0:
320,192,62111,1,0,0:0:0:0:
192,192,62226,1,2,0:0:0:0:
320,192,62226,128,0,62342:0:0:0:0:
64,192,62342,1,0,0:0:0:0:
64,192,62457,128,2,62573:0:0:0:0:
448,192,62457,1,0,0:0:0:0:
448,192,62573,1,0,0:0:0:0:
192,192,62688,1,2,0:0:0:0:
320,192,62688,1,0,0:0:0:0:
192,192,62803,128,2,63380:0:0:0:0:
448,192,62919,1,0,0:0:0:0:
64,192,63034,1,2,0:0:0:0:
320,192,63034,1,0,0:0:0:0:
320,192,63150,1,2,0:0:0:0:
448,192,63150,1,0,0:0:0:0:
64,192,63265,1,0,0:0:0:0:
320,192,63380,1,0,0:0:0:50:kick23.wav
448,192,63380,1,0,0:0:0:0:
64,192,63496,1,0,0:0:0:50:kick23.wav
192,192,63496,1,0,0:0:0:0:
320,192,63553,1,0,0:0:0:50:kick23.wav
64,192,63611,1,0,0:0:0:50:kick23.wav
448,192,63611,128,0,63842:0:0:0:0:
64,192,63842,1,2,0:0:0:0:
192,192,63842,1,4,0:0:0:0:
320,192,63842,1,0,0:0:0:0:
64,192,63957,1,2,0:0:0:0:
192,192,63957,1,0,0:0:0:0:
320,192,64073,1,2,0:0:0:0:
448,192,64073,1,0,0:0:0:0:
320,192,64188,1,2,0:0:0:0:
448,192,64188,1,0,0:0:0:0:
64,192,64303,1,2,0:0:0:0:
192,192,64303,1,0,0:0:0:0:
64,192,64419,1,2,0:0:0:0:
192,192,64419,1,0,0:0:0:0:
320,192,64534,1,2,0:0:0:0:
448,192,64534,1,0,0:0:0:0:
320,192,64650,1,2,0:0:0:0:
448,192,64650,1,0,0:0:0:0:
64,192,64765,1,2,0:0:0:0:
192,192,64765,1,0,0:0:0:0:
320,192,64880,1,2,0:0:0:0:
448,192,64880,1,0,0:0:0:0:
192,192,64938,1,2,0:0:0:0:
64,192,64996,1,2,0:0:0:0:
448,192,64996,1,0,0:0:0:0:
192,192,65111,1,2,0:0:0:0:
320,192,65111,128,0,65342:0:0:0:0:
64,192,65342,1,2,0:0:0:0:
192,192,65342,1,0,0:0:0:0:
192,192,65457,128,2,65573:0:0:0:0:
448,192,65457,1,0,0:0:0:0:
64,192,65573,1,0,0:0:0:0:
320,192,65688,1,4,0:0:0:0:
448,192,65688,1,2,0:0:0:0:
320,192,65803,1,2,0:0:0:0:
448,192,65803,1,0,0:0:0:0:
64,192,65919,1,2,0:0:0:0:
192,192,65919,1,0,0:0:0:0:
64,192,66034,1,2,0:0:0:0:
192,192,66034,1,0,0:0:0:0:
320,192,66150,1,2,0:0:0:0:
448,192,66150,1,0,0:0:0:0:
320,192,66265,1,2,0:0:0:0:
448,192,66265,1,0,0:0:0:0:
64,192,66380,1,2,0:0:0:0:
192,192,66380,1,0,0:0:0:0:
64,192,66496,1,2,0:0:0:0:
192,192,66496,1,0,0:0:0:0:
320,192,66611,1,2,0:0:0:0:
448,192,66611,1,0,0:0:0:0:
64,192,66726,1,2,0:0:0:0:
192,192,66726,1,0,0:0:0:0:
320,192,66784,1,2,0:0:0:0:
192,192,66842,1,2,0:0:0:0:
448,192,66842,1,0,0:0:0:0:
64,192,66957,128,2,67188:0:0:0:0:
320,192,66957,1,0,0:0:0:0:
320,192,67188,1,2,0:0:0:0:
448,192,67188,1,0,0:0:0:0:
192,192,67303,1,2,0:0:0:0:
320,192,67303,1,0,0:0:0:0:
64,192,67419,1,0,0:0:0:0:
64,192,67534,1,2,0:0:0:0:
320,192,67534,1,4,0:0:0:0:
448,192,67534,1,0,0:0:0:0:
320,192,67650,1,2,0:0:0:0:
448,192,67650,1,0,0:0:0:0:
64,192,67765,1,2,0:0:0:0:
192,192,67765,1,0,0:0:0:0:
320,192,67823,1,2,0:0:0:0:
192,192,67880,1,2,0:0:0:0:
448,192,67880,1,0,0:0:0:0:
64,192,67996,1,2,0:0:0:0:
320,192,67996,1,0,0:0:0:0:
320,192,68111,1,2,0:0:0:0:
448,192,68111,1,0,0:0:0:0:
192,192,68169,1,2,0:0:0:0:
64,192,68226,1,2,0:0:0:0:
448,192,68226,1,0,0:0:0:0:
320,192,68284,1,2,0:0:0:0:
64,192,68342,1,2,0:0:0:0:
192,192,68342,1,0,0:0:0:0:
320,192,68457,1,2,0:0:0:0:
448,192,68457,1,4,0:0:0:0:
64,192,68573,1,2,0:0:0:0:
192,192,68573,1,0,0:0:0:0:
320,192,68630,1,2,0:0:0:0:
192,192,68688,1,2,0:0:0:0:
448,192,68688,1,0,0:0:0:0:
64,192,68803,1,2,0:0:0:0:
320,192,68803,128,0,69034:0:0:0:0:
192,192,69034,1,2,0:0:0:0:
448,192,69034,1,0,0:0:0:0:
64,192,69150,1,2,0:0:0:0:
192,192,69150,1,0,0:0:0:0:
320,192,69265,1,2,0:0:0:0:
448,192,69265,1,0,0:0:0:0:
64,192,69323,1,2,0:0:0:0:
320,192,69380,1,4,0:0:0:0:
448,192,69380,1,2,0:0:0:0:
64,192,69496,1,2,0:0:0:0:
192,192,69496,1,0,0:0:0:0:
448,192,69553,1,2,0:0:0:0:
64,192,69611,1,2,0:0:0:0:
192,192,69611,1,0,0:0:0:0:
320,192,69726,1,2,0:0:0:0:
448,192,69726,1,0,0:0:0:0:
192,192,69784,1,2,0:0:0:0:
448,192,69842,1,2,0:0:0:0:
320,192,69842,1,0,0:0:0:0:
64,192,69957,1,2,0:0:0:0:
192,192,69957,1,0,0:0:0:0:
320,192,70015,1,2,0:0:0:0:
64,192,70073,1,2,0:0:0:0:
192,192,70073,1,0,0:0:0:0:
448,192,70188,1,2,0:0:0:0:
64,192,70188,1,0,0:0:0:0:
448,192,70303,1,4,0:0:0:0:
320,192,70303,1,2,0:0:0:0:
192,192,70361,1,2,0:0:0:0:
320,192,70419,1,2,0:0:0:0:
192,192,70476,1,2,0:0:0:0:
64,192,70476,1,0,0:0:0:0:
448,192,70534,128,0,70650:0:0:0:0:
64,192,70650,128,0,70765:0:0:0:0:
320,192,70765,1,2,0:0:0:0:
448,192,70765,1,0,0:0:0:0:
64,192,70823,1,2,0:0:0:0:
192,192,70823,1,0,0:0:0:0:
320,192,70880,128,0,70996:0:0:0:0:
64,192,70996,1,2,0:0:0:0:
192,192,70996,1,0,0:0:0:0:
320,192,71053,1,2,0:0:0:0:
448,192,71053,1,0,0:0:0:0:
192,192,71111,128,0,71226:0:0:0:0:
320,192,71226,128,4,72150:0:0:0:0:
448,192,71226,1,2,0:0:0:0:
64,192,71226,1,0,0:0:0:0:
192,192,71688,1,0,0:0:0:0:
448,192,71919,1,0,0:0:0:0:
64,192,72150,1,0,0:0:0:50:snare33.wav
192,192,72150,1,0,0:0:0:0:
448,192,72150,128,0,73073:0:0:0:0:
192,192,72380,1,0,0:0:0:0:
64,192,72496,1,2,0:0:0:0:
320,192,72496,1,0,0:0:0:0:
192,192,72726,1,0,0:0:0:0:
64,192,72842,1,2,0:0:0:0:
320,192,72842,1,0,0:0:0:0:
192,192,73073,128,2,73996:0:0:0:0:
320,192,73073,1,4,0:0:0:0:
64,192,73996,1,0,0:0:0:70:Open Hat 5.wav
448,192,73996,1,0,0:0:0:0:
192,192,74226,1,0,0:0:0:70:Open Hat 5.wav
448,192,74226,1,0,0:0:0:0:
64,192,74457,1,0,0:0:0:70:Open Hat 5.wav
448,192,74457,1,0,0:0:0:0:
192,192,74688,1,0,0:0:0:70:Open Hat 5.wav
448,192,74688,1,0,0:0:0:0:
64,192,74919,128,2,75150:0:0:0:0:
192,192,74919,128,0,75150:0:0:0:70:cymbal_s.wav
320,192,74919,1,0,0:0:0:0:
448,192,75150,128,0,75380:0:0:0:0:
64,192,75380,1,0,0:0:0:0:
64,192,75496,128,0,75726:0:0:0:0:
192,192,75842,1,2,0:0:0:0:
320,192,75842,128,0,76073:0:0:0:70:cymbal_s.wav
448,192,75842,128,0,76073:0:0:0:0:
64,192,76073,128,0,76303:0:0:0:0:
448,192,76303,1,0,0:0:0:0:
448,192,76419,128,0,76650:0:0:0:0:
64,192,76765,128,2,76996:0:0:0:0:
192,192,76765,128,0,76996:0:0:0:70:cymbal_s.wav
320,192,76765,1,0,0:0:0:0:
448,192,76996,1,0,0:0:0:0:
192,192,77226,128,2,77342:0:0:0:0:
320,192,77226,128,0,77342:0:0:0:70:cymbal_s.wav
64,192,77342,128,2,77573:0:0:0:0:
448,192,77342,128,0,77573:0:0:0:70:cymbal_s.wav
192,192,77573,1,0,0:0:0:70:cymbal_s.wav
320,192,77630,1,0,0:0:0:0:
64,192,77688,1,0,0:0:0:0:
192,192,77746,1,0,0:0:0:0:
320,192,77803,128,0,77919:0:0:0:70:cymbal_s.wav
448,192,77803,128,0,77919:0:0:0:0:
64,192,77919,128,0,78150:0:0:0:70:cymbal_s.wav
192,192,77919,128,0,78034:0:0:0:0:
192,192,78150,1,2,0:0:0:0:
320,192,78150,128,4,78380:0:0:0:0:
448,192,78150,128,0,78380:0:0:0:0:
64,192,78380,128,0,78496:0:0:0:0:
192,192,78611,128,2,78842:0:0:0:0:
320,192,78611,128,0,78726:0:0:0:70:cymbal_s.wav
448,192,78611,128,0,78842:0:0:0:0:
64,192,78842,128,0,78957:0:0:0:0:
64,192,79073,128,2,79303:0:0:0:0:
192,192,79073,128,0,79303:0:0:0:70:cymbal_s.wav
448,192,79073,1,0,0:0:0:0:
448,192,79188,128,0,79419:0:0:0:0:
64,192,79534,128,2,79765:0:0:0:0:
192,192,79534,128,0,79650:0:0:0:70:cymbal_s.wav
320,192,79534,128,0,79765:0:0:0:0:
448,192,79765,128,0,79880:0:0:0:0:
64,192,79996,1,2,0:0:0:0:
320,192,79996,128,0,80226:0:0:0:70:cymbal_s.wav
448,192,79996,128,0,80226:0:0:0:0:
64,192,80111,128,0,80342:0:0:0:0:
192,192,80457,1,2,0:0:0:0:
320,192,80457,1,0,0:0:0:70:cymbal_s.wav
448,192,80457,1,0,0:0:0:0:
448,192,80573,128,0,80688:0:0:0:0:
64,192,80688,1,2,0:0:0:0:
192,192,80688,1,0,0:0:0:70:cymbal_s.wav
320,192,80688,1,0,0:0:0:0:
64,192,80803,128,0,80919:0:0:0:0:
192,192,80919,1,2,0:0:0:0:
320,192,80919,1,0,0:0:0:70:cymbal_s.wav
448,192,80919,1,0,0:0:0:0:
64,192,81034,1,2,0:0:0:0:
192,192,81034,128,0,81265:0:0:0:70:cymbal_s.wav
320,192,81034,1,0,0:0:0:0:
448,192,81265,1,0,0:0:0:70:cymbal_s.wav
320,192,81323,1,0,0:0:0:0:
64,192,81380,1,0,0:0:0:0:
192,192,81438,1,0,0:0:0:0:
320,192,81496,128,0,81611:0:0:0:70:cymbal_s.wav
448,192,81496,128,0,81611:0:0:0:0:
64,192,81611,128,0,81842:0:0:0:70:cymbal_s.wav
192,192,81611,128,0,81726:0:0:0:0:
192,192,81842,1,2,0:0:0:0:
320,192,81842,128,4,82073:0:0:0:0:
448,192,81842,128,0,82303:0:0:0:0:
64,192,82303,1,2,0:0:0:0:
192,192,82303,128,0,84150:0:0:0:0:
320,192,82650,1,0,0:0:0:0:
448,192,82765,1,0,0:0:0:0:
320,192,82996,1,0,0:0:0:0:
64,192,83111,1,0,0:0:0:0:
448,192,83457,1,0,0:0:0:0:
320,192,83919,1,0,0:0:0:0:
64,192,84150,1,0,0:0:0:0:
448,192,84150,128,0,85996:0:0:0:0:
192,192,84496,1,0,0:0:0:0:
320,192,84611,1,0,0:0:0:0:
192,192,84842,1,0,0:0:0:0:
64,192,84957,1,0,0:0:0:0:
64,192,85188,1,0,0:0:0:0:
192,192,85303,1,0,0:0:0:0:
192,192,85534,1,0,0:0:0:0:
64,192,85650,1,0,0:0:0:0:
192,192,85880,1,0,0:0:0:0:
64,192,85996,128,0,87842:0:0:0:0:
320,192,85996,1,0,0:0:0:0:
192,192,86342,1,0,0:0:0:0:
448,192,86457,1,0,0:0:0:0:
320,192,86688,1,0,0:0:0:0:
192,192,86803,1,0,0:0:0:0:
192,192,87034,1,0,0:0:0:0:
320,192,87150,1,0,0:0:0:0:
320,192,87380,1,0,0:0:0:0:
192,192,87496,1,0,0:0:0:0:
192,192,87726,1,0,0:0:0:0:
320,192,87842,128,0,89573:0:0:0:0:
448,192,87842,1,0,0:0:0:0:
64,192,88188,1,0,0:0:0:0:
448,192,88303,1,0,0:0:0:0:
192,192,88534,1,0,0:0:0:0:
448,192,88650,1,0,0:0:0:0:
64,192,88765,128,0,89688:0:0:0:0:
192,192,89688,1,4,0:0:0:0:
320,192,89688,1,0,0:0:0:50:kick23.wav
448,192,89688,1,0,0:0:0:0:
448,192,89919,1,0,0:0:0:0:
64,192,90150,1,0,0:0:0:0:
192,192,90265,1,0,0:0:0:0:
448,192,90380,1,0,0:0:0:0:
192,192,90496,1,0,0:0:0:0:
64,192,90611,1,0,0:0:0:70:Clap.wav
448,192,90611,1,0,0:0:0:0:
192,192,90842,1,0,0:0:0:0:
320,192,90957,1,0,0:0:0:0:
64,192,91073,1,0,0:0:0:0:
320,192,91188,1,0,0:0:0:0:
192,192,91303,1,0,0:0:0:0:
320,192,91534,1,0,0:0:0:50:kick23.wav
448,192,91534,1,0,0:0:0:0:
448,192,91765,1,0,0:0:0:0:
64,192,91996,1,0,0:0:0:0:
192,192,92111,1,0,0:0:0:0:
448,192,92226,1,0,0:0:0:0:
192,192,92342,1,0,0:0:0:0:
64,192,92457,1,0,0:0:0:70:Clap.wav
448,192,92457,1,0,0:0:0:0:
192,192,92688,1,0,0:0:0:0:
320,192,92803,1,0,0:0:0:0:
64,192,92919,1,0,0:0:0:0:
320,192,93034,1,0,0:0:0:0:
192,192,93150,1,0,0:0:0:0:
320,192,93380,1,0,0:0:0:50:kick23.wav
448,192,93380,1,0,0:0:0:0:
64,192,93611,1,0,0:0:0:0:
320,192,93842,1,0,0:0:0:0:
448,192,93957,1,0,0:0:0:0:
192,192,94073,1,0,0:0:0:0:
448,192,94188,1,0,0:0:0:0:
64,192,94303,1,0,0:0:0:70:Clap.wav
320,192,94303,1,0,0:0:0:0:
448,192,94534,1,0,0:0:0:0:
192,192,94650,1,0,0:0:0:0:
320,192,94765,1,0,0:0:0:0:
192,192,94880,1,0,0:0:0:0:
448,192,94996,1,0,0:0:0:0:
320,192,95226,1,0,0:0:0:50:kick23.wav
448,192,95226,1,0,0:0:0:0:
64,192,95457,1,0,0:0:0:0:
320,192,95688,1,0,0:0:0:0:
448,192,95803,1,0,0:0:0:0:
192,192,95919,1,0,0:0:0:0:
448,192,96034,1,0,0:0:0:0:
64,192,96150,1,0,0:0:0:70:Clap.wav
320,192,96150,1,0,0:0:0:0:
448,192,96380,1,0,0:0:0:0:
192,192,96496,1,0,0:0:0:0:
320,192,96611,1,0,0:0:0:0:
192,192,96726,1,0,0:0:0:0:
448,192,96842,1,0,0:0:0:0:
64,192,97073,1,4,0:0:0:0:
320,192,97073,1,0,0:0:0:50:kick23.wav
448,192,97073,1,0,0:0:0:0:
320,192,97303,1,0,0:0:0:0:
192,192,97534,1,0,0:0:0:0:
64,192,97650,1,0,0:0:0:0:
320,192,97765,1,0,0:0:0:0:
64,192,97880,1,0,0:0:0:0:
192,192,97996,1,0,0:0:0:70:Clap.wav
320,192,97996,1,0,0:0:0:0:
64,192,98226,1,0,0:0:0:0:
448,192,98342,1,0,0:0:0:0:
192,192,98457,1,0,0:0:0:0:
448,192,98573,1,0,0:0:0:0:
64,192,98688,1,0,0:0:0:0:
320,192,98919,1,0,0:0:0:50:kick23.wav
448,192,98919,1,0,0:0:0:0:
320,192,99150,1,0,0:0:0:0:
192,192,99380,1,0,0:0:0:0:
64,192,99496,1,0,0:0:0:0:
320,192,99611,1,0,0:0:0:0:
64,192,99726,1,0,0:0:0:0:
192,192,99842,1,0,0:0:0:70:Clap.wav
320,192,99842,1,0,0:0:0:0:
64,192,100073,1,0,0:0:0:0:
448,192,100188,1,0,0:0:0:0:
192,192,100303,1,0,0:0:0:0:
448,192,100419,1,0,0:0:0:0:
64,192,100534,1,0,0:0:0:0:
320,192,100765,1,0,0:0:0:50:kick23.wav
448,192,100765,1,0,0:0:0:0:
192,192,100996,1,0,0:0:0:0:
448,192,101226,1,0,0:0:0:0:
320,192,101342,1,0,0:0:0:0:
64,192,101457,1,0,0:0:0:0:
320,192,101573,1,0,0:0:0:0:
192,192,101688,1,0,0:0:0:70:Clap.wav
448,192,101688,1,0,0:0:0:0:
320,192,101919,1,0,0:0:0:0:
64,192,102034,1,0,0:0:0:0:
448,192,102150,1,0,0:0:0:0:
64,192,102265,1,0,0:0:0:0:
320,192,102380,1,0,0:0:0:0:
320,192,102611,1,0,0:0:0:50:kick23.wav
448,192,102611,1,0,0:0:0:0:
192,192,102842,1,0,0:0:0:0:
448,192,103073,1,0,0:0:0:0:
320,192,103188,1,0,0:0:0:0:
64,192,103303,1,0,0:0:0:0:
320,192,103419,1,0,0:0:0:0:
192,192,103534,1,0,0:0:0:70:Clap.wav
448,192,103534,1,0,0:0:0:0:
320,192,103765,1,0,0:0:0:0:
64,192,103880,1,0,0:0:0:0:
448,192,103996,1,0,0:0:0:0:
64,192,104111,1,0,0:0:0:0:
320,192,104226,1,0,0:0:0:0:
64,192,104457,128,4,107226:0:0:0:0:
320,192,104457,1,0,0:0:0:50:kick23.wav
448,192,104457,1,0,0:0:0:0:
448,192,106303,128,0,107226:0:0:0:0:
320,192,107226,128,0,107573:0:0:0:0:
64,192,107688,128,0,107803:0:0:0:0:
448,192,107688,128,0,107803:0:0:0:0:
64,192,108150,1,4,0:0:0:0:
192,192,108150,1,0,0:0:0:50:kick23.wav
320,192,108150,1,0,0:0:0:0:
192,192,108265,1,0,0:0:0:0:
448,192,108380,128,0,108496:0:0:0:0:
64,192,108611,128,0,108726:0:0:0:0:
320,192,108842,1,0,0:0:0:0:
320,192,108957,128,0,109073:0:0:0:0:
448,192,109188,1,0,0:0:0:0:
448,192,109303,128,0,109419:0:0:0:0:
192,192,109534,128,0,109765:0:0:0:0:
320,192,109765,1,0,0:0:0:0:
64,192,109996,1,0,0:0:0:0:
320,192,109996,128,0,110111:0:0:0:0:
192,192,110226,128,0,110342:0:0:0:0:
448,192,110457,1,0,0:0:0:0:
448,192,110573,1,0,0:0:0:0:
192,192,110688,1,0,0:0:0:0:
192,192,110803,1,0,0:0:0:0:
320,192,110919,128,0,111034:0:0:0:0:
64,192,111150,1,0,0:0:0:0:
448,192,111265,1,0,0:0:0:0:
64,192,111380,128,0,111496:0:0:0:0:
192,192,111611,128,0,111726:0:0:0:0:
320,192,111842,128,0,112188:0:0:0:0:
448,192,111842,1,0,0:0:0:0:
64,192,112073,1,0,0:0:0:0:
64,192,112303,128,0,112419:0:0:0:0:
448,192,112534,1,0,0:0:0:0:
448,192,112650,128,0,112880:0:0:0:0:
320,192,112996,128,0,113111:0:0:0:0:
192,192,113226,128,0,113342:0:0:0:0:
448,192,113457,1,0,0:0:0:0:
64,192,113688,128,0,113803:0:0:0:0:
448,192,113688,128,0,114611:0:0:0:0:
320,192,113919,128,0,114034:0:0:0:0:
192,192,114150,128,0,114265:0:0:0:0:
64,192,114380,5,0,0:0:0:0:
64,192,114496,128,0,114842:0:0:0:0:
192,192,114611,128,2,114842:0:0:0:0:
320,192,114611,128,0,114842:0:0:0:70:cymbal_s.wav
448,192,114842,1,0,0:0:0:0:
320,192,114957,1,0,0:0:0:0:
64,192,115073,128,2,115534:0:0:0:0:
192,192,115073,128,0,115303:0:0:0:70:cymbal_s.wav
448,192,115073,128,0,115534:0:0:0:0:
192,192,115534,1,4,0:0:0:0:
320,192,115534,1,2,0:0:0:0:
64,192,115650,1,2,0:0:0:0:
448,192,115650,1,0,0:0:0:0:
192,192,115765,128,2,115880:0:0:0:0:
320,192,115765,1,0,0:0:0:0:
448,192,115880,1,0,0:0:0:0:
64,192,115996,1,2,0:0:0:0:
320,192,115996,128,0,116111:0:0:0:0:
64,192,116111,1,0,0:0:0:0:
192,192,116226,1,2,0:0:0:0:
448,192,116226,1,0,0:0:0:0:
320,192,116342,1,2,0:0:0:0:
448,192,116342,128,0,116573:0:0:0:0:
192,192,116457,1,0,0:0:0:0:
64,192,116573,1,2,0:0:0:0:
320,192,116573,1,0,0:0:0:0:
64,192,116688,128,2,116803:0:0:0:0:
192,192,116688,1,0,0:0:0:0:
448,192,116803,1,0,0:0:0:0:
320,192,116919,1,2,0:0:0:0:
448,192,116919,128,0,117034:0:0:0:0:
64,192,117034,1,2,0:0:0:0:
192,192,117034,1,0,0:0:0:0:
320,192,117150,1,2,0:0:0:0:
448,192,117150,1,0,0:0:0:0:
64,192,117207,1,2,0:0:0:0:
192,192,117265,1,2,0:0:0:0:
448,192,117323,1,2,0:0:0:0:
64,192,117380,1,2,0:0:0:0:
320,192,117380,128,0,117496:0:0:0:0:
64,192,117496,1,0,0:0:0:0:
192,192,117611,128,2,117726:0:0:0:0:
320,192,117611,1,0,0:0:0:0:
320,192,117726,1,0,0:0:0:0:
64,192,117842,1,2,0:0:0:0:
448,192,117842,128,0,117957:0:0:0:0:
320,192,117957,1,0,0:0:0:0:
64,192,118073,1,2,0:0:0:0:
192,192,118073,1,0,0:0:0:0:
64,192,118188,1,2,0:0:0:0:
448,192,118188,1,0,0:0:0:0:
448,192,118303,1,2,0:0:0:0:
320,192,118303,128,0,118419:0:0:0:0:
192,192,118419,1,0,0:0:0:0:
320,192,118534,1,2,0:0:0:0:
448,192,118534,1,0,0:0:0:0:
64,192,118650,1,2,0:0:0:0:
448,192,118650,1,0,0:0:0:0:
64,192,118765,1,2,0:0:0:0:
192,192,118765,128,0,118880:0:0:0:0:
320,192,118880,1,0,0:0:0:0:
64,192,118996,1,2,0:0:0:0:
448,192,118996,1,0,0:0:0:0:
320,192,119053,1,2,0:0:0:0:
192,192,119111,1,2,0:0:0:0:
448,192,119169,1,2,0:0:0:0:
64,192,119226,1,2,0:0:0:0:
192,192,119226,1,4,0:0:0:0:
320,192,119226,128,0,119457:0:0:0:0:
448,192,119342,1,0,0:0:0:0:
64,192,119457,1,2,0:0:0:0:
192,192,119457,1,0,0:0:0:0:
448,192,119573,1,0,0:0:0:0:
64,192,119688,128,2,119803:0:0:0:0:
320,192,119688,1,0,0:0:0:0:
192,192,119803,1,0,0:0:0:0:
64,192,119919,1,2,0:0:0:0:
448,192,119919,1,0,0:0:0:0:
448,192,120034,128,2,120265:0:0:0:0:
192,192,120150,1,0,0:0:0:0:
64,192,120265,1,2,0:0:0:0:
320,192,120265,1,0,0:0:0:0:
192,192,120380,128,2,120496:0:0:0:0:
448,192,120380,1,0,0:0:0:0:
448,192,120496,1,0,0:0:0:0:
64,192,120611,1,2,0:0:0:0:
320,192,120611,128,0,120726:0:0:0:0:
64,192,120726,1,2,0:0:0:0:
192,192,120726,1,0,0:0:0:0:
320,192,120842,1,2,0:0:0:0:
448,192,120842,1,0,0:0:0:0:
192,192,120957,1,0,0:0:0:0:
64,192,121073,128,2,121188:0:0:0:0:
320,192,121073,1,0,0:0:0:0:
192,192,121188,1,2,0:0:0:0:
448,192,121188,1,0,0:0:0:0:
64,192,121303,1,2,0:0:0:0:
448,192,121303,128,0,121419:0:0:0:0:
192,192,121419,1,0,0:0:0:0:
192,192,121534,128,2,121650:0:0:0:0:
320,192,121534,1,0,0:0:0:0:
320,192,121650,1,0,0:0:0:0:
64,192,121765,1,2,0:0:0:0:
448,192,121765,1,0,0:0:0:0:
64,192,121880,128,2,122457:0:0:0:0:
320,192,121996,1,0,0:0:0:0:
192,192,122111,1,2,0:0:0:0:
448,192,122111,1,0,0:0:0:0:
320,192,122226,1,2,0:0:0:0:
448,192,122226,1,0,0:0:0:0:
192,192,122342,1,0,0:0:0:0:
320,192,122457,1,0,0:0:0:50:kick23.wav
448,192,122457,1,0,0:0:0:0:
64,192,122573,1,0,0:0:0:50:kick23.wav
192,192,122573,1,0,0:0:0:0:
448,192,122630,1,0,0:0:0:50:kick23.wav
192,192,122688,1,0,0:0:0:50:kick23.wav
320,192,122688,128,0,122919:0:0:0:0:
64,192,122919,1,4,0:0:0:0:
192,192,122919,1,2,0:0:0:0:
448,192,122919,1,0,0:0:0:0:
64,192,123034,1,2,0:0:0:0:
192,192,123034,1,0,0:0:0:0:
320,192,123150,1,2,0:0:0:0:
448,192,123150,1,0,0:0:0:0:
320,192,123265,1,2,0:0:0:0:
448,192,123265,1,0,0:0:0:0:
64,192,123380,1,2,0:0:0:0:
192,192,123380,1,0,0:0:0:0:
64,192,123496,1,2,0:0:0:0:
192,192,123496,1,0,0:0:0:0:
320,192,123611,1,2,0:0:0:0:
448,192,123611,1,0,0:0:0:0:
320,192,123726,1,2,0:0:0:0:
448,192,123726,1,0,0:0:0:0:
64,192,123842,1,2,0:0:0:0:
192,192,123842,1,0,0:0:0:0:
320,192,123957,1,2,0:0:0:0:
448,192,123957,1,0,0:0:0:0:
64,192,124015,1,2,0:0:0:0:
192,192,124073,1,2,0:0:0:0:
448,192,124073,1,0,0:0:0:0:
64,192,124188,1,2,0:0:0:0:
320,192,124188,128,0,124419:0:0:0:0:
64,192,124419,1,2,0:0:0:0:
192,192,124419,1,0,0:0:0:0:
64,192,124534,128,2,124650:0:0:0:0:
448,192,124534,1,0,0:0:0:0:
320,192,124650,1,0,0:0:0:0:
192,192,124765,1,2,0:0:0:0:
448,192,124765,1,4,0:0:0:0:
192,192,124880,1,2,0:0:0:0:
448,192,124880,1,0,0:0:0:0:
64,192,124996,1,2,0:0:0:0:
320,192,124996,1,0,0:0:0:0:
64,192,125111,1,2,0:0:0:0:
320,192,125111,1,0,0:0:0:0:
192,192,125226,1,2,0:0:0:0:
448,192,125226,1,0,0:0:0:0:
192,192,125342,1,2,0:0:0:0:
448,192,125342,1,0,0:0:0:0:
64,192,125457,1,2,0:0:0:0:
320,192,125457,1,0,0:0:0:0:
64,192,125573,1,2,0:0:0:0:
320,192,125573,1,0,0:0:0:0:
192,192,125688,1,2,0:0:0:0:
448,192,125688,1,0,0:0:0:0:
64,192,125803,1,2,0:0:0:0:
320,192,125803,1,0,0:0:0:0:
192,192,125861,1,2,0:0:0:0:
320,192,125919,1,2,0:0:0:0:
448,192,125919,1,0,0:0:0:0:
64,192,126034,128,2,126265:0:0:0:0:
192,192,126034,1,0,0:0:0:0:
320,192,126265,1,2,0:0:0:0:
448,192,126265,1,0,0:0:0:0:
64,192,126380,1,2,0:0:0:0:
448,192,126380,1,0,0:0:0:0:
320,192,126496,1,0,0:0:0:0:
64,192,126611,1,4,0:0:0:0:
192,192,126611,1,2,0:0:0:0:
448,192,126611,1,0,0:0:0:0:
64,192,126726,1,2,0:0:0:0:
192,192,126726,1,0,0:0:0:0:
320,192,126842,1,2,0:0:0:0:
448,192,126842,1,0,0:0:0:0:
320,192,126957,1,2,0:0:0:0:
448,192,126957,1,0,0:0:0:0:
64,192,127073,1,2,0:0:0:0:
192,192,127073,1,0,0:0:0:0:
64,192,127188,1,2,0:0:0:0:
192,192,127188,1,0,0:0:0:0:
320,192,127303,1,2,0:0:0:0:
448,192,127303,1,0,0:0:0:0:
320,192,127419,1,2,0:0:0:0:
448,192,127419,1,0,0:0:0:0:
64,192,127534,1,2,0:0:0:0:
192,192,127534,1,0,0:0:0:0:
320,192,127650,1,2,0:0:0:0:
448,192,127650,1,0,0:0:0:0:
64,192,127707,1,2,0:0:0:0:
192,192,127765,1,2,0:0:0:0:
448,192,127765,1,0,0:0:0:0:
64,192,127880,1,2,0:0:0:0:
320,192,127880,128,0,128111:0:0:0:0:
64,192,128111,1,2,0:0:0:0:
192,192,128111,1,0,0:0:0:0:
64,192,128226,128,2,128342:0:0:0:0:
448,192,128226,1,0,0:0:0:0:
320,192,128342,128,0,128457:0:0:0:0:
64,192,128457,1,2,0:0:0:0:
192,192,128457,1,4,0:0:0:0:
192,192,128573,1,2,0:0:0:0:
448,192,128573,1,0,0:0:0:0:
64,192,128688,1,2,0:0:0:0:
448,192,128688,1,0,0:0:0:0:
64,192,128803,1,2,0:0:0:0:
320,192,128803,1,0,0:0:0:0:
192,192,128919,1,2,0:0:0:0:
320,192,128919,1,0,0:0:0:0:
192,192,129034,1,2,0:0:0:0:
448,192,129034,1,0,0:0:0:0:
64,192,129150,1,2,0:0:0:0:
448,192,129150,1,0,0:0:0:0:
64,192,129265,1,2,0:0:0:0:
320,192,129265,1,0,0:0:0:0:
320,192,129380,1,2,0:0:0:0:
448,192,129380,1,0,0:0:0:0:
64,192,129438,1,2,0:0:0:0:
192,192,129496,1,2,0:0:0:0:
448,192,129496,1,0,0:0:0:0:
320,192,129553,1,2,0:0:0:0:
64,192,129611,128,0,129726:0:0:0:0:
192,192,129611,1,0,0:0:0:0:
448,192,129726,1,0,0:0:0:0:
320,192,129842,1,0,0:0:0:0:
448,192,129842,128,0,129957:0:0:0:0:
64,192,129957,1,0,0:0:0:0:
64,192,130073,1,0,0:0:0:0:
192,192,130073,1,0,0:0:0:0:
320,192,130130,1,0,0:0:0:0:
192,192,130188,1,0,0:0:0:0:
64,192,130246,1,0,0:0:0:0:
448,192,130303,1,4,0:0:0:0:
320,192,130303,1,2,0:0:0:0:
64,192,130419,1,2,0:0:0:0:
192,192,130419,1,0,0:0:0:0:
320,192,130476,1,2,0:0:0:0:
192,192,130534,1,2,0:0:0:0:
64,192,130534,1,0,0:0:0:0:
320,192,130650,1,2,0:0:0:0:
448,192,130650,1,0,0:0:0:0:
192,192,130707,1,2,0:0:0:0:
448,192,130765,1,2,0:0:0:0:
320,192,130765,1,0,0:0:0:0:
64,192,130880,1,2,0:0:0:0:
192,192,130880,1,0,0:0:0:0:
448,192,130938,1,2,0:0:0:0:
192,192,130996,1,2,0:0:0:0:
64,192,130996,1,0,0:0:0:0:
320,192,131111,1,2,0:0:0:0:
448,192,131111,1,0,0:0:0:0:
64,192,131169,1,2,0:0:0:0:
448,192,131226,1,2,0:0:0:0:
320,192,131226,1,0,0:0:0:0:
192,192,131342,1,2,0:0:0:0:
64,192,131342,1,0,0:0:0:0:
192,192,131457,1,2,0:0:0:0:
448,192,131457,1,0,0:0:0:0:
64,192,131573,1,0,0:0:0:0:
448,192,131573,1,0,0:0:0:0:
320,192,131630,1,0,0:0:0:0:
192,192,131688,1,0,0:0:0:0:
64,192,131746,1,0,0:0:0:0:
320,192,131803,1,2,0:0:0:0:
448,192,131803,1,0,0:0:0:0:
64,192,131919,1,2,0:0:0:0:
192,192,131919,1,0,0:0:0:0:
320,192,132034,1,0,0:0:0:0:
64,192,132092,1,0,0:0:0:0:
320,192,132150,1,2,0:0:0:0:
448,192,132150,1,0,0:0:0:0:
192,192,132265,1,2,0:0:0:0:
64,192,132265,1,0,0:0:0:0:
448,192,132323,1,2,0:0:0:0:
64,192,132380,1,2,0:0:0:0:
192,192,132380,1,0,0:0:0:0:
448,192,132496,1,2,0:0:0:0:
320,192,132496,1,0,0:0:0:0:
64,192,132553,1,2,0:0:0:0:
320,192,132611,1,2,0:0:0:0:
448,192,132611,1,0,0:0:0:0:
192,192,132726,1,2,0:0:0:0:
64,192,132726,1,0,0:0:0:0:
320,192,132784,1,2,0:0:0:0:
64,192,132842,1,2,0:0:0:0:
192,192,132842,1,0,0:0:0:0:
448,192,132957,1,2,0:0:0:0:
320,192,132957,1,0,0:0:0:0:
192,192,133015,1,2,0:0:0:0:
320,192,133073,1,2,0:0:0:0:
448,192,133073,1,0,0:0:0:0:
64,192,133188,1,2,0:0:0:0:
320,192,133246,1,0,0:0:0:0:
64,192,133303,1,2,0:0:0:0:
192,192,133303,1,0,0:0:0:0:
320,192,133419,1,2,0:0:0:0:
448,192,133419,1,0,0:0:0:0:
192,192,133534,1,2,0:0:0:0:
320,192,133592,1,0,0:0:0:0:
64,192,133650,1,2,0:0:0:0:
448,192,133650,1,0,0:0:0:0:
320,192,133765,1,2,0:0:0:0:
192,192,133823,1,0,0:0:0:0:
448,192,133880,1,2,0:0:0:0:
64,192,133880,1,0,0:0:0:0:
64,192,133996,1,4,0:0:0:0:
192,192,133996,1,2,0:0:0:0:
320,192,134053,1,2,0:0:0:0:
448,192,134111,1,0,0:0:0:0:
192,192,134169,1,0,0:0:0:0:
320,192,134226,1,2,0:0:0:0:
448,192,134226,1,0,0:0:0:0:
192,192,134284,1,0,0:0:0:0:
64,192,134342,1,0,0:0:0:0:
320,192,134400,1,0,0:0:0:0:
64,192,134457,1,2,0:0:0:0:
192,192,134457,1,0,0:0:0:0:
320,192,134515,1,2,0:0:0:0:
448,192,134573,1,0,0:0:0:0:
192,192,134630,1,0,0:0:0:0:
320,192,134688,1,2,0:0:0:0:
448,192,134688,1,0,0:0:0:0:
192,192,134746,1,2,0:0:0:0:
64,192,134803,1,0,0:0:0:0:
320,192,134861,1,0,0:0:0:0:
64,192,134919,1,2,0:0:0:0:
192,192,134919,1,0,0:0:0:0:
192,192,135034,1,0,0:0:0:0:
448,192,135034,1,0,0:0:0:0:
64,192,135150,1,2,0:0:0:0:
448,192,135150,1,0,0:0:0:0:
320,192,135265,1,0,0:0:0:0:
448,192,135323,1,0,0:0:0:0:
192,192,135380,1,0,0:0:0:0:
64,192,135438,1,0,0:0:0:0:
320,192,135496,1,2,0:0:0:0:
448,192,135496,1,0,0:0:0:0:
64,192,135553,1,2,0:0:0:0:
192,192,135553,1,0,0:0:0:0:
320,192,135611,1,2,0:0:0:0:
448,192,135611,1,0,0:0:0:0:
64,192,135726,1,2,0:0:0:0:
192,192,135726,1,0,0:0:0:0:
320,192,135842,1,4,0:0:0:0:
448,192,135842,1,2,0:0:0:0:
192,192,135900,1,2,0:0:0:0:
64,192,135957,1,2,0:0:0:0:
448,192,136015,1,2,0:0:0:0:
192,192,136073,1,2,0:0:0:0:
320,192,136073,1,0,0:0:0:0:
64,192,136130,1,2,0:0:0:0:
448,192,136188,1,2,0:0:0:0:
320,192,136246,1,2,0:0:0:0:
64,192,136303,1,2,0:0:0:0:
192,192,136303,1,0,0:0:0:0:
448,192,136361,1,2,0:0:0:0:
320,192,136419,1,2,0:0:0:0:
192,192,136476,1,2,0:0:0:0:
64,192,136534,1,2,0:0:0:0:
448,192,136534,1,0,0:0:0:0:
320,192,136592,1,2,0:0:0:0:
192,192,136650,1,2,0:0:0:0:
64,192,136707,1,2,0:0:0:0:
320,192,136765,1,4,0:0:0:0:
448,192,136765,1,2,0:0:0:0:
192,192,136823,1,2,0:0:0:0:
64,192,136880,1,2,0:0:0:0:
448,192,136880,1,0,0:0:0:0:
320,192,136938,1,2,0:0:0:0:
64,192,136996,1,2,0:0:0:0:
192,192,136996,1,0,0:0:0:0:
320,192,137053,1,2,0:0:0:0:
64,192,137111,1,2,0:0:0:0:
448,192,137111,1,0,0:0:0:0:
192,192,137169,1,2,0:0:0:0:
320,192,137226,1,2,0:0:0:0:
448,192,137226,1,0,0:0:0:0:
192,192,137284,1,2,0:0:0:0:
64,192,137342,1,2,0:0:0:0:
448,192,137342,1,0,0:0:0:0:
320,192,137400,1,2,0:0:0:0:
64,192,137457,1,2,0:0:0:0:
192,192,137457,1,0,0:0:0:0:
320,192,137515,1,2,0:0:0:0:
64,192,137573,1,2,0:0:0:0:
448,192,137573,1,0,0:0:0:0:
192,192,137630,1,2,0:0:0:0:
320,192,137688,128,2,138611:0:0:0:0:
448,192,137688,1,4,0:0:0:0:
192,192,138150,1,0,0:0:0:0:
448,192,138380,1,0,0:0:0:0:
64,192,138611,1,0,0:0:0:50:snare33.wav
192,192,138611,1,0,0:0:0:0:
448,192,138611,128,0,139534:0:0:0:0:
192,192,138842,1,0,0:0:0:0:
64,192,138957,1,2,0:0:0:0:
320,192,138957,1,0,0:0:0:0:
192,192,139188,1,0,0:0:0:0:
64,192,139303,1,2,0:0:0:0:
320,192,139303,1,0,0:0:0:0:
192,192,139534,128,4,140457:0:0:0:0:
320,192,139534,1,2,0:0:0:0:
64,192,140457,1,0,0:0:0:70:Open Hat 5.wav
448,192,140457,1,0,0:0:0:0:
192,192,140688,1,0,0:0:0:70:Open Hat 5.wav
448,192,140688,1,0,0:0:0:0:
64,192,140919,1,0,0:0:0:70:Open Hat 5.wav
448,192,140919,1,0,0:0:0:0:
192,192,141150,1,0,0:0:0:70:Open Hat 5.wav
448,192,141150,1,0,0:0:0:0:
64,192,141380,128,2,141611:0:0:0:0:
192,192,141380,128,0,141611:0:0:0:70:cymbal_s.wav
320,192,141380,1,0,0:0:0:0:
448,192,141611,128,0,141842:0:0:0:0:
64,192,141842,1,0,0:0:0:0:
64,192,141957,128,0,142188:0:0:0:0:
192,192,142303,1,2,0:0:0:0:
320,192,142303,128,0,142534:0:0:0:70:cymbal_s.wav
448,192,142303,128,0,142534:0:0:0:0:
64,192,142534,128,0,142765:0:0:0:0:
448,192,142765,1,0,0:0:0:0:
448,192,142880,128,0,143111:0:0:0:0:
64,192,143226,128,2,143457:0:0:0:0:
192,192,143226,128,0,143457:0:0:0:70:cymbal_s.wav
320,192,143226,1,0,0:0:0:0:
448,192,143457,1,0,0:0:0:0:
192,192,143688,128,2,143803:0:0:0:0:
320,192,143688,128,0,143803:0:0:0:70:cymbal_s.wav
64,192,143803,128,2,144034:0:0:0:0:
448,192,143803,128,0,144034:0:0:0:70:cymbal_s.wav
192,192,144034,1,0,0:0:0:70:cymbal_s.wav
320,192,144092,1,0,0:0:0:0:
64,192,144150,1,0,0:0:0:0:
192,192,144207,1,0,0:0:0:0:
320,192,144265,128,0,144380:0:0:0:70:cymbal_s.wav
448,192,144265,128,0,144380:0:0:0:0:
64,192,144380,128,0,144611:0:0:0:70:cymbal_s.wav
192,192,144380,128,0,144496:0:0:0:0:
192,192,144611,1,2,0:0:0:0:
320,192,144611,128,4,144842:0:0:0:0:
448,192,144611,128,0,144842:0:0:0:0:
64,192,144842,128,0,144957:0:0:0:0:
192,192,145073,128,2,145303:0:0:0:0:
320,192,145073,1,0,0:0:0:70:cymbal_s.wav
448,192,145073,128,0,145303:0:0:0:0:
320,192,145188,1,0,0:0:0:0:
64,192,145303,128,0,145419:0:0:0:0:
64,192,145534,128,2,145765:0:0:0:0:
192,192,145534,128,0,145765:0:0:0:70:cymbal_s.wav
448,192,145534,1,0,0:0:0:0:
448,192,145650,128,0,145880:0:0:0:0:
64,192,145996,128,2,146226:0:0:0:0:
192,192,145996,1,0,0:0:0:70:cymbal_s.wav
320,192,145996,128,0,146226:0:0:0:0:
192,192,146111,1,0,0:0:0:0:
448,192,146226,128,0,146342:0:0:0:0:
64,192,146457,1,2,0:0:0:0:
320,192,146457,128,0,146688:0:0:0:70:cymbal_s.wav
448,192,146457,128,0,146688:0:0:0:0:
64,192,146573,128,0,146803:0:0:0:0:
192,192,146919,1,2,0:0:0:0:
320,192,146919,1,0,0:0:0:70:cymbal_s.wav
448,192,146919,1,0,0:0:0:0:
448,192,147034,128,0,147150:0:0:0:0:
64,192,147150,1,2,0:0:0:0:
192,192,147150,1,0,0:0:0:70:cymbal_s.wav
320,192,147150,1,0,0:0:0:0:
64,192,147265,128,0,147380:0:0:0:0:
192,192,147380,1,2,0:0:0:0:
320,192,147380,1,0,0:0:0:70:cymbal_s.wav
448,192,147380,1,0,0:0:0:0:
64,192,147496,1,2,0:0:0:0:
192,192,147496,128,0,147726:0:0:0:70:cymbal_s.wav
320,192,147496,1,0,0:0:0:0:
448,192,147726,1,0,0:0:0:70:cymbal_s.wav
320,192,147784,1,0,0:0:0:0:
64,192,147842,1,0,0:0:0:0:
192,192,147900,1,0,0:0:0:0:
320,192,147957,128,0,148073:0:0:0:70:cymbal_s.wav
448,192,147957,128,0,148073:0:0:0:0:
64,192,148073,128,2,148303:0:0:0:0:
192,192,148073,128,4,148303:0:0:0:0:
192,192,148419,128,4,148650:0:0:0:0:
320,192,148419,128,2,148650:0:0:0:0:
64,192,148765,1,4,0:0:0:0:
320,192,148765,128,2,149688:0:0:0:0:
448,192,148765,128,0,150611:0:0:0:0:
