osu file format v14

[General]
AudioFilename: audio.mp3
AudioLeadIn: 0
PreviewTime: 48121
Countdown: 0
SampleSet: Soft
StackLeniency: 0.7
Mode: 2
LetterboxInBreaks: 0
WidescreenStoryboard: 1

[Editor]
Bookmarks: 82274
DistanceSpacing: 1
BeatDivisor: 4
GridSize: 4
TimelineZoom: 4.799997

[Metadata]
Title:Cross The Finish Line [feat. Nanahira]
TitleUnicode:Cross The Finish Line [feat. ななひら]
Artist:Kobaryo
ArtistUnicode:Kobaryo
Creator:Kukkai
Version:Secre's Terminus
Source:
Tags:secre chickenbible jbhyperion jbh gabba gabber hardcore j-core speedcore 古葉玲 Psycho Filth Records Candy speed pops japanese electronic instrumental FA Featured Artist mappers' guild mpg mg
BeatmapID:4506333
BeatmapSetID:2012659

[Difficulty]
HPDrainRate:3
CircleSize:4.1
OverallDifficulty:9.8
ApproachRate:9.8
SliderMultiplier:2.1
SliderTickRate:2

[Events]
//Background and Video events
0,0,"65092327_p0.jpg",0,0
//Break Periods
2,82462,88241
//Storyboard Layer 0 (Background)
//Storyboard Layer 1 (Fail)
//Storyboard Layer 2 (Pass)
//Storyboard Layer 3 (Foreground)
//Storyboard Layer 4 (Overlay)
//Storyboard Sound Samples

[TimingPoints]
109,230.769230769231,4,2,1,70,1,0
4724,-100,4,2,1,80,0,0
12109,-133.333333333333,4,2,1,60,0,0
15801,-133.333333333333,4,2,2,60,0,0
23185,-133.333333333333,4,2,1,65,0,0
30570,-100,4,2,1,70,0,0
37493,-58.8235294117647,4,2,1,70,0,0
37955,-133.333333333333,4,2,2,60,0,0
41647,-100,4,2,1,70,0,0
48109,-100,4,2,1,60,0,0
49032,-100,4,2,1,80,0,1
71185,-100,4,2,1,60,0,0
73955,-100,4,2,1,60,0,0
82262,-100,4,2,1,50,0,0
89647,-133.333333333333,4,2,2,50,0,0
108109,-133.333333333333,4,2,2,50,0,0
114570,-133.333333333333,4,2,1,70,0,0
115493,-100,4,2,1,80,0,1
130262,-100,4,2,1,80,0,1
137647,-133.333333333333,4,2,1,80,0,0
148724,-100,4,2,1,80,0,0
149647,-100,4,2,1,70,0,0
150570,-100,4,2,1,60,0,0
151493,-100,4,2,1,50,0,0
152416,-100,4,2,1,40,0,0
153224,-100,4,2,1,30,0,0

[Colours]
Combo1 : 0,0,249
Combo2 : 9,255,255
Combo3 : 255,186,153

[HitObjects]
313,247,109,6,0,P|361:194|377:110,1,157.5,8|0,0:3|0:0,0:0:0:0:
229,161,339,2,0,P|181:108|165:24,1,157.5,8|0,0:3|0:0,0:0:0:0:
346,273,570,2,0,P|394:220|410:136,1,157.5,8|0,0:3|0:0,0:0:0:0:
173,216,801,2,0,P|125:163|109:79,1,157.5,8|0,0:3|0:0,0:0:0:0:
322,128,1032,6,0,L|153:252,2,210,6|2|2,3:2|3:2|0:2,0:0:0:0:
123,248,1609,2,0,P|80:222|133:102,1,210,2|0,0:2|0:0,0:0:0:0:
420,176,1955,6,0,L|222:270,2,210,6|2|2,3:2|3:2|0:2,0:0:0:0:
220,296,2532,2,0,P|222:240|364:169,1,210,2|0,0:2|0:0,0:0:0:0:
92,176,2878,6,0,L|327:187,1,210,6|2,3:2|3:2,0:0:0:0:
196,101,3224,1,2,0:2:0:0:
418,97,3339,1,6,3:2:0:0:
166,259,3455,2,0,L|151:137,1,105,6|0,3:2|3:2,0:0:0:0:
371,177,3685,6,0,L|162:181,1,210,2|2,3:2|3:2,0:0:0:0:
390,230,4032,2,0,L|418:95,1,105,2|0,3:2|3:2,0:0:0:0:
130,155,4262,2,0,L|107:50,1,105,2|0,3:2|3:2,0:0:0:0:
324,84,4493,2,0,L|452:85,1,105,2|0,3:2|0:0,0:0:0:0:
131,209,4724,6,0,L|120:78,1,105,6|0,3:2|0:0,0:0:0:0:
233,72,4955,1,2,3:2:0:0:
122,104,5070,1,0,0:0:0:0:
436,169,5185,1,2,3:2:0:0:
233,72,5301,1,2,0:2:0:0:
35,89,5416,1,2,3:2:0:0:
318,158,5532,1,2,0:2:0:0:
211,141,5647,5,0,3:2:0:0:
318,158,5762,1,2,0:2:0:0:
134,196,5878,2,0,L|124:78,1,105,2|2,3:2|0:2,0:0:0:0:
337,86,6109,2,0,L|216:86,1,105,2|2,3:2|0:2,0:0:0:0:
440,204,6339,2,0,L|451:80,1,105,2|2,3:2|3:2,0:0:0:0:
383,90,6512,1,0,0:0:0:0:
149,115,6570,6,0,L|20:120,1,105,2|0,3:2|0:0,0:0:0:0:
175,214,6801,2,0,L|297:206,1,105,2|0,3:2|0:0,0:0:0:0:
44,132,7032,1,2,3:2:0:0:
243,110,7147,1,2,0:2:0:0:
438,123,7262,1,2,3:2:0:0:
199,172,7378,1,2,0:2:0:0:
308,188,7493,6,0,L|314:69,1,105,0|2,3:2|0:2,0:0:0:0:
176,106,7724,2,0,L|164:-10,1,105,2|2,3:2|0:2,0:0:0:0:
416,157,7955,2,0,L|420:37,1,105,2|2,3:2|3:2,0:0:0:0:
347,51,8128,1,0,3:2:0:0:
172,154,8185,2,0,L|305:154,1,105,2|2,3:2|3:2,0:0:0:0:
32,243,8416,6,0,L|242:248,1,210,6|2,3:2|3:2,0:0:0:0:
141,173,8762,1,0,0:0:0:0:
443,204,8878,1,2,3:2:0:0:
250,103,8993,1,2,0:2:0:0:
57,137,9109,1,2,3:2:0:0:
305,218,9224,6,0,L|156:214,2,105,2|0|2,0:2|3:2|0:2,0:0:0:0:
60,124,9570,1,2,3:2:0:0:
273,137,9685,1,2,0:2:0:0:
19,169,9801,2,0,L|134:171,1,105,2|2,3:2|0:2,0:0:0:0:
464,205,10032,2,0,L|308:205,1,105,2|2,3:2|3:2,0:0:0:0:
294,160,10205,1,0,0:0:0:0:
121,210,10262,5,2,3:2:0:0:
217,195,10378,1,2,0:2:0:0:
311,188,10493,1,2,3:2:0:0:
31,181,10609,2,0,L|20:59,1,105,2|0,0:2|0:0,0:0:0:0:
251,81,10839,1,2,0:2:0:0:
152,62,10955,1,2,3:2:0:0:
52,64,11070,1,2,0:2:0:0:
232,230,11185,6,0,L|245:113,1,105,2|0,3:2|0:0,0:0:0:0:
456,159,11416,2,0,L|468:48,1,105,0|0,3:2|0:0,0:0:0:0:
191,174,11647,2,0,P|168:122|375:32,1,315,2|0,3:2|0:0,0:0:0:0:
135,248,12109,6,0,P|103:223|146:125,1,157.500006008148,4|2,3:2|0:2,0:0:0:0:
297,157,12570,2,0,L|125:159,1,157.500006008148,2|0,3:2|0:0,0:0:0:0:
215,223,12916,1,0,3:2:0:0:
460,258,13032,6,0,L|461:81,1,157.500006008148,2|2,3:2|0:2,0:0:0:0:
305,147,13493,2,0,L|462:146,1,157.500006008148,0|0,3:2|0:0,0:0:0:0:
384,209,13839,1,0,3:2:0:0:
209,153,13955,6,0,L|45:148,2,157.500006008148,0|2|0,3:2|0:2|3:2,0:0:0:0:
357,217,14647,2,0,L|364:115,1,78.7500030040742,2|0,0:2|3:2,0:0:0:0:
252,129,14878,5,0,3:2:0:0:
357,127,14993,1,0,3:2:0:0:
118,219,15109,1,0,3:2:0:0:
79,204,15166,1,0,3:2:0:0:
78,164,15224,1,0,3:2:0:0:
120,148,15282,1,0,3:2:0:0:
311,208,15339,2,0,P|369:187|286:29,1,275.62501051426,2|0,0:2|0:0,0:0:0:0:
149,157,15801,6,0,P|119:109|174:22,1,157.500006008148,4|0,1:2|0:0,0:0:0:0:
302,109,16262,1,8,0:2:0:0:
161,102,16493,1,0,0:0:0:0:
352,214,16609,6,0,P|400:187|327:61,1,236.250009012223,0|0,0:0|1:2,0:0:0:0:
174,178,17185,2,0,L|160:17,1,157.500006008148,8|0,0:2|0:0,0:0:0:0:
471,132,17647,6,0,L|290:133,2,157.500006008148,0|0|8,1:2|0:0|0:2,0:0:0:0:
170,213,18339,2,0,P|86:189|181:52,1,315.000012016297,0|0,0:0|1:2,0:0:0:0:
340,161,19032,2,0,L|349:-2,1,157.500006008148,8|0,0:2|0:0,0:0:0:0:
32,142,19493,6,0,L|199:142,1,157.500006008148,0|0,1:2|1:2,0:0:0:0:
359,223,19955,2,0,P|386:162|342:64,1,157.500006008148,8|0,0:2|0:0,0:0:0:0:
147,178,20301,6,0,L|392:181,1,236.250009012223,0|0,0:0|1:2,0:0:0:0:
201,252,20878,2,0,P|157:221|202:144,1,157.500006008148,8|0,0:2|0:0,0:0:0:0:
505,182,21339,6,0,L|331:182,1,157.500006008148,0|0,1:2|0:0,0:0:0:0:
194,232,21801,2,0,L|178:62,1,157.500006008148,8|0,0:2|0:0,0:0:0:0:
386,108,22147,6,0,L|119:107,1,236.250009012223,0|0,0:0|1:2,0:0:0:0:
464,235,22724,2,0,L|468:71,1,157.500006008148,8|0,0:2|0:0,0:0:0:0:
38,197,23185,6,0,L|226:197,1,157.500006008148,4|0,3:2|3:2,0:0:0:0:
339,147,23647,2,0,L|158:149,1,157.500006008148,0|0,3:2|0:0,0:0:0:0:
266,236,23993,1,0,0:0:0:0:
476,274,24109,6,0,P|473:212|388:158,1,157.500006008148,4|0,3:2|3:2,0:0:0:0:
251,186,24570,2,0,L|411:184,1,157.500006008148,0|0,3:2|0:0,0:0:0:0:
95,250,25032,6,0,L|77:60,1,157.500006008148,4|0,3:2|3:0,0:0:0:0:
231,114,25493,2,0,L|65:117,1,157.500006008148,0|0,3:0|0:0,0:0:0:0:
144,192,25839,1,0,0:0:0:0:
407,252,25955,6,0,P|445:225|380:148,1,157.500006008148,4|0,3:2|3:0,0:0:0:0:
241,202,26416,2,0,L|63:200,1,157.500006008148,0|0,3:0|0:0,0:0:0:0:
483,245,26878,6,0,L|483:52,1,157.500006008148,4|0,3:2|3:0,0:0:0:0:
331,136,27339,2,0,L|493:131,1,157.500006008148,0|0,3:0|0:0,0:0:0:0:
409,191,27685,1,0,0:0:0:0:
126,218,27801,6,0,P|87:197|155:125,1,157.500006008148,4|0,3:2|3:2,0:0:0:0:
272,180,28262,2,0,L|443:177,1,157.500006008148,0|0,3:2|0:0,0:0:0:0:
105,260,28724,6,0,L|86:92,1,157.500006008148,4|0,3:2|3:2,0:0:0:0:
469,226,29185,2,0,L|478:49,1,157.500006008148,4|0,3:2|3:2,0:0:0:0:
398,82,29532,1,0,3:2:0:0:
141,180,29647,6,0,L|123:87,1,78.7500030040742,4|0,3:2|3:2,0:0:0:0:
322,120,29878,2,0,L|411:114,1,78.7500030040742,0|0,3:2|3:2,0:0:0:0:
173,227,30109,2,0,P|116:201|207:104,1,236.250009012223,0|0,3:2|0:0,0:0:0:0:
435,197,30570,6,0,L|444:66,1,105,6|0,3:2|0:0,0:0:0:0:
245,127,30801,2,0,L|376:122,1,105,2|0,3:2|0:0,0:0:0:0:
47,187,31032,1,2,3:2:0:0:
240,179,31147,1,2,0:2:0:0:
430,159,31262,1,2,3:2:0:0:
75,229,31378,6,0,P|13:190|110:123,1,210,2|2,0:2|0:2,0:0:0:0:
279,224,31724,2,0,L|147:223,1,105,2|2,3:2|0:2,0:0:0:0:
380,170,31955,2,0,L|246:172,1,105,2|2,3:2|0:2,0:0:0:0:
476,219,32185,2,0,L|362:217,1,105,2|2,3:2|3:2,0:0:0:0:
314,174,32359,1,0,0:0:0:0:
107,206,32416,6,0,L|94:85,1,105,2|0,3:2|0:0,0:0:0:0:
372,136,32647,2,0,L|386:8,1,105,2|0,3:2|0:0,0:0:0:0:
93,137,32878,1,2,3:2:0:0:
277,141,32993,1,2,0:2:0:0:
93,137,33109,1,2,3:2:0:0:
377,248,33224,6,0,P|437:211|360:130,1,210,2|2,0:2|0:2,0:0:0:0:
154,182,33570,2,0,L|142:74,1,105,2|2,3:2|0:2,0:0:0:0:
372,91,33801,1,2,3:2:0:0:
112,144,33916,2,0,L|185:142,1,52.5,2|0,3:2|3:2,0:0:0:0:
384,126,34032,2,0,L|392:255,1,105,2|2,3:2|3:2,0:0:0:0:
90,263,34262,6,0,L|214:263,1,105,14|0,3:2|3:2,0:0:0:0:
461,213,34493,1,10,3:2:0:0:
213,199,34609,1,0,3:2:0:0:
470,147,34724,1,10,3:2:0:0:
258,118,34839,1,2,3:2:0:0:
35,126,34955,2,0,L|166:128,1,105,10|2,3:2|3:2,0:0:0:0:
337,214,35185,5,8,3:2:0:0:
139,127,35301,1,2,3:2:0:0:
407,215,35416,2,0,L|417:88,1,105,10|2,3:2|3:2,0:0:0:0:
219,126,35647,2,0,L|334:127,1,105,10|2,3:2|3:2,0:0:0:0:
59,70,35878,2,0,L|186:71,1,105,10|2,3:2|3:2,0:0:0:0:
446,157,36109,5,10,3:2:0:0:
256,73,36224,1,2,3:2:0:0:
59,70,36339,2,0,L|147:73,1,52.5,10|0,3:2|3:2,0:0:0:0:
316,130,36455,2,0,L|378:133,1,52.5,2|0,3:2|3:2,0:0:0:0:
193,137,36570,2,0,L|74:140,1,105,8|2,3:2|3:2,0:0:0:0:
325,228,36801,2,0,L|390:229,1,52.5,10|0,3:2|3:2,0:0:0:0:
180,102,36916,2,0,L|106:101,1,52.5,2|0,3:2|3:2,0:0:0:0:
374,162,37032,6,0,L|388:39,1,105,10|0,3:2|3:2,0:0:0:0:
115,115,37262,2,0,L|100:-1,1,105,8|0,3:2|3:2,0:0:0:0:
435,220,37493,2,0,L|57:221,1,357.000006809235,2|2,3:2|3:2,0:0:0:0:
390,310,37955,6,0,P|425:270|373:183,1,157.500006008148,4|0,3:2|0:0,0:0:0:0:
223,175,38416,2,0,L|389:175,1,157.500006008148,0|0,0:0|3:2,0:0:0:0:
72,255,38878,6,0,L|63:73,1,157.500006008148,0|0,3:2|0:0,0:0:0:0:
398,88,39339,2,0,P|445:113|391:192,1,157.500006008148,8|0,3:2|0:0,0:0:0:0:
102,240,39801,6,0,L|86:80,1,157.500006008148,0|0,3:2|0:0,0:0:0:0:
268,109,40262,1,0,0:0:0:0:
101,121,40493,1,0,3:2:0:0:
419,235,40724,6,0,P|433:187|416:75,1,157.500006008148,0|0,3:2|3:2,0:0:0:0:
83,227,41185,2,0,P|36:182|135:40,1,275.62501051426,2|0,0:2|0:0,0:0:0:0:
363,222,41647,6,0,L|370:97,1,105,6|0,3:2|0:0,0:0:0:0:
265,115,41878,1,2,3:2:0:0:
370,106,41993,1,0,0:0:0:0:
76,196,42109,2,0,L|57:64,1,105,2|0,3:2|0:0,0:0:0:0:
309,154,42339,2,0,L|440:153,1,105,2|0,3:2|0:0,0:0:0:0:
185,122,42570,6,0,L|46:117,1,105,0|0,3:2|0:0,0:0:0:0:
408,212,42801,2,0,L|423:89,1,105,2|0,3:2|0:0,0:0:0:0:
248,106,43032,2,0,L|241:-9,1,105,0|0,3:2|0:0,0:0:0:0:
41,142,43262,2,0,L|28:22,1,105,2|0,3:2|0:0,0:0:0:0:
264,142,43493,6,0,L|155:139,1,105,0|0,3:2|0:0,0:0:0:0:
336,222,43724,1,0,3:2:0:0:
159,139,43839,1,0,0:0:0:0:
336,140,43955,2,0,L|445:137,1,105,0|0,3:2|0:0,0:0:0:0:
183,229,44186,1,2,3:2:0:0:
440,137,44301,1,0,0:2:0:0:
83,171,44416,6,0,L|66:32,1,105,2|0,3:2|0:0,0:0:0:0:
372,159,44647,2,0,L|384:21,1,105,2|0,3:2|0:0,0:0:0:0:
188,78,44878,1,2,3:2:0:0:
294,76,44993,1,0,0:0:0:0:
115,154,45109,1,2,3:2:0:0:
372,159,45224,1,0,0:0:0:0:
29,209,45339,5,12,3:2:0:0:
138,212,45455,1,0,3:2:0:0:
29,209,45570,1,8,3:2:0:0:
138,212,45685,1,0,3:2:0:0:
436,210,45801,1,8,3:2:0:0:
327,213,45917,1,0,3:2:0:0:
436,210,46032,1,8,3:2:0:0:
327,213,46147,1,0,3:2:0:0:
84,275,46262,6,0,L|71:139,1,105,8|0,3:2|3:2,0:0:0:0:
255,137,46493,1,8,3:2:0:0:
74,170,46609,1,0,3:2:0:0:
428,275,46724,2,0,L|441:139,1,105,8|0,3:2|3:2,0:0:0:0:
255,137,46955,1,8,3:2:0:0:
438,170,47071,1,0,3:2:0:0:
81,252,47185,6,0,P|59:196|426:241,1,787.5,4|0,3:2|0:0,0:0:0:0:
170,199,48109,6,0,P|99:163|224:25,1,315,2|0,0:2|0:0,0:0:0:0:
471,228,48570,2,0,L|478:10,1,210,2|8,0:2|0:1,0:0:0:0:
144,209,49032,6,0,L|294:211,1,105,6|2,3:2|0:2,0:0:0:0:
25,118,49262,2,0,L|171:118,1,105,2|0,3:2|0:0,0:0:0:0:
336,165,49493,1,2,3:2:0:0:
130,118,49609,1,0,0:0:0:0:
336,165,49724,1,2,3:2:0:0:
75,212,49839,6,0,L|209:219,1,105,2|0,0:2|3:2,0:0:0:0:
436,127,50070,1,2,0:2:0:0:
199,119,50185,2,0,L|76:118,1,105,2|0,3:2|0:0,0:0:0:0:
376,220,50416,2,0,L|483:217,1,105,2|0,3:2|0:0,0:0:0:0:
138,122,50647,1,0,3:2:0:0:
340,102,50762,1,0,0:0:0:0:
55,209,50878,6,0,L|42:81,1,105,2|0,3:2|0:0,0:0:0:0:
334,158,51109,2,0,L|346:16,1,105,2|0,3:2|0:0,0:0:0:0:
138,87,51339,1,2,3:2:0:0:
244,78,51455,1,2,0:2:0:0:
56,142,51570,1,2,3:2:0:0:
354,141,51685,1,0,0:0:0:0:
25,192,51801,6,0,L|27:70,1,105,2|0,3:2|0:0,0:0:0:0:
244,78,52032,1,2,3:2:0:0:
462,90,52147,1,2,0:2:0:0:
157,164,52262,2,0,L|51:166,1,105,2|0,3:2|0:0,0:0:0:0:
316,103,52493,1,2,3:2:0:0:
204,100,52609,1,0,0:0:0:0:
437,224,52724,6,0,L|443:110,1,105,6|0,3:2|0:0,0:0:0:0:
341,132,52955,2,0,L|460:127,1,105,0|0,3:2|0:0,0:0:0:0:
204,138,53185,2,0,L|71:141,1,105,2|0,3:2|0:0,0:0:0:0:
341,182,53416,1,2,3:2:0:0:
110,155,53532,6,0,L|3:157,1,105,2|0,0:2|3:2,0:0:0:0:
246,100,53762,1,2,0:2:0:0:
149,152,53878,2,0,L|142:29,1,105,2|0,3:2|0:0,0:0:0:0:
349,89,54109,1,2,3:2:0:0:
246,100,54224,1,0,0:0:0:0:
448,107,54339,1,0,3:2:0:0:
186,83,54455,1,0,0:0:0:0:
475,189,54570,6,0,L|477:70,1,105,2|0,3:2|0:0,0:0:0:0:
185,129,54801,1,2,3:2:0:0:
292,121,54916,1,0,0:0:0:0:
51,202,55032,2,0,L|36:93,1,105,2|0,3:2|0:0,0:0:0:0:
323,142,55262,1,2,3:2:0:0:
94,114,55378,1,2,0:2:0:0:
361,224,55493,5,0,3:0:0:0:
404,198,55550,1,0,3:0:0:0:
404,148,55608,1,0,3:0:0:0:
361,122,55666,1,0,3:0:0:0:
172,153,55724,1,0,3:0:0:0:
128,127,55781,1,0,3:0:0:0:
341,51,55839,1,0,3:0:0:0:
384,77,55897,1,0,3:0:0:0:
141,293,55955,6,0,L|124:253,13,26.25,0|0|0|0|0|0|0|0|0|0|0|0|0|0,3:0|3:0|3:0|3:0|3:0|3:0|3:0|3:0|3:0|3:0|3:0|3:0|3:0|3:0,0:0:0:0:
374,188,56416,6,0,L|234:188,1,105,6|2,3:2|3:2,0:0:0:0:
462,261,56647,2,0,L|475:121,1,105,2|0,3:2|0:0,0:0:0:0:
89,144,56878,1,2,3:2:0:0:
273,135,56993,1,0,0:0:0:0:
89,144,57109,1,2,3:2:0:0:
414,216,57224,6,0,L|416:80,1,105,2|0,3:2|0:0,0:0:0:0:
127,145,57455,1,2,3:2:0:0:
379,158,57570,2,0,L|491:159,1,105,2|0,3:2|0:0,0:0:0:0:
159,110,57801,1,2,3:2:0:0:
344,98,57916,1,0,3:2:0:0:
158,50,58032,2,0,L|103:49,1,52.5,0|0,3:2|3:2,0:0:0:0:
347,166,58147,2,0,L|420:164,1,52.5,0|0,3:2|3:2,0:0:0:0:
139,182,58262,6,0,L|129:61,1,105,2|0,3:2|0:0,0:0:0:0:
412,126,58493,2,0,L|418:9,1,105,2|0,3:2|0:0,0:0:0:0:
195,73,58724,2,0,L|71:73,1,105,2|0,3:2|0:0,0:0:0:0:
334,142,58955,1,2,3:2:0:0:
87,131,59070,1,0,3:2:0:0:
434,214,59185,6,0,L|298:212,1,105,2|0,3:2|0:0,0:0:0:0:
113,144,59416,1,2,3:2:0:0:
409,124,59532,1,2,3:2:0:0:
123,98,59647,2,0,L|1:99,1,105,2|0,3:2|0:0,0:0:0:0:
281,132,59878,2,0,L|383:130,1,52.5,2|0,3:2|3:2,0:0:0:0:
152,69,59993,2,0,L|72:67,1,52.5,0|0,3:2|3:2,0:0:0:0:
366,203,60109,6,0,L|374:89,1,105,6|0,3:2|0:0,0:0:0:0:
267,107,60339,2,0,L|256:-3,1,105,0|0,3:2|0:0,0:0:0:0:
478,111,60570,1,2,3:2:0:0:
294,115,60685,1,0,0:0:0:0:
478,111,60801,1,2,3:2:0:0:
82,195,60916,6,0,L|68:72,1,105,2|0,3:2|0:0,0:0:0:0:
389,122,61147,1,2,3:2:0:0:
151,103,61262,2,0,L|31:108,1,105,2|0,3:2|0:0,0:0:0:0:
320,177,61493,1,2,3:2:0:0:
210,167,61609,1,0,3:2:0:0:
411,105,61724,1,0,3:2:0:0:
137,105,61839,1,0,0:0:0:0:
451,173,61955,5,2,3:2:0:0:
255,103,62070,1,0,3:2:0:0:
53,156,62185,2,0,L|47:41,1,105,2|0,3:2|0:0,0:0:0:0:
302,128,62416,1,2,3:2:0:0:
191,133,62532,1,0,0:0:0:0:
413,96,62647,1,2,3:2:0:0:
115,177,62762,6,0,P|75:143|135:0,1,210,2|0,3:2|3:2,0:0:0:0:
386,208,63109,2,0,L|390:83,1,105,0|0,3:2|0:0,0:0:0:0:
160,109,63339,1,2,0:2:0:0:
353,107,63455,2,0,L|276:107,1,52.5,0|0,0:0|0:0,0:0:0:0:
75,221,63570,2,0,P|25:184|97:129,1,157.5,2|0,0:2|0:0,0:0:0:0:
240,174,63801,6,0,L|109:176,1,105,6|2,3:2|3:2,0:0:0:0:
322,249,64032,2,0,L|200:250,1,105,2|2,3:2|3:2,0:0:0:0:
401,331,64262,2,0,L|274:330,1,105,2|2,3:2|3:2,0:0:0:0:
486,259,64493,2,0,L|353:259,1,105,2|2,3:2|3:2,0:0:0:0:
132,160,64724,5,2,3:2:0:0:
347,179,64839,2,0,L|284:177,1,52.5,2|0,3:2|3:2,0:0:0:0:
66,127,64955,1,2,3:2:0:0:
345,112,65070,2,0,P|384:151|339:298,1,210,2|0,3:2|3:2,0:0:0:0:
158,169,65416,1,2,3:2:0:0:
463,162,65532,1,0,0:0:0:0:
274,286,65647,6,0,L|390:287,1,105,2|2,3:2|3:2,0:0:0:0:
189,215,65878,2,0,L|314:217,1,105,2|2,3:2|3:2,0:0:0:0:
104,133,66109,2,0,L|229:135,1,105,2|0,3:2|0:0,0:0:0:0:
21,50,66339,2,0,L|146:52,1,105,2|2,3:2|3:2,0:0:0:0:
377,150,66570,5,2,3:2:0:0:
152,200,66685,2,0,L|237:198,1,52.5,2|0,3:2|3:2,0:0:0:0:
412,212,66801,1,2,3:2:0:0:
148,247,66916,2,0,P|111:212|174:72,1,210,2|0,3:2|3:2,0:0:0:0:
353,123,67262,1,2,3:2:0:0:
130,101,67378,1,0,0:0:0:0:
330,226,67493,6,0,L|207:227,1,105,14|2,3:2|3:2,0:0:0:0:
473,157,67724,1,10,3:2:0:0:
144,148,67839,1,2,3:2:0:0:
395,191,67955,2,0,L|253:192,1,105,10|0,3:2|0:0,0:0:0:0:
477,124,68185,1,10,3:2:0:0:
256,105,68301,1,2,3:2:0:0:
12,134,68416,5,10,3:2:0:0:
229,191,68532,2,0,L|130:192,1,52.5,2|0,3:2|3:2,0:0:0:0:
12,134,68647,1,10,3:2:0:0:
316,96,68762,2,0,P|372:127|293:210,1,210,2|0,3:2|3:2,0:0:0:0:
101,151,69109,1,10,3:2:0:0:
326,166,69224,2,0,L|270:165,1,52.5,0|0,3:2|3:2,0:0:0:0:
44,262,69339,6,0,L|180:260,1,105,8|0,3:2|3:2,0:0:0:0:
202,203,69512,1,0,3:2:0:0:
468,262,69570,2,0,L|332:260,1,105,8|0,3:2|3:2,0:0:0:0:
310,203,69743,1,0,3:2:0:0:
20,228,69801,2,0,L|156:226,1,105,8|0,3:2|3:2,0:0:0:0:
178,169,69974,1,0,3:2:0:0:
420,243,70032,2,0,L|427:102,1,105,8|0,3:2|3:2,0:0:0:0:
368,128,70205,1,0,0:0:0:0:
146,105,70262,6,0,L|211:102,1,52.5,8|0,3:2|3:2,0:0:0:0:
329,74,70378,2,0,L|387:73,1,52.5,0|0,3:2|3:2,0:0:0:0:
144,186,70493,2,0,L|127:46,1,105,8|0,3:2|3:2,0:0:0:0:
380,191,70724,2,0,L|296:190,1,52.5,8|0,3:2|3:2,0:0:0:0:
142,122,70839,2,0,L|209:122,1,52.5,0|0,3:2|3:2,0:0:0:0:
417,120,70955,2,0,L|342:121,1,52.5,8|0,3:2|3:2,0:0:0:0:
101,186,71070,2,0,L|192:187,1,52.5,0|0,3:2|3:2,0:0:0:0:
364,258,71185,6,0,P|396:206|47:21,1,630,4|0,3:2|0:0,0:0:0:0:
465,227,72109,6,0,L|473:16,1,210,8|0,3:2|0:0,0:0:0:0:
247,168,72455,2,0,P|189:129|267:34,1,210,0|0,3:2|0:0,0:0:0:0:
428,142,72801,2,0,L|431:17,1,105,0|0,3:2|0:0,0:0:0:0:
112,149,73032,5,4,3:2:0:0:
256,192,73147,12,0,73724,0:0:0:0:
125,132,73955,5,8,0:3:0:0:
416,135,74185,1,8,0:3:0:0:
76,65,74416,1,8,0:3:0:0:
456,63,74647,1,8,0:3:0:0:
77,220,74878,6,0,P|34:181|92:54,1,210,6|2,3:2|3:2,0:0:0:0:
308,100,75339,1,2,0:2:0:0:
121,213,75455,2,0,L|347:210,1,210,2|0,0:2|0:0,0:0:0:0:
113,283,75801,6,0,P|105:200|221:145,1,210,6|2,3:2|3:2,0:0:0:0:
384,155,76262,1,2,0:2:0:0:
98,232,76378,2,0,P|46:185|130:102,1,210,2|0,0:2|0:0,0:0:0:0:
336,196,76724,6,0,L|121:198,1,210,6|2,3:2|3:2,0:0:0:0:
457,228,77185,1,6,3:2:0:0:
161,177,77301,1,6,3:2:0:0:
476,307,77532,6,0,L|486:191,1,105,2|0,3:2|3:2,0:0:0:0:
161,127,77762,1,2,3:2:0:0:
367,119,77878,2,0,L|384:242,1,105,2|0,3:2|3:2,0:0:0:0:
120,119,78109,2,0,L|102:244,1,105,2|0,3:2|3:2,0:0:0:0:
367,119,78339,2,0,L|487:119,1,105,2|0,3:2|0:0,0:0:0:0:
142,235,78570,6,0,P|80:191|154:113,1,210,4|2,3:2|3:2,0:0:0:0:
336,153,79032,1,6,3:2:0:0:
85,185,79147,2,0,L|300:191,1,210,2|0,3:2|0:0,0:0:0:0:
54,278,79493,6,0,P|10:234|102:146,1,210,4|2,3:2|3:2,0:0:0:0:
267,167,79955,1,6,3:2:0:0:
73,234,80070,2,0,P|16:203|95:108,1,210,2|0,3:2|0:0,0:0:0:0:
389,201,80416,6,0,L|399:75,1,105,6|0,3:2|3:2,0:0:0:0:
162,104,80647,1,2,3:2:0:0:
343,84,80762,1,0,3:2:0:0:
76,152,80878,1,6,3:2:0:0:
327,185,80993,2,0,L|442:185,1,105,6|0,3:2|3:2,0:0:0:0:
125,250,81224,6,0,P|61:204|151:133,1,210,2|2,3:2|3:2,0:0:0:0:
365,210,81570,2,0,L|383:83,1,105,2|0,3:2|3:2,0:0:0:0:
130,179,81801,2,0,P|67:140|185:-47,1,367.5,2|0,3:2|0:0,0:0:0:0:
396,160,82262,5,4,3:2:0:0:
256,192,88724,12,0,89416,0:0:0:0:
243,192,89647,6,0,P|203:157|256:74,1,157.500006008148,4|0,1:2|0:0,0:0:0:0:
386,123,90109,2,0,L|218:128,1,157.500006008148,2|2,0:2|0:2,0:0:0:0:
445,249,90570,2,0,P|498:219|392:64,1,315.000012016297,10|2,0:2|0:2,0:0:0:0:
107,212,91493,6,0,L|434:219,1,315.000012016297,2|2,1:2|0:2,0:0:0:0:
271,275,92185,2,0,P|202:237|446:207,1,787.500030040742,0|0,0:0|1:2,0:0:0:0:
208,223,93801,6,0,L|201:58,1,157.500006008148,2|2,0:2|0:2,0:0:0:0:
349,60,94262,2,0,P|423:89|342:271,1,315.000012016297,10|2,0:2|0:2,0:0:0:0:
241,210,94955,1,2,0:2:0:0:
33,227,95185,6,0,L|354:230,1,315.000012016297,2|2,1:2|0:2,0:0:0:0:
192,297,95878,2,0,P|137:255|403:162,1,630.000024032594
48,177,97032,5,0,1:2:0:0:
261,214,97493,2,0,L|88:218,1,157.500006008148,2|0,0:2|0:0,0:0:0:0:
256,147,97955,2,0,P|378:201|264:308,1,315.000012016297,10|2,0:2|0:2,0:0:0:0:
154,243,98647,1,0,0:0:0:0:
456,242,98878,6,0,L|464:72,1,157.500006008148,2|0,1:2|0:0,0:0:0:0:
336,113,99339,1,2,0:2:0:0:
37,245,99570,2,0,P|39:189|419:258,1,630.000024032594,2|0,0:2|0:0,0:0:0:0:
75,222,100724,5,0,1:2:0:0:
284,204,101185,2,0,L|292:39,1,157.500006008148,2|0,0:2|0:0,0:0:0:0:
153,161,101647,2,0,P|138:118|326:65,1,315.000012016297,10|2,0:2|0:2,0:0:0:0:
184,117,102339,1,0,0:0:0:0:
486,271,102570,6,0,P|497:199|380:-14,1,315.000012016297,2|0,1:2|0:0,0:0:0:0:
76,243,103262,2,0,P|79:180|419:295,1,630.000024032594,0|0,0:0|0:0,0:0:0:0:
83,278,104416,5,4,1:2:0:0:
256,192,104532,12,0,106955,0:0:0:0:
258,195,107185,6,0,P|325:175|242:14,1,315.000012016297,0|0,0:0|0:0,0:0:0:0:
58,184,108109,6,0,L|51:75,1,78.7500030040742,6|2,3:2|0:2,0:0:0:0:
152,90,108339,1,2,0:2:0:0:
315,219,108570,2,0,L|128:223,1,157.500006008148,2|2,0:2|0:2,0:0:0:0:
264,305,108916,6,0,P|312:268|259:198,1,157.500006008148,2|2,0:2|0:2,0:0:0:0:
163,216,109262,2,0,L|154:108,1,78.7500030040742,2|0,0:2|0:0,0:0:0:0:
263,137,109493,2,0,L|269:43,1,78.7500030040742,2|0,0:2|0:0,0:0:0:0:
189,81,109724,2,0,L|182:-28,1,78.7500030040742,0|0,0:0|0:0,0:0:0:0:
428,203,109955,6,0,L|241:202,1,157.500006008148,2|2,0:2|0:2,0:0:0:0:
415,256,110416,2,0,L|424:152,1,78.7500030040742,2|2,0:2|0:2,0:0:0:0:
314,174,110647,2,0,L|306:74,1,78.7500030040742,2|0,0:2|0:0,0:0:0:0:
499,140,110878,6,0,P|500:86|394:49,1,157.500006008148,2|2,0:2|0:2,0:0:0:0:
351,60,111224,1,2,0:2:0:0:
239,167,111339,2,0,L|231:76,1,78.7500030040742,2|0,0:2|0:0,0:0:0:0:
350,108,111570,2,0,L|363:12,1,78.7500030040742,2|0,0:2|0:0,0:0:0:0:
131,191,111801,6,0,P|81:152|173:52,1,236.250009012223,2|0,0:2|0:0,0:0:0:0:
281,144,112262,2,0,L|285:48,1,78.7500030040742,2|0,0:2|0:0,0:0:0:0:
182,57,112493,1,2,0:2:0:0:
273,49,112609,1,2,0:2:0:0:
84,201,112724,6,0,P|37:166|95:94,1,157.500006008148,0|2,0:0|0:2,0:0:0:0:
165,103,113070,1,0,0:0:0:0:
351,209,113185,2,0,L|356:123,1,78.7500030040742,2|0,0:2|0:0,0:0:0:0:
159,107,113416,2,0,L|144:6,1,78.7500030040742,0|0,0:0|0:0,0:0:0:0:
444,116,113647,6,0,L|335:122,1,78.7500030040742,2|0,0:2|0:0,0:0:0:0:
253,151,113878,1,2,0:2:0:0:
365,120,113993,1,0,0:0:0:0:
57,178,114109,2,0,L|47:79,1,78.7500030040742,2|0,0:2|0:0,0:0:0:0:
252,71,114339,1,2,0:2:0:0:
456,73,114455,1,2,0:2:0:0:
101,240,114570,6,0,L|276:240,1,157.500006008148,4|0,3:2|3:2,0:0:0:0:
65,165,114916,1,0,0:0:0:0:
369,187,115032,2,0,P|453:154|356:85,1,236.250009012223,4|0,3:2|3:2,0:0:0:0:
107,138,115493,5,6,3:2:0:0:
326,131,115609,1,2,3:2:0:0:
87,246,115724,2,0,L|81:124,1,105,2|0,3:2|0:0,0:0:0:0:
438,181,115955,1,2,3:2:0:0:
210,179,116070,1,0,0:0:0:0:
438,181,116185,1,2,3:2:0:0:
83,240,116301,6,0,L|74:112,1,105,2|0,3:2|0:0,0:0:0:0:
364,107,116532,1,2,3:2:0:0:
140,115,116647,2,0,L|-9:119,1,105,2|0,3:2|0:0,0:0:0:0:
346,198,116878,1,2,3:2:0:0:
156,194,116993,1,0,3:2:0:0:
395,138,117109,2,0,L|330:141,1,52.5,0|0,3:2|3:2,0:0:0:0:
134,69,117224,2,0,L|53:72,1,52.5,0|0,3:2|3:2,0:0:0:0:
331,221,117339,6,0,L|346:87,1,105,2|0,3:2|0:0,0:0:0:0:
122,137,117570,2,0,L|99:1,1,105,2|0,3:2|0:0,0:0:0:0:
353,89,117801,2,0,L|461:91,1,105,2|0,3:2|0:0,0:0:0:0:
147,172,118032,1,2,3:2:0:0:
364,157,118147,1,0,3:2:0:0:
89,216,118262,6,0,L|227:222,1,105,2|0,3:2|0:0,0:0:0:0:
426,194,118493,1,2,3:2:0:0:
159,156,118609,1,2,3:2:0:0:
388,227,118724,2,0,L|400:100,1,105,2|0,3:2|0:0,0:0:0:0:
117,114,118955,2,0,L|193:114,1,52.5,2|0,3:2|3:2,0:0:0:0:
366,80,119070,2,0,L|435:78,1,52.5,0|0,3:2|3:2,0:0:0:0:
130,220,119185,6,0,L|109:102,1,105,14|0,3:2|0:0,0:0:0:0:
408,233,119416,2,0,L|419:113,1,105,8|0,3:2|0:0,0:0:0:0:
192,102,119647,1,10,3:2:0:0:
409,147,119762,1,0,0:0:0:0:
142,166,119878,1,10,3:2:0:0:
432,131,119993,6,0,P|468:90|373:-4,1,210,2|2,3:2|3:2,0:0:0:0:
134,219,120339,2,0,L|117:93,1,105,10|0,3:2|0:0,0:0:0:0:
378,117,120570,1,10,3:2:0:0:
271,119,120685,1,0,3:2:0:0:
494,240,120801,1,8,3:2:0:0:
272,194,120916,1,0,0:0:0:0:
34,189,121032,6,0,L|26:67,1,105,10|0,3:2|3:2,0:0:0:0:
248,98,121262,1,10,3:2:0:0:
143,93,121378,1,0,0:0:0:0:
432,191,121493,1,10,3:2:0:0:
241,197,121609,1,0,0:0:0:0:
432,191,121724,1,10,3:2:0:0:
137,287,121839,6,0,P|72:243|150:167,1,210,2|0,3:2|3:2,0:0:0:0:
390,207,122185,2,0,L|394:79,1,105,8|0,3:2|0:0,0:0:0:0:
184,117,122416,2,0,L|113:113,1,52.5,2|0,0:2|0:0,0:0:0:0:
340,62,122532,2,0,L|408:57,1,52.5,0|0,3:2|3:2,0:0:0:0:
107,193,122647,2,0,P|60:159|132:88,1,157.5,2|0,3:2|0:0,0:0:0:0:
304,206,122878,6,0,L|187:209,1,105,6|2,3:2|3:2,0:0:0:0:
448,137,123109,1,2,3:2:0:0:
201,141,123224,1,2,3:2:0:0:
400,211,123339,2,0,L|276:214,1,105,2|2,3:2|3:2,0:0:0:0:
501,155,123570,1,2,3:2:0:0:
261,142,123685,1,2,3:2:0:0:
51,151,123801,5,2,3:2:0:0:
292,190,123916,2,0,L|223:189,1,52.5,2|0,3:2|3:2,0:0:0:0:
51,151,124032,1,2,3:2:0:0:
330,250,124147,2,0,P|381:190|300:69,1,210,2|0,3:2|3:2,0:0:0:0:
87,162,124493,2,0,L|34:160,1,52.5,2|0,3:2|0:0,0:0:0:0:
294,159,124609,2,0,L|369:156,1,52.5,0|0,0:0|0:0,0:0:0:0:
132,228,124724,6,0,L|0:227,1,105,2|2,3:2|3:2,0:0:0:0:
252,172,124955,1,2,3:2:0:0:
29,158,125070,1,2,3:2:0:0:
338,248,125185,2,0,L|491:249,1,105,2|2,3:2|3:2,0:0:0:0:
208,138,125416,1,2,3:2:0:0:
424,144,125532,1,2,3:2:0:0:
89,192,125647,5,2,3:2:0:0:
315,184,125762,2,0,L|253:182,1,52.5,2|0,3:2|3:2,0:0:0:0:
89,192,125878,1,2,3:2:0:0:
397,284,125993,2,0,P|441:244|354:147,1,210,2|0,3:2|3:2,0:0:0:0:
187,120,126339,2,0,L|116:121,1,52.5,2|0,3:2|0:0,0:0:0:0:
346,76,126455,2,0,L|414:76,1,52.5,0|0,0:0|0:0,0:0:0:0:
108,232,126570,6,0,L|86:98,1,105,14|2,3:2|3:2,0:0:0:0:
302,112,126801,1,10,3:2:0:0:
90,128,126916,1,2,3:2:0:0:
402,243,127032,2,0,L|424:109,1,105,10|0,3:2|0:0,0:0:0:0:
208,120,127263,1,10,3:2:0:0:
420,139,127378,1,2,3:2:0:0:
121,200,127493,5,10,3:2:0:0:
348,170,127609,2,0,L|257:170,1,52.5,2|0,3:2|3:2,0:0:0:0:
121,200,127724,1,10,3:2:0:0:
331,257,127839,2,0,P|384:232|325:119,1,210,2|0,3:2|3:2,0:0:0:0:
133,122,128185,1,10,3:2:0:0:
381,92,128301,1,0,3:2:0:0:
100,197,128416,6,0,L|78:71,1,105,8|0,3:2|3:2,0:0:0:0:
311,98,128647,1,8,3:2:0:0:
211,103,128762,1,0,3:2:0:0:
399,196,128878,1,8,3:2:0:0:
149,190,128993,1,0,3:2:0:0:
439,262,129109,1,8,3:2:0:0:
101,261,129224,1,0,3:2:0:0:
326,221,129339,6,0,L|386:218,1,52.5,8|0,3:2|3:2,0:0:0:0:
160,122,129455,2,0,L|68:128,1,52.5,0|0,3:2|3:2,0:0:0:0:
362,139,129570,1,2,3:2:0:0:
382,122,129598,1,0,3:2:0:0:
395,99,129627,1,0,3:2:0:0:
399,74,129656,1,0,3:2:0:0:
395,48,129685,1,0,3:2:0:0:
381,26,129714,1,0,3:2:0:0:
361,10,129743,1,0,3:2:0:0:
146,208,129801,5,2,3:2:0:0:
122,197,129829,1,0,3:2:0:0:
106,176,129858,1,0,3:2:0:0:
101,151,129887,1,0,3:2:0:0:
108,126,129916,1,0,3:2:0:0:
126,107,129945,1,0,3:2:0:0:
150,98,129974,1,0,3:2:0:0:
413,207,130032,5,2,3:2:0:0:
436,196,130060,1,0,3:2:0:0:
452,175,130089,1,0,3:2:0:0:
457,150,130118,1,0,3:2:0:0:
450,125,130147,1,0,3:2:0:0:
432,106,130176,1,0,3:2:0:0:
408,97,130205,1,0,3:2:0:0:
159,145,130262,6,0,L|16:148,1,105,6|2,3:2|3:2,0:0:0:0:
223,271,130435,1,0,3:2:0:0:
423,274,130493,2,0,L|428:136,1,105,2|2,3:2|3:2,0:0:0:0:
258,139,130666,1,0,3:2:0:0:
48,197,130724,2,0,L|182:200,1,105,2|0,3:2|0:0,0:0:0:0:
338,175,130897,1,0,3:2:0:0:
151,110,130955,2,0,L|24:109,1,105,2|0,3:2|0:0,0:0:0:0:
191,231,131128,1,0,3:2:0:0:
333,113,131185,5,2,3:2:0:0:
116,147,131301,2,0,L|192:147,1,52.5,2|0,3:2|3:2,0:0:0:0:
356,223,131416,2,0,L|362:150,1,52.5,2|0,3:2|0:0,0:0:0:0:
129,276,131532,2,0,L|384:280,1,210,2|0,3:2|3:2,0:0:0:0:
119,194,131878,2,0,L|42:194,1,52.5,2|0,3:2|0:0,0:0:0:0:
341,127,131993,2,0,L|421:127,1,52.5,0|0,3:2|3:2,0:0:0:0:
159,145,132109,6,0,L|16:148,1,105,2|0,3:2|0:0,0:0:0:0:
223,271,132282,1,0,3:2:0:0:
423,274,132340,2,0,L|428:136,1,105,2|2,3:2|3:2,0:0:0:0:
258,139,132513,1,0,3:2:0:0:
48,197,132571,2,0,L|182:200,1,105,2|0,3:2|0:0,0:0:0:0:
338,175,132744,1,0,3:2:0:0:
151,110,132802,2,0,L|24:109,1,105,2|0,3:2|0:0,0:0:0:0:
191,231,132975,1,0,3:2:0:0:
333,113,133032,5,2,3:2:0:0:
116,147,133148,2,0,L|192:147,1,52.5,2|0,3:2|3:2,0:0:0:0:
356,223,133262,2,0,L|424:223,1,52.5,2|0,3:2|0:0,0:0:0:0:
126,289,133378,2,0,P|76:249|158:160,1,210,2|0,3:2|3:2,0:0:0:0:
348,170,133725,2,0,L|425:170,1,52.5,2|0,3:2|0:0,0:0:0:0:
126,103,133840,2,0,L|46:103,1,52.5,0|0,3:2|3:2,0:0:0:0:
310,211,133955,6,0,L|370:207,1,52.5,6|0,3:2|3:2,0:0:0:0:
192,119,134070,2,0,L|136:123,1,52.5,2|0,3:2|3:2,0:0:0:0:
362,277,134185,2,0,L|369:206,1,52.5,2|0,3:2|0:0,0:0:0:0:
171,198,134301,2,0,L|148:129,1,52.5,2|0,3:2|3:2,0:0:0:0:
353,105,134416,2,0,L|421:105,1,52.5,2|0,3:2|3:2,0:0:0:0:
169,79,134532,2,0,L|109:79,1,52.5,2|0,3:2|0:0,0:0:0:0:
386,177,134647,2,0,L|445:178,1,52.5,2|0,3:2|3:2,0:0:0:0:
124,174,134762,2,0,L|45:175,1,52.5,2|0,3:2|3:2,0:0:0:0:
258,163,134878,6,0,L|324:162,1,52.5,2|0,3:2|0:0,0:0:0:0:
258,163,134993,2,0,L|176:165,1,52.5,2|0,3:2|3:2,0:0:0:0:
258,163,135109,2,0,L|328:164,1,52.5,2|0,3:2|3:2,0:0:0:0:
141,253,135224,1,2,3:2:0:0:
92,236,135281,1,0,3:2:0:0:
64,192,135339,1,0,0:2:0:0:
70,141,135397,1,0,3:2:0:0:
107,105,135454,1,0,3:2:0:0:
158,100,135512,1,0,3:2:0:0:
404,189,135570,2,0,L|333:185,1,52.5,2|0,3:2|0:0,0:0:0:0:
146,52,135685,2,0,L|53:53,1,52.5,2|0,3:2|3:2,0:0:0:0:
334,152,135801,5,2,3:2:0:0:
380,134,135858,1,0,3:2:0:0:
383,84,135916,1,0,3:2:0:0:
339,61,135974,1,0,3:2:0:0:
195,255,136032,1,0,3:2:0:0:
198,203,136089,1,0,3:2:0:0:
242,162,136147,1,0,3:2:0:0:
299,156,136205,1,0,3:2:0:0:
101,169,136262,1,0,3:2:0:0:
54,153,136319,1,0,3:2:0:0:
50,104,136377,1,0,3:2:0:0:
94,82,136435,1,0,3:2:0:0:
276,101,136493,2,0,L|337:101,1,52.5,2|0,3:2|3:2,0:0:0:0:
141,44,136609,2,0,L|68:44,1,52.5,0|0,3:2|3:2,0:0:0:0:
357,236,136724,5,2,3:2:0:0:
382,235,136752,1,0,3:2:0:0:
403,219,136781,1,0,3:2:0:0:
410,194,136810,1,0,3:2:0:0:
402,170,136839,1,0,3:2:0:0:
381,155,136868,1,0,3:2:0:0:
355,155,136897,1,0,3:2:0:0:
155,236,136955,5,0,3:2:0:0:
129,235,136983,1,0,3:2:0:0:
108,219,137012,1,0,3:2:0:0:
101,194,137041,1,0,3:2:0:0:
109,170,137070,1,0,3:2:0:0:
130,155,137099,1,0,3:2:0:0:
156,155,137128,1,0,3:2:0:0:
328,79,137185,6,0,L|387:79,1,52.5,2|0,3:2|3:2,0:0:0:0:
186,59,137301,2,0,L|121:61,1,52.5,0|0,3:2|3:2,0:0:0:0:
358,177,137416,2,0,L|414:175,1,52.5,0|0,3:2|3:2,0:0:0:0:
126,117,137532,2,0,L|68:119,1,52.5,2|0,3:2|3:2,0:0:0:0:
395,285,137647,6,0,P|442:256|360:-82,1,472.500018024445,4|0,3:2|0:0,0:0:0:0:
81,222,138570,6,0,P|46:179|108:89,1,157.500006008148,8|0,3:2|0:0,0:0:0:0:
310,101,138916,2,0,P|351:131|280:212,1,157.500006008148,0|0,3:2|0:0,0:0:0:0:
105,246,139262,2,0,L|91:136,1,78.7500030040742,0|0,3:2|0:0,0:0:0:0:
360,205,139493,6,0,P|362:151|62:214,1,551.25002102852,4|0,3:2|0:0,0:0:0:0:
370,274,140416,5,8,0:3:0:0:
164,198,140647,1,8,0:3:0:0:
470,164,140878,1,8,0:3:0:0:
82,138,141109,1,8,0:3:0:0:
422,237,141339,6,0,P|460:215|401:127,1,157.500006008148,6|2,3:2|3:2,0:0:0:0:
246,143,141801,1,2,0:2:0:0:
332,167,141916,2,0,P|371:147|327:65,1,157.500006008148,2|0,0:2|0:0,0:0:0:0:
90,237,142262,6,0,P|52:215|111:127,1,157.500006008148,6|2,3:2|3:2,0:0:0:0:
266,143,142724,1,2,0:2:0:0:
180,167,142839,2,0,P|141:147|185:65,1,157.500006008148,2|0,0:2|0:0,0:0:0:0:
432,187,143185,6,0,P|443:126|410:13,1,157.500006008148,6|2,3:2|3:2,0:0:0:0:
84,129,143647,1,6,3:2:0:0:
255,141,143762,2,0,L|357:145,1,78.7500030040742,6|0,3:2|3:2,0:0:0:0:
134,256,143993,6,0,P|78:219|143:161,1,157.500006008148,2|2,3:2|3:2,0:0:0:0:
376,204,144339,2,0,L|394:89,1,78.7500030040742,2|0,3:2|3:2,0:0:0:0:
136,152,144570,2,0,L|120:42,1,78.7500030040742,2|0,3:2|3:2,0:0:0:0:
357,73,144801,2,0,L|435:71,1,78.7500030040742,2|0,3:2|0:0,0:0:0:0:
75,237,145032,6,0,L|185:238,1,78.7500030040742,4|0,3:2|3:2,0:0:0:0:
407,182,145262,1,2,3:2:0:0:
46,150,145493,1,6,3:2:0:0:
304,105,145609,2,0,P|352:122|282:181,1,157.500006008148,2|0,3:2|0:0,0:0:0:0:
75,237,145955,6,0,L|185:238,1,78.7500030040742,4|0,3:2|3:2,0:0:0:0:
407,182,146185,1,2,3:2:0:0:
46,150,146416,1,6,3:2:0:0:
304,105,146532,2,0,P|352:122|282:181,1,157.500006008148,2|0,3:2|0:0,0:0:0:0:
56,216,146878,6,0,L|46:47,1,157.500006008148,6|2,3:2|3:2,0:0:0:0:
374,157,147339,1,6,3:2:0:0:
156,204,147455,2,0,L|143:95,1,78.7500030040742,6|0,3:2|3:2,0:0:0:0:
360,80,147685,6,0,P|424:103|360:154,1,157.500006008148,2|2,3:2|3:2,0:0:0:0:
138,234,148032,2,0,P|84:198|138:152,1,157.500006008148,6|0,3:2|3:2,0:0:0:0:
374,234,148378,2,0,P|428:198|374:152,1,157.500006008148,6|0,3:2|3:2,0:0:0:0:
41,167,148724,5,4,3:2:0:0:
256,192,148839,12,0,153224,0:0:0:0:
