osu file format v14

[General]
AudioFilename: audio.mp3
AudioLeadIn: 0
PreviewTime: 48121
Countdown: 0
SampleSet: Soft
StackLeniency: 0.7
Mode: 2
LetterboxInBreaks: 0
WidescreenStoryboard: 1

[Editor]
Bookmarks: 8428,82274
DistanceSpacing: 1
BeatDivisor: 4
GridSize: 4
TimelineZoom: 3.299998

[Metadata]
Title:Cross The Finish Line [feat. Nanahira]
TitleUnicode:Cross The Finish Line [feat. ななひら]
Artist:Kobaryo
ArtistUnicode:Kobaryo
Creator:Kukkai
Version:Salad
Source:
Tags:secre chickenbible jbhyperion jbh gabba gabber hardcore j-core speedcore 古葉玲 Psycho Filth Records Candy speed pops japanese electronic instrumental FA Featured Artist mappers' guild mpg mg
BeatmapID:4191315
BeatmapSetID:2012659

[Difficulty]
HPDrainRate:3
CircleSize:2.5
OverallDifficulty:7.5
ApproachRate:7.5
SliderMultiplier:0.899999999999999
SliderTickRate:0.5

[Events]
//Background and Video events
0,0,"65092327_p0.jpg",0,0
//Break Periods
2,12309,14976
2,82462,87836
//Storyboard Layer 0 (Background)
//Storyboard Layer 1 (Fail)
//Storyboard Layer 2 (Pass)
//Storyboard Layer 3 (Foreground)
//Storyboard Layer 4 (Overlay)
//Storyboard Sound Samples

[TimingPoints]
109,230.769230769231,4,2,1,70,1,0
4724,-100,4,2,1,80,0,0
12109,-100,4,2,1,60,0,0
15801,-100,4,2,2,60,0,0
23185,-100,4,2,1,65,0,0
30570,-100,4,2,1,70,0,0
37955,-100,4,2,2,60,0,0
41647,-100,4,2,1,70,0,0
48109,-100,4,2,1,60,0,0
49032,-100,4,2,1,80,0,1
71185,-100,4,2,1,60,0,0
73955,-100,4,2,1,60,0,0
82262,-100,4,2,1,50,0,0
89647,-100,4,2,2,50,0,0
108109,-100,4,2,2,50,0,0
114570,-100,4,2,1,70,0,0
115493,-100,4,2,1,80,0,1
130262,-95.2380952380952,4,2,1,80,0,1
137647,-100,4,2,1,80,0,0
148724,-100,4,2,1,80,0,0
149647,-100,4,2,1,70,0,0
150570,-100,4,2,1,60,0,0
151493,-100,4,2,1,50,0,0
152416,-100,4,2,1,40,0,0
153224,-100,4,2,1,30,0,0

[Colours]
Combo1 : 0,0,249
Combo2 : 9,255,255
Combo3 : 255,186,153

[HitObjects]
348,344,109,6,0,L|348:248,3,89.9999999999999,8|8|8|8,0:3|0:3|0:3|0:3,0:0:0:0:
148,256,1032,6,0,P|104:232|164:140,1,180,6|2,3:2|0:2,0:0:0:0:
196,140,1609,1,2,0:2:0:0:
336,64,1955,6,0,L|144:64,1,180,6|2,3:2|0:2,0:0:0:0:
112,64,2532,1,2,0:2:0:0:
392,320,2878,6,0,P|424:288|364:176,1,180,6|6,3:2|3:2,0:0:0:0:
336,180,3455,1,6,3:2:0:0:
248,180,3685,6,0,L|352:180,1,89.9999999999999,2|2,3:2|3:2,0:0:0:0:
384,176,4032,1,2,3:2:0:0:
184,356,4262,2,0,L|184:252,1,89.9999999999999,2|2,3:2|3:2,0:0:0:0:
384,252,4724,5,6,3:2:0:0:
476,252,4955,1,2,3:2:0:0:
476,252,5185,1,2,3:2:0:0:
384,252,5416,1,2,3:2:0:0:
272,256,5647,6,0,L|272:156,1,89.9999999999999,0|2,3:2|3:2,0:0:0:0:
316,164,5993,1,2,0:2:0:0:
364,164,6109,1,2,3:2:0:0:
364,164,6339,1,2,3:2:0:0:
164,312,6570,6,0,L|164:208,1,89.9999999999999,2|2,3:2|3:2,0:0:0:0:
252,204,7032,2,0,L|352:204,1,89.9999999999999,2|2,3:2|3:2,0:0:0:0:
232,160,7493,6,0,L|128:160,2,89.9999999999999,0|2|2,3:2|3:2|3:2,0:0:0:0:
276,160,8070,1,2,3:2:0:0:
320,160,8185,1,2,3:2:0:0:
120,344,8416,6,0,L|120:248,1,89.9999999999999,6|2,3:2|3:2,0:0:0:0:
212,256,8878,2,0,L|212:148,1,89.9999999999999,2|2,3:2|3:2,0:0:0:0:
104,160,9339,6,0,L|8:160,1,89.9999999999999,0|2,3:2|3:2,0:0:0:0:
60,160,9685,1,2,0:2:0:0:
104,160,9801,1,2,3:2:0:0:
192,160,10032,1,2,3:2:0:0:
392,344,10262,6,0,L|392:252,1,89.9999999999999,2|2,3:2|3:2,0:0:0:0:
300,248,10724,2,0,L|192:248,1,89.9999999999999,0|2,0:0|3:2,0:0:0:0:
300,248,11185,6,0,L|300:148,1,89.9999999999999,2|0,3:2|3:2,0:0:0:0:
208,160,11647,2,0,L|208:56,1,89.9999999999999,2|0,3:2|0:0,0:0:0:0:
408,64,12109,5,4,3:2:0:0:
184,344,15801,6,0,P|128:312|192:248,1,180,4|8,1:2|0:2,0:0:0:0:
280,248,16493,5,0,0:0:0:0:
324,248,16609,2,0,L|164:248,1,135,0|0,0:0|1:2,0:0:0:0:
100,252,17185,1,8,0:2:0:0:
280,132,17647,6,0,L|400:132,2,89.9999999999999,0|0|8,1:2|0:0|0:2,0:0:0:0:
192,136,18339,6,0,P|152:96|208:0,1,180,0|0,0:0|1:2,0:0:0:0:
292,16,19032,1,8,0:2:0:0:
108,352,19493,6,0,L|312:356,1,180,0|8,1:2|0:2,0:0:0:0:
200,348,20185,5,0,0:0:0:0:
156,348,20301,2,0,P|124:300|172:236,1,135,0|0,0:0|1:2,0:0:0:0:
252,240,20878,1,8,0:2:0:0:
432,228,21339,6,0,L|432:120,1,89.9999999999999,0|0,1:2|0:0,0:0:0:0:
340,132,21801,2,0,L|224:132,1,89.9999999999999,8|0,0:2|0:0,0:0:0:0:
204,132,22147,6,0,L|356:136,1,135,0|0,0:0|1:2,0:0:0:0:
428,132,22724,2,0,L|428:240,1,89.9999999999999,8|0,0:2|0:0,0:0:0:0:
232,364,23185,6,0,P|176:304|244:240,1,180,4|0,3:2|3:2,0:0:0:0:
320,236,23878,1,0,0:0:0:0:
408,236,24109,2,0,L|504:236,2,89.9999999999999,4|0|0,3:2|3:2|3:2,0:0:0:0:
100,176,25032,6,0,L|100:64,1,89.9999999999999,4|0,3:2|3:0,0:0:0:0:
192,84,25493,1,0,3:0:0:0:
284,84,25724,1,0,0:0:0:0:
192,84,25955,1,4,3:2:0:0:
104,80,26185,2,0,L|104:192,1,89.9999999999999,0|0,3:0|3:0,0:0:0:0:
440,368,26878,6,0,P|492:300|408:256,1,180,4|0,3:2|3:0,0:0:0:0:
344,244,27570,1,0,0:0:0:0:
252,244,27801,1,4,3:2:0:0:
344,244,28032,1,0,3:2:0:0:
432,244,28262,1,0,3:2:0:0:
88,204,28724,6,0,L|88:104,1,89.9999999999999,4|0,3:2|3:2,0:0:0:0:
176,100,29185,2,0,L|76:100,1,89.9999999999999,4|0,3:2|3:2,0:0:0:0:
280,180,29647,6,0,L|480:180,1,180,4|0,3:2|3:2,0:0:0:0:
368,180,30339,1,0,3:2:0:0:
168,356,30570,6,0,P|152:304|192:268,1,89.9999999999999,6|2,3:2|3:2,0:0:0:0:
260,264,31032,1,2,3:2:0:0:
348,268,31262,2,0,L|348:152,1,89.9999999999999,2|0,3:2|3:2,0:0:0:0:
256,176,31724,5,2,3:2:0:0:
212,180,31839,1,2,0:2:0:0:
164,180,31955,2,0,L|164:56,1,89.9999999999999,2|2,3:2|3:2,0:0:0:0:
364,80,32416,6,0,L|480:80,2,89.9999999999999,2|2|2,3:2|3:2|3:2,0:0:0:0:
272,80,33109,1,2,3:2:0:0:
184,76,33339,6,0,L|184:184,1,89.9999999999999,0|2,3:2|3:2,0:0:0:0:
276,168,33801,1,2,3:2:0:0:
321,168,33916,1,2,3:2:0:0:
366,168,34031,1,2,3:2:0:0:
168,368,34262,6,0,P|160:308|180:280,1,89.9999999999999,14|10,3:2|3:2,0:0:0:0:
264,284,34724,2,0,L|372:284,1,89.9999999999999,10|10,3:2|3:2,0:0:0:0:
152,200,35185,5,8,3:2:0:0:
60,204,35416,1,10,3:2:0:0:
16,204,35532,1,2,3:2:0:0:
60,116,35647,1,10,3:2:0:0:
152,116,35878,1,10,3:2:0:0:
352,344,36109,6,0,P|368:296|328:256,1,89.9999999999999,10|10,3:2|3:2,0:0:0:0:
304,264,36455,1,2,3:2:0:0:
260,268,36570,2,0,L|164:268,1,89.9999999999999,8|10,3:2|3:2,0:0:0:0:
372,168,37032,6,0,L|428:168,2,45,10|0|8,3:2|3:2|3:2,0:0:0:0:
280,168,37493,1,2,3:2:0:0:
372,168,37724,1,2,3:2:0:0:
168,312,37955,5,4,3:2:0:0:
340,316,38416,2,0,P|352:264|304:212,1,89.9999999999999,0|0,0:0|3:2,0:0:0:0:
248,220,38878,6,0,L|448:220,1,180,0|8,3:2|3:2,0:0:0:0:
232,232,39801,6,0,P|184:196|256:116,1,180,0|0,3:2|0:0,0:0:0:0:
328,120,40493,6,0,L|328:24,1,89.9999999999999,0|0,3:2|3:2,0:0:0:0:
236,28,40955,1,0,3:2:0:0:
148,28,41185,1,2,0:2:0:0:
472,280,41647,6,0,P|484:232|452:184,1,89.9999999999999,6|2,3:2|3:2,0:0:0:0:
376,192,42109,1,2,3:2:0:0:
288,196,42339,6,0,L|288:76,1,89.9999999999999,2|0,3:2|3:2,0:0:0:0:
380,112,42801,2,0,L|380:12,1,89.9999999999999,2|0,3:2|3:2,0:0:0:0:
180,260,43262,5,2,3:2:0:0:
97,250,43492,1,0,3:2:0:0:
93,167,43723,1,0,3:2:0:0:
174,150,43954,1,0,3:2:0:0:
264,152,44185,6,0,L|320:152,2,45,2|0|2,3:2|0:2|3:2,0:0:0:0:
174,150,44647,2,0,L|56:152,2,89.9999999999999,2|2|2,3:2|3:2|3:2,0:0:0:0:
376,344,45339,6,0,L|376:224,1,89.9999999999999,12|8,3:2|3:2,0:0:0:0:
284,252,45801,2,0,L|396:252,1,89.9999999999999,8|8,3:2|3:2,0:0:0:0:
176,204,46262,6,0,L|176:92,1,89.9999999999999,8|8,3:2|3:2,0:0:0:0:
268,108,46724,2,0,L|368:108,1,89.9999999999999,8|8,3:2|3:2,0:0:0:0:
160,360,47185,6,0,P|52:320|176:168,1,360,4|2,3:2|0:2,0:0:0:0:
332,168,48570,2,0,L|332:64,1,89.9999999999999,2|8,0:2|0:1,0:0:0:0:
128,80,49032,6,0,L|56:80,2,45,6|2|2,3:2|0:2|3:2,0:0:0:0:
220,80,49493,1,2,3:2:0:0:
312,80,49724,1,2,3:2:0:0:
356,80,49839,6,0,P|376:128|324:208,1,135,2|2,0:2|3:2,0:0:0:0:
252,200,50416,2,0,L|152:200,1,89.9999999999999,2|0,3:2|3:2,0:0:0:0:
356,356,50878,6,0,L|368:248,1,89.9999999999999,2|2,3:2|3:2,0:0:0:0:
276,264,51339,2,0,L|204:264,2,45,2|2|2,3:2|0:2|3:2,0:0:0:0:
384,268,51801,6,0,L|368:152,1,89.9999999999999,2|2,3:2|3:2,0:0:0:0:
328,176,52147,1,2,0:2:0:0:
284,176,52262,1,2,3:2:0:0:
192,176,52493,1,2,3:2:0:0:
396,100,52724,6,0,L|504:100,2,89.9999999999999,6|0|2,3:2|3:2|3:2,0:0:0:0:
288,100,53416,1,2,3:2:0:0:
244,100,53532,6,0,L|400:100,1,135,2|2,0:2|3:2,0:0:0:0:
468,104,54109,2,0,L|468:220,1,89.9999999999999,2|0,3:2|3:2,0:0:0:0:
268,304,54570,6,0,L|160:304,2,89.9999999999999,2|2|2,3:2|3:2|3:2,0:0:0:0:
360,304,55262,2,0,L|360:240,1,45,2|2,3:2|0:2,0:0:0:0:
316,260,55493,6,0,L|184:260,1,89.9999999999999,0|0,3:0|3:0,0:0:0:0:
316,256,55955,2,0,L|440:256,1,89.9999999999999,0|0,3:0|3:0,0:0:0:0:
208,172,56416,6,0,L|128:172,2,45,6|2|2,3:2|3:2|3:2,0:0:0:0:
300,172,56878,1,2,3:2:0:0:
392,172,57109,1,2,3:2:0:0:
348,172,57224,6,0,L|200:172,1,135,2|2,3:2|3:2,0:0:0:0:
300,172,57801,2,0,L|300:64,1,89.9999999999999,2|0,3:2|3:2,0:0:0:0:
100,344,58262,6,0,P|84:292|116:256,1,89.9999999999999,2|2,3:2|3:2,0:0:0:0:
192,248,58724,1,2,3:2:0:0:
284,248,58955,2,0,L|348:248,2,45,2|0|2,3:2|3:2|3:2,0:0:0:0:
192,248,59416,5,2,3:2:0:0:
148,248,59532,1,2,3:2:0:0:
104,248,59647,2,0,L|104:136,1,89.9999999999999,2|2,3:2|3:2,0:0:0:0:
308,128,60109,6,0,L|440:128,2,89.9999999999999,6|0|2,3:2|3:2|3:2,0:0:0:0:
216,128,60801,1,2,3:2:0:0:
172,132,60916,6,0,P|156:72|232:20,1,135,2|2,3:2|3:2,0:0:0:0:
292,28,61493,2,0,L|400:28,1,89.9999999999999,2|0,3:2|3:2,0:0:0:0:
176,244,61955,6,0,L|72:244,2,89.9999999999999,2|2|2,3:2|3:2|3:2,0:0:0:0:
280,244,62647,6,0,L|280:176,1,45,2|2,3:2|3:2,0:0:0:0:
176,200,62993,2,0,L|176:132,1,45,0|0,3:2|3:2,0:0:0:0:
264,164,63339,1,2,0:2:0:0:
356,164,63570,1,2,0:2:0:0:
156,352,63801,5,6,3:2:0:0:
68,352,64031,1,2,3:2:0:0:
68,352,64262,1,2,3:2:0:0:
151,205,64493,1,2,3:2:0:0:
240,208,64724,6,0,P|248:148|204:108,1,89.9999999999999,2|2,3:2|3:2,0:0:0:0:
188,128,65070,1,2,3:2:0:0:
88,132,65301,2,0,L|88:60,1,45,0|2,3:2|3:2,0:0:0:0:
284,368,65647,6,0,P|300:320|264:276,1,89.9999999999999,2|2,3:2|3:2,0:0:0:0:
192,284,66109,1,2,3:2:0:0:
104,288,66339,1,2,3:2:0:0:
196,216,66570,6,0,L|196:152,1,45,2|2,3:2|3:2,0:0:0:0:
288,172,66916,2,0,L|168:172,1,89.9999999999999,2|0,3:2|3:2,0:0:0:0:
152,172,67262,1,2,3:2:0:0:
348,288,67493,5,14,3:2:0:0:
440,288,67724,1,10,3:2:0:0:
440,288,67955,1,10,3:2:0:0:
348,288,68185,1,10,3:2:0:0:
152,96,68416,6,0,L|276:96,1,89.9999999999999,10|10,3:2|3:2,0:0:0:0:
288,96,68762,2,0,P|316:140|280:224,1,135,2|10,3:2|3:2,0:0:0:0:
96,344,69339,6,0,P|84:284|112:260,1,89.9999999999999,8|8,3:2|3:2,0:0:0:0:
192,264,69801,2,0,L|84:264,1,89.9999999999999,8|8,3:2|3:2,0:0:0:0:
300,272,70262,6,0,L|300:172,1,89.9999999999999,8|8,3:2|3:2,0:0:0:0:
256,180,70609,1,0,3:2:0:0:
208,184,70724,2,0,L|208:72,1,89.9999999999999,8|8,3:2|3:2,0:0:0:0:
408,348,71185,6,0,P|452:320|388:232,1,180,4|0,3:2|0:0,0:0:0:0:
220,232,72109,2,0,L|64:232,2,135,8|0|0,3:2|3:2|3:2,0:0:0:0:
416,240,73032,6,0,P|304:124|192:244,1,360,4|8,3:2|0:3,0:0:0:0:
191,240,74185,6,0,L|192:144,2,89.9999999999999,8|8|8,0:3|0:3|0:3,0:0:0:0:
392,352,74878,6,0,P|432:316|360:224,1,180,6|2,3:2|0:2,0:0:0:0:
332,224,75455,1,2,0:2:0:0:
172,204,75801,6,0,P|116:172|192:92,1,180,6|2,3:2|0:2,0:0:0:0:
204,88,76378,1,2,0:2:0:0:
492,228,76724,6,0,L|292:228,1,180,6|6,3:2|3:2,0:0:0:0:
268,228,77301,1,6,3:2:0:0:
471,274,77532,6,0,P|487:218|447:166,1,89.9999999999999,2|2,3:2|3:2,0:0:0:0:
431,190,77878,1,2,3:2:0:0:
341,190,78109,2,0,L|437:190,1,89.9999999999999,2|2,3:2|3:2,0:0:0:0:
216,348,78570,6,0,L|216:220,1,89.9999999999999,4|2,3:2|3:2,0:0:0:0:
308,252,79032,1,6,3:2:0:0:
353,252,79147,1,2,3:2:0:0:
398,252,79262,1,0,3:2:0:0:
200,160,79493,6,0,L|88:160,1,89.9999999999999,4|2,3:2|3:2,0:0:0:0:
20,164,79955,1,6,3:2:0:0:
65,164,80070,1,2,3:2:0:0:
110,164,80185,1,0,3:2:0:0:
312,176,80416,6,0,P|328:116|292:92,1,89.9999999999999,6|2,3:2|3:2,0:0:0:0:
220,88,80878,2,0,L|140:88,1,45,6|6,3:2|3:2,0:0:0:0:
380,256,81224,6,0,P|392:204|352:148,1,89.9999999999999,2|2,3:2|3:2,0:0:0:0:
332,168,81570,1,2,3:2:0:0:
132,328,81801,6,0,L|328:328,1,180,2|4,3:2|3:2,0:0:0:0:
256,192,88724,12,0,89301,0:0:0:0:
140,344,89647,6,0,P|84:288|172:232,1,180,4|2,1:2|0:2,0:0:0:0:
228,224,90339,1,2,0:2:0:0:
320,224,90570,2,0,L|100:224,1,180,10|2,0:2|0:2,0:0:0:0:
340,232,91493,6,0,P|416:200|408:80,1,180,2|2,1:2|0:2,0:0:0:0:
340,104,92185,1,0,0:0:0:0:
248,104,92416,2,0,P|184:112|104:232,1,180,8|0,0:2|0:0,0:0:0:0:
320,240,93339,5,0,1:2:0:0:
140,248,93801,2,0,L|120:136,1,89.9999999999999,2|2,0:2|0:2,0:0:0:0:
216,160,94262,2,0,P|296:136|344:36,1,180,10|2,0:2|0:2,0:0:0:0:
252,64,94955,1,2,0:2:0:0:
164,68,95185,6,0,L|384:76,1,180,2|2,1:2|0:2,0:0:0:0:
252,72,95878,1,0,0:0:0:0:
160,72,96109,2,0,P|100:108|160:200,1,180,8|0,0:2|0:0,0:0:0:0:
476,360,97032,5,0,1:2:0:0:
296,356,97493,2,0,L|104:356,2,180,2|10|2,0:2|0:2|0:2,0:0:0:0:
76,336,98878,6,0,P|36:272|68:176,1,180,2|2,1:2|0:2,0:0:0:0:
156,184,99570,1,2,0:2:0:0:
248,188,99801,2,0,P|324:156|288:56,1,180,8|0,0:2|0:0,0:0:0:0:
104,364,100724,6,0,P|64:320|136:228,1,180,0|2,1:2|0:2,0:0:0:0:
208,232,101416,1,0,0:0:0:0:
296,228,101647,2,0,L|88:216,1,180,10|2,0:2|0:2,0:0:0:0:
312,340,102570,6,0,P|372:308|288:236,1,180,2|0,1:2|0:0,0:0:0:0:
240,220,103262,1,0,0:0:0:0:
152,228,103493,2,0,P|88:204|124:92,1,180,8|0,0:2|0:0,0:0:0:0:
420,96,104416,5,4,1:2:0:0:
256,192,104762,12,0,107185,0:0:0:0:
356,276,108109,6,0,L|428:276,2,45,6|2|2,3:2|0:2|0:2,0:0:0:0:
264,276,108570,1,2,0:2:0:0:
176,272,108801,1,2,0:2:0:0:
132,272,108916,6,0,L|108:124,1,135,2|2,0:2|0:2,0:0:0:0:
200,136,109493,1,2,0:2:0:0:
392,188,109955,6,0,L|260:184,1,89.9999999999999,2|2,0:2|0:2,0:0:0:0:
212,184,110416,2,0,L|148:184,2,45,2|2|2,0:2|0:2|0:2,0:0:0:0:
304,184,110878,5,2,0:2:0:0:
392,188,111109,2,0,L|392:116,2,45,2|2|2,0:2|0:2|0:2,0:0:0:0:
300,188,111570,1,2,0:2:0:0:
188,340,111801,6,0,P|124:304|192:232,1,180,2|2,0:2|0:2,0:0:0:0:
260,224,112493,1,2,0:2:0:0:
304,224,112609,6,0,L|136:224,1,135,2|2,0:2|0:2,0:0:0:0:
80,228,113185,1,2,0:2:0:0:
296,236,113647,6,0,L|304:136,1,89.9999999999999,2|2,0:2|0:2,0:0:0:0:
212,144,114109,2,0,L|192:44,1,89.9999999999999,2|2,0:2|0:2,0:0:0:0:
400,164,114570,6,0,L|400:64,1,89.9999999999999,4|0,3:2|3:2,0:0:0:0:
356,76,114916,1,0,0:0:0:0:
312,76,115032,1,4,3:2:0:0:
400,72,115262,1,0,3:2:0:0:
196,328,115493,5,6,3:2:0:0:
152,328,115609,2,0,L|144:256,1,45,2|2,3:2|3:2,0:0:0:0:
236,280,115955,1,2,3:2:0:0:
324,280,116185,1,2,3:2:0:0:
368,284,116301,6,0,P|392:240|316:164,1,135,2|2,3:2|3:2,0:0:0:0:
264,172,116878,2,0,L|388:172,1,89.9999999999999,2|0,3:2|3:2,0:0:0:0:
156,180,117339,6,0,L|144:56,1,89.9999999999999,2|2,3:2|3:2,0:0:0:0:
236,84,117801,1,2,3:2:0:0:
148,88,118032,1,2,3:2:0:0:
103,84,118147,1,0,3:2:0:0:
58,81,118262,5,2,3:2:0:0:
148,88,118493,2,0,L|220:88,2,45,2|2|2,3:2|3:2|3:2,0:0:0:0:
58,81,118955,1,2,3:2:0:0:
260,364,119185,6,0,P|280:304|272:248,1,89.9999999999999,14|8,3:2|3:2,0:0:0:0:
192,260,119647,2,0,L|80:260,1,89.9999999999999,10|10,3:2|3:2,0:0:0:0:
148,260,119993,6,0,L|312:260,1,135,2|10,3:2|3:2,0:0:0:0:
192,260,120570,2,0,L|172:152,1,89.9999999999999,10|8,3:2|3:2,0:0:0:0:
376,160,121032,6,0,L|384:40,1,89.9999999999999,10|10,3:2|3:2,0:0:0:0:
292,72,121493,1,10,3:2:0:0:
204,80,121724,6,0,L|196:20,1,45,10|2,3:2|3:2,0:0:0:0:
288,24,122070,2,0,L|352:24,1,45,0|8,3:2|3:2,0:0:0:0:
244,24,122416,1,2,0:2:0:0:
152,28,122647,1,2,3:2:0:0:
352,360,122878,5,6,3:2:0:0:
440,360,123108,1,2,3:2:0:0:
440,268,123339,1,2,3:2:0:0:
348,264,123570,1,2,3:2:0:0:
248,192,123801,6,0,L|368:192,1,89.9999999999999,2|2,3:2|3:2,0:0:0:0:
384,188,124147,1,2,3:2:0:0:
476,188,124378,2,0,L|420:188,1,45,0|2,3:2|3:2,0:0:0:0:
232,308,124724,6,0,P|212:256|216:184,1,89.9999999999999,2|2,3:2|3:2,0:0:0:0:
300,212,125185,2,0,L|288:80,1,89.9999999999999,2|2,3:2|3:2,0:0:0:0:
200,132,125647,6,0,L|192:60,1,45,2|2,3:2|3:2,0:0:0:0:
284,84,125993,2,0,L|396:84,1,89.9999999999999,2|0,3:2|3:2,0:0:0:0:
420,84,126339,1,2,3:2:0:0:
224,356,126570,6,0,L|236:244,1,89.9999999999999,14|10,3:2|3:2,0:0:0:0:
324,264,127032,2,0,L|324:164,1,89.9999999999999,10|10,3:2|3:2,0:0:0:0:
124,212,127493,6,0,L|20:212,1,89.9999999999999,10|10,3:2|3:2,0:0:0:0:
88,172,127839,1,2,3:2:0:0:
180,172,128070,2,0,L|252:176,1,45,0|10,3:2|3:2,0:0:0:0:
424,356,128416,6,0,L|440:268,1,89.9999999999999,8|8,3:2|3:2,0:0:0:0:
348,260,128878,2,0,L|472:260,1,89.9999999999999,8|8,3:2|3:2,0:0:0:0:
236,212,129339,6,0,P|228:164|244:116,1,89.9999999999999,8|2,3:2|3:2,0:0:0:0:
284,124,129685,1,0,3:2:0:0:
328,124,129801,2,0,L|448:124,1,89.9999999999999,2|2,3:2|3:2,0:0:0:0:
224,360,130262,5,6,3:2:0:0:
128,360,130492,1,2,3:2:0:0:
128,264,130723,1,2,3:2:0:0:
224,260,130954,1,2,3:2:0:0:
408,216,131185,6,0,L|460:216,2,47.2499985580444,2|2|2,3:2|3:2|3:2,0:0:0:0:
360,216,131532,2,0,L|248:216,1,94.4999971160888,2|0,3:2|3:2,0:0:0:0:
220,216,131878,1,2,3:2:0:0:
416,180,132109,5,2,3:2:0:0:
488,116,132339,1,2,3:2:0:0:
444,32,132570,1,2,3:2:0:0:
348,28,132801,1,2,3:2:0:0:
156,356,133032,6,0,L|152:296,1,47.2499985580444,2|2,3:2|3:2,0:0:0:0:
200,308,133262,1,2,3:2:0:0:
248,308,133378,2,0,L|368:308,1,94.4999971160888,2|0,3:2|3:2,0:0:0:0:
296,308,133724,1,2,3:2:0:0:
100,240,133955,6,0,P|92:176|108:132,1,94.4999971160888,6|2,3:2|3:2,0:0:0:0:
196,148,134416,2,0,L|68:148,1,94.4999971160888,2|2,3:2|3:2,0:0:0:0:
296,88,134878,6,0,L|304:32,1,47.2499985580444,2|2,3:2|3:2,0:0:0:0:
256,44,135109,1,2,3:2:0:0:
208,40,135224,2,0,L|72:40,1,94.4999971160888,2|0,3:2|3:2,0:0:0:0:
160,40,135570,1,2,3:2:0:0:
348,348,135801,6,0,L|452:348,1,94.4999971160888,2|0,3:2|3:2,0:0:0:0:
492,348,136147,1,0,3:2:0:0:
442,348,136262,2,0,L|332:348,1,94.4999971160888,0|2,3:2|3:2,0:0:0:0:
156,352,136724,5,2,3:2:0:0:
109,346,136839,1,0,3:2:0:0:
74,316,136954,1,2,3:2:0:0:
61,271,137070,1,0,3:2:0:0:
74,226,137185,1,2,3:2:0:0:
110,197,137300,1,0,3:2:0:0:
156,191,137416,1,2,3:2:0:0:
356,276,137647,6,0,P|408:240|328:168,1,180,4|0,3:2|0:0,0:0:0:0:
172,152,138570,5,8,3:2:0:0:
308,156,138916,2,0,P|336:100|288:36,1,135,0|0,3:2|3:2,0:0:0:0:
104,344,139493,6,0,P|212:236|368:360,1,360,4|8,3:2|0:3,0:0:0:0:
364,288,140647,6,0,L|364:184,2,89.9999999999999,8|8|8,0:3|0:3|0:3,0:0:0:0:
164,332,141339,6,0,P|88:308|104:208,1,180,6|2,3:2|0:2,0:0:0:0:
136,212,141916,1,2,0:2:0:0:
288,160,142262,6,0,L|96:152,1,180,6|2,3:2|0:2,0:0:0:0:
64,152,142839,1,2,0:2:0:0:
312,364,143185,6,0,P|400:352|456:280,1,180,6|6,3:2|3:2,0:0:0:0:
408,288,143762,1,6,3:2:0:0:
212,300,143993,6,0,L|84:300,1,89.9999999999999,2|2,3:2|3:2,0:0:0:0:
76,304,144339,1,2,3:2:0:0:
168,300,144570,2,0,L|276:300,1,89.9999999999999,2|2,3:2|3:2,0:0:0:0:
460,176,145032,6,0,L|468:64,1,89.9999999999999,4|2,3:2|3:2,0:0:0:0:
376,84,145493,1,6,3:2:0:0:
420,82,145608,1,2,3:2:0:0:
465,80,145723,1,0,3:2:0:0:
264,356,145955,6,0,L|260:240,1,89.9999999999999,4|2,3:2|3:2,0:0:0:0:
352,256,146416,1,6,3:2:0:0:
355,211,146531,1,2,3:2:0:0:
358,166,146646,1,0,3:2:0:0:
160,172,146878,6,0,L|56:172,2,89.9999999999999,6|2|6,3:2|3:2|3:2,0:0:0:0:
204,172,147455,1,6,3:2:0:0:
396,312,147685,6,0,L|396:212,1,89.9999999999999,2|2,3:2|3:2,0:0:0:0:
352,228,148032,2,0,L|196:228,1,135,6|6,3:2|3:2,0:0:0:0:
464,152,148724,5,4,3:2:0:0:
256,192,149070,12,0,153224,0:0:0:0:
