osu file format v14

[General]
AudioFilename: audio.mp3
AudioLeadIn: 0
PreviewTime: 48121
Countdown: 0
SampleSet: Soft
StackLeniency: 0.7
Mode: 2
LetterboxInBreaks: 0
WidescreenStoryboard: 1

[Editor]
Bookmarks: 69813,82274
DistanceSpacing: 1
BeatDivisor: 4
GridSize: 4
TimelineZoom: 3.999998

[Metadata]
Title:Cross The Finish Line [feat. Nanahira]
TitleUnicode:Cross The Finish Line [feat. ななひら]
Artist:Kobaryo
ArtistUnicode:Kobaryo
Creator:Kukkai
Version:Overdose
Source:
Tags:secre chickenbible jbhyperion jbh gabba gabber hardcore j-core speedcore 古葉玲 Psycho Filth Records Candy speed pops japanese electronic instrumental FA Featured Artist mappers' guild mpg mg
BeatmapID:4239431
BeatmapSetID:2012659

[Difficulty]
HPDrainRate:5
CircleSize:4
OverallDifficulty:9.4
ApproachRate:9.4
SliderMultiplier:1.5
SliderTickRate:1

[Events]
//Background and Video events
0,0,"65092327_p0.jpg",0,0
//Break Periods
2,82462,88184
//Storyboard Layer 0 (Background)
//Storyboard Layer 1 (Fail)
//Storyboard Layer 2 (Pass)
//Storyboard Layer 3 (Foreground)
//Storyboard Layer 4 (Overlay)
//Storyboard Sound Samples

[TimingPoints]
109,230.769230769231,4,2,1,70,1,0
4724,-100,4,2,1,80,0,0
12109,-100,4,2,1,60,0,0
15801,-111.111111111111,4,2,2,60,0,0
23185,-100,4,2,1,65,0,0
30570,-100,4,2,1,70,0,0
37955,-100,4,2,2,60,0,0
41647,-100,4,2,1,70,0,0
48109,-100,4,2,1,60,0,0
49032,-100,4,2,1,80,0,1
71185,-100,4,2,1,60,0,0
73955,-100,4,2,1,60,0,0
82262,-100,4,2,1,50,0,0
89647,-111.111111111111,4,2,2,50,0,0
108109,-100,4,2,2,50,0,0
114570,-100,4,2,1,70,0,0
115493,-100,4,2,1,80,0,1
130262,-100,4,2,1,80,0,1
137647,-100,4,2,1,80,0,0
148724,-100,4,2,1,80,0,0
149647,-100,4,2,1,70,0,0
150570,-100,4,2,1,60,0,0
151493,-100,4,2,1,50,0,0
152416,-100,4,2,1,40,0,0
153224,-100,4,2,1,30,0,0

[Colours]
Combo1 : 0,0,249
Combo2 : 9,255,255
Combo3 : 255,186,153

[HitObjects]
292,296,109,6,0,L|460:296,3,150,8|8|8|8,0:3|0:3|0:3|0:3,0:0:0:0:
136,256,1032,6,0,P|92:216|152:152,1,150,6|2,3:2|3:2,0:0:0:0:
284,160,1493,1,2,0:2:0:0:
208,160,1609,2,0,L|392:160,1,150,2|0,0:2|0:0,0:0:0:0:
180,104,1955,6,0,L|24:104,1,150,6|2,3:2|3:2,0:0:0:0:
180,100,2416,1,2,0:2:0:0:
256,100,2532,2,0,L|92:100,1,150,2|0,0:2|0:0,0:0:0:0:
324,360,2878,6,0,P|368:320|308:260,1,150,6|2,3:2|3:2,0:0:0:0:
248,260,3224,1,2,0:2:0:0:
52,260,3339,1,6,3:2:0:0:
240,200,3455,2,0,L|336:200,1,75,6|0,3:2|3:2,0:0:0:0:
92,212,3685,6,0,P|56:160|116:100,1,150,2|2,3:2|3:2,0:0:0:0:
300,104,4032,2,0,L|300:16,1,75,2|0,3:2|3:2,0:0:0:0:
76,296,4262,2,0,L|208:296,1,112.5,2|0,3:2|3:2,0:0:0:0:
152,296,4493,2,0,L|16:296,1,112.5,2|0,3:2|0:0,0:0:0:0:
236,232,4724,6,0,L|236:156,1,75,6|0,3:2|0:0,0:0:0:0:
160,160,4955,2,0,L|160:68,1,75,2|0,3:2|0:0,0:0:0:0:
360,80,5185,2,0,L|456:80,2,75,2|2|2,3:2|0:2|3:2,0:0:0:0:
160,332,5532,6,0,L|332:332,1,150,2|2,0:2|0:2,0:0:0:0:
384,336,5878,2,0,L|300:336,1,75,2|2,3:2|0:2,0:0:0:0:
120,276,6109,2,0,L|32:276,2,75,2|2|2,3:2|0:2|3:2,0:0:0:0:
296,280,6455,1,2,3:2:0:0:
120,280,6570,6,0,L|120:184,1,75,2|0,3:2|0:0,0:0:0:0:
196,208,6801,2,0,L|288:208,1,75,2|0,3:2|0:0,0:0:0:0:
80,148,7032,2,0,L|-8:148,2,75,2|2|2,3:2|0:2|3:2,0:0:0:0:
276,360,7378,6,0,L|448:360,1,150,2|2,0:2|0:2,0:0:0:0:
352,360,7724,2,0,L|440:360,1,75,2|2,3:2|0:2,0:0:0:0:
228,296,7955,2,0,L|228:204,1,75,2|2,3:2|3:2,0:0:0:0:
264,220,8128,1,0,3:2:0:0:
300,220,8185,1,2,3:2:0:0:
376,220,8301,1,2,3:2:0:0:
184,168,8416,6,0,L|100:168,1,75,6|0,3:2|0:0,0:0:0:0:
184,168,8647,2,0,L|284:168,1,75,2|0,3:2|0:0,0:0:0:0:
64,120,8878,2,0,L|64:24,1,75,2|2,3:2|0:2,0:0:0:0:
140,48,9109,1,2,3:2:0:0:
340,268,9224,6,0,L|172:268,1,150,2|2,0:2|0:2,0:0:0:0:
116,268,9570,2,0,L|212:268,1,75,2|2,3:2|0:2,0:0:0:0:
384,196,9801,2,0,L|484:196,2,75,2|2|2,3:2|0:2|3:2,0:0:0:0:
188,200,10147,1,2,3:2:0:0:
384,144,10262,6,0,L|384:44,1,75,2|2,3:2|0:2,0:0:0:0:
308,72,10493,1,2,3:2:0:0:
384,69,10609,2,0,L|488:68,2,75,2|0|2,0:2|0:0|0:2,0:0:0:0:
180,344,10955,2,0,L|88:344,1,75,2|2,3:2|0:2,0:0:0:0:
296,248,11185,6,0,L|404:248,1,75,2|0,3:2|0:0,0:0:0:0:
448,244,11416,2,0,L|340:244,1,75,0|0,3:2|0:0,0:0:0:0:
184,188,11647,2,0,L|92:188,1,75,2|0,3:2|0:0,0:0:0:0:
109,188,11878,2,0,L|204:188,1,75,0|0,0:0|0:0,0:0:0:0:
408,184,12109,5,4,3:2:0:0:
260,188,12339,2,0,P|232:112|288:48,1,150,2|2,0:2|3:2,0:0:0:0:
416,52,12801,1,0,0:0:0:0:
341,52,12916,1,0,3:2:0:0:
220,104,13032,5,2,3:2:0:0:
370,104,13262,2,0,P|402:164|374:260,1,150,2|0,0:2|3:2,0:0:0:0:
238,248,13724,1,0,0:0:0:0:
313,248,13839,1,0,3:2:0:0:
434,196,13954,5,0,3:2:0:0:
284,196,14185,2,0,L|108:196,1,150,2|0,0:2|3:2,0:0:0:0:
284,196,14647,2,0,L|284:92,1,75,2|0,0:2|3:2,0:0:0:0:
96,124,14878,6,0,L|96:40,1,75,0|0,3:2|3:2,0:0:0:0:
288,272,15109,1,0,3:2:0:0:
324,272,15166,1,0,3:2:0:0:
360,272,15224,1,0,3:2:0:0:
324,272,15282,1,0,3:2:0:0:
184,248,15339,2,0,P|132:232|200:120,1,225,2|0,0:2|0:0,0:0:0:0:
392,360,15801,6,0,L|396:216,1,134.999995880127,4|0,1:2|0:0,0:0:0:0:
260,220,16262,2,0,L|416:220,1,134.999995880127,8|0,0:2|0:0,0:0:0:0:
328,220,16609,6,0,P|264:176|340:100,1,202.499993820191,0|0,0:0|1:2,0:0:0:0:
464,100,17185,2,0,L|472:240,1,134.999995880127,8|0,0:2|0:0,0:0:0:0:
304,272,17647,6,0,L|144:272,2,134.999995880127,0|0|8,1:2|0:0|0:2,0:0:0:0:
168,308,18339,1,0,0:0:0:0:
108,268,18455,6,0,P|84:192|176:120,1,202.499993820191,0|0,0:0|1:2,0:0:0:0:
308,112,19032,2,0,L|148:112,1,134.999995880127,8|0,0:2|0:0,0:0:0:0:
348,284,19493,6,0,P|364:228|336:152,1,134.999995880127,0|0,1:2|1:2,0:0:0:0:
204,156,19955,2,0,L|344:156,1,134.999995880127,8|0,0:2|0:0,0:0:0:0:
272,156,20301,6,0,L|44:156,1,202.499993820191,0|0,0:0|1:2,0:0:0:0:
204,160,20878,2,0,L|204:304,1,134.999995880127,8|0,0:2|0:0,0:0:0:0:
28,300,21339,6,0,L|168:300,2,134.999995880127,0|0|8,1:2|0:0|0:2,0:0:0:0:
176,216,22032,5,0,0:0:0:0:
244,216,22147,2,0,L|36:216,1,202.499993820191,0|0,0:0|1:2,0:0:0:0:
176,216,22724,2,0,L|32:216,1,134.999995880127,8|0,0:2|0:0,0:0:0:0:
340,144,23185,6,0,L|440:144,1,75,4|0,3:2|3:2,0:0:0:0:
340,144,23416,2,0,L|172:144,1,150,0|0,3:2|3:2,0:0:0:0:
152,144,23705,1,0,0:0:0:0:
152,108,23762,1,0,0:0:0:0:
188,108,23820,1,0,0:0:0:0:
224,108,23878,2,0,L|332:108,1,75,0|0,0:0|0:0,0:0:0:0:
124,348,24109,6,0,L|124:252,1,75,4|0,3:2|3:2,0:0:0:0:
200,276,24339,2,0,L|376:276,1,150,0|0,3:2|3:2,0:0:0:0:
312,276,24628,1,0,0:0:0:0:
276,276,24685,1,0,0:0:0:0:
240,276,24743,1,0,0:0:0:0:
200,276,24801,2,0,L|200:176,1,75,0|0,0:0|0:0,0:0:0:0:
388,196,25032,6,0,L|488:196,1,75,4|0,3:2|3:0,0:0:0:0:
388,196,25262,2,0,L|232:196,1,150,0|0,3:0|3:0,0:0:0:0:
276,196,25551,1,0,0:0:0:0:
312,196,25609,1,0,0:0:0:0:
348,196,25666,1,0,0:0:0:0:
388,196,25724,2,0,L|388:100,1,75,0|0,0:0|0:0,0:0:0:0:
164,120,25955,6,0,L|64:120,1,75,4|0,3:2|3:0,0:0:0:0:
164,120,26185,2,0,L|316:120,1,150,0|0,3:0|3:0,0:0:0:0:
352,120,26474,1,0,0:0:0:0:
352,84,26532,1,0,0:0:0:0:
316,84,26589,1,0,0:0:0:0:
280,84,26647,2,0,L|176:84,1,75,0|0,0:0|0:0,0:0:0:0:
412,356,26878,6,0,L|412:272,1,75,4|0,3:2|3:0,0:0:0:0:
336,288,27109,2,0,P|292:260|356:200,1,150,0|0,3:0|3:0,0:0:0:0:
376,196,27397,1,0,0:0:0:0:
412,196,27455,1,0,0:0:0:0:
448,196,27512,1,0,0:0:0:0:
484,196,27570,1,0,0:0:0:0:
412,196,27685,1,0,0:0:0:0:
188,356,27801,6,0,L|188:272,1,75,4|0,3:2|3:2,0:0:0:0:
264,288,28032,2,0,P|308:260|244:200,1,150,0|0,3:2|3:2,0:0:0:0:
224,196,28320,1,0,0:0:0:0:
188,196,28378,1,0,0:0:0:0:
152,196,28435,1,0,0:0:0:0:
116,196,28493,1,0,0:0:0:0:
188,196,28608,1,0,0:0:0:0:
412,300,28724,6,0,P|464:292|392:200,1,225,4|0,3:2|3:2,0:0:0:0:
192,136,29185,2,0,L|348:136,1,150,4|0,3:2|3:2,0:0:0:0:
420,136,29532,1,0,3:2:0:0:
220,324,29647,6,0,L|220:216,1,75,4|0,3:2|3:2,0:0:0:0:
296,252,29878,2,0,L|380:252,1,75,0|0,3:2|3:2,0:0:0:0:
180,192,30109,6,0,L|100:192,1,75,0|0,3:2|3:2,0:0:0:0:
292,192,30339,1,0,3:2:0:0:
308,184,30368,1,0,3:2:0:0:
320,169,30396,1,0,3:2:0:0:
323,151,30425,1,0,3:2:0:0:
318,133,30454,1,0,3:2:0:0:
305,120,30483,1,0,3:2:0:0:
287,115,30512,1,0,3:2:0:0:
136,116,30570,6,0,L|136:24,1,75,6|0,3:2|0:0,0:0:0:0:
212,44,30801,2,0,L|312:44,1,75,2|0,3:2|0:0,0:0:0:0:
92,288,31032,2,0,L|188:288,2,75,2|2|2,3:2|0:2|3:2,0:0:0:0:
304,292,31378,6,0,P|336:248|280:176,1,150,2|2,0:2|0:2,0:0:0:0:
212,180,31724,2,0,L|212:92,1,75,2|2,3:2|0:2,0:0:0:0:
416,104,31955,2,0,L|496:104,2,75,2|2|2,3:2|0:2|3:2,0:0:0:0:
212,96,32301,1,2,3:2:0:0:
416,104,32416,6,0,L|416:200,1,75,2|0,3:2|0:0,0:0:0:0:
340,180,32647,2,0,L|432:180,1,75,2|0,3:2|0:0,0:0:0:0:
200,336,32878,2,0,L|120:336,2,75,2|2|2,3:2|0:2|3:2,0:0:0:0:
416,256,33224,6,0,L|248:256,1,150,2|2,0:2|0:2,0:0:0:0:
340,260,33570,2,0,L|340:168,1,75,2|2,3:2|0:2,0:0:0:0:
124,132,33801,2,0,L|228:132,1,75,2|2,3:2|3:2,0:0:0:0:
236,132,33974,1,0,3:2:0:0:
272,132,34032,1,2,3:2:0:0:
348,132,34147,1,2,3:2:0:0:
140,256,34262,6,0,L|40:256,1,75,14|0,3:2|3:2,0:0:0:0:
276,196,34493,2,0,L|376:196,1,75,10|0,3:2|3:2,0:0:0:0:
144,152,34724,2,0,L|48:152,2,75,10|2|10,3:2|3:2|3:2,0:0:0:0:
352,116,35070,5,2,3:2:0:0:
277,116,35185,1,8,3:2:0:0:
202,116,35300,1,2,3:2:0:0:
408,64,35416,2,0,L|488:64,1,75,10|2,3:2|3:2,0:0:0:0:
284,360,35647,2,0,L|284:268,1,75,10|2,3:2|3:2,0:0:0:0:
464,288,35878,2,0,L|464:196,1,75,10|2,3:2|3:2,0:0:0:0:
236,208,36109,6,0,L|132:208,2,75,10|2|10,3:2|3:2|3:2,0:0:0:0:
272,208,36397,1,0,3:2:0:0:
424,160,36455,2,0,L|480:160,2,37.5,2|0|8,3:2|3:2|3:2,0:0:0:0:
348,160,36685,1,2,3:2:0:0:
144,164,36801,2,0,L|92:164,1,37.5,10|0,3:2|3:2,0:0:0:0:
68,164,36916,2,0,L|124:164,1,37.5,2|0,3:2|3:2,0:0:0:0:
288,360,37032,6,0,L|288:256,1,75,10|0,3:2|3:2,0:0:0:0:
244,288,37205,1,0,3:2:0:0:
200,288,37262,2,0,L|200:184,1,75,8|0,3:2|3:2,0:0:0:0:
416,200,37493,6,0,L|500:200,1,75,2|0,3:2|3:2,0:0:0:0:
288,144,37724,2,0,L|184:144,1,75,2|0,3:2|3:2,0:0:0:0:
416,144,37955,5,4,3:2:0:0:
200,360,38416,2,0,P|160:328|216:256,1,150,0|0,0:0|3:2,0:0:0:0:
352,252,38878,6,0,L|48:252,1,300,0|8,3:2|3:2,0:0:0:0:
352,260,39801,6,0,P|440:192|320:72,1,300,0|0,3:2|0:0,0:0:0:0:
196,64,40493,1,0,3:2:0:0:
348,60,40724,6,0,L|348:220,1,150,0|0,3:2|3:2,0:0:0:0:
164,360,41185,2,0,L|408:216,1,262.5,2|0,0:2|0:0,0:0:0:0:
228,224,41647,6,0,L|120:224,1,75,6|0,3:2|0:0,0:0:0:0:
228,224,41878,2,0,L|320:224,1,75,2|0,3:2|0:0,0:0:0:0:
120,168,42109,2,0,L|120:84,1,75,2|0,3:2|0:0,0:0:0:0:
316,96,42339,2,0,L|396:96,1,75,2|0,3:2|0:0,0:0:0:0:
480,96,42570,6,0,L|376:96,1,75,0|0,3:2|0:0,0:0:0:0:
212,368,42801,2,0,L|212:288,1,75,2|0,3:2|0:0,0:0:0:0:
288,296,43032,2,0,L|384:296,1,75,0|0,3:2|0:0,0:0:0:0:
164,228,43262,2,0,L|68:228,1,75,2|0,3:2|0:0,0:0:0:0:
304,188,43493,6,0,L|304:88,1,75,0|0,3:2|0:0,0:0:0:0:
228,116,43724,2,0,L|228:24,1,75,0|0,3:2|0:0,0:0:0:0:
304,44,43955,2,0,L|392:44,1,75,0|0,3:2|0:0,0:0:0:0:
172,272,44185,2,0,L|84:272,1,75,2|0,3:2|0:2,0:0:0:0:
300,256,44416,6,0,L|300:148,1,75,2|0,3:2|0:0,0:0:0:0:
224,172,44647,2,0,L|224:76,1,75,2|0,3:2|0:0,0:0:0:0:
416,96,44878,2,0,L|504:96,1,75,2|0,3:2|0:0,0:0:0:0:
416,96,45109,2,0,L|316:96,1,75,2|0,3:2|0:0,0:0:0:0:
136,360,45339,5,12,3:2:0:0:
211,360,45454,1,0,3:2:0:0:
286,360,45569,1,8,3:2:0:0:
361,360,45685,1,0,3:2:0:0:
286,360,45801,2,0,L|195:360,1,75,8|0,3:2|3:2,0:0:0:0:
424,264,46032,2,0,L|424:168,1,75,8|0,3:2|3:2,0:0:0:0:
212,176,46262,6,0,L|132:176,1,75,8|0,3:2|3:2,0:0:0:0:
212,176,46493,2,0,L|312:176,1,75,8|0,3:2|3:2,0:0:0:0:
96,96,46724,2,0,L|96:180,1,75,8|0,3:2|3:2,0:0:0:0:
172,172,46955,2,0,L|88:172,1,75,8|0,3:2|3:2,0:0:0:0:
300,356,47185,6,0,P|392:336|272:52,1,525,4|0,3:2|0:0,0:0:0:0:
180,208,48109,6,0,L|444:208,1,262.5,2|0,0:2|0:0,0:0:0:0:
404,208,48570,2,0,L|264:208,1,112.5,2|0,0:2|0:0,0:0:0:0:
448,168,48801,2,0,P|480:120|424:88,1,112.5,8|0,0:1|0:0,0:0:0:0:
292,292,49032,6,0,L|200:292,1,75,6|2,3:2|0:2,0:0:0:0:
428,292,49262,2,0,L|428:188,1,75,2|0,3:2|0:0,0:0:0:0:
196,172,49493,1,2,3:2:0:0:
271,172,49608,1,0,0:0:0:0:
346,172,49723,1,2,3:2:0:0:
136,156,49839,6,0,L|48:156,2,75,2|0|2,0:2|3:2|0:2,0:0:0:0:
348,320,50185,2,0,L|456:320,1,75,2|0,3:2|0:0,0:0:0:0:
212,324,50416,2,0,L|312:324,1,75,2|0,3:2|0:0,0:0:0:0:
368,256,50647,2,0,L|368:148,1,75,0|0,3:2|0:0,0:0:0:0:
160,348,50878,6,0,L|64:348,1,75,2|0,3:2|0:0,0:0:0:0:
296,348,51109,2,0,L|384:348,1,75,2|0,3:2|0:0,0:0:0:0:
160,208,51339,2,0,L|244:208,1,75,2|2,3:2|0:2,0:0:0:0:
160,208,51570,2,0,L|72:208,1,75,2|0,3:2|0:0,0:0:0:0:
296,144,51801,6,0,L|400:144,3,75,2|0|2|2,3:2|0:0|3:2|0:2,0:0:0:0:
156,336,52262,2,0,L|156:232,1,75,2|0,3:2|0:0,0:0:0:0:
368,264,52493,2,0,L|456:264,1,75,2|0,3:2|0:0,0:0:0:0:
232,192,52724,6,0,L|232:88,1,75,6|0,3:2|0:0,0:0:0:0:
308,112,52955,2,0,L|396:112,1,75,0|0,3:2|0:0,0:0:0:0:
172,248,53185,1,2,3:2:0:0:
247,248,53300,1,0,0:0:0:0:
322,248,53415,1,2,3:2:0:0:
92,252,53532,6,0,L|16:252,2,75,2|0|2,0:2|3:2|0:2,0:0:0:0:
304,248,53878,2,0,L|396:248,1,75,2|0,3:2|0:0,0:0:0:0:
168,184,54109,2,0,L|72:184,1,75,2|0,3:2|0:0,0:0:0:0:
20,184,54339,2,0,L|128:184,1,75,0|0,3:2|0:0,0:0:0:0:
328,360,54570,6,0,L|328:260,1,75,2|0,3:2|0:0,0:0:0:0:
248,288,54801,2,0,L|348:288,1,75,2|0,3:2|0:0,0:0:0:0:
112,292,55032,2,0,L|28:292,2,75,2|0|2,3:2|0:0|3:2,0:0:0:0:
328,216,55378,1,2,0:2:0:0:
128,220,55493,6,0,P|100:180|148:128,1,112.5,0|0,3:0|3:0,0:0:0:0:
168,132,55724,2,0,L|40:132,1,112.5,0|0,3:0|3:0,0:0:0:0:
220,364,55955,2,0,P|320:354|397:237,1,225,0|0,3:0|3:0,0:0:0:0:
184,272,56416,6,0,L|284:272,1,75,6|2,3:2|3:2,0:0:0:0:
48,272,56647,2,0,L|48:172,1,75,2|0,3:2|0:0,0:0:0:0:
260,200,56878,2,0,L|364:200,1,75,2|0,3:2|0:0,0:0:0:0:
124,200,57109,1,2,3:2:0:0:
335,200,57224,6,0,L|335:304,1,75,2|0,3:2|0:0,0:0:0:0:
256,280,57455,1,2,3:2:0:0:
464,284,57570,2,0,L|464:208,1,75,2|0,3:2|0:0,0:0:0:0:
252,208,57801,2,0,L|148:208,1,75,2|0,3:2|3:2,0:0:0:0:
412,208,58032,2,0,L|480:208,1,37.5,0|0,3:2|3:2,0:0:0:0:
444,208,58147,2,0,L|400:208,1,37.5,0|0,3:2|3:2,0:0:0:0:
240,152,58262,6,0,L|152:152,1,75,2|0,3:2|0:0,0:0:0:0:
376,148,58493,2,0,L|376:72,1,75,2|0,3:2|0:0,0:0:0:0:
152,300,58724,2,0,L|64:300,1,75,2|0,3:2|0:0,0:0:0:0:
152,300,58955,2,0,L|236:300,1,75,2|0,3:2|3:2,0:0:0:0:
436,304,59185,6,0,L|436:208,1,75,2|0,3:2|0:0,0:0:0:0:
360,216,59416,2,0,L|444:216,1,75,2|2,3:2|3:2,0:0:0:0:
224,220,59647,2,0,L|140:220,1,75,2|0,3:2|0:0,0:0:0:0:
364,88,59878,2,0,L|452:88,1,75,2|0,3:2|3:2,0:0:0:0:
216,264,60109,6,0,L|216:180,1,75,6|0,3:2|0:0,0:0:0:0:
292,188,60339,2,0,L|376:188,1,75,0|0,3:2|0:0,0:0:0:0:
156,200,60570,2,0,L|76:200,1,75,2|0,3:2|0:0,0:0:0:0:
296,68,60801,1,2,3:2:0:0:
100,140,60916,6,0,L|8:140,2,75,2|0|2,3:2|0:0|3:2,0:0:0:0:
288,352,61262,2,0,L|288:268,1,75,2|0,3:2|0:0,0:0:0:0:
480,176,61493,2,0,L|384:176,1,75,2|0,3:2|3:2,0:0:0:0:
328,176,61724,2,0,L|424:176,1,75,0|0,3:2|0:0,0:0:0:0:
188,180,61955,6,0,L|188:96,1,75,2|0,3:2|3:2,0:0:0:0:
400,104,62185,2,0,L|484:104,1,75,2|0,3:2|0:0,0:0:0:0:
264,272,62416,2,0,L|184:272,1,75,2|0,3:2|0:0,0:0:0:0:
400,276,62647,1,2,3:2:0:0:
189,272,62762,6,0,L|108:272,2,75,2|0|0,3:2|0:0|3:2,0:0:0:0:
280,268,63109,2,0,L|280:172,1,75,0|0,3:2|0:0,0:0:0:0:
72,172,63339,2,0,L|72:84,1,75,2|0,0:2|0:0,0:0:0:0:
280,76,63570,2,0,L|368:76,1,75,2|0,0:2|0:0,0:0:0:0:
144,264,63801,6,0,L|44:264,3,75,6|2|2|2,3:2|3:2|3:2|3:2,0:0:0:0:
280,256,64262,2,0,L|356:256,3,75,2|2|2|2,3:2|3:2|3:2|3:2,0:0:0:0:
128,144,64724,6,0,L|224:144,2,75,2|2|2,3:2|3:2|3:2,0:0:0:0:
340,144,65070,2,0,P|380:112|324:44,1,150,2|0,3:2|3:2,0:0:0:0:
128,88,65416,2,0,L|128:176,1,75,2|0,3:2|0:0,0:0:0:0:
352,280,65647,6,0,L|452:280,3,75,2|2|2|2,3:2|3:2|3:2|3:2,0:0:0:0:
216,280,66108,2,0,L|140:280,3,75,2|0|2|2,3:2|0:0|3:2|3:2,0:0:0:0:
368,160,66570,5,2,3:2:0:0:
160,168,66685,2,0,L|252:168,1,75,2|2,3:2|3:2,0:0:0:0:
468,160,66916,2,0,L|468:4,1,150,2|0,3:2|3:2,0:0:0:0:
256,64,67262,2,0,L|156:64,1,75,2|0,3:2|0:0,0:0:0:0:
392,288,67493,6,0,L|488:288,1,75,14|2,3:2|3:2,0:0:0:0:
240,288,67724,2,0,L|132:288,1,75,10|2,3:2|3:2,0:0:0:0:
392,232,67955,2,0,L|480:232,1,75,10|0,3:2|0:0,0:0:0:0:
244,228,68185,2,0,L|136:228,1,75,10|2,3:2|3:2,0:0:0:0:
392,96,68416,6,0,L|488:96,2,75,10|2|10,3:2|3:2|3:2,0:0:0:0:
196,292,68762,2,0,L|368:292,1,150,2|0,3:2|3:2,0:0:0:0:
116,292,69109,2,0,L|12:292,1,75,10|0,3:2|3:2,0:0:0:0:
280,208,69339,6,0,L|280:112,1,75,8|0,3:2|3:2,0:0:0:0:
244,132,69512,1,0,3:2:0:0:
204,132,69570,2,0,L|204:32,1,75,8|0,3:2|3:2,0:0:0:0:
280,60,69801,2,0,L|376:60,1,75,8|0,3:2|3:2,0:0:0:0:
128,56,70032,2,0,L|48:56,1,75,8|0,3:2|3:2,0:0:0:0:
288,200,70262,6,0,L|392:200,1,75,8|0,3:2|3:2,0:0:0:0:
400,200,70435,1,0,3:2:0:0:
364,200,70493,2,0,L|256:200,1,75,8|0,3:2|3:2,0:0:0:0:
496,204,70724,2,0,L|496:108,1,75,8|0,3:2|3:2,0:0:0:0:
272,112,70955,2,0,L|376:112,1,75,8|0,3:2|3:2,0:0:0:0:
140,356,71185,6,0,P|68:328|168:188,1,300,4|0,3:2|0:0,0:0:0:0:
300,176,71878,1,0,0:0:0:0:
100,176,72109,6,0,L|320:88,2,225,8|0|0,3:2|3:2|3:2,0:0:0:0:
484,344,73032,6,0,P|292:156|108:356,1,600,4|8,3:2|0:3,0:0:0:0:
256,344,74185,2,0,L|256:180,1,150,8|8,0:3|0:3,0:0:0:0:
104,192,74647,1,8,0:3:0:0:
416,192,74878,6,0,L|256:192,1,150,6|2,3:2|3:2,0:0:0:0:
416,192,75339,1,2,0:2:0:0:
492,196,75455,2,0,L|492:32,1,150,2|0,0:2|0:0,0:0:0:0:
304,312,75801,6,0,L|128:312,1,150,6|2,3:2|3:2,0:0:0:0:
304,312,76262,1,2,0:2:0:0:
380,312,76378,2,0,P|412:252|344:184,1,150,2|0,0:2|0:0,0:0:0:0:
180,144,76724,6,0,L|344:144,1,150,6|2,3:2|3:2,0:0:0:0:
180,144,77185,1,6,3:2:0:0:
368,144,77301,2,0,L|368:56,1,75,6|0,3:2|3:2,0:0:0:0:
176,52,77532,6,0,L|348:52,1,150,2|2,3:2|3:2,0:0:0:0:
120,344,77878,2,0,L|120:268,1,75,2|0,3:2|3:2,0:0:0:0:
328,368,78109,2,0,L|472:368,1,112.5,2|0,3:2|3:2,0:0:0:0:
404,368,78339,2,0,L|284:368,1,112.5,2|0,3:2|0:0,0:0:0:0:
144,360,78570,6,0,P|116:280|160:256,1,150,4|2,3:2|3:2,0:0:0:0:
372,144,79032,1,6,3:2:0:0:
448,144,79147,2,0,L|448:-28,1,150,2|0,3:2|0:0,0:0:0:0:
248,296,79493,6,0,L|420:296,1,150,4|2,3:2|3:2,0:0:0:0:
184,228,79955,1,6,3:2:0:0:
108,228,80070,2,0,L|108:60,1,150,2|0,3:2|0:0,0:0:0:0:
328,292,80416,6,0,L|164:292,1,150,6|2,3:2|3:2,0:0:0:0:
104,292,80762,1,0,3:2:0:0:
292,224,80878,1,6,3:2:0:0:
480,224,80993,2,0,L|480:136,1,75,6|0,3:2|3:2,0:0:0:0:
288,144,81224,6,0,L|128:144,1,150,2|2,3:2|3:2,0:0:0:0:
328,292,81570,2,0,L|328:196,1,75,2|0,3:2|3:2,0:0:0:0:
136,228,81801,2,0,P|68:208|156:92,1,262.5,2|0,3:2|0:0,0:0:0:0:
332,92,82262,5,4,3:2:0:0:
256,192,88724,12,0,89416,0:0:0:0:
172,340,89647,6,0,P|136:300|196:248,1,134.999995880127,4|0,1:2|0:0,0:0:0:0:
316,240,90109,1,2,0:2:0:0:
181,240,90339,1,2,0:2:0:0:
364,232,90570,6,0,P|392:172|336:112,1,134.999995880127,10|0,0:2|0:0,0:0:0:0:
288,120,90916,1,0,0:0:0:0:
220,120,91032,1,2,0:2:0:0:
152,120,91147,1,0,0:0:0:0:
220,120,91262,1,0,0:0:0:0:
433,238,91493,6,0,P|463:297|443:360,1,134.999995880127,2|0,1:2|0:0,0:0:0:0:
296,236,91955,1,2,0:2:0:0:
432,240,92185,1,0,0:0:0:0:
216,216,92416,6,0,L|216:132,1,67.4999979400635,8|0,0:2|0:0,0:0:0:0:
284,148,92647,2,0,L|368:148,2,67.4999979400635,0|0|0,0:0|0:0|0:0,0:0:0:0:
148,148,93109,1,0,0:0:0:0:
364,248,93339,5,0,1:2:0:0:
228,256,93570,2,0,L|228:120,1,134.999995880127,0|2,0:0|0:2,0:0:0:0:
296,124,93916,1,0,0:0:0:0:
432,128,94147,6,0,L|432:44,1,67.4999979400635,0|10,0:0|0:2,0:0:0:0:
296,60,94493,2,0,L|208:60,2,67.4999979400635,0|0|2,0:0|0:0|0:2,0:0:0:0:
364,64,94839,2,0,L|364:156,1,67.4999979400635,0|2,0:0|0:2,0:0:0:0:
144,352,95185,6,0,L|280:352,1,134.999995880127,2|0,1:2|0:0,0:0:0:0:
144,352,95647,2,0,L|48:352,1,67.4999979400635,2|0,0:2|0:0,0:0:0:0:
216,288,95993,6,0,L|296:288,1,67.4999979400635,0|8,0:0|0:2,0:0:0:0:
148,288,96339,1,0,0:0:0:0:
87,265,96454,1,0,0:0:0:0:
64,203,96569,1,0,0:0:0:0:
95,146,96685,1,0,0:0:0:0:
159,132,96800,1,0,0:0:0:0:
468,140,97032,6,0,L|468:288,1,134.999995880127,0|0,1:2|0:0,0:0:0:0:
332,276,97493,2,0,L|248:276,1,67.4999979400635,2|0,0:2|0:0,0:0:0:0:
128,280,97839,6,0,L|128:200,1,67.4999979400635,0|10,0:0|0:2,0:0:0:0:
264,220,98185,2,0,L|344:220,2,67.4999979400635,0|0|2,0:0|0:0|0:2,0:0:0:0:
196,220,98532,1,0,0:0:0:0:
128,220,98647,1,0,0:0:0:0:
352,332,98878,6,0,L|352:180,1,134.999995880127,2|0,1:2|0:0,0:0:0:0:
216,196,99339,2,0,L|140:196,1,67.4999979400635,2|0,0:2|0:0,0:0:0:0:
284,196,99685,6,0,L|284:108,1,67.4999979400635,0|8,0:0|0:2,0:0:0:0:
148,128,100032,2,0,L|240:128,1,67.4999979400635,0|0,0:0|0:0,0:0:0:0:
148,128,100262,2,0,L|64:128,2,67.4999979400635,0|0|0,0:0|0:0|0:0,0:0:0:0:
368,296,100724,6,0,L|208:296,1,134.999995880127,0|0,1:2|0:0,0:0:0:0:
164,296,101070,1,0,0:0:0:0:
300,296,101301,2,0,L|300:200,1,67.4999979400635,0|0,0:0|0:0,0:0:0:0:
144,112,101647,5,10,0:2:0:0:
280,112,101878,2,0,L|280:24,1,67.4999979400635,0|0,0:0|0:0,0:0:0:0:
212,44,102109,2,0,L|136:44,2,67.4999979400635,2|0|0,0:2|0:0|0:0,0:0:0:0:
428,324,102570,6,0,L|264:324,1,134.999995880127,2|0,1:2|0:0,0:0:0:0:
156,320,103032,2,0,L|156:240,1,67.4999979400635,0|0,0:0|0:0,0:0:0:0:
292,248,103378,6,0,L|376:248,1,67.4999979400635,0|8,0:0|0:2,0:0:0:0:
196,192,103724,2,0,L|196:112,1,67.4999979400635,0|0,0:0|0:0,0:0:0:0:
264,128,103955,1,0,0:0:0:0:
332,128,104070,2,0,L|332:36,1,67.4999979400635,0|0,0:0|0:0,0:0:0:0:
24,60,104416,5,4,1:2:0:0:
256,192,104647,12,0,107185,0:0:0:0:
248,196,108109,6,0,L|152:196,2,75,6|2|2,3:2|0:2|0:2,0:0:0:0:
400,196,108570,1,2,0:2:0:0:
248,196,108801,2,0,L|352:196,1,75,2|2,0:2|0:2,0:0:0:0:
172,196,109147,6,0,L|172:88,1,75,2|2,0:2|0:2,0:0:0:0:
324,120,109493,2,0,L|484:120,1,150,2|0,0:2|0:0,0:0:0:0:
256,356,109955,6,0,P|224:300|280:232,1,150,2|2,0:2|0:2,0:0:0:0:
416,232,110416,2,0,L|416:132,1,75,2|2,0:2|0:2,0:0:0:0:
340,160,110647,2,0,L|240:160,1,75,2|0,0:2|0:0,0:0:0:0:
188,160,110878,6,0,L|360:160,1,150,2|2,0:2|0:2,0:0:0:0:
264,160,111224,1,2,0:2:0:0:
338,160,111339,2,0,L|340:336,1,150,2|2,0:2|0:2,0:0:0:0:
120,324,111801,6,0,P|52:296|144:148,1,300,2|2,0:2|0:2,0:0:0:0:
280,144,112493,1,2,0:2:0:0:
356,144,112609,6,0,L|128:144,1,225,2|2,0:2|0:2,0:0:0:0:
356,144,113185,2,0,L|440:144,1,75,2|0,0:2|0:0,0:0:0:0:
431,144,113416,2,0,L|344:144,1,75,0|0,0:0|0:0,0:0:0:0:
232,356,113647,6,0,L|232:256,1,75,2|0,0:2|0:0,0:0:0:0:
308,280,113878,2,0,L|308:184,1,75,2|0,0:2|0:0,0:0:0:0:
184,144,114109,2,0,L|100:144,2,75,2|0|2,0:2|0:0|0:2,0:0:0:0:
260,148,114455,1,2,0:2:0:0:
68,176,114570,6,0,P|28:132|96:72,1,150,4|0,3:2|3:2,0:0:0:0:
152,72,114916,1,0,0:0:0:0:
372,328,115032,2,0,P|432:308|356:212,1,225,4|0,3:2|3:2,0:0:0:0:
172,208,115493,6,0,L|268:208,1,75,6|2,3:2|3:2,0:0:0:0:
36,212,115724,2,0,L|36:132,1,75,2|0,3:2|0:0,0:0:0:0:
248,124,115955,2,0,L|356:124,1,75,2|0,3:2|0:0,0:0:0:0:
112,124,116185,1,2,3:2:0:0:
323,124,116301,6,0,L|323:212,1,75,2|0,3:2|0:0,0:0:0:0:
248,204,116532,1,2,3:2:0:0:
456,200,116647,2,0,L|368:200,1,75,2|0,3:2|0:0,0:0:0:0:
172,208,116878,2,0,L|172:120,1,75,2|0,3:2|3:2,0:0:0:0:
372,96,117109,2,0,L|412:96,1,37.5,0|0,3:2|3:2,0:0:0:0:
452,100,117224,2,0,L|406:100,1,37.5,0|0,3:2|3:2,0:0:0:0:
228,300,117339,6,0,L|136:300,1,75,2|0,3:2|0:0,0:0:0:0:
364,304,117570,2,0,L|452:304,1,75,2|0,3:2|0:0,0:0:0:0:
228,300,117801,2,0,L|228:200,1,75,2|0,3:2|0:0,0:0:0:0:
308,220,118032,2,0,L|308:124,1,75,2|0,3:2|3:2,0:0:0:0:
112,148,118262,6,0,L|192:148,1,75,2|0,3:2|0:0,0:0:0:0:
262,148,118493,2,0,L|174:148,1,75,2|2,3:2|3:2,0:0:0:0:
400,152,118724,2,0,L|400:64,1,75,2|0,3:2|0:0,0:0:0:0:
187,73,118955,2,0,L|187:161,1,75,2|0,3:2|3:2,0:0:0:0:
392,320,119185,6,0,L|480:320,1,75,14|0,3:2|0:0,0:0:0:0:
392,320,119416,2,0,L|284:320,1,75,8|0,3:2|0:0,0:0:0:0:
120,324,119647,2,0,L|120:216,1,75,10|0,3:2|0:0,0:0:0:0:
332,256,119878,1,10,3:2:0:0:
120,249,119993,6,0,L|28:248,2,75,2|8|2,3:2|0:2|3:2,0:0:0:0:
316,252,120339,1,10,3:2:0:0:
120,249,120455,2,0,L|120:152,1,75,0|10,0:0|3:2,0:0:0:0:
328,168,120685,2,0,L|236:168,2,75,0|8|0,3:2|3:2|0:0,0:0:0:0:
88,76,121032,6,0,L|196:76,1,75,10|0,3:2|3:2,0:0:0:0:
372,88,121262,2,0,L|372:176,1,75,10|0,3:2|0:0,0:0:0:0:
160,168,121493,2,0,L|256:168,1,75,10|0,3:2|0:0,0:0:0:0:
448,168,121724,1,10,3:2:0:0:
235,168,121839,6,0,L|236:72,1,75,2|0,3:2|0:0,0:0:0:0:
312,100,122070,2,0,L|400:100,2,75,0|8|0,3:2|3:2|0:0,0:0:0:0:
100,92,122416,2,0,L|0:92,1,75,2|0,0:2|3:2,0:0:0:0:
236,92,122647,2,0,L|336:92,1,75,2|0,3:2|0:0,0:0:0:0:
112,268,122878,6,0,L|32:268,3,75,6|2|2|2,3:2|3:2|3:2|3:2,0:0:0:0:
248,272,123339,2,0,L|352:272,3,75,2|2|2|2,3:2|3:2|3:2|3:2,0:0:0:0:
112,204,123801,6,0,L|112:120,1,75,2|2,3:2|3:2,0:0:0:0:
324,132,124032,1,2,3:2:0:0:
112,129,124147,2,0,P|68:96|128:40,1,150,2|0,3:2|3:2,0:0:0:0:
312,44,124493,2,0,L|216:44,1,75,2|0,3:2|0:0,0:0:0:0:
432,220,124724,6,0,L|512:220,3,75,2|2|2|2,3:2|3:2|3:2|3:2,0:0:0:0:
296,220,125185,2,0,L|188:220,3,75,2|2|2|2,3:2|3:2|3:2|3:2,0:0:0:0:
432,224,125647,5,2,3:2:0:0:
221,220,125762,2,0,L|224:120,1,75,2|2,3:2|3:2,0:0:0:0:
436,148,125993,2,0,L|264:148,1,150,2|0,3:2|3:2,0:0:0:0:
496,148,126339,2,0,L|496:56,1,75,2|0,3:2|0:0,0:0:0:0:
252,356,126570,6,0,L|168:356,1,75,14|2,3:2|3:2,0:0:0:0:
252,356,126801,2,0,L|352:356,1,75,10|2,3:2|3:2,0:0:0:0:
116,356,127032,2,0,L|220:356,1,75,10|0,3:2|0:0,0:0:0:0:
116,356,127262,2,0,L|20:356,1,75,10|2,3:2|3:2,0:0:0:0:
272,292,127493,6,0,L|188:292,1,75,10|2,3:2|3:2,0:0:0:0:
16,288,127724,1,10,3:2:0:0:
240,244,127839,2,0,L|404:244,1,150,2|0,3:2|3:2,0:0:0:0:
180,244,128185,2,0,L|180:144,1,75,10|0,3:2|3:2,0:0:0:0:
388,176,128416,6,0,L|388:84,1,75,8|0,3:2|3:2,0:0:0:0:
308,100,128647,2,0,L|216:100,1,75,8|0,3:2|3:2,0:0:0:0:
308,100,128878,2,0,L|396:100,1,75,8|0,3:2|3:2,0:0:0:0:
172,100,129109,2,0,L|84:100,1,75,8|0,3:2|3:2,0:0:0:0:
332,344,129339,6,0,L|332:256,1,75,8|0,3:2|3:2,0:0:0:0:
288,272,129512,1,0,3:2:0:0:
140,268,129570,1,2,3:2:0:0:
103,268,129627,1,0,3:2:0:0:
65,268,129685,1,0,3:2:0:0:
260,268,129801,1,2,3:2:0:0:
297,234,129858,1,0,3:2:0:0:
260,193,129916,1,0,3:2:0:0:
64,200,130032,1,2,3:2:0:0:
26,162,130089,1,0,3:2:0:0:
64,125,130147,1,0,3:2:0:0:
336,136,130262,6,0,L|444:136,1,75,6|2,3:2|3:2,0:0:0:0:
185,134,130493,2,0,L|85:134,1,75,2|2,3:2|3:2,0:0:0:0:
336,132,130724,2,0,L|424:132,1,75,2|0,3:2|0:0,0:0:0:0:
185,134,130955,2,0,L|97:134,1,75,2|0,3:2|0:0,0:0:0:0:
336,132,131185,6,0,L|336:44,1,75,2|2,3:2|3:2,0:0:0:0:
140,56,131416,1,2,3:2:0:0:
336,232,131532,1,2,3:2:0:0:
373,232,131589,1,0,3:2:0:0:
394,202,131647,1,0,3:2:0:0:
381,169,131705,1,0,3:2:0:0:
346,160,131762,1,0,3:2:0:0:
120,158,131878,2,0,L|12:158,1,75,2|0,3:2|3:2,0:0:0:0:
316,352,132109,6,0,L|424:352,1,75,2|0,3:2|0:0,0:0:0:0:
168,352,132339,2,0,L|168:244,1,75,2|2,3:2|3:2,0:0:0:0:
396,280,132570,2,0,L|396:192,1,75,2|0,3:2|0:0,0:0:0:0:
168,204,132801,2,0,L|72:204,1,75,2|0,3:2|0:0,0:0:0:0:
320,204,133032,5,2,3:2:0:0:
93,204,133147,2,0,L|92:112,1,75,2|2,3:2|3:2,0:0:0:0:
320,128,133378,2,0,L|320:32,1,75,2|0,3:2|3:2,0:0:0:0:
244,56,133609,1,0,3:2:0:0:
168,52,133724,2,0,L|168:140,1,75,2|0,3:2|3:2,0:0:0:0:
388,248,133955,6,0,L|484:248,1,75,6|2,3:2|3:2,0:0:0:0:
424,248,134128,1,0,3:2:0:0:
276,200,134185,2,0,L|180:200,1,75,2|2,3:2|3:2,0:0:0:0:
240,200,134358,1,0,3:2:0:0:
388,248,134416,2,0,L|484:248,1,75,2|2,3:2|3:2,0:0:0:0:
424,248,134589,1,0,3:2:0:0:
276,200,134646,2,0,L|180:200,1,75,2|2,3:2|3:2,0:0:0:0:
240,200,134819,1,0,3:2:0:0:
396,140,134878,6,0,L|484:140,2,75,2|2|2,3:2|3:2|3:2,0:0:0:0:
172,332,135224,2,0,L|172:280,1,37.5,2|0,3:2|3:2,0:0:0:0:
208,292,135339,2,0,L|260:292,1,37.5,0|0,0:2|3:2,0:0:0:0:
284,296,135455,2,0,L|284:244,1,37.5,0|0,3:2|3:2,0:0:0:0:
136,256,135570,2,0,L|28:256,1,75,2|2,3:2|3:2,0:0:0:0:
312,352,135801,5,2,3:2:0:0:
350,355,135858,1,0,3:2:0:0:
386,346,135916,1,0,3:2:0:0:
417,325,135974,1,0,3:2:0:0:
439,295,136031,1,0,3:2:0:0:
450,260,136089,1,0,3:2:0:0:
449,223,136147,1,0,3:2:0:0:
435,188,136204,1,0,3:2:0:0:
410,160,136262,1,0,3:2:0:0:
378,142,136320,1,0,3:2:0:0:
341,136,136377,1,0,3:2:0:0:
304,142,136435,1,0,3:2:0:0:
152,148,136493,6,0,L|104:148,1,37.5,2|0,3:2|3:2,0:0:0:0:
76,148,136609,2,0,L|132:148,1,37.5,0|0,3:2|3:2,0:0:0:0:
272,264,136724,6,0,L|316:264,2,37.5,2|0|0,3:2|3:2|3:2,0:0:0:0:
236,264,136897,1,0,3:2:0:0:
200,264,136955,1,2,3:2:0:0:
164,264,137012,2,0,L|120:264,2,37.5,0|0|0,3:2|3:2|3:2,0:0:0:0:
344,256,137185,5,2,3:2:0:0:
381,258,137242,1,0,3:2:0:0:
414,241,137300,1,0,3:2:0:0:
432,208,137358,1,0,3:2:0:0:
431,171,137415,1,2,3:2:0:0:
410,141,137473,1,0,3:2:0:0:
376,126,137531,1,0,3:2:0:0:
339,132,137588,1,0,3:2:0:0:
144,364,137647,6,0,L|144:208,1,150,4|0,3:2|0:0,0:0:0:0:
296,224,138109,2,0,L|296:60,1,150,0|0,0:0|0:0,0:0:0:0:
88,224,138570,6,0,L|304:112,2,225,8|0|0,3:2|3:2|3:2,0:0:0:0:
424,348,139493,6,0,P|280:136|116:368,1,600,4|8,3:2|0:3,0:0:0:0:
256,332,140647,2,0,L|256:168,1,150,8|8,0:3|0:3,0:0:0:0:
104,180,141109,1,8,0:3:0:0:
424,192,141339,6,0,P|464:160|400:92,1,150,6|2,3:2|3:2,0:0:0:0:
268,80,141801,1,2,0:2:0:0:
192,80,141916,2,0,L|356:80,1,150,2|0,0:2|0:0,0:0:0:0:
136,220,142262,6,0,P|96:188|160:128,1,150,6|2,3:2|3:2,0:0:0:0:
296,128,142724,1,2,0:2:0:0:
220,128,142839,2,0,L|36:128,1,150,2|0,0:2|0:0,0:0:0:0:
284,264,143185,6,0,L|468:264,1,150,6|2,3:2|3:2,0:0:0:0:
284,264,143647,1,6,3:2:0:0:
472,208,143762,2,0,L|472:124,1,75,6|0,3:2|3:2,0:0:0:0:
272,344,143993,6,0,L|444:344,1,150,2|2,3:2|3:2,0:0:0:0:
236,280,144339,2,0,L|148:280,1,75,2|0,3:2|3:2,0:0:0:0:
408,144,144570,2,0,P|440:104|384:72,1,112.5,2|0,3:2|3:2,0:0:0:0:
364,72,144801,2,0,L|484:72,1,112.5,2|0,3:2|0:0,0:0:0:0:
276,216,145032,6,0,L|192:216,1,75,4|0,3:2|3:2,0:0:0:0:
276,216,145262,2,0,L|368:216,1,75,2|0,3:2|0:0,0:0:0:0:
144,172,145493,1,6,3:2:0:0:
68,172,145609,2,0,L|240:172,1,150,2|0,3:2|0:0,0:0:0:0:
432,172,145955,6,0,L|344:172,1,75,4|0,3:2|3:2,0:0:0:0:
432,172,146185,2,0,L|432:84,1,75,2|0,3:2|0:0,0:0:0:0:
220,100,146416,1,6,3:2:0:0:
296,104,146532,2,0,L|460:104,1,150,2|0,3:2|0:0,0:0:0:0:
232,344,146878,6,0,L|144:344,1,75,6|0,3:2|3:2,0:0:0:0:
372,296,147109,2,0,L|372:208,1,75,2|0,3:2|3:2,0:0:0:0:
172,220,147339,1,6,3:2:0:0:
372,221,147455,2,0,L|460:220,1,75,6|0,3:2|3:2,0:0:0:0:
252,160,147685,6,0,L|160:160,1,75,2|0,3:2|3:2,0:0:0:0:
372,136,147916,1,2,3:2:0:0:
168,356,148032,2,0,P|128:316|192:252,1,150,6|0,3:2|3:2,0:0:0:0:
384,188,148378,2,0,L|204:188,1,150,6|0,3:2|3:2,0:0:0:0:
460,136,148724,5,4,3:2:0:0:
256,192,148955,12,0,153224,0:0:0:0:
