osu file format v14

[General]
AudioFilename: audio.mp3
AudioLeadIn: 0
PreviewTime: 48121
Countdown: 0
SampleSet: Soft
StackLeniency: 0.7
Mode: 2
LetterboxInBreaks: 0
WidescreenStoryboard: 1

[Editor]
Bookmarks: 8428,82274
DistanceSpacing: 1
BeatDivisor: 4
GridSize: 4
TimelineZoom: 3.199998

[Metadata]
Title:Cross The Finish Line [feat. Nanahira]
TitleUnicode:Cross The Finish Line [feat. ななひら]
Artist:Kobaryo
ArtistUnicode:Kobaryo
Creator:Kukkai
Version:Hyperion's Platter
Source:
Tags:secre chickenbible jbhyperion jbh gabba gabber hardcore j-core speedcore 古葉玲 Psycho Filth Records Candy speed pops japanese electronic instrumental FA Featured Artist mappers' guild mpg mg
BeatmapID:4192006
BeatmapSetID:2012659

[Difficulty]
HPDrainRate:4
CircleSize:3
OverallDifficulty:8.5
ApproachRate:8.5
SliderMultiplier:1.4
SliderTickRate:1

[Events]
//Background and Video events
0,0,"65092327_p0.jpg",0,0
//Break Periods
//Storyboard Layer 0 (Background)
//Storyboard Layer 1 (Fail)
//Storyboard Layer 2 (Pass)
//Storyboard Layer 3 (Foreground)
//Storyboard Layer 4 (Overlay)
//Storyboard Sound Samples

[TimingPoints]
109,230.769230769231,4,2,1,70,1,0
4724,-100,4,2,1,80,0,0
12109,-100,4,2,1,60,0,0
15801,-100,4,2,2,60,0,0
23185,-100,4,2,1,65,0,0
30570,-100,4,2,1,70,0,0
37955,-100,4,2,2,60,0,0
41647,-100,4,2,1,70,0,0
47185,-90.9090909090909,4,2,1,70,0,0
48109,-100,4,2,1,60,0,0
49032,-100,4,2,1,80,0,1
71185,-100,4,2,1,60,0,0
73955,-100,4,2,1,60,0,0
82262,-100,4,2,1,50,0,0
89647,-100,4,2,2,50,0,0
99801,-74.0740740740741,4,2,2,50,0,0
100147,-100,4,2,2,50,0,0
108109,-100,4,2,2,50,0,0
114570,-100,4,2,1,70,0,0
115493,-100,4,2,1,80,0,1
125993,-80,4,2,1,80,0,1
126339,-100,4,2,1,80,0,1
135801,-66.6666666666667,4,2,1,80,0,1
136262,-100,4,2,1,80,0,1
136724,-66.6666666666667,4,2,1,80,0,1
137647,-100,4,2,1,80,0,0
148724,-133.333333333333,4,2,1,80,0,0
149647,-133.333333333333,4,2,1,70,0,0
150570,-133.333333333333,4,2,1,60,0,0
151493,-133.333333333333,4,2,1,50,0,0
152416,-133.333333333333,4,2,1,40,0,0
153224,-133.333333333333,4,2,1,30,0,0

[Colours]
Combo1 : 0,0,249
Combo2 : 9,255,255
Combo3 : 255,186,153

[HitObjects]
108,192,109,5,8,0:3:0:0:
208,192,339,1,8,0:3:0:0:
308,192,570,1,8,0:3:0:0:
408,192,800,1,8,0:3:0:0:
80,192,1032,6,0,L|72:48,1,140,6|2,3:2|3:2,0:0:0:0:
216,28,1493,1,2,0:2:0:0:
120,32,1609,2,0,P|80:88|120:144,1,140,2|0,0:2|0:0,0:0:0:0:
260,144,1955,2,0,L|268:284,1,140,6|2,3:2|3:2,0:0:0:0:
124,304,2416,1,2,0:2:0:0:
220,304,2532,2,0,P|272:272|288:192,1,140,2|0,0:2|0:0,0:0:0:0:
144,192,2878,6,0,P|84:136|108:64,1,140,6|2,3:2|3:2,0:0:0:0:
159,40,3224,1,2,0:2:0:0:
300,40,3339,2,0,L|364:80,1,70,6|6,3:2|3:2,0:0:0:0:
48,76,3685,2,0,P|16:148|48:204,1,140,2|2,3:2|3:2,0:0:0:0:
120,204,4032,1,2,3:2:0:0:
344,204,4262,1,2,3:2:0:0:
196,204,4493,1,2,3:2:0:0:
496,204,4724,6,0,P|508:312|496:336,1,140,6|2,3:2|3:2,0:0:0:0:
344,356,5185,1,2,3:2:0:0:
304,304,5300,1,2,0:2:0:0:
310,239,5415,1,2,3:2:0:0:
359,196,5532,2,0,P|428:132|412:80,1,140,2|2,0:2|0:2,0:0:0:0:
357,51,5878,1,2,3:2:0:0:
132,52,6109,2,0,L|124:128,2,70,2|2|2,3:2|0:2|3:2,0:0:0:0:
204,52,6455,1,2,3:2:0:0:
276,52,6570,6,0,L|280:196,1,140,2|2,3:2|3:2,0:0:0:0:
136,212,7032,1,2,3:2:0:0:
208,212,7147,1,2,0:2:0:0:
280,212,7262,1,2,3:2:0:0:
208,212,7378,2,0,P|176:144|204:88,1,140,2|2,0:2|0:2,0:0:0:0:
272,88,7724,1,2,3:2:0:0:
48,88,7955,2,0,L|44:160,1,70,2|2,3:2|3:2,0:0:0:0:
44,167,8128,1,0,3:2:0:0:
44,176,8185,1,2,3:2:0:0:
364,192,8416,6,0,P|420:216|448:288,1,140,6|2,3:2|3:2,0:0:0:0:
316,292,8878,2,0,L|248:256,2,70,2|2|2,3:2|0:2|3:2,0:0:0:0:
172,380,9224,2,0,P|140:312|172:252,1,140,2|2,0:2|0:2,0:0:0:0:
248,252,9570,1,2,3:2:0:0:
32,192,9801,2,0,L|28:120,1,70,2|2,3:2|0:2,0:0:0:0:
108,112,10032,1,2,3:2:0:0:
36,112,10147,1,2,3:2:0:0:
176,112,10262,5,2,3:2:0:0:
240,112,10378,1,2,0:2:0:0:
240,48,10493,1,2,3:2:0:0:
176,48,10609,1,2,0:2:0:0:
48,48,10839,1,2,0:2:0:0:
112,48,10955,1,2,3:2:0:0:
176,48,11070,1,2,0:2:0:0:
320,48,11185,2,0,P|352:112|332:176,1,140,2|0,3:2|3:2,0:0:0:0:
28,192,11647,2,0,L|24:336,1,140,2|0,3:2|0:0,0:0:0:0:
252,352,12109,6,0,L|376:280,2,140,4|2|2,3:2|0:2|3:2,0:0:0:0:
124,352,12801,1,0,0:0:0:0:
188,352,12916,1,0,3:2:0:0:
252,352,13032,2,0,L|256:212,1,140,2|2,3:2|0:2,0:0:0:0:
144,112,13493,1,0,3:2:0:0:
280,80,13724,1,0,0:0:0:0:
344,80,13839,1,0,3:2:0:0:
408,80,13955,5,0,3:2:0:0:
192,80,14185,2,0,L|188:224,1,140,2|0,0:2|3:2,0:0:0:0:
316,240,14647,2,0,L|320:316,1,70,2|0,0:2|3:2,0:0:0:0:
244,352,14878,2,0,L|180:316,2,70,0|0|0,3:2|3:2|3:2,0:0:0:0:
20,352,15339,2,0,P|12:276|48:224,1,140,2|0,0:2|0:0,0:0:0:0:
352,192,15801,6,0,L|492:168,1,140,4|0,1:2|0:0,0:0:0:0:
364,88,16262,2,0,B|296:88|296:88|296:16,1,140,8|0,0:2|0:0,0:0:0:0:
440,16,16609,2,0,P|480:88|404:176,1,210,0|0,0:0|1:2,0:0:0:0:
268,176,17185,2,0,L|264:320,1,140,8|0,0:2|0:0,0:0:0:0:
124,248,17647,6,0,L|120:104,1,140,0|0,1:2|0:0,0:0:0:0:
248,32,18109,2,0,P|284:88|248:144,1,140,8|0,0:2|0:0,0:0:0:0:
104,108,18455,2,0,P|48:128|32:264,1,210,0|0,0:0|1:2,0:0:0:0:
172,260,19032,1,8,0:2:0:0:
48,264,19262,1,0,0:0:0:0:
292,260,19493,6,0,P|316:192|304:124,1,140,0|0,1:2|1:2,0:0:0:0:
180,128,19955,2,0,B|180:196|180:196|252:196,1,140,8|0,0:2|0:0,0:0:0:0:
396,196,20302,2,0,P|480:256|464:352,1,210,0|0,0:0|1:2,0:0:0:0:
324,350,20878,2,0,L|468:350,1,140,8|0,0:2|0:0,0:0:0:0:
239,351,21339,6,0,L|236:210,1,140,0|0,1:2|0:0,0:0:0:0:
108,98,21801,2,0,P|72:154|108:210,1,140,8|0,0:2|0:0,0:0:0:0:
252,210,22147,2,0,P|340:254|368:366,1,210,0|0,0:0|1:2,0:0:0:0:
144,356,22724,2,0,L|5:357,1,140,8|0,0:2|0:0,0:0:0:0:
312,356,23185,6,0,L|456:356,1,140,4|0,3:2|3:2,0:0:0:0:
312,356,23647,2,0,P|256:332|256:240,1,140,0|0,3:2|0:0,0:0:0:0:
287,212,23993,1,0,0:0:0:0:
436,192,24109,2,0,L|440:52,1,140,4|0,3:2|3:2,0:0:0:0:
308,24,24570,2,0,L|304:96,2,70,0|0|0,3:2|0:0|0:0,0:0:0:0:
84,24,25032,6,0,P|56:72|68:172,1,140,4|0,3:2|3:0,0:0:0:0:
180,192,25493,2,0,L|324:192,1,140,0|0,3:0|0:0,0:0:0:0:
256,192,25839,1,0,0:0:0:0:
112,192,25955,2,0,L|108:348,1,140,4|0,3:2|3:0,0:0:0:0:
232,360,26416,1,0,3:0:0:0:
170,346,26531,1,0,0:0:0:0:
108,331,26646,1,0,0:0:0:0:
416,360,26878,6,0,L|420:196,1,140,4|0,3:2|3:0,0:0:0:0:
292,192,27339,2,0,B|220:192|220:192|220:120,1,140,0|0,3:0|0:0,0:0:0:0:
292,124,27685,1,0,0:0:0:0:
432,120,27801,2,0,L|310:50,2,140,4|0|0,3:2|3:2|3:2,0:0:0:0:
436,136,28378,1,0,0:0:0:0:
440,148,28493,1,0,0:0:0:0:
144,192,28724,6,0,L|19:120,1,140,4|0,3:2|3:2,0:0:0:0:
252,192,29185,2,0,P|292:136|256:80,1,140,4|0,3:2|3:2,0:0:0:0:
188,84,29532,1,0,3:2:0:0:
44,124,29647,1,4,3:2:0:0:
180,84,29878,1,0,3:2:0:0:
412,84,30109,2,0,L|416:168,1,70,0|0,3:2|3:2,0:0:0:0:
412,164,30282,1,0,3:2:0:0:
408,176,30339,1,0,3:2:0:0:
112,236,30570,6,0,P|48:296|72:352,1,140,6|2,3:2|3:2,0:0:0:0:
112,375,30916,1,0,0:0:0:0:
184,376,31032,2,0,L|246:340,2,70,2|2|2,3:2|0:2|3:2,0:0:0:0:
40,340,31378,2,0,P|40:280|92:216,1,140,2|2,0:2|0:2,0:0:0:0:
156,200,31724,1,2,3:2:0:0:
296,196,31955,2,0,P|364:144|360:84,1,140,2|2,3:2|3:2,0:0:0:0:
291,52,32301,1,2,3:2:0:0:
364,95,32416,6,0,L|232:142,1,140,2|2,3:2|3:2,0:0:0:0:
88,148,32878,1,2,3:2:0:0:
16,148,32993,1,2,0:2:0:0:
88,148,33109,1,2,3:2:0:0:
232,148,33224,2,0,P|296:208|284:264,1,140,2|2,0:2|0:2,0:0:0:0:
231,288,33570,1,2,3:2:0:0:
104,288,33801,2,0,L|100:376,1,70,2|2,3:2|3:2,0:0:0:0:
116,364,33974,1,0,3:2:0:0:
132,372,34032,1,2,3:2:0:0:
432,372,34262,5,14,3:2:0:0:
477,320,34377,1,0,3:2:0:0:
477,251,34492,1,10,3:2:0:0:
433,199,34608,1,0,3:2:0:0:
365,189,34723,1,10,3:2:0:0:
433,199,34839,1,2,3:2:0:0:
365,189,34955,1,10,3:2:0:0:
224,192,35070,2,0,P|148:128|196:48,1,210,2|10,3:2|3:2,0:0:0:0:
492,48,35647,2,0,L|496:120,1,70,10|2,3:2|3:2,0:0:0:0:
433,199,35878,1,10,3:2:0:0:
200,200,36109,6,0,L|112:192,2,70,10|2|10,3:2|3:2|3:2,0:0:0:0:
228,200,36397,1,0,3:2:0:0:
256,201,36455,1,2,3:2:0:0:
400,234,36570,2,0,L|463:198,1,70,8|2,3:2|3:2,0:0:0:0:
390,222,36801,2,0,L|327:186,1,70,10|2,3:2|3:2,0:0:0:0:
192,36,37032,6,0,L|128:64,1,70,10|0,3:2|3:2,0:0:0:0:
164,48,37205,1,0,3:2:0:0:
192,36,37262,1,8,3:2:0:0:
488,36,37493,2,0,P|500:104|492:180,1,140,2|2,3:2|3:2,0:0:0:0:
184,352,37955,6,0,P|104:284|188:160,1,280,4|0,3:2|0:0,0:0:0:0:
296,160,38647,1,0,3:2:0:0:
100,160,38878,2,0,L|96:20,1,140,0|0,3:2|0:0,0:0:0:0:
340,40,39339,2,0,L|336:196,1,140,8|0,3:2|0:0,0:0:0:0:
112,192,39801,6,0,P|12:240|64:376,1,280,0|0,3:2|0:0,0:0:0:0:
188,376,40493,1,0,3:2:0:0:
400,188,40724,1,0,3:2:0:0:
260,192,40955,1,0,3:2:0:0:
492,192,41185,2,0,L|492:40,1,140,2|0,0:2|0:0,0:0:0:0:
192,52,41647,6,0,L|52:102,1,140,6|2,3:2|3:2,0:0:0:0:
208,144,42109,1,2,3:2:0:0:
144,144,42224,1,0,0:0:0:0:
80,144,42339,2,0,P|36:204|76:248,1,140,2|0,3:2|3:2,0:0:0:0:
304,248,42801,2,0,L|380:248,1,70,2|0,3:2|0:0,0:0:0:0:
296,248,43032,2,0,L|292:172,1,70,0|0,3:2|0:0,0:0:0:0:
374,248,43262,1,2,3:2:0:0:
20,352,43493,6,0,L|16:200,1,140,0|0,3:2|3:2,0:0:0:0:
228,248,43955,2,0,L|232:88,1,140,0|2,3:2|3:2,0:0:0:0:
160,108,44301,1,0,0:2:0:0:
304,108,44416,2,0,L|425:38,1,140,2|2,3:2|3:2,0:0:0:0:
184,192,44878,2,0,L|62:122,1,140,2|2,3:2|3:2,0:0:0:0:
392,192,45339,5,12,3:2:0:0:
412,256,45454,1,0,3:2:0:0:
375,312,45569,1,8,3:2:0:0:
308,319,45685,1,0,3:2:0:0:
261,270,45800,1,8,3:2:0:0:
270,203,45915,1,0,0:0:0:0:
328,168,46031,1,8,3:2:0:0:
32,192,46262,6,0,L|28:104,1,70,8|0,3:2|3:2,0:0:0:0:
112,104,46493,2,0,L|116:16,1,70,8|0,3:2|3:2,0:0:0:0:
196,192,46724,2,0,L|192:104,1,70,8|0,3:2|3:2,0:0:0:0:
276,104,46955,2,0,L|280:16,1,70,8|0,3:2|3:2,0:0:0:0:
136,32,47185,6,0,P|176:208|412:332,1,462.000014099122,4|0,3:2|0:0,0:0:0:0:
192,356,48109,2,0,L|188:216,1,140,2|0,0:2|0:0,0:0:0:0:
488,192,48570,2,0,L|364:124,1,140,2|8,0:2|0:1,0:0:0:0:
64,124,49032,6,0,L|8:168,2,70,6|2|2,3:2|0:2|3:2,0:0:0:0:
288,124,49493,2,0,P|328:168|288:228,1,140,2|2,3:2|3:2,0:0:0:0:
220,228,49839,2,0,P|180:272|220:332,1,140,2|2,0:2|0:2,0:0:0:0:
360,256,50185,2,0,L|288:256,1,70,2|0,3:2|0:0,0:0:0:0:
144,332,50416,2,0,P|104:276|124:200,1,140,2|0,3:2|3:2,0:0:0:0:
188,188,50762,1,0,0:0:0:0:
332,188,50878,6,0,L|453:118,1,140,2|2,3:2|3:2,0:0:0:0:
308,88,51339,2,0,L|304:16,1,70,2|2,3:2|0:2,0:0:0:0:
384,116,51570,2,0,L|388:40,1,70,2|0,3:2|0:0,0:0:0:0:
244,20,51801,2,0,L|101:29,1,140,2|2,3:2|3:2,0:0:0:0:
171,41,52147,1,2,0:2:0:0:
237,43,52262,1,2,3:2:0:0:
97,192,52493,1,2,3:2:0:0:
400,192,52724,6,0,L|404:348,1,140,6|0,3:2|3:2,0:0:0:0:
172,328,53185,2,0,L|43:254,1,140,2|2,3:2|3:2,0:0:0:0:
148,220,53532,2,0,L|19:146,1,140,2|2,0:2|0:2,0:0:0:0:
104,152,53878,1,2,3:2:0:0:
328,152,54109,2,0,P|344:88|296:32,1,140,2|0,3:2|3:2,0:0:0:0:
232,36,54455,1,0,0:0:0:0:
92,100,54570,6,0,B|92:36|92:36|168:36,1,140,2|2,3:2|3:2,0:0:0:0:
232,36,54916,1,0,0:0:0:0:
168,36,55032,1,2,3:2:0:0:
232,36,55147,1,0,0:0:0:0:
300,34,55262,1,2,3:2:0:0:
156,136,55378,1,2,0:2:0:0:
92,164,55493,6,0,P|76:216|128:276,1,140,0|0,3:0|3:0,0:0:0:0:
200,276,55839,1,0,3:0:0:0:
348,276,55955,1,0,3:0:0:0:
416,276,56070,2,0,L|420:228,2,35,0|0|0,3:0|3:0|3:0,0:0:0:0:
72,336,56416,6,0,L|6:298,2,70,6|2|2,3:2|3:2|3:2,0:0:0:0:
294,345,56878,2,0,L|416:275,1,140,2|2,3:2|3:2,0:0:0:0:
316,240,57224,2,0,L|438:170,1,140,2|2,3:2|3:2,0:0:0:0:
288,140,57570,1,2,3:2:0:0:
160,140,57801,2,0,L|156:60,1,70,2|0,3:2|3:2,0:0:0:0:
240,68,58032,2,0,L|156:68,1,70,0|0,3:2|3:2,0:0:0:0:
316,68,58263,6,0,L|437:138,1,140,2|2,3:2|3:2,0:0:0:0:
296,164,58724,2,0,L|417:234,1,140,2|2,3:2|3:2,0:0:0:0:
348,232,59070,1,0,3:2:0:0:
204,204,59186,2,0,P|168:212|204:276,1,140,2|2,3:2|3:2,0:0:0:0:
274,322,59532,1,2,3:2:0:0:
204,275,59647,1,2,3:2:0:0:
348,232,59878,1,2,3:2:0:0:
50,312,60109,6,0,L|46:156,1,140,6|0,3:2|3:2,0:0:0:0:
286,104,60570,2,0,L|157:178,1,140,2|2,3:2|3:2,0:0:0:0:
234,176,60917,2,0,L|362:250,1,140,2|2,3:2|3:2,0:0:0:0:
286,244,61263,1,2,3:2:0:0:
67,352,61493,1,2,3:2:0:0:
63,294,61608,1,0,3:2:0:0:
87,242,61723,1,0,3:2:0:0:
134,208,61839,1,0,0:0:0:0:
279,208,61955,6,0,L|347:192,2,70,2|0|2,3:2|3:2|3:2,0:0:0:0:
151,208,62416,2,0,P|127:160|163:88,1,140,2|2,3:2|3:2,0:0:0:0:
303,48,62762,2,0,L|424:118,1,140,2|0,3:2|3:2,0:0:0:0:
424,118,63109,1,0,3:2:0:0:
195,208,63339,1,2,0:2:0:0:
335,208,63570,1,2,0:2:0:0:
32,208,63801,6,0,L|16:136,2,70,6|2|2,3:2|3:2|3:2,0:0:0:0:
256,352,64262,2,0,L|260:264,1,70,2|2,3:2|3:2,0:0:0:0:
180,277,64493,2,0,L|184:208,1,70,2|2,3:2|3:2,0:0:0:0:
259,282,64724,6,0,L|324:244,1,70,2|2,3:2|3:2,0:0:0:0:
288,264,64897,1,0,3:2:0:0:
259,282,64955,1,2,3:2:0:0:
112,276,65070,2,0,P|48:228|60:156,1,140,2|0,3:2|3:2,0:0:0:0:
98,128,65416,1,2,3:2:0:0:
396,128,65647,5,2,3:2:0:0:
448,128,65762,1,2,3:2:0:0:
501,128,65877,1,2,3:2:0:0:
268,204,66109,2,0,L|264:116,1,70,2|0,3:2|0:0,0:0:0:0:
343,129,66340,2,0,L|339:59,1,70,2|2,3:2|3:2,0:0:0:0:
196,132,66570,6,0,L|199:62,1,70,2|2,3:2|3:2,0:0:0:0:
232,56,66743,1,0,3:2:0:0:
268,48,66801,1,2,3:2:0:0:
412,44,66916,2,0,P|456:96|460:168,1,140,2|0,3:2|3:2,0:0:0:0:
396,208,67262,1,2,3:2:0:0:
96,348,67493,6,0,L|24:348,1,70,14|2,3:2|3:2,0:0:0:0:
112,264,67724,2,0,L|184:264,1,70,10|2,3:2|3:2,0:0:0:0:
92,180,67955,2,0,L|20:180,1,70,10|0,3:2|0:0,0:0:0:0:
112,180,68185,1,10,3:2:0:0:
344,192,68416,6,0,L|420:192,2,70,10|2|10,3:2|3:2|3:2,0:0:0:0:
200,192,68762,2,0,L|331:116,1,140,2|0,3:2|3:2,0:0:0:0:
376,92,69109,1,10,3:2:0:0:
76,28,69339,6,0,P|24:72|36:140,1,140,8|8,3:2|3:2,0:0:0:0:
100,192,69685,1,0,3:2:0:0:
141,192,69743,1,0,3:2:0:0:
184,192,69801,2,0,L|188:272,1,70,8|0,3:2|3:2,0:0:0:0:
40,268,70032,2,0,L|36:360,1,70,8|0,3:2|3:2,0:0:0:0:
180,364,70262,6,0,L|324:364,1,140,8|8,3:2|3:2,0:0:0:0:
92,360,70724,1,8,3:2:0:0:
76,360,70782,1,0,3:2:0:0:
60,360,70839,2,0,L|56:288,1,70,0|8,3:2|3:2,0:0:0:0:
376,280,71185,6,0,P|504:168|360:16,1,420,4|0,3:2|0:0,0:0:0:0:
140,88,72109,2,0,L|323:194,2,210,8|0|0,3:2|3:2|3:2,0:0:0:0:
364,192,73032,6,0,P|308:40|252:192,1,420,4|0,3:2|0:0,0:0:0:0:
476,192,73955,1,8,0:3:0:0:
364,192,74185,1,8,0:3:0:0:
476,192,74416,1,8,0:3:0:0:
364,192,74646,1,8,0:3:0:0:
64,192,74878,6,0,L|56:48,1,140,6|2,3:2|3:2,0:0:0:0:
280,28,75339,1,2,0:2:0:0:
352,28,75455,2,0,P|392:84|352:140,1,140,2|0,0:2|0:0,0:0:0:0:
216,192,75801,2,0,L|348:136,1,140,6|2,3:2|3:2,0:0:0:0:
120,192,76262,1,2,0:2:0:0:
48,192,76378,2,0,P|8:248|40:304,1,140,2|0,0:2|0:0,0:0:0:0:
184,380,76724,6,0,L|188:224,1,140,6|2,3:2|3:2,0:0:0:0:
412,148,77185,2,0,L|416:232,1,70,6|6,3:2|3:2,0:0:0:0:
108,240,77531,2,0,P|112:176|169:132,1,140,2|2,3:2|3:2,0:0:0:0:
239,130,77878,1,2,3:2:0:0:
379,130,78108,1,2,3:2:0:0:
169,239,78339,1,2,3:2:0:0:
416,192,78570,6,0,L|424:48,1,140,4|2,3:2|3:2,0:0:0:0:
200,28,79032,1,6,3:2:0:0:
132,28,79147,2,0,L|256:100,1,140,2|0,3:2|0:0,0:0:0:0:
396,100,79493,1,4,3:2:0:0:
264,100,79724,1,2,3:2:0:0:
476,100,79955,1,6,3:2:0:0:
408,100,80070,2,0,L|283:172,1,140,2|0,3:2|0:0,0:0:0:0:
140,368,80416,6,0,P|104:308|152:260,1,140,6|2,3:2|3:2,0:0:0:0:
216,260,80762,1,0,3:2:0:0:
360,260,80877,2,0,L|363:190,1,70,6|6,3:2|3:2,0:0:0:0:
60,260,81223,2,0,B|60:192|60:192|120:148,1,140,2|2,3:2|3:2,0:0:0:0:
188,148,81570,1,2,3:2:0:0:
420,148,81801,2,0,P|464:92|424:52,1,140,2|0,3:2|0:0,0:0:0:0:
116,52,82262,5,4,3:2:0:0:
256,192,82493,12,0,84109,0:0:0:0:
172,212,84455,6,0,L|176:132,1,70,0|0,0:0|0:0,0:0:0:0:
308,104,84801,2,0,L|304:28,1,70,0|0,0:0|0:0,0:0:0:0:
408,192,85955,5,0,0:0:0:0:
220,192,86301,2,0,L|217:261,1,70,0|0,0:0|0:0,0:0:0:0:
92,192,86647,2,0,L|88:116,1,70,0|0,0:0|0:0,0:0:0:0:
216,192,87801,5,0,0:0:0:0:
380,192,88147,2,0,L|317:156,1,70,0|0,0:0|0:0,0:0:0:0:
432,192,88493,2,0,L|364:153,1,70,0|0,0:0|0:0,0:0:0:0:
204,192,88955,1,0,0:0:0:0:
64,192,89185,2,0,B|60:40,1,140,0|0,0:0|0:0,0:0:0:0:
372,56,89647,6,0,P|408:104|372:168,1,140,4|0,1:2|0:0,0:0:0:0:
148,168,90109,2,0,P|100:224|112:304,1,140,2|2,0:2|0:2,0:0:0:0:
172,288,90455,1,0,0:0:0:0:
316,288,90570,2,0,L|324:148,1,140,10|0,0:2|0:0,0:0:0:0:
184,148,91032,1,2,0:2:0:0:
254,148,91147,1,0,0:0:0:0:
323,148,91262,1,0,0:0:0:0:
20,192,91493,6,0,P|16:120|76:48,1,140,2|0,1:2|0:0,0:0:0:0:
120,64,91839,1,0,0:0:0:0:
192,64,91955,2,0,L|320:138,1,140,2|0,0:2|0:0,0:0:0:0:
88,64,92416,2,0,L|80:216,1,140,8|0,0:2|0:0,0:0:0:0:
224,304,92878,2,0,L|232:216,2,70,0|0|0,0:0|0:0|0:0,0:0:0:0:
456,288,93339,6,0,L|460:116,1,140,0|0,1:2|0:0,0:0:0:0:
232,192,93801,2,0,P|192:140|232:84,1,140,2|2,0:2|0:2,0:0:0:0:
300,88,94147,1,0,0:0:0:0:
156,88,94262,2,0,L|31:160,1,140,10|0,0:2|0:0,0:0:0:0:
104,160,94609,1,0,0:0:0:0:
172,160,94724,1,2,0:2:0:0:
28,160,94955,1,2,0:2:0:0:
324,160,95185,6,0,P|388:188|416:252,1,140,2|0,1:2|0:0,0:0:0:0:
400,316,95532,1,0,0:0:0:0:
344,352,95647,1,2,0:2:0:0:
276,352,95762,1,0,0:0:0:0:
344,352,95878,1,0,0:0:0:0:
104,348,96109,2,0,L|92:264,2,70,8|0|0,0:2|0:0|0:0,0:0:0:0:
244,192,96570,1,0,0:0:0:0:
180,192,96685,1,0,0:0:0:0:
116,192,96801,1,0,0:0:0:0:
432,192,97032,6,0,L|440:36,1,140,0|0,1:2|0:0,0:0:0:0:
208,192,97493,2,0,L|332:119,1,140,2|0,0:2|0:0,0:0:0:0:
268,158,97839,1,0,0:0:0:0:
124,192,97955,2,0,P|52:144|48:76,1,140,10|0,0:2|0:0,0:0:0:0:
184,40,98416,1,2,0:2:0:0:
120,40,98532,1,0,0:0:0:0:
184,40,98647,1,0,0:0:0:0:
416,40,98878,6,0,P|432:100|420:200,1,140,2|0,1:2|0:0,0:0:0:0:
368,220,99224,1,0,0:0:0:0:
296,220,99339,1,2,0:2:0:0:
436,177,99570,1,2,0:2:0:0:
132,352,99801,2,0,P|84:274|144:216,1,189.000000720978,8|0,0:2|0:0,0:0:0:0:
208,192,100147,1,0,0:0:0:0:
236,128,100262,1,0,0:0:0:0:
212,60,100378,1,0,0:0:0:0:
144,44,100493,1,0,0:0:0:0:
376,36,100724,6,0,L|380:204,1,140,0|0,1:2|0:0,0:0:0:0:
148,328,101185,2,0,P|164:256|220:220,1,140,2|0,0:2|0:0,0:0:0:0:
288,216,101532,1,0,0:0:0:0:
144,220,101647,2,0,L|136:80,1,140,10|0,0:2|0:0,0:0:0:0:
288,28,102109,1,2,0:2:0:0:
222,53,102224,1,0,0:0:0:0:
157,79,102339,1,0,0:0:0:0:
456,192,102570,6,0,P|448:120|400:76,1,140,2|0,1:2|0:0,0:0:0:0:
332,76,102916,1,0,0:0:0:0:
404,76,103032,2,0,L|466:39,2,70,0|0|0,0:0|0:0|0:0,0:0:0:0:
96,76,103493,2,0,P|76:144|80:220,1,140,8|0,0:2|0:0,0:0:0:0:
304,288,103955,2,0,L|156:288,1,140,0|0,0:0|0:0,0:0:0:0:
464,288,104416,5,4,1:2:0:0:
256,192,104647,12,0,107185,0:0:0:0:
256,192,107647,5,0,0:0:0:0:
48,192,108109,6,0,L|32:112,2,70,6|2|2,3:2|0:2|0:2,0:0:0:0:
188,192,108570,2,0,L|309:262,1,140,2|2,0:2|0:2,0:0:0:0:
240,264,108916,2,0,L|118:194,1,140,2|2,0:2|0:2,0:0:0:0:
264,192,109262,2,0,L|268:48,1,140,2|2,0:2|0:2,0:0:0:0:
480,304,109955,6,0,L|484:140,1,140,2|2,0:2|0:2,0:0:0:0:
344,164,110416,2,0,L|281:128,1,70,2|2,0:2|0:2,0:0:0:0:
352,164,110647,2,0,L|356:88,1,70,2|0,0:2|0:0,0:0:0:0:
208,52,110878,2,0,P|172:104|208:164,1,140,2|2,0:2|0:2,0:0:0:0:
274,164,111224,1,2,0:2:0:0:
207,163,111339,1,2,0:2:0:0:
352,164,111570,1,2,0:2:0:0:
40,164,111801,6,0,P|12:228|40:288,1,140,2|0,0:2|0:0,0:0:0:0:
180,336,112262,2,0,L|48:288,1,140,2|2,0:2|0:2,0:0:0:0:
196,336,112609,2,0,P|308:260|304:192,1,210,2|2,0:2|0:2,0:0:0:0:
264,140,113070,1,0,0:0:0:0:
196,124,113185,2,0,L|192:43,1,70,2|0,0:2|0:0,0:0:0:0:
280,23,113416,2,0,L|284:111,1,70,0|0,0:0|0:0,0:0:0:0:
142,192,113647,6,0,L|17:120,1,140,2|2,0:2|0:2,0:0:0:0:
248,332,114109,2,0,L|185:296,1,70,2|0,0:2|0:0,0:0:0:0:
124,264,114339,1,2,0:2:0:0:
432,192,114570,6,0,B|504:192|504:192|428:192,1,140,4|0,3:2|3:2,0:0:0:0:
364,192,114916,1,0,0:0:0:0:
216,192,115032,2,0,L|76:141,1,140,4|0,3:2|3:2,0:0:0:0:
420,52,115493,6,0,L|492:52,2,70,6|2|2,3:2|3:2|3:2,0:0:0:0:
188,52,115954,2,0,P|149:111|188:156,1,140,2|2,3:2|3:2,0:0:0:0:
264,156,116300,6,0,L|128:192,1,140,2|2,3:2|3:2,0:0:0:0:
276,331,116646,2,0,L|280:255,1,70,2|0,3:2|0:0,0:0:0:0:
136,331,116877,2,0,L|60:332,1,70,2|0,3:2|3:2,0:0:0:0:
144,332,117109,2,0,L|148:292,2,35,0|0|0,3:2|3:2|3:2,0:0:0:0:
288,332,117339,6,0,L|409:262,1,140,2|2,3:2|3:2,0:0:0:0:
176,332,117800,2,0,L|172:192,1,140,2|2,3:2|3:2,0:0:0:0:
252,192,118147,1,0,3:2:0:0:
108,192,118262,6,0,L|32:192,1,70,2|0,3:2|0:0,0:0:0:0:
38,192,118493,1,2,3:2:0:0:
108,192,118608,1,2,3:2:0:0:
178,119,118724,1,2,3:2:0:0:
24,120,118954,1,2,3:2:0:0:
324,120,119185,6,0,L|468:120,1,140,14|8,3:2|3:2,0:0:0:0:
232,296,119646,2,0,L|103:222,1,140,10|10,3:2|3:2,0:0:0:0:
264,192,119993,6,0,L|135:118,1,140,2|2,3:2|3:2,0:0:0:0:
220,124,120339,2,0,L|224:52,1,70,10|0,3:2|0:0,0:0:0:0:
80,52,120570,1,10,3:2:0:0:
40,108,120685,1,0,3:2:0:0:
48,176,120800,1,8,3:2:0:0:
108,212,120916,1,0,0:0:0:0:
256,208,121031,6,0,B|332:208,2,70,10|0|10,3:2|3:2|3:2,0:0:0:0:
488,316,121493,1,10,3:2:0:0:
420,316,121608,1,0,0:0:0:0:
352,316,121723,1,10,3:2:0:0:
204,316,121839,6,0,P|212:248|268:208,1,140,2|0,3:2|3:2,0:0:0:0:
340,184,122185,1,8,3:2:0:0:
40,108,122416,1,2,0:2:0:0:
40,108,122531,2,0,L|36:60,2,35,0|0|2,3:2|3:2|3:2,0:0:0:0:
376,332,122878,5,6,3:2:0:0:
440,304,122993,1,2,3:2:0:0:
452,236,123109,1,2,3:2:0:0:
404,188,123224,1,2,3:2:0:0:
264,184,123339,2,0,L|260:108,1,70,2|2,3:2|3:2,0:0:0:0:
344,48,123570,2,0,L|348:128,1,70,2|2,3:2|3:2,0:0:0:0:
200,188,123801,6,0,L|128:188,2,70,2|2|2,3:2|3:2|3:2,0:0:0:0:
52,188,124147,2,0,P|32:132|84:48,1,140,2|0,3:2|3:2,0:0:0:0:
140,48,124493,1,2,3:2:0:0:
444,48,124724,6,0,L|376:72,1,70,2|2,3:2|3:2,0:0:0:0:
292,136,124955,2,0,L|359:160,1,70,2|2,3:2|3:2,0:0:0:0:
444,224,125185,2,0,L|376:248,1,70,2|2,3:2|3:2,0:0:0:0:
292,312,125416,2,0,L|359:336,1,70,2|2,3:2|3:2,0:0:0:0:
224,288,125647,5,2,3:2:0:0:
168,248,125762,1,2,3:2:0:0:
224,208,125878,1,2,3:2:0:0:
357,335,125993,2,0,P|432:276|404:216,1,175,2|0,3:2|3:2,0:0:0:0:
332,192,126339,1,2,3:2:0:0:
24,192,126570,6,0,L|20:104,1,70,14|2,3:2|3:2,0:0:0:0:
112,104,126801,2,0,L|116:24,1,70,10|2,3:2|3:2,0:0:0:0:
264,340,127032,2,0,L|268:252,1,70,10|0,3:2|0:0,0:0:0:0:
176,252,127263,2,0,L|172:172,1,70,10|2,3:2|3:2,0:0:0:0:
320,124,127493,6,0,L|387:99,2,70,10|2|10,3:2|3:2|3:2,0:0:0:0:
460,124,127839,2,0,P|512:192|504:248,1,140,2|0,3:2|3:2,0:0:0:0:
446,279,128185,1,10,3:2:0:0:
136,360,128416,6,0,P|84:316|96:248,1,140,8|8,3:2|3:2,0:0:0:0:
160,196,128762,1,0,3:2:0:0:
304,196,128878,2,0,L|380:196,1,70,8|0,3:2|3:2,0:0:0:0:
446,279,129109,2,0,L|374:279,1,70,8|0,3:2|3:2,0:0:0:0:
230,330,129339,5,8,3:2:0:0:
210,330,129396,1,0,3:2:0:0:
190,330,129454,1,0,3:2:0:0:
278,330,129570,2,0,L|282:246,1,70,2|0,3:2|3:2,0:0:0:0:
362,198,129801,2,0,L|438:198,1,70,2|0,3:2|3:2,0:0:0:0:
354,198,130032,1,2,3:2:0:0:
46,198,130262,6,0,L|42:102,1,70,6|2,3:2|3:2,0:0:0:0:
130,114,130493,2,0,L|134:26,1,70,2|2,3:2|3:2,0:0:0:0:
166,38,130666,1,0,3:2:0:0:
202,42,130724,2,0,L|205:111,1,70,2|0,3:2|0:0,0:0:0:0:
130,250,130955,2,0,L|126:166,1,70,2|0,3:2|0:0,0:0:0:0:
274,194,131185,6,0,L|362:194,1,70,2|2,3:2|3:2,0:0:0:0:
42,182,131532,2,0,P|34:230|86:322,1,140,2|0,3:2|3:2,0:0:0:0:
146,310,131878,1,2,3:2:0:0:
71,310,131993,1,0,3:2:0:0:
218,242,132109,6,0,L|294:242,1,70,2|0,3:2|0:0,0:0:0:0:
210,242,132339,2,0,L|206:154,1,70,2|2,3:2|3:2,0:0:0:0:
258,154,132512,1,0,3:2:0:0:
310,138,132570,2,0,L|314:50,1,70,2|0,3:2|0:0,0:0:0:0:
230,46,132801,2,0,L|310:46,1,70,2|0,3:2|0:0,0:0:0:0:
446,50,133032,6,0,L|511:88,2,70,2|2|2,3:2|3:2|3:2,0:0:0:0:
302,46,133378,2,0,P|274:86|314:174,1,140,2|0,3:2|3:2,0:0:0:0:
378,198,133724,1,2,3:2:0:0:
48,316,133955,5,6,3:2:0:0:
46,281,134012,1,0,3:2:0:0:
44,246,134070,1,2,3:2:0:0:
128,192,134185,2,0,L|44:192,1,70,2|2,3:2|3:2,0:0:0:0:
200,344,134416,2,0,L|208:284,2,35,2|0|2,3:2|3:2|3:2,0:0:0:0:
116,344,134647,2,0,L|112:248,1,70,2|2,3:2|3:2,0:0:0:0:
253,194,134878,6,0,L|187:163,1,70,2|2,3:2|3:2,0:0:0:0:
496,64,135224,2,0,P|504:112|452:204,1,140,2|0,3:2|3:2,0:0:0:0:
392,192,135570,1,2,3:2:0:0:
76,192,135801,6,0,P|8:116|72:48,1,210.000008010865,2|0,3:2|3:2,0:0:0:0:
144,48,136147,1,0,3:2:0:0:
220,48,136262,2,0,L|282:84,1,70,0|0,3:2|3:2,0:0:0:0:
140,192,136493,2,0,L|202:228,1,70,2|0,3:2|3:2,0:0:0:0:
348,228,136724,6,0,P|420:236|488:348,1,210.000008010865,2|2,3:2|3:2,0:0:0:0:
416,288,137070,1,0,3:2:0:0:
348,228,137185,2,0,P|356:156|468:88,1,210.000008010865,2|2,3:2|3:2,0:0:0:0:
160,280,137647,6,0,P|72:168|160:104,1,280,4|0,3:2|0:0,0:0:0:0:
296,108,138339,1,0,0:0:0:0:
64,84,138571,2,0,L|247:190,2,210,8|0|0,3:2|3:2|3:2,0:0:0:0:
296,120,139494,6,0,B|174:50|174:50|294:123|294:123|172:53,1,420,4|0,3:2|0:0,0:0:0:0:
472,52,140417,1,8,0:3:0:0:
336,52,140647,1,8,0:3:0:0:
200,52,140878,1,8,0:3:0:0:
64,52,141108,1,8,0:3:0:0:
372,192,141339,6,0,L|380:48,1,140,6|2,3:2|3:2,0:0:0:0:
156,28,141800,1,2,0:2:0:0:
84,28,141916,2,0,P|44:84|84:140,1,140,2|0,0:2|0:0,0:0:0:0:
224,192,142262,2,0,L|356:136,1,140,6|2,3:2|3:2,0:0:0:0:
120,28,142723,1,2,0:2:0:0:
192,28,142839,2,0,L|320:102,1,140,2|0,0:2|0:0,0:0:0:0:
164,332,143185,6,0,L|160:176,1,140,6|2,3:2|3:2,0:0:0:0:
392,332,143646,2,0,L|461:292,1,70,6|6,3:2|3:2,0:0:0:0:
144,332,143992,2,0,P|144:264|212:208,1,140,2|2,3:2|3:2,0:0:0:0:
272,196,144339,1,2,3:2:0:0:
48,192,144570,2,0,L|44:104,1,70,2|0,3:2|3:2,0:0:0:0:
120,52,144800,1,2,3:2:0:0:
420,52,145031,6,0,L|482:88,2,70,4|0|2,3:2|3:2|3:2,0:0:0:0:
116,100,145493,1,6,3:2:0:0:
44,122,145608,2,0,L|168:194,1,140,2|0,3:2|0:0,0:0:0:0:
312,192,145955,1,4,3:2:0:0:
244,192,146070,1,0,3:2:0:0:
176,192,146185,1,2,3:2:0:0:
476,192,146416,1,6,3:2:0:0:
408,192,146531,2,0,L|284:264,1,140,2|0,3:2|0:0,0:0:0:0:
436,332,146877,6,0,L|440:184,1,140,6|2,3:2|3:2,0:0:0:0:
140,260,147338,2,0,L|68:260,1,70,6|6,3:2|3:2,0:0:0:0:
372,328,147684,2,0,B|372:260|372:260|312:216,1,140,2|2,3:2|3:2,0:0:0:0:
244,216,148032,2,0,L|452:192,1,210,6|6,3:2|3:2,0:0:0:0:
24,192,148724,6,0,B|24:112|24:112|88:68|88:68|392:192|88:328|88:328|24:284|24:284|24:204,1,735.000028038026,4|0,3:2|0:0,0:0:0:0:
256,192,150570,12,0,153224,0:0:0:0:
