osu file format v14

[General]
AudioFilename: audio.mp3
AudioLeadIn: 0
PreviewTime: 48121
Countdown: 0
SampleSet: Soft
StackLeniency: 0.7
Mode: 2
LetterboxInBreaks: 0
WidescreenStoryboard: 0

[Editor]
Bookmarks: 82274
DistanceSpacing: 1
BeatDivisor: 4
GridSize: 4
TimelineZoom: 4.799997

[Metadata]
Title:Cross The Finish Line [feat. Nanahira]
TitleUnicode:Cross The Finish Line [feat. ななひら]
Artist:Kobaryo
ArtistUnicode:Kobaryo
Creator:Kukkai
Version:Final Lap!
Source:
Tags:secre chickenbible jbhyperion jbh gabba gabber hardcore j-core speedcore 古葉玲 Psycho Filth Records Candy speed pops japanese electronic instrumental FA Featured Artist mappers' guild mpg mg
BeatmapID:4188126
BeatmapSetID:2012659

[Difficulty]
HPDrainRate:3
CircleSize:4.4
OverallDifficulty:9.8
ApproachRate:9.8
SliderMultiplier:1.8
SliderTickRate:2

[Events]
//Background and Video events
0,0,"65092327_p0.jpg",0,0
//Break Periods
2,82462,88241
//Storyboard Layer 0 (Background)
//Storyboard Layer 1 (Fail)
//Storyboard Layer 2 (Pass)
//Storyboard Layer 3 (Foreground)
//Storyboard Layer 4 (Overlay)
//Storyboard Sound Samples

[TimingPoints]
109,230.769230769231,4,2,1,70,1,0
4724,-100,4,2,1,80,0,0
12109,-100,4,2,1,60,0,0
15801,-111.111111111111,4,2,2,60,0,0
23185,-100,4,2,1,65,0,0
30570,-100,4,2,1,70,0,0
37955,-111.111111111111,4,2,2,60,0,0
41647,-100,4,2,1,70,0,0
48109,-100,4,2,1,60,0,0
49032,-100,4,2,1,80,0,1
71185,-100,4,2,1,60,0,0
73955,-100,4,2,1,60,0,0
82262,-125,4,2,1,50,0,0
89647,-111.111111111111,4,2,2,50,0,0
108109,-111.111111111111,4,2,2,50,0,0
114570,-100,4,2,1,70,0,0
115493,-100,4,2,1,80,0,1
130262,-95.2380952380952,4,2,1,80,0,1
137647,-100,4,2,1,80,0,0
148724,-100,4,2,1,80,0,0
149647,-100,4,2,1,70,0,0
150570,-100,4,2,1,60,0,0
151493,-100,4,2,1,50,0,0
152416,-100,4,2,1,40,0,0
153224,-100,4,2,1,30,0,0

[Colours]
Combo1 : 0,0,249
Combo2 : 9,255,255
Combo3 : 255,186,153

[HitObjects]
232,288,109,5,8,0:3:0:0:
52,292,339,1,8,0:3:0:0:
232,288,570,1,8,0:3:0:0:
52,292,801,1,8,0:3:0:0:
380,232,1032,5,6,3:2:0:0:
358,232,1060,1,0,3:2:0:0:
335,232,1089,1,0,3:2:0:0:
313,232,1118,1,0,3:2:0:0:
290,232,1147,1,0,3:2:0:0:
268,232,1176,1,0,3:2:0:0:
245,232,1205,1,0,3:2:0:0:
223,232,1233,1,0,3:2:0:0:
200,232,1262,6,0,L|384:236,1,180,2|2,3:2|0:2,0:0:0:0:
288,152,1609,2,0,L|484:152,1,180,2|0,0:2|0:0,0:0:0:0:
156,344,1955,5,6,3:2:0:0:
178,344,1983,1,0,3:2:0:0:
201,344,2012,1,0,3:2:0:0:
223,344,2041,1,0,3:2:0:0:
246,344,2070,1,0,3:2:0:0:
268,344,2099,1,0,3:2:0:0:
291,344,2128,1,0,3:2:0:0:
313,344,2156,1,0,3:2:0:0:
336,344,2185,6,0,L|144:344,1,180,2|2,3:2|0:2,0:0:0:0:
248,344,2532,2,0,L|40:344,1,180,2|0,0:2|0:0,0:0:0:0:
268,276,2878,5,6,3:2:0:0:
288,267,2906,1,0,3:2:0:0:
304,251,2935,1,0,3:2:0:0:
311,230,2964,1,0,3:2:0:0:
309,208,2993,1,0,3:2:0:0:
298,188,3022,1,0,3:2:0:0:
280,175,3051,1,0,3:2:0:0:
259,170,3079,1,0,3:2:0:0:
237,175,3108,1,2,3:2:0:0:
148,180,3224,1,2,0:2:0:0:
340,128,3339,5,6,3:2:0:0:
362,128,3368,1,0,3:2:0:0:
385,128,3396,1,0,3:2:0:0:
252,128,3455,1,6,3:2:0:0:
231,120,3483,1,0,3:2:0:0:
216,103,3512,1,0,3:2:0:0:
212,81,3541,1,0,3:2:0:0:
218,60,3570,1,0,3:2:0:0:
234,45,3599,1,0,3:2:0:0:
256,39,3628,1,0,3:2:0:0:
396,284,3685,5,2,3:2:0:0:
384,284,3700,1,0,3:2:0:0:
373,284,3714,1,0,3:2:0:0:
361,284,3729,1,0,3:2:0:0:
350,284,3743,1,0,3:2:0:0:
338,284,3758,1,0,3:2:0:0:
327,284,3772,1,0,3:2:0:0:
316,284,3786,1,0,3:2:0:0:
304,284,3801,1,0,3:2:0:0:
293,284,3815,1,0,3:2:0:0:
281,284,3830,1,0,3:2:0:0:
270,284,3844,1,0,3:2:0:0:
258,284,3859,1,0,3:2:0:0:
247,284,3873,1,0,0:0:0:0:
236,284,3887,1,0,0:0:0:0:
224,284,3902,1,0,0:0:0:0:
213,284,3916,1,2,3:2:0:0:
190,283,3945,1,0,3:2:0:0:
167,284,3974,1,0,3:2:0:0:
337,215,4032,5,2,3:2:0:0:
358,216,4060,1,0,3:2:0:0:
380,217,4089,1,0,3:2:0:0:
402,217,4118,1,0,3:2:0:0:
424,217,4147,1,0,3:2:0:0:
401,216,4176,1,0,3:2:0:0:
378,215,4205,1,0,3:2:0:0:
224,214,4262,5,2,3:2:0:0:
201,213,4291,1,0,3:2:0:0:
183,200,4319,1,0,3:2:0:0:
175,179,4348,1,0,3:2:0:0:
181,158,4377,1,0,3:2:0:0:
197,143,4406,1,0,3:2:0:0:
219,139,4435,1,0,3:2:0:0:
288,136,4493,2,0,P|324:96|268:48,1,135,2|0,3:2|0:0,0:0:0:0:
120,52,4724,6,0,L|4:52,1,90,6|0,3:2|0:0,0:0:0:0:
228,332,4955,2,0,L|332:332,1,90,2|0,3:2|0:0,0:0:0:0:
120,260,5185,2,0,L|232:260,1,90,2|2,3:2|0:2,0:0:0:0:
24,196,5416,1,2,3:2:0:0:
224,192,5532,6,0,L|224:92,1,90,2|0,0:2|3:2,0:0:0:0:
24,104,5762,1,2,0:2:0:0:
224,192,5878,2,0,L|124:192,1,90,2|2,3:2|0:2,0:0:0:0:
336,128,6109,2,0,L|452:128,1,90,2|2,3:2|0:2,0:0:0:0:
228,96,6339,1,2,3:2:0:0:
426,128,6455,1,2,3:2:0:0:
228,96,6570,6,0,L|124:96,1,90,2|0,3:2|0:0,0:0:0:0:
328,296,6801,2,0,L|328:192,1,90,2|0,3:2|0:0,0:0:0:0:
140,196,7032,2,0,L|244:196,1,90,2|2,3:2|0:2,0:0:0:0:
36,144,7262,1,2,3:2:0:0:
230,196,7378,6,0,L|232:88,1,90,2|0,0:2|3:2,0:0:0:0:
416,100,7609,1,2,0:2:0:0:
232,64,7724,2,0,L|348:64,1,90,2|2,3:2|0:2,0:0:0:0:
124,272,7955,2,0,L|224:272,1,90,2|2,3:2|3:2,0:0:0:0:
260,272,8128,1,0,3:2:0:0:
104,212,8185,1,2,3:2:0:0:
300,156,8301,1,2,3:2:0:0:
92,164,8416,6,0,L|92:68,1,90,6|0,3:2|0:0,0:0:0:0:
296,72,8647,2,0,L|396:72,1,90,2|0,3:2|0:0,0:0:0:0:
196,344,8878,2,0,L|328:344,1,90,2|2,3:2|0:2,0:0:0:0:
96,256,9109,1,2,3:2:0:0:
288,256,9224,6,0,L|408:256,1,90,2|0,0:2|3:2,0:0:0:0:
188,192,9455,1,2,0:2:0:0:
380,192,9570,2,0,L|264:192,1,90,2|2,3:2|0:2,0:0:0:0:
484,116,9801,2,0,L|380:116,1,90,2|2,3:2|0:2,0:0:0:0:
192,128,10032,1,2,3:2:0:0:
394,116,10147,1,2,3:2:0:0:
192,296,10262,6,0,L|292:296,1,90,2|2,3:2|0:2,0:0:0:0:
88,232,10493,1,2,3:2:0:0:
282,296,10609,2,0,L|284:184,1,90,2|0,0:2|0:0,0:0:0:0:
104,152,10839,2,0,L|216:152,1,90,2|2,0:2|3:2,0:0:0:0:
12,104,11070,1,2,0:2:0:0:
212,356,11185,6,0,L|212:248,1,90,2|0,3:2|0:0,0:0:0:0:
124,256,11416,2,0,L|24:256,1,90,0|0,3:2|0:0,0:0:0:0:
224,196,11647,2,0,L|352:196,1,90,2|0,3:2|0:0,0:0:0:0:
224,196,11878,2,0,L|120:196,1,90,0|0,0:0|0:0,0:0:0:0:
340,364,12109,6,0,P|380:332|328:232,1,180,4|2,3:2|0:2,0:0:0:0:
152,228,12570,1,2,3:2:0:0:
332,232,12801,2,0,L|216:232,1,90,0|0,0:0|3:2,0:0:0:0:
420,168,13032,5,2,3:2:0:0:
236,240,13262,2,0,P|200:184|256:80,1,180,2|0,0:2|3:2,0:0:0:0:
424,84,13724,2,0,L|424:184,1,90,0|0,0:0|3:2,0:0:0:0:
240,336,13955,5,0,3:2:0:0:
408,344,14185,2,0,P|432:256|396:176,1,180,2|0,0:2|3:2,0:0:0:0:
208,180,14647,2,0,L|96:180,1,90,2|0,0:2|3:2,0:0:0:0:
312,112,14878,6,0,L|416:112,1,90,0|0,3:2|3:2,0:0:0:0:
312,112,15109,2,0,L|240:112,1,45,0|0,3:2|3:2,0:0:0:0:
222,112,15224,2,0,L|282:112,1,45,0|0,3:2|3:2,0:0:0:0:
400,356,15339,2,0,P|480:320|380:212,1,270,2|0,0:2|0:0,0:0:0:0:
176,344,15801,6,0,P|128:320|196:260,1,161.999995056153,4|0,1:2|0:0,0:0:0:0:
340,236,16262,2,0,L|160:236,1,161.999995056153,8|0,0:2|0:0,0:0:0:0:
260,236,16609,2,0,L|508:236,1,242.999992584229,0|0,0:0|1:2,0:0:0:0:
340,232,17185,2,0,L|340:52,1,161.999995056153,8|0,0:2|0:0,0:0:0:0:
176,72,17647,6,0,L|356:72,2,161.999995056153,0|0|8,1:2|0:0|0:2,0:0:0:0:
340,352,18339,1,0,0:0:0:0:
424,312,18455,2,0,P|448:240|328:160,1,242.999992584229,0|0,0:0|1:2,0:0:0:0:
160,156,19032,2,0,L|160:332,1,161.999995056153,8|0,0:2|0:0,0:0:0:0:
392,224,19493,5,0,1:2:0:0:
228,224,19724,1,0,1:2:0:0:
392,224,19955,2,0,P|432:168|368:96,1,161.999995056153,8|0,0:2|0:0,0:0:0:0:
304,100,20301,2,0,L|44:100,1,242.999992584229,0|0,0:0|1:2,0:0:0:0:
224,100,20878,2,0,L|224:272,1,161.999995056153,8|0,0:2|0:0,0:0:0:0:
420,268,21339,6,0,L|232:268,2,161.999995056153,0|0|8,1:2|0:0|0:2,0:0:0:0:
224,200,22032,5,0,0:0:0:0:
144,196,22147,2,0,L|424:200,1,242.999992584229,0|0,0:0|1:2,0:0:0:0:
176,288,22724,2,0,L|0:288,1,161.999995056153,8|0,0:2|0:0,0:0:0:0:
384,356,23185,5,4,3:2:0:0:
406,358,23214,1,0,3:2:0:0:
428,355,23242,1,0,3:2:0:0:
449,347,23271,1,0,3:2:0:0:
466,333,23300,1,0,3:2:0:0:
479,315,23329,1,0,3:2:0:0:
487,294,23358,1,0,3:2:0:0:
490,271,23386,1,0,3:2:0:0:
486,249,23415,1,0,3:2:0:0:
477,229,23444,1,0,3:2:0:0:
462,212,23473,1,0,3:2:0:0:
443,199,23502,1,0,3:2:0:0:
422,192,23531,1,0,3:2:0:0:
400,191,23559,1,0,0:0:0:0:
378,195,23588,1,0,3:2:0:0:
332,200,23647,5,0,3:2:0:0:
306,164,23704,1,0,0:0:0:0:
320,123,23762,1,0,0:0:0:0:
361,110,23820,1,0,0:0:0:0:
424,116,23878,2,0,L|416:20,1,90,0|0,0:0|0:0,0:0:0:0:
176,360,24109,5,4,3:2:0:0:
176,337,24137,1,0,3:2:0:0:
182,315,24166,1,0,3:2:0:0:
193,296,24195,1,0,3:2:0:0:
208,279,24224,1,0,3:2:0:0:
226,266,24253,1,0,3:2:0:0:
247,258,24282,1,0,3:2:0:0:
269,254,24310,1,0,3:2:0:0:
291,256,24339,1,0,3:2:0:0:
313,263,24368,1,0,3:2:0:0:
332,274,24397,1,0,3:2:0:0:
348,290,24426,1,0,3:2:0:0:
360,309,24455,1,0,3:2:0:0:
367,330,24483,1,0,0:0:0:0:
370,353,24512,1,0,3:2:0:0:
324,356,24570,5,0,3:2:0:0:
279,356,24627,1,0,0:0:0:0:
234,356,24685,1,0,0:0:0:0:
280,356,24743,1,0,0:0:0:0:
324,356,24801,2,0,L|328:248,1,90,0|0,0:0|0:0,0:0:0:0:
140,276,25032,5,4,3:2:0:0:
117,276,25060,1,0,3:0:0:0:
95,271,25089,1,0,3:0:0:0:
75,261,25118,1,0,3:0:0:0:
58,247,25147,1,0,3:0:0:0:
45,228,25176,1,0,3:0:0:0:
38,207,25205,1,0,3:0:0:0:
35,185,25233,1,0,3:0:0:0:
38,163,25262,1,0,3:0:0:0:
47,142,25291,1,0,3:0:0:0:
60,124,25320,1,0,3:0:0:0:
77,110,25349,1,0,3:0:0:0:
98,100,25378,1,0,3:0:0:0:
120,96,25406,1,0,0:0:0:0:
142,97,25435,1,0,3:0:0:0:
188,100,25493,5,0,3:0:0:0:
191,144,25550,1,0,0:0:0:0:
195,189,25608,1,0,0:0:0:0:
152,196,25666,1,0,0:0:0:0:
104,192,25724,2,0,L|0:192,1,90,0|0,0:0|0:0,0:0:0:0:
292,372,25955,5,4,3:2:0:0:
287,350,25983,1,0,3:0:0:0:
277,329,26012,1,0,3:0:0:0:
264,311,26041,1,0,3:0:0:0:
247,296,26070,1,0,3:0:0:0:
227,286,26099,1,0,3:0:0:0:
206,280,26128,1,0,3:0:0:0:
183,278,26156,1,0,3:0:0:0:
161,281,26185,1,0,3:0:0:0:
140,289,26214,1,0,3:0:0:0:
121,302,26243,1,0,3:0:0:0:
106,318,26272,1,0,3:0:0:0:
94,337,26301,1,0,3:0:0:0:
86,358,26329,1,0,0:0:0:0:
84,380,26358,1,0,3:0:0:0:
128,384,26416,5,0,3:0:0:0:
173,384,26473,1,0,0:0:0:0:
218,384,26531,1,0,0:0:0:0:
172,384,26589,1,0,0:0:0:0:
128,384,26647,2,0,L|120:260,1,90,0|0,0:0|0:0,0:0:0:0:
328,300,26878,5,4,3:2:0:0:
346,312,26906,1,0,3:0:0:0:
367,320,26935,1,0,3:0:0:0:
389,322,26964,1,0,3:0:0:0:
412,319,26993,1,0,3:0:0:0:
432,310,27022,1,0,3:0:0:0:
450,297,27051,1,0,3:0:0:0:
464,279,27079,1,0,3:0:0:0:
473,259,27108,1,0,3:0:0:0:
477,237,27137,1,0,3:0:0:0:
475,214,27166,1,0,3:0:0:0:
468,193,27195,1,0,3:0:0:0:
455,174,27224,1,0,3:0:0:0:
438,159,27252,1,0,0:0:0:0:
419,149,27281,1,0,3:0:0:0:
372,152,27339,5,0,3:0:0:0:
327,152,27396,1,0,0:0:0:0:
282,152,27454,1,0,0:0:0:0:
328,152,27512,1,0,0:0:0:0:
372,152,27570,2,0,L|480:152,1,90,0|0,0:0|0:0,0:0:0:0:
240,332,27801,5,4,3:2:0:0:
218,338,27829,1,0,3:2:0:0:
196,341,27858,1,0,3:2:0:0:
173,341,27887,1,0,3:2:0:0:
151,337,27916,1,0,3:2:0:0:
129,331,27945,1,0,3:2:0:0:
109,321,27974,1,0,3:2:0:0:
90,309,28002,1,0,3:2:0:0:
74,294,28031,1,0,3:2:0:0:
59,277,28060,1,0,3:2:0:0:
47,257,28089,1,0,3:2:0:0:
38,237,28118,1,0,3:2:0:0:
32,215,28147,1,0,3:2:0:0:
30,193,28175,1,0,0:0:0:0:
30,170,28204,1,0,3:2:0:0:
76,176,28262,5,0,3:2:0:0:
121,176,28319,1,0,0:0:0:0:
166,176,28377,1,0,0:0:0:0:
121,176,28435,1,0,0:0:0:0:
76,176,28493,2,0,L|72:64,1,90,0|0,0:0|0:0,0:0:0:0:
292,368,28724,5,4,3:2:0:0:
311,379,28752,1,0,3:2:0:0:
332,386,28781,1,0,3:2:0:0:
354,388,28810,1,0,3:2:0:0:
377,385,28839,1,0,3:2:0:0:
397,376,28868,1,0,3:2:0:0:
416,363,28897,1,0,3:2:0:0:
430,346,28925,1,0,3:2:0:0:
441,326,28954,1,0,3:2:0:0:
447,305,28983,1,0,3:2:0:0:
447,282,29012,1,0,3:2:0:0:
442,260,29041,1,0,3:2:0:0:
432,240,29070,1,0,3:2:0:0:
418,223,29098,1,0,0:0:0:0:
400,209,29127,1,0,3:2:0:0:
232,248,29185,5,4,3:2:0:0:
210,253,29214,1,0,3:2:0:0:
187,254,29242,1,0,3:2:0:0:
165,250,29271,1,0,3:2:0:0:
145,240,29300,1,0,3:2:0:0:
127,227,29329,1,0,3:2:0:0:
113,209,29358,1,0,3:2:0:0:
103,189,29386,1,0,3:2:0:0:
98,167,29415,1,0,3:2:0:0:
98,145,29444,1,0,3:2:0:0:
103,123,29473,1,0,3:2:0:0:
113,103,29502,1,0,3:2:0:0:
127,85,29531,1,0,3:2:0:0:
145,72,29559,1,0,0:0:0:0:
165,62,29588,1,0,3:2:0:0:
336,324,29647,5,4,3:2:0:0:
330,302,29675,1,0,3:2:0:0:
320,281,29704,1,0,3:2:0:0:
307,264,29733,1,0,3:2:0:0:
290,249,29762,1,0,3:2:0:0:
270,238,29791,1,0,3:2:0:0:
249,232,29820,1,0,3:2:0:0:
226,230,29848,1,0,3:2:0:0:
204,232,29877,1,0,3:2:0:0:
183,239,29906,1,0,3:2:0:0:
163,251,29935,1,0,3:2:0:0:
147,266,29964,1,0,3:2:0:0:
134,284,29993,1,0,3:2:0:0:
125,305,30021,1,0,0:0:0:0:
120,327,30050,1,0,3:2:0:0:
284,184,30109,6,0,L|408:184,1,90,0|0,3:2|3:2,0:0:0:0:
332,184,30282,1,0,3:2:0:0:
164,184,30339,1,0,3:2:0:0:
143,176,30368,1,0,3:2:0:0:
128,159,30396,1,0,3:2:0:0:
123,138,30425,1,0,3:2:0:0:
129,116,30454,1,0,3:2:0:0:
144,100,30483,1,0,3:2:0:0:
166,94,30512,1,0,3:2:0:0:
312,92,30570,6,0,L|428:92,1,90,6|0,3:2|0:0,0:0:0:0:
212,40,30801,2,0,L|104:40,1,90,2|0,3:2|0:0,0:0:0:0:
316,176,31032,2,0,L|224:176,1,90,2|2,3:2|0:2,0:0:0:0:
432,116,31262,1,2,3:2:0:0:
220,172,31378,6,0,L|220:56,1,90,2|0,0:2|3:2,0:0:0:0:
408,72,31609,1,2,0:2:0:0:
220,172,31724,2,0,L|312:172,1,90,2|2,3:2|0:2,0:0:0:0:
120,120,31955,2,0,L|16:120,1,90,2|2,3:2|0:2,0:0:0:0:
224,56,32185,1,2,3:2:0:0:
30,120,32301,1,2,3:2:0:0:
232,360,32416,6,0,L|232:244,1,90,2|0,3:2|0:0,0:0:0:0:
40,276,32647,2,0,L|40:172,1,90,2|0,3:2|0:0,0:0:0:0:
244,180,32878,2,0,L|128:180,1,90,2|2,3:2|0:2,0:0:0:0:
348,128,33109,1,2,3:2:0:0:
160,180,33224,6,0,L|48:180,1,90,2|0,0:2|3:2,0:0:0:0:
272,112,33455,1,2,0:2:0:0:
80,60,33570,2,0,L|200:60,1,90,2|2,3:2|0:2,0:0:0:0:
380,56,33801,2,0,L|496:56,1,90,2|2,3:2|3:2,0:0:0:0:
424,56,33974,1,0,3:2:0:0:
280,328,34032,1,2,3:2:0:0:
464,268,34147,1,2,3:2:0:0:
192,332,34262,6,0,L|96:332,1,90,14|0,3:2|3:2,0:0:0:0:
304,228,34493,2,0,L|184:228,1,90,10|0,3:2|3:2,0:0:0:0:
408,152,34724,1,10,3:2:0:0:
296,100,34839,1,2,3:2:0:0:
496,72,34955,1,10,3:2:0:0:
296,100,35070,6,0,L|412:100,1,90,2|8,3:2|3:2,0:0:0:0:
196,208,35301,1,2,3:2:0:0:
386,100,35416,2,0,L|290:100,1,90,10|2,3:2|3:2,0:0:0:0:
496,72,35647,1,10,3:2:0:0:
276,256,35762,2,0,L|276:144,1,90,2|10,3:2|3:2,0:0:0:0:
460,160,35993,1,2,3:2:0:0:
244,120,36109,6,0,L|352:120,1,90,10|2,3:2|3:2,0:0:0:0:
136,80,36339,2,0,L|196:80,1,45,10|0,3:2|3:2,0:0:0:0:
340,84,36455,2,0,L|340:32,1,45,2|0,3:2|3:2,0:0:0:0:
204,300,36570,6,0,L|84:300,1,90,8|2,3:2|3:2,0:0:0:0:
300,256,36801,2,0,L|356:256,1,45,10|0,3:2|3:2,0:0:0:0:
200,212,36916,2,0,L|128:212,1,45,2|0,3:2|3:2,0:0:0:0:
344,208,37032,6,0,L|460:208,1,90,10|0,3:2|3:2,0:0:0:0:
388,208,37205,1,0,3:2:0:0:
236,384,37262,2,0,L|236:264,1,90,8|0,3:2|3:2,0:0:0:0:
432,296,37493,5,2,3:2:0:0:
453,286,37521,1,0,3:2:0:0:
466,269,37550,1,0,3:2:0:0:
471,247,37579,1,0,3:2:0:0:
464,225,37608,1,0,3:2:0:0:
449,210,37637,1,0,3:2:0:0:
427,202,37666,1,0,3:2:0:0:
280,140,37724,5,2,3:2:0:0:
303,140,37752,1,0,3:2:0:0:
325,140,37781,1,0,3:2:0:0:
348,140,37810,1,0,3:2:0:0:
370,140,37839,1,0,3:2:0:0:
393,140,37868,1,0,3:2:0:0:
415,140,37897,1,0,3:2:0:0:
236,336,37955,6,0,P|184:280|248:228,1,161.999995056153,4|0,3:2|0:0,0:0:0:0:
436,340,38416,2,0,P|480:296|412:224,1,161.999995056153,0|0,0:0|3:2,0:0:0:0:
96,232,38878,5,0,3:2:0:0:
340,144,39339,1,8,3:2:0:0:
96,232,39801,6,0,P|52:200|192:48,1,323.999990112305,0|0,3:2|0:0,0:0:0:0:
328,44,40493,1,0,3:2:0:0:
152,340,40724,6,0,L|84:168,1,161.999995056153,0|0,3:2|3:2,0:0:0:0:
412,206,41185,2,0,P|480:170|372:38,1,283.499991348267,2|0,0:2|0:0,0:0:0:0:
244,252,41647,6,0,L|132:252,1,90,6|0,3:2|0:0,0:0:0:0:
348,200,41878,2,0,L|448:200,1,90,2|0,3:2|0:0,0:0:0:0:
240,144,42109,2,0,L|360:144,1,90,2|0,3:2|0:0,0:0:0:0:
128,92,42339,2,0,L|128:192,1,90,2|0,3:2|0:0,0:0:0:0:
220,184,42570,6,0,L|328:184,1,90,0|0,3:2|0:0,0:0:0:0:
96,276,42801,2,0,L|208:276,1,90,2|0,3:2|0:0,0:0:0:0:
276,276,43032,2,0,L|168:276,1,90,0|0,3:2|0:0,0:0:0:0:
384,228,43262,2,0,L|384:128,1,90,2|0,3:2|0:0,0:0:0:0:
192,144,43493,6,0,L|100:144,1,90,0|0,3:2|0:0,0:0:0:0:
192,144,43724,2,0,L|288:144,1,90,0|0,3:2|0:0,0:0:0:0:
84,248,43955,2,0,L|84:148,1,90,0|0,3:2|0:0,0:0:0:0:
272,200,44185,1,2,3:2:0:0:
84,248,44301,1,0,0:2:0:0:
272,200,44416,6,0,L|400:200,1,90,2|0,3:2|0:0,0:0:0:0:
168,152,44647,2,0,L|64:152,1,90,2|0,3:2|0:0,0:0:0:0:
312,156,44878,2,0,L|312:40,1,90,2|0,3:2|0:0,0:0:0:0:
120,60,45109,2,0,L|212:60,1,90,2|0,3:2|0:0,0:0:0:0:
472,60,45339,6,0,L|368:60,1,90,12|0,3:2|3:2,0:0:0:0:
200,304,45570,2,0,L|320:304,1,90,8|0,3:2|3:2,0:0:0:0:
108,240,45801,2,0,L|4:240,1,90,8|0,3:2|3:2,0:0:0:0:
228,168,46032,2,0,L|120:168,1,90,8|0,3:2|3:2,0:0:0:0:
384,120,46262,6,0,L|480:120,1,90,8|0,3:2|3:2,0:0:0:0:
260,72,46493,2,0,L|164:72,1,90,8|0,3:2|3:2,0:0:0:0:
408,40,46724,2,0,L|504:40,1,90,8|0,3:2|3:2,0:0:0:0:
288,36,46955,2,0,L|184:36,1,90,8|0,3:2|3:2,0:0:0:0:
428,336,47185,6,0,P|204:276|416:36,1,675,4|0,3:2|0:0,0:0:0:0:
364,44,48109,6,0,P|276:80|100:240,1,315,2|0,0:2|0:0,0:0:0:0:
156,240,48570,2,0,P|216:260|324:248,1,135,2|0,0:2|0:0,0:0:0:0:
112,200,48801,2,0,P|76:160|136:100,1,135,8|0,0:1|0:0,0:0:0:0:
284,328,49032,6,0,L|164:328,1,90,6|2,3:2|0:2,0:0:0:0:
384,268,49262,2,0,L|488:268,1,90,2|0,3:2|0:0,0:0:0:0:
264,220,49493,2,0,L|264:108,1,90,2|0,3:2|0:0,0:0:0:0:
64,124,49724,1,2,3:2:0:0:
273,220,49839,6,0,L|405:220,1,90,2|0,0:2|3:2,0:0:0:0:
156,156,50070,1,2,0:2:0:0:
363,220,50185,2,0,L|260:220,1,90,2|0,3:2|0:0,0:0:0:0:
60,216,50416,2,0,L|60:116,1,90,2|0,3:2|0:0,0:0:0:0:
152,120,50647,2,0,L|52:120,1,90,0|0,3:2|0:0,0:0:0:0:
272,268,50878,6,0,L|376:268,1,90,2|0,3:2|0:0,0:0:0:0:
168,216,51109,2,0,L|60:216,1,90,2|0,3:2|0:0,0:0:0:0:
272,136,51339,1,2,3:2:0:0:
69,216,51455,1,2,0:2:0:0:
296,136,51570,2,0,L|404:136,1,90,2|0,3:2|0:0,0:0:0:0:
180,304,51801,6,0,L|180:204,1,90,2|0,3:2|0:0,0:0:0:0:
384,212,52032,1,2,3:2:0:0:
180,304,52147,1,2,0:2:0:0:
384,212,52262,2,0,L|484:212,1,90,2|0,3:2|0:0,0:0:0:0:
260,148,52493,2,0,L|164:148,1,90,2|0,3:2|0:0,0:0:0:0:
376,80,52724,6,0,L|264:80,1,90,6|0,3:2|0:0,0:0:0:0:
376,80,52955,2,0,L|480:80,1,90,0|0,3:2|0:0,0:0:0:0:
244,232,53185,2,0,L|344:232,1,90,2|0,3:2|0:0,0:0:0:0:
144,176,53416,1,2,3:2:0:0:
344,232,53532,6,0,L|344:108,1,90,2|0,0:2|3:2,0:0:0:0:
148,112,53762,1,2,0:2:0:0:
348,108,53878,2,0,L|452:108,1,90,2|0,3:2|0:0,0:0:0:0:
240,68,54109,2,0,L|124:68,1,90,2|0,3:2|0:0,0:0:0:0:
240,68,54339,2,0,L|340:68,1,90,0|0,3:2|0:0,0:0:0:0:
128,288,54570,6,0,L|20:288,1,90,2|0,3:2|0:0,0:0:0:0:
256,204,54801,1,2,3:2:0:0:
29,288,54916,1,0,0:0:0:0:
256,204,55032,2,0,L|356:204,1,90,2|0,3:2|0:0,0:0:0:0:
152,152,55262,1,2,3:2:0:0:
355,204,55378,1,2,0:2:0:0:
148,260,55493,5,0,3:0:0:0:
123,263,55521,1,0,3:0:0:0:
99,259,55550,1,0,3:0:0:0:
77,248,55579,1,0,3:0:0:0:
58,231,55608,1,0,3:0:0:0:
46,210,55637,1,0,3:0:0:0:
40,186,55666,1,0,3:0:0:0:
200,192,55724,5,0,3:0:0:0:
224,194,55752,1,0,3:0:0:0:
248,190,55781,1,0,3:0:0:0:
271,179,55810,1,0,3:0:0:0:
289,163,55839,1,0,3:0:0:0:
303,142,55868,1,0,3:0:0:0:
310,119,55897,1,0,3:0:0:0:
148,356,55955,5,0,3:0:0:0:
123,359,55983,1,0,3:0:0:0:
99,357,56012,1,0,3:0:0:0:
76,347,56041,1,0,3:0:0:0:
56,332,56070,1,0,3:0:0:0:
41,313,56099,1,0,3:0:0:0:
32,290,56128,1,0,3:0:0:0:
30,265,56156,1,0,3:0:0:0:
34,241,56185,1,0,3:0:0:0:
44,219,56214,1,0,3:0:0:0:
60,200,56243,1,0,3:0:0:0:
81,186,56272,1,0,3:0:0:0:
104,179,56301,1,0,3:0:0:0:
129,177,56330,1,0,3:0:0:0:
153,183,56358,1,0,3:0:0:0:
304,268,56416,5,6,3:2:0:0:
104,108,56532,1,2,3:2:0:0:
304,268,56647,2,0,L|420:268,1,90,2|0,3:2|0:0,0:0:0:0:
196,336,56878,2,0,L|76:336,1,90,2|0,3:2|0:0,0:0:0:0:
304,232,57109,1,2,3:2:0:0:
97,336,57224,6,0,L|96:224,1,90,2|0,3:2|0:0,0:0:0:0:
304,160,57455,1,2,3:2:0:0:
92,124,57570,2,0,L|196:124,1,90,2|0,3:2|0:0,0:0:0:0:
404,116,57801,2,0,L|404:24,1,90,2|0,3:2|3:2,0:0:0:0:
200,304,58032,2,0,L|128:304,1,45,0|0,3:2|3:2,0:0:0:0:
304,252,58147,2,0,L|380:252,1,45,0|0,3:2|3:2,0:0:0:0:
176,228,58262,6,0,L|68:228,1,90,2|0,3:2|0:0,0:0:0:0:
280,160,58493,2,0,L|396:160,1,90,2|0,3:2|0:0,0:0:0:0:
152,116,58724,2,0,L|276:116,1,90,2|0,3:2|0:0,0:0:0:0:
456,68,58955,1,2,3:2:0:0:
256,116,59070,1,0,3:2:0:0:
456,68,59185,6,0,L|456:160,1,90,2|0,3:2|0:0,0:0:0:0:
240,260,59416,1,2,3:2:0:0:
456,167,59532,1,2,3:2:0:0:
240,260,59647,2,0,L|128:260,1,90,2|0,3:2|0:0,0:0:0:0:
344,176,59878,2,0,L|272:176,1,45,2|0,3:2|3:2,0:0:0:0:
136,176,59993,2,0,L|56:176,1,45,0|0,3:2|3:2,0:0:0:0:
256,336,60109,6,0,L|368:336,1,90,6|0,3:2|0:0,0:0:0:0:
256,336,60339,2,0,L|144:336,1,90,0|0,3:2|0:0,0:0:0:0:
376,248,60570,2,0,L|264:248,1,90,2|0,3:2|0:0,0:0:0:0:
484,188,60801,1,2,3:2:0:0:
260,200,60916,6,0,L|260:100,1,90,2|0,3:2|0:0,0:0:0:0:
56,88,61147,1,2,3:2:0:0:
260,200,61262,2,0,L|388:200,1,90,2|0,3:2|0:0,0:0:0:0:
136,132,61493,1,2,3:2:0:0:
359,200,61609,1,0,3:2:0:0:
136,132,61724,2,0,L|8:132,1,90,0|0,3:2|0:0,0:0:0:0:
248,88,61955,5,2,3:2:0:0:
37,132,62070,1,0,3:2:0:0:
248,88,62185,2,0,L|248:200,1,90,2|0,3:2|0:0,0:0:0:0:
36,288,62416,2,0,L|36:184,1,90,2|0,3:2|0:0,0:0:0:0:
248,192,62647,1,2,3:2:0:0:
37,132,62762,6,0,L|160:132,1,90,2|0,3:2|0:0,0:0:0:0:
360,132,62993,1,0,3:2:0:0:
144,280,63109,2,0,L|144:168,1,90,0|0,3:2|0:0,0:0:0:0:
352,184,63339,2,0,L|468:184,1,90,2|0,0:2|0:0,0:0:0:0:
396,184,63512,1,0,0:0:0:0:
236,352,63570,2,0,P|192:312|248:272,1,135,2|0,0:2|0:0,0:0:0:0:
392,332,63801,6,0,L|516:332,1,90,6|2,3:2|3:2,0:0:0:0:
300,256,64032,2,0,L|424:256,1,90,2|2,3:2|3:2,0:0:0:0:
208,188,64262,2,0,L|324:188,1,90,2|2,3:2|3:2,0:0:0:0:
116,124,64493,2,0,L|220:124,1,90,2|2,3:2|3:2,0:0:0:0:
24,72,64724,5,2,3:2:0:0:
206,124,64839,1,2,3:2:0:0:
160,124,64896,1,0,3:2:0:0:
116,124,64954,1,2,3:2:0:0:
340,368,65070,2,0,L|128:368,1,180,2|0,3:2|3:2,0:0:0:0:
364,296,65416,2,0,L|364:180,1,90,2|0,3:2|0:0,0:0:0:0:
120,200,65647,6,0,L|0:200,1,90,2|2,3:2|3:2,0:0:0:0:
212,144,65878,2,0,L|108:144,1,90,2|2,3:2|3:2,0:0:0:0:
304,88,66109,2,0,L|196:88,1,90,2|0,3:2|0:0,0:0:0:0:
396,40,66339,2,0,L|284:40,1,90,2|2,3:2|3:2,0:0:0:0:
496,40,66570,5,2,3:2:0:0:
306,40,66685,1,2,3:2:0:0:
350,40,66742,1,0,3:2:0:0:
394,40,66800,1,2,3:2:0:0:
192,356,66916,2,0,P|140:328|212:256,1,180,2|0,3:2|3:2,0:0:0:0:
396,244,67262,2,0,L|396:136,1,90,2|0,3:2|0:0,0:0:0:0:
136,144,67493,6,0,L|8:144,1,90,14|2,3:2|3:2,0:0:0:0:
236,88,67724,1,10,3:2:0:0:
192,88,67781,1,0,3:2:0:0:
148,88,67839,1,2,3:2:0:0:
336,36,67955,2,0,L|236:36,1,90,10|0,3:2|0:0,0:0:0:0:
292,36,68128,1,0,3:2:0:0:
432,40,68185,2,0,L|480:40,2,45,10|0|2,3:2|0:0|3:2,0:0:0:0:
232,288,68416,5,10,3:2:0:0:
424,216,68532,2,0,L|484:216,2,45,2|0|10,3:2|3:2|3:2,0:0:0:0:
232,216,68762,2,0,L|424:216,1,180,2|0,3:2|3:2,0:0:0:0:
184,144,69109,2,0,L|308:144,1,90,10|0,3:2|3:2,0:0:0:0:
320,144,69282,1,0,3:2:0:0:
164,272,69339,6,0,L|56:272,1,90,8|0,3:2|3:2,0:0:0:0:
120,272,69512,1,0,3:2:0:0:
288,216,69570,2,0,L|172:216,1,90,8|0,3:2|3:2,0:0:0:0:
152,216,69743,1,0,3:2:0:0:
312,160,69801,6,0,L|416:160,1,90,8|0,3:2|3:2,0:0:0:0:
356,160,69974,1,0,3:2:0:0:
208,160,70032,2,0,L|88:160,1,90,8|0,3:2|3:2,0:0:0:0:
332,324,70262,6,0,L|404:324,1,45,8|0,3:2|3:2,0:0:0:0:
228,276,70378,2,0,L|152:276,1,45,0|0,3:2|3:2,0:0:0:0:
340,264,70493,5,8,3:2:0:0:
364,264,70521,1,0,3:2:0:0:
384,250,70550,1,0,3:2:0:0:
392,227,70579,1,0,3:2:0:0:
385,204,70608,1,0,3:2:0:0:
365,189,70637,1,0,3:2:0:0:
341,189,70666,1,0,3:2:0:0:
192,156,70724,6,0,L|248:156,1,45,8|0,3:2|3:2,0:0:0:0:
392,112,70839,2,0,L|420:112,2,22.5,0|0|0,3:2|3:2|3:2,0:0:0:0:
240,80,70955,2,0,L|184:80,1,45,8|0,3:2|3:2,0:0:0:0:
344,44,71070,2,0,L|368:44,2,22.5,0|0|0,3:2|3:2|3:2,0:0:0:0:
176,364,71185,6,0,P|120:296|196:244,1,180,4|0,3:2|0:0,0:0:0:0:
356,196,71647,2,0,P|416:252|352:304,1,180,0|0,0:0|0:0,0:0:0:0:
44,192,72109,5,8,3:2:0:0:
228,192,72339,2,0,L|344:192,1,90,0|0,0:0|3:2,0:0:0:0:
128,104,72685,2,0,L|32:104,1,90,0|0,0:0|3:2,0:0:0:0:
428,372,73032,6,0,P|304:104|196:372,1,720,4|8,3:2|0:3,0:0:0:0:
364,356,74185,1,8,0:3:0:0:
184,352,74416,1,8,0:3:0:0:
364,356,74647,1,8,0:3:0:0:
64,296,74878,5,6,3:2:0:0:
43,286,74906,1,0,3:2:0:0:
28,269,74935,1,0,3:2:0:0:
20,248,74964,1,0,3:2:0:0:
19,226,74993,1,0,3:2:0:0:
27,205,75022,1,0,3:2:0:0:
41,188,75051,1,0,3:2:0:0:
61,177,75079,1,0,3:2:0:0:
84,172,75109,6,0,L|268:172,1,180,2|2,3:2|0:2,0:0:0:0:
172,176,75455,2,0,L|392:176,1,180,2|0,0:2|0:0,0:0:0:0:
144,332,75801,5,6,3:2:0:0:
166,332,75829,1,0,3:2:0:0:
189,332,75858,1,0,3:2:0:0:
211,332,75887,1,0,3:2:0:0:
234,332,75916,1,0,3:2:0:0:
256,332,75945,1,0,3:2:0:0:
279,332,75974,1,0,3:2:0:0:
301,332,76002,1,0,3:2:0:0:
324,332,76032,6,0,L|136:332,1,180,2|2,3:2|0:2,0:0:0:0:
236,332,76378,2,0,L|16:332,1,180,2|0,0:2|0:0,0:0:0:0:
264,280,76724,5,6,3:2:0:0:
285,274,76752,1,0,3:2:0:0:
303,260,76781,1,0,3:2:0:0:
313,240,76810,1,0,3:2:0:0:
315,218,76839,1,0,3:2:0:0:
308,197,76868,1,0,3:2:0:0:
294,180,76897,1,0,3:2:0:0:
273,170,76925,1,0,3:2:0:0:
251,170,76954,1,2,3:2:0:0:
160,172,77070,1,2,0:2:0:0:
368,120,77185,5,6,3:2:0:0:
390,120,77214,1,0,3:2:0:0:
413,120,77242,1,0,3:2:0:0:
260,328,77301,5,6,3:2:0:0:
237,328,77329,1,0,3:2:0:0:
215,329,77358,1,0,3:2:0:0:
192,329,77387,1,0,3:2:0:0:
170,330,77416,1,0,3:2:0:0:
147,330,77445,1,0,3:2:0:0:
125,331,77474,1,0,3:2:0:0:
300,272,77532,6,0,L|312:272,12,11.25,2|0|0|0|0|0|0|0|0|0|0|0|0,3:2|3:2|3:2|3:2|3:2|3:2|3:2|3:2|3:2|3:2|3:2|3:2|3:2,0:0:0:0:
144,236,77762,5,2,3:2:0:0:
121,236,77790,1,0,3:2:0:0:
99,236,77819,1,0,3:2:0:0:
256,180,77878,5,2,3:2:0:0:
278,180,77906,1,0,3:2:0:0:
301,180,77935,1,0,3:2:0:0:
323,180,77964,1,0,3:2:0:0:
346,180,77993,1,0,3:2:0:0:
368,180,78022,1,0,3:2:0:0:
391,180,78051,1,0,3:2:0:0:
212,356,78109,5,2,3:2:0:0:
189,356,78137,1,0,3:2:0:0:
171,344,78166,1,0,3:2:0:0:
163,323,78195,1,0,3:2:0:0:
169,302,78224,1,0,3:2:0:0:
186,288,78253,1,0,3:2:0:0:
208,287,78282,1,0,3:2:0:0:
272,288,78339,2,0,P|312:268|256:216,1,135,2|0,3:2|0:0,0:0:0:0:
116,144,78570,5,4,3:2:0:0:
138,144,78598,1,0,3:2:0:0:
161,144,78627,1,0,3:2:0:0:
183,144,78656,1,0,3:2:0:0:
206,144,78685,1,0,3:2:0:0:
228,144,78714,1,0,3:2:0:0:
251,144,78743,1,0,3:2:0:0:
204,144,78801,2,0,L|36:144,1,135,2|0,3:2|0:0,0:0:0:0:
232,336,79032,5,6,3:2:0:0:
233,313,79060,1,0,3:2:0:0:
234,291,79089,1,0,3:2:0:0:
212,292,79118,1,0,3:2:0:0:
188,288,79147,1,2,3:2:0:0:
186,265,79175,1,0,0:0:0:0:
185,243,79204,1,0,0:0:0:0:
232,244,79262,2,0,L|376:244,1,135,0|0,3:2|0:0,0:0:0:0:
232,180,79493,5,4,3:2:0:0:
209,179,79521,1,0,3:2:0:0:
191,167,79550,1,0,3:2:0:0:
183,146,79579,1,0,3:2:0:0:
187,124,79608,1,0,3:2:0:0:
203,109,79637,1,0,3:2:0:0:
225,105,79666,1,0,3:2:0:0:
272,104,79724,2,0,L|432:104,1,135,2|0,3:2|0:0,0:0:0:0:
268,368,79955,5,6,3:2:0:0:
266,345,79983,1,0,3:2:0:0:
265,323,80012,1,0,3:2:0:0:
288,324,80041,1,0,3:2:0:0:
312,324,80070,1,2,3:2:0:0:
313,301,80098,1,0,0:0:0:0:
314,279,80127,1,0,0:0:0:0:
268,276,80185,2,0,L|116:276,1,135,0|0,3:2|0:0,0:0:0:0:
296,220,80416,5,6,3:2:0:0:
317,215,80444,1,0,3:2:0:0:
334,200,80473,1,0,3:2:0:0:
340,179,80502,1,0,3:2:0:0:
334,157,80531,1,0,3:2:0:0:
318,142,80560,1,0,3:2:0:0:
296,138,80589,1,0,3:2:0:0:
144,104,80647,5,2,3:2:0:0:
166,104,80675,1,0,3:2:0:0:
189,104,80704,1,0,3:2:0:0:
211,104,80733,1,0,3:2:0:0:
234,104,80762,1,0,3:2:0:0:
256,104,80791,1,0,3:2:0:0:
279,104,80820,1,0,3:2:0:0:
136,300,80878,5,6,3:2:0:0:
113,300,80906,1,0,3:2:0:0:
91,300,80935,1,0,3:2:0:0:
240,260,80993,1,6,3:2:0:0:
261,254,81021,1,0,3:2:0:0:
276,238,81050,1,0,3:2:0:0:
280,216,81079,1,0,3:2:0:0:
271,196,81108,1,0,3:2:0:0:
252,184,81137,1,0,3:2:0:0:
230,183,81166,1,0,3:2:0:0:
72,192,81224,6,0,L|56:192,12,11.25,2|0|0|0|0|0|0|0|0|0|0|0|0,3:2|3:2|3:2|3:2|3:2|3:2|3:2|3:2|3:2|3:2|3:2|3:2|3:2,0:0:0:0:
224,192,81455,5,2,3:2:0:0:
246,192,81483,1,0,3:2:0:0:
269,192,81512,1,0,3:2:0:0:
112,144,81570,5,2,3:2:0:0:
90,137,81598,1,0,3:2:0:0:
75,121,81627,1,0,3:2:0:0:
70,99,81656,1,0,3:2:0:0:
77,78,81685,1,0,3:2:0:0:
93,63,81714,1,0,3:2:0:0:
115,58,81743,1,0,3:2:0:0:
288,336,81801,5,2,3:2:0:0:
265,336,81829,1,0,3:2:0:0:
243,336,81858,1,0,3:2:0:0:
220,336,81887,1,0,3:2:0:0:
198,336,81916,1,0,3:2:0:0:
175,336,81945,1,0,3:2:0:0:
153,336,81974,1,0,3:2:0:0:
130,336,82002,1,0,0:0:0:0:
108,336,82032,2,0,L|264:336,1,135,0|0,0:0|0:0,0:0:0:0:
432,276,82262,5,4,3:2:0:0:
256,192,88724,12,0,89416,0:0:0:0:
128,368,89647,6,0,P|84:312|152:248,1,161.999995056153,4|0,1:2|0:0,0:0:0:0:
296,244,90109,2,0,L|384:244,2,80.9999975280763,2|0|2,0:2|0:0|0:2,0:0:0:0:
88,196,90570,5,10,0:2:0:0:
252,192,90801,2,0,L|252:80,1,80.9999975280763,0|0,0:0|0:0,0:0:0:0:
172,116,91032,2,0,L|80:116,2,80.9999975280763,2|0|0,0:2|0:0|0:0,0:0:0:0:
384,360,91493,6,0,P|424:308|360:232,1,161.999995056153,2|0,1:2|0:0,0:0:0:0:
216,232,91955,2,0,L|112:232,1,80.9999975280763,2|0,0:2|0:0,0:0:0:0:
296,232,92301,6,0,L|296:120,1,80.9999975280763,0|8,0:0|0:2,0:0:0:0:
216,152,92532,1,0,0:0:0:0:
136,156,92647,2,0,L|136:64,1,80.9999975280763,0|0,0:0|0:0,0:0:0:0:
216,80,92878,2,0,L|336:80,2,80.9999975280763,0|0|0,0:0|0:0|0:0,0:0:0:0:
432,360,93339,6,0,L|432:164,1,161.999995056153,0|0,1:2|0:0,0:0:0:0:
268,200,93801,1,2,0:2:0:0:
349,200,93916,1,0,0:0:0:0:
430,200,94031,1,2,0:2:0:0:
212,304,94262,6,0,P|172:264|236:180,1,161.999995056153,10|0,0:2|0:0,0:0:0:0:
296,180,94609,1,0,0:0:0:0:
376,180,94724,2,0,L|468:180,2,80.9999975280763,2|0|2,0:2|0:0|0:2,0:0:0:0:
160,124,95185,6,0,L|348:124,1,161.999995056153,2|0,1:2|0:0,0:0:0:0:
160,124,95647,2,0,L|64:124,1,80.9999975280763,2|0,0:2|0:0,0:0:0:0:
240,124,95993,6,0,L|332:124,1,80.9999975280763,0|8,0:0|0:2,0:0:0:0:
240,124,96224,1,0,0:0:0:0:
160,120,96339,2,0,L|160:212,1,80.9999975280763,0|0,0:0|0:0,0:0:0:0:
240,200,96570,1,0,0:0:0:0:
159,200,96685,1,0,0:0:0:0:
78,200,96800,1,0,0:0:0:0:
416,264,97032,5,0,1:2:0:0:
256,268,97262,1,0,0:0:0:0:
416,264,97493,2,0,L|416:168,1,80.9999975280763,2|0,0:2|0:0,0:0:0:0:
252,176,97839,6,0,L|336:176,1,80.9999975280763,0|10,0:0|0:2,0:0:0:0:
172,176,98185,2,0,L|80:176,2,80.9999975280763,0|0|2,0:0|0:0|0:2,0:0:0:0:
256,176,98532,2,0,L|152:176,1,80.9999975280763,0|0,0:0|0:0,0:0:0:0:
388,260,98878,6,0,P|436:204|364:152,1,161.999995056153,2|0,1:2|0:0,0:0:0:0:
224,152,99339,2,0,L|224:56,1,80.9999975280763,2|0,0:2|0:0,0:0:0:0:
304,76,99570,2,0,L|304:184,1,80.9999975280763,2|0,0:2|0:0,0:0:0:0:
184,328,99801,6,0,L|72:328,2,80.9999975280763,8|0|0,0:2|0:0|0:0,0:0:0:0:
264,328,100147,2,0,L|264:216,1,80.9999975280763,0|0,0:0|0:0,0:0:0:0:
184,248,100378,2,0,L|72:248,1,80.9999975280763,0|0,0:0|0:0,0:0:0:0:
316,168,100724,6,0,L|140:168,1,161.999995056153,0|0,1:2|0:0,0:0:0:0:
316,168,101185,2,0,L|316:72,1,80.9999975280763,2|0,0:2|0:0,0:0:0:0:
152,88,101532,6,0,L|248:88,1,80.9999975280763,0|10,0:0|0:2,0:0:0:0:
396,92,101878,2,0,L|396:184,1,80.9999975280763,0|0,0:0|0:0,0:0:0:0:
316,176,102109,2,0,L|224:176,2,80.9999975280763,2|0|0,0:2|0:0|0:0,0:0:0:0:
104,328,102570,6,0,L|292:328,1,161.999995056153,2|0,1:2|0:0,0:0:0:0:
104,328,103032,2,0,L|4:328,1,80.9999975280763,0|0,0:0|0:0,0:0:0:0:
184,324,103378,6,0,L|184:204,1,80.9999975280763,0|8,0:0|0:2,0:0:0:0:
264,244,103609,2,0,L|348:244,2,80.9999975280763,0|0|0,0:0|0:0|0:0,0:0:0:0:
345,244,103955,1,0,0:0:0:0:
424,244,104070,2,0,L|424:140,1,80.9999975280763,0|0,0:0|0:0,0:0:0:0:
52,184,104416,5,4,1:2:0:0:
256,192,104532,12,0,107185,0:0:0:0:
228,228,108109,6,0,L|344:228,1,80.9999975280763,6|2,3:2|0:2,0:0:0:0:
228,228,108339,2,0,L|40:228,1,161.999995056153,2|2,0:2|0:2,0:0:0:0:
228,228,108801,5,2,0:2:0:0:
308,224,108916,2,0,L|124:224,1,161.999995056153,2|2,0:2|0:2,0:0:0:0:
272,184,109262,6,0,P|316:136|248:68,1,161.999995056153,2|2,0:2|0:2,0:0:0:0:
104,72,109724,1,0,0:0:0:0:
304,296,109955,6,0,L|116:296,1,161.999995056153,2|2,0:2|0:2,0:0:0:0:
304,296,110416,2,0,L|400:296,1,80.9999975280763,2|2,0:2|0:2,0:0:0:0:
304,296,110647,2,0,L|304:192,1,80.9999975280763,2|0,0:2|0:0,0:0:0:0:
384,220,110878,6,0,L|208:220,1,161.999995056153,2|2,0:2|0:2,0:0:0:0:
304,220,111224,1,2,0:2:0:0:
222,220,111339,1,2,0:2:0:0:
420,136,111570,1,2,0:2:0:0:
216,352,111801,6,0,P|88:248|208:192,1,323.999990112305,2|2,0:2|0:2,0:0:0:0:
336,128,112493,1,2,0:2:0:0:
256,124,112609,6,0,L|524:124,1,242.999992584229,2|2,0:2|0:2,0:0:0:0:
288,276,113185,2,0,L|288:176,1,80.9999975280763,2|0,0:2|0:0,0:0:0:0:
368,200,113416,2,0,L|368:96,1,80.9999975280763,0|0,0:0|0:0,0:0:0:0:
240,328,113647,6,0,L|136:328,1,80.9999975280763,2|0,0:2|0:0,0:0:0:0:
240,328,113878,2,0,L|240:224,1,80.9999975280763,2|0,0:2|0:0,0:0:0:0:
120,248,114109,2,0,L|120:144,1,80.9999975280763,2|0,0:2|0:0,0:0:0:0:
240,168,114339,2,0,L|144:168,1,80.9999975280763,2|2,0:2|0:2,0:0:0:0:
376,260,114570,5,4,3:2:0:0:
397,265,114598,1,0,3:2:0:0:
419,262,114627,1,0,3:2:0:0:
439,251,114656,1,0,3:2:0:0:
454,234,114685,1,0,3:2:0:0:
461,213,114714,1,0,3:2:0:0:
460,191,114743,1,0,3:2:0:0:
451,170,114771,1,0,3:2:0:0:
436,154,114800,1,0,3:2:0:0:
344,152,114916,1,0,0:0:0:0:
144,296,115032,5,4,3:2:0:0:
121,296,115060,1,0,3:2:0:0:
99,292,115089,1,0,3:2:0:0:
79,282,115118,1,0,3:2:0:0:
62,267,115147,1,0,3:2:0:0:
49,249,115176,1,0,3:2:0:0:
41,228,115205,1,0,3:2:0:0:
38,206,115233,1,0,3:2:0:0:
41,183,115262,1,0,3:2:0:0:
49,163,115291,1,0,3:2:0:0:
62,144,115320,1,0,3:2:0:0:
79,130,115349,1,0,3:2:0:0:
99,120,115378,1,0,3:2:0:0:
121,115,115407,1,0,3:2:0:0:
144,116,115435,1,0,3:2:0:0:
308,264,115493,5,6,3:2:0:0:
96,268,115609,1,2,3:2:0:0:
308,264,115724,2,0,L|412:264,1,90,2|0,3:2|0:0,0:0:0:0:
200,216,115955,2,0,L|200:120,1,90,2|0,3:2|0:0,0:0:0:0:
408,112,116185,1,2,3:2:0:0:
200,216,116301,6,0,L|96:216,1,90,2|0,3:2|0:0,0:0:0:0:
304,148,116532,1,2,3:2:0:0:
104,148,116647,2,0,L|200:148,1,90,2|0,3:2|0:0,0:0:0:0:
404,92,116878,2,0,L|296:92,1,90,2|0,3:2|3:2,0:0:0:0:
104,92,117109,2,0,L|56:92,1,45,0|0,3:2|3:2,0:0:0:0:
220,48,117224,2,0,L|284:48,1,45,0|0,3:2|3:2,0:0:0:0:
424,276,117339,6,0,L|328:276,1,90,2|0,3:2|0:0,0:0:0:0:
104,268,117570,2,0,L|104:168,1,90,2|0,3:2|0:0,0:0:0:0:
313,172,117801,2,0,L|417:172,1,90,2|0,3:2|0:0,0:0:0:0:
204,124,118032,1,2,3:2:0:0:
403,172,118147,1,0,3:2:0:0:
204,124,118262,6,0,L|100:124,1,90,2|0,3:2|0:0,0:0:0:0:
316,72,118493,1,2,3:2:0:0:
105,124,118609,1,2,3:2:0:0:
316,72,118724,2,0,L|316:168,1,90,2|0,3:2|0:0,0:0:0:0:
108,288,118955,2,0,L|168:288,1,45,2|0,3:2|3:2,0:0:0:0:
312,288,119070,2,0,L|364:288,1,45,0|0,3:2|3:2,0:0:0:0:
188,232,119185,6,0,L|188:136,1,90,14|0,3:2|0:0,0:0:0:0:
388,136,119416,2,0,L|388:32,1,90,8|0,3:2|0:0,0:0:0:0:
192,204,119647,2,0,L|304:204,1,90,10|0,3:2|0:0,0:0:0:0:
76,124,119878,1,10,3:2:0:0:
284,192,119993,6,0,L|284:88,1,90,2|8,3:2|0:2,0:0:0:0:
488,68,120224,1,2,3:2:0:0:
283,200,120339,2,0,L|164:200,1,90,10|0,3:2|0:0,0:0:0:0:
388,124,120570,2,0,L|492:124,1,90,10|0,3:2|3:2,0:0:0:0:
264,56,120801,2,0,L|384:56,1,90,8|0,3:2|0:0,0:0:0:0:
156,256,121032,5,10,3:2:0:0:
363,56,121147,1,0,3:2:0:0:
150,256,121262,2,0,L|34:256,1,90,10|0,3:2|0:0,0:0:0:0:
268,220,121493,2,0,L|268:116,1,90,10|0,3:2|0:0,0:0:0:0:
60,256,121724,1,10,3:2:0:0:
268,220,121839,6,0,L|392:220,1,90,2|0,3:2|0:0,0:0:0:0:
156,156,122070,1,0,3:2:0:0:
368,220,122185,2,0,L|368:96,1,90,8|0,3:2|0:0,0:0:0:0:
184,136,122416,2,0,L|88:136,1,90,2|0,0:2|3:2,0:0:0:0:
140,136,122589,1,0,3:2:0:0:
296,132,122647,2,0,L|412:132,1,90,2|0,3:2|0:0,0:0:0:0:
116,300,122878,6,0,L|0:300,1,90,6|2,3:2|3:2,0:0:0:0:
228,232,123109,2,0,L|120:232,1,90,2|2,3:2|3:2,0:0:0:0:
352,176,123339,2,0,L|464:176,1,90,2|2,3:2|3:2,0:0:0:0:
240,116,123570,2,0,L|344:116,1,90,2|2,3:2|3:2,0:0:0:0:
116,292,123801,5,2,3:2:0:0:
320,296,123916,1,2,3:2:0:0:
276,296,123973,1,0,3:2:0:0:
232,296,124031,1,2,3:2:0:0:
420,240,124147,2,0,L|420:124,1,90,2|0,3:2|0:0,0:0:0:0:
212,144,124378,1,0,3:2:0:0:
420,240,124493,2,0,L|316:240,1,90,2|0,3:2|0:0,0:0:0:0:
120,232,124724,6,0,L|228:232,1,90,2|2,3:2|3:2,0:0:0:0:
16,156,124955,2,0,L|120:156,1,90,2|2,3:2|3:2,0:0:0:0:
328,100,125185,2,0,L|220:100,1,90,2|2,3:2|3:2,0:0:0:0:
440,40,125416,2,0,L|320:40,1,90,2|2,3:2|3:2,0:0:0:0:
124,296,125647,5,2,3:2:0:0:
320,304,125762,2,0,L|376:304,2,45,2|0|2,3:2|3:2|3:2,0:0:0:0:
120,244,125993,2,0,L|120:144,1,90,2|0,3:2|0:0,0:0:0:0:
320,140,126224,1,0,3:2:0:0:
120,244,126339,2,0,L|24:244,1,90,2|0,3:2|0:0,0:0:0:0:
276,196,126570,6,0,L|396:196,1,90,14|2,3:2|3:2,0:0:0:0:
152,136,126801,2,0,L|248:136,1,90,10|2,3:2|3:2,0:0:0:0:
32,72,127032,2,0,L|124:72,1,90,10|0,3:2|0:0,0:0:0:0:
324,268,127262,2,0,L|196:268,1,90,10|2,3:2|3:2,0:0:0:0:
428,208,127493,5,10,3:2:0:0:
224,216,127609,1,2,3:2:0:0:
268,216,127666,1,0,3:2:0:0:
312,216,127724,1,10,3:2:0:0:
120,180,127839,2,0,L|120:80,1,90,2|8,3:2|0:2,0:0:0:0:
320,84,128070,1,0,3:2:0:0:
120,180,128185,2,0,L|236:180,1,90,10|0,3:2|3:2,0:0:0:0:
16,120,128416,6,0,L|116:120,1,90,8|0,3:2|3:2,0:0:0:0:
348,256,128647,2,0,L|448:256,1,90,8|0,3:2|3:2,0:0:0:0:
224,216,128878,2,0,L|332:216,1,90,8|0,3:2|3:2,0:0:0:0:
108,164,129109,2,0,L|12:164,1,90,8|0,3:2|3:2,0:0:0:0:
220,116,129339,6,0,L|288:116,1,45,8|0,3:2|3:2,0:0:0:0:
108,68,129455,2,0,L|168:68,1,45,0|0,3:2|3:2,0:0:0:0:
324,356,129570,5,2,3:2:0:0:
348,359,129598,1,0,3:2:0:0:
372,356,129627,1,0,3:2:0:0:
396,347,129656,1,0,3:2:0:0:
416,333,129685,1,0,3:2:0:0:
432,315,129714,1,0,3:2:0:0:
443,293,129743,1,0,3:2:0:0:
268,296,129801,5,2,3:2:0:0:
243,295,129829,1,0,3:2:0:0:
219,289,129858,1,0,3:2:0:0:
197,278,129887,1,0,3:2:0:0:
178,262,129916,1,0,3:2:0:0:
164,242,129945,1,0,3:2:0:0:
154,219,129974,1,0,3:2:0:0:
316,216,130032,5,2,3:2:0:0:
339,209,130060,1,0,3:2:0:0:
356,192,130089,1,0,3:2:0:0:
361,168,130118,1,0,3:2:0:0:
353,145,130147,1,0,3:2:0:0:
335,129,130176,1,0,3:2:0:0:
310,126,130205,1,0,3:2:0:0:
120,128,130262,6,0,L|8:128,1,94.499997116089,6|2,3:2|3:2,0:0:0:0:
72,132,130435,1,0,3:2:0:0:
220,64,130493,2,0,L|104:64,1,94.499997116089,2|2,3:2|3:2,0:0:0:0:
172,64,130666,1,0,3:2:0:0:
320,300,130724,6,0,L|216:300,1,94.499997116089,2|0,3:2|0:0,0:0:0:0:
272,300,130897,1,0,3:2:0:0:
420,248,130955,2,0,P|440:196|408:168,1,94.499997116089,2|0,3:2|0:0,0:0:0:0:
372,172,131128,1,0,3:2:0:0:
200,104,131185,6,0,L|152:104,1,47.2499985580445,2|0,3:2|0:0,0:0:0:0:
304,72,131301,2,0,L|376:72,1,47.2499985580445,2|0,3:2|3:2,0:0:0:0:
184,56,131416,2,0,L|100:56,1,47.2499985580445,2|0,3:2|0:0,0:0:0:0:
284,376,131532,5,2,3:2:0:0:
307,370,131560,1,0,3:2:0:0:
324,352,131589,1,0,3:2:0:0:
329,328,131618,1,0,3:2:0:0:
321,305,131647,1,0,3:2:0:0:
302,291,131676,1,0,3:2:0:0:
277,288,131705,1,0,3:2:0:0:
128,280,131762,2,0,L|128:220,1,47.2499985580445,0|0,3:2|0:0,0:0:0:0:
271,216,131878,2,0,L|328:216,1,47.2499985580445,2|0,3:2|0:0,0:0:0:0:
167,164,131993,2,0,L|124:164,2,23.6249992790222,0|0|0,3:2|3:2|3:2,0:0:0:0:
392,172,132109,6,0,L|512:172,1,94.499997116089,2|0,3:2|0:0,0:0:0:0:
440,172,132282,1,0,3:2:0:0:
292,116,132339,2,0,L|416:116,1,94.499997116089,2|2,3:2|3:2,0:0:0:0:
341,116,132512,1,0,3:2:0:0:
184,76,132570,6,0,L|304:76,1,94.499997116089,2|0,3:2|0:0,0:0:0:0:
232,80,132743,1,0,3:2:0:0:
68,84,132801,2,0,P|48:148|68:176,1,94.499997116089,2|0,3:2|0:0,0:0:0:0:
108,168,132974,1,0,3:2:0:0:
317,320,133032,6,0,L|400:320,1,47.2499985580445,2|0,3:2|0:0,0:0:0:0:
217,268,133147,2,0,L|176:268,2,23.6249992790222,2|0|0,3:2|3:2|3:2,0:0:0:0:
369,268,133262,2,0,L|368:208,1,47.2499985580445,2|0,3:2|0:0,0:0:0:0:
213,212,133378,2,0,L|152:212,1,47.2499985580445,2|0,3:2|0:0,0:0:0:0:
1,148,133493,5,0,3:2:0:0:
26,148,133521,1,0,3:2:0:0:
51,148,133550,1,0,3:2:0:0:
76,148,133579,1,0,0:0:0:0:
100,148,133608,1,0,3:2:0:0:
249,148,133666,1,0,3:2:0:0:
401,152,133724,5,2,3:2:0:0:
420,135,133752,1,0,3:2:0:0:
428,112,133781,1,0,3:2:0:0:
422,88,133810,1,0,3:2:0:0:
406,70,133839,1,0,3:2:0:0:
249,72,133897,1,0,3:2:0:0:
84,288,133955,6,0,L|84:232,1,47.2499985580445,6|0,3:2|3:2,0:0:0:0:
240,240,134070,1,2,3:2:0:0:
264,240,134098,1,0,3:2:0:0:
289,240,134127,1,0,3:2:0:0:
116,288,134185,6,0,L|116:236,1,47.2499985580445,2|0,3:2|0:0,0:0:0:0:
272,240,134301,1,2,3:2:0:0:
296,240,134330,1,0,3:2:0:0:
321,240,134359,1,0,3:2:0:0:
144,288,134416,6,0,L|144:236,1,47.2499985580445,2|0,3:2|3:2,0:0:0:0:
300,240,134531,1,2,3:2:0:0:
324,240,134559,1,0,3:2:0:0:
349,240,134588,1,0,3:2:0:0:
176,288,134647,2,0,L|176:236,1,47.2499985580445,2|0,3:2|3:2,0:0:0:0:
332,240,134762,1,2,3:2:0:0:
356,240,134790,1,0,3:2:0:0:
381,240,134819,1,0,3:2:0:0:
228,176,134878,6,0,L|172:176,1,47.2499985580445,2|0,3:2|0:0,0:0:0:0:
24,132,134993,1,2,3:2:0:0:
48,132,135021,1,0,3:2:0:0:
73,132,135050,1,0,3:2:0:0:
228,124,135109,6,0,L|296:124,1,47.2499985580445,2|0,3:2|3:2,0:0:0:0:
428,352,135224,1,2,3:2:0:0:
452,352,135252,1,0,3:2:0:0:
472,338,135281,1,0,3:2:0:0:
481,316,135310,1,0,3:2:0:0:
474,292,135339,1,0,0:2:0:0:
455,277,135368,1,0,3:2:0:0:
431,275,135397,1,0,3:2:0:0:
276,284,135455,6,0,L|216:284,1,47.2499985580445,0|0,3:2|3:2,0:0:0:0:
380,200,135570,2,0,L|312:200,1,47.2499985580445,2|0,3:2|0:0,0:0:0:0:
156,200,135685,2,0,L|224:200,1,47.2499985580445,2|0,3:2|3:2,0:0:0:0:
376,124,135801,6,0,L|456:124,1,47.2499985580445,2|0,3:2|3:2,0:0:0:0:
252,76,135916,2,0,L|192:76,1,47.2499985580445,0|0,3:2|3:2,0:0:0:0:
24,128,136032,2,0,L|104:128,1,47.2499985580445,0|0,3:2|3:2,0:0:0:0:
252,76,136147,2,0,L|312:76,1,47.2499985580445,0|0,3:2|3:2,0:0:0:0:
468,80,136262,6,0,L|388:80,1,47.2499985580445,0|0,3:2|3:2,0:0:0:0:
252,76,136377,2,0,L|192:76,1,47.2499985580445,0|0,3:2|3:2,0:0:0:0:
24,128,136493,2,0,L|104:128,1,47.2499985580445,2|0,3:2|3:2,0:0:0:0:
248,140,136608,2,0,L|308:140,1,47.2499985580445,0|0,3:2|3:2,0:0:0:0:
92,248,136724,6,0,L|52:248,2,23.6249992790222,2|0|0,3:2|3:2|3:2,0:0:0:0:
200,248,136810,1,0,3:2:0:0:
308,248,136839,2,0,L|348:248,2,23.6249992790222,0|0|0,3:2|3:2|3:2,0:0:0:0:
200,248,136926,1,0,3:2:0:0:
92,248,136955,6,0,L|52:248,2,23.6249992790222,2|0|0,3:2|3:2|3:2,0:0:0:0:
200,248,137041,1,0,3:2:0:0:
308,248,137070,2,0,L|348:248,2,23.6249992790222,0|0|0,3:2|3:2|3:2,0:0:0:0:
200,248,137157,1,0,3:2:0:0:
92,248,137185,6,0,L|52:248,2,23.6249992790222,2|0|0,3:2|3:2|3:2,0:0:0:0:
200,248,137271,1,0,3:2:0:0:
308,248,137300,2,0,L|348:248,2,23.6249992790222,0|0|0,3:2|3:2|3:2,0:0:0:0:
200,248,137387,1,0,3:2:0:0:
92,248,137416,6,0,L|52:248,2,23.6249992790222,2|0|0,3:2|3:2|3:2,0:0:0:0:
200,248,137502,1,0,3:2:0:0:
308,248,137531,2,0,L|348:248,2,23.6249992790222,0|0|0,3:2|3:2|3:2,0:0:0:0:
200,248,137618,1,0,3:2:0:0:
92,248,137647,6,0,P|94:158|186:131,1,180,4|0,3:2|0:0,0:0:0:0:
364,184,138109,2,0,L|364:376,1,180,0|0,0:0|0:0,0:0:0:0:
52,192,138570,5,8,3:2:0:0:
232,200,138801,2,0,L|104:200,1,90,0|0,0:0|3:2,0:0:0:0:
324,200,139147,2,0,L|432:200,1,90,0|0,0:0|3:2,0:0:0:0:
88,352,139493,6,0,P|176:96|216:356,1,720,4|8,3:2|0:3,0:0:0:0:
48,352,140647,1,8,0:3:0:0:
226,350,140878,1,8,0:3:0:0:
48,352,141109,1,8,0:3:0:0:
420,244,141339,5,6,3:2:0:0:
442,244,141368,1,0,3:2:0:0:
462,235,141396,1,0,3:2:0:0:
476,217,141425,1,0,3:2:0:0:
481,195,141454,1,0,3:2:0:0:
475,174,141483,1,0,3:2:0:0:
461,157,141512,1,0,3:2:0:0:
440,148,141540,1,0,3:2:0:0:
418,149,141570,6,0,L|232:148,1,180,2|2,3:2|0:2,0:0:0:0:
324,156,141916,2,0,L|108:156,1,180,2|0,0:2|0:0,0:0:0:0:
376,284,142262,5,6,3:2:0:0:
353,284,142291,1,0,3:2:0:0:
331,284,142319,1,0,3:2:0:0:
308,284,142348,1,0,3:2:0:0:
286,284,142377,1,0,3:2:0:0:
263,284,142406,1,0,3:2:0:0:
241,284,142435,1,0,3:2:0:0:
218,284,142463,1,0,3:2:0:0:
194,281,142493,6,0,L|386:277,1,180,2|2,3:2|0:2,0:0:0:0:
288,284,142839,2,0,L|504:284,1,180,2|0,0:2|0:0,0:0:0:0:
236,216,143185,5,6,3:2:0:0:
213,216,143214,1,0,3:2:0:0:
191,216,143242,1,0,3:2:0:0:
168,216,143271,1,0,3:2:0:0:
146,216,143300,1,0,3:2:0:0:
123,216,143329,1,0,3:2:0:0:
101,216,143358,1,0,3:2:0:0:
78,216,143386,1,0,3:2:0:0:
56,216,143415,1,2,3:2:0:0:
148,216,143532,1,2,0:2:0:0:
380,176,143647,5,6,3:2:0:0:
402,176,143675,1,0,3:2:0:0:
425,176,143704,1,0,3:2:0:0:
276,288,143762,1,6,3:2:0:0:
253,285,143790,1,0,3:2:0:0:
237,271,143819,1,0,3:2:0:0:
231,250,143848,1,0,3:2:0:0:
238,229,143877,1,0,3:2:0:0:
256,216,143906,1,0,3:2:0:0:
278,215,143935,1,0,3:2:0:0:
432,120,143993,5,2,3:2:0:0:
444,120,144008,1,0,3:2:0:0:
456,120,144022,1,0,3:2:0:0:
444,120,144036,1,0,3:2:0:0:
432,120,144051,1,0,3:2:0:0:
420,120,144065,1,0,3:2:0:0:
408,120,144080,1,0,3:2:0:0:
396,120,144094,1,0,3:2:0:0:
384,120,144109,1,0,3:2:0:0:
372,120,144123,1,0,3:2:0:0:
360,120,144137,1,0,3:2:0:0:
348,120,144152,1,0,3:2:0:0:
336,120,144166,1,0,3:2:0:0:
176,120,144224,6,0,L|144:120,2,22.5,2|0|0,3:2|3:2|3:2,0:0:0:0:
336,336,144339,5,2,3:2:0:0:
357,329,144368,1,0,3:2:0:0:
372,313,144396,1,0,3:2:0:0:
376,291,144425,1,0,3:2:0:0:
369,270,144454,1,0,3:2:0:0:
352,256,144483,1,0,3:2:0:0:
330,253,144512,1,0,3:2:0:0:
160,192,144570,5,2,3:2:0:0:
182,192,144598,1,0,3:2:0:0:
205,192,144627,1,0,3:2:0:0:
227,192,144656,1,0,3:2:0:0:
250,192,144685,1,0,3:2:0:0:
272,192,144714,1,0,3:2:0:0:
295,192,144743,1,0,3:2:0:0:
248,192,144801,2,0,L|112:192,1,135,2|0,3:2|0:0,0:0:0:0:
264,136,145032,5,4,3:2:0:0:
286,136,145060,1,0,3:2:0:0:
309,136,145089,1,0,3:2:0:0:
288,136,145118,1,0,3:2:0:0:
264,132,145147,1,0,3:2:0:0:
261,109,145175,1,0,3:2:0:0:
258,87,145204,1,0,3:2:0:0:
304,88,145262,2,0,L|452:88,1,135,2|0,3:2|0:0,0:0:0:0:
284,352,145493,5,6,3:2:0:0:
282,329,145521,1,0,3:2:0:0:
281,307,145550,1,0,3:2:0:0:
304,308,145580,1,0,3:2:0:0:
328,308,145609,1,2,3:2:0:0:
329,285,145637,1,0,3:2:0:0:
330,263,145666,1,0,3:2:0:0:
284,264,145724,2,0,L|148:264,1,135,0|0,3:2|0:0,0:0:0:0:
280,216,145955,5,4,3:2:0:0:
303,216,145983,1,0,3:2:0:0:
325,216,146012,1,0,3:2:0:0:
304,216,146041,1,0,3:2:0:0:
280,216,146070,1,0,3:2:0:0:
276,193,146098,1,0,3:2:0:0:
272,171,146127,1,0,3:2:0:0:
316,176,146185,2,0,L|464:176,1,135,2|0,3:2|0:0,0:0:0:0:
272,348,146416,5,6,3:2:0:0:
270,325,146444,1,0,3:2:0:0:
267,303,146473,1,0,3:2:0:0:
288,304,146503,1,0,3:2:0:0:
312,304,146532,1,2,3:2:0:0:
316,281,146560,1,0,3:2:0:0:
319,259,146589,1,0,3:2:0:0:
272,260,146647,2,0,L|128:260,1,135,0|0,3:2|0:0,0:0:0:0:
284,216,146878,5,6,3:2:0:0:
305,209,146906,1,0,3:2:0:0:
319,192,146935,1,0,3:2:0:0:
323,170,146964,1,0,3:2:0:0:
315,149,146993,1,0,3:2:0:0:
297,136,147022,1,0,3:2:0:0:
275,134,147051,1,0,3:2:0:0:
116,132,147109,5,2,3:2:0:0:
96,120,147137,1,0,3:2:0:0:
85,101,147166,1,0,3:2:0:0:
84,79,147195,1,0,3:2:0:0:
94,59,147224,1,0,3:2:0:0:
113,46,147253,1,0,3:2:0:0:
135,44,147282,1,0,3:2:0:0:
312,336,147339,5,6,3:2:0:0:
334,336,147368,1,0,3:2:0:0:
357,336,147396,1,0,3:2:0:0:
216,288,147455,5,6,3:2:0:0:
193,288,147483,1,0,3:2:0:0:
171,288,147512,1,0,3:2:0:0:
148,288,147541,1,0,3:2:0:0:
126,288,147570,1,0,3:2:0:0:
103,288,147599,1,0,3:2:0:0:
81,288,147628,1,0,3:2:0:0:
260,232,147685,5,2,3:2:0:0:
272,233,147700,1,0,3:2:0:0:
283,229,147714,1,0,3:2:0:0:
296,222,147729,1,0,3:2:0:0:
303,215,147743,1,0,3:2:0:0:
307,208,147758,1,0,3:2:0:0:
312,198,147772,1,0,3:2:0:0:
319,191,147786,1,0,3:2:0:0:
319,176,147801,1,0,3:2:0:0:
317,167,147815,1,0,3:2:0:0:
314,157,147830,1,0,3:2:0:0:
305,147,147844,1,0,3:2:0:0:
296,140,147859,1,0,3:2:0:0:
140,136,147916,6,0,L|100:136,2,22.5,2|0|0,3:2|3:2|3:2,0:0:0:0:
316,364,148032,5,6,3:2:0:0:
337,368,148060,1,0,3:2:0:0:
360,369,148089,1,0,3:2:0:0:
382,365,148118,1,0,3:2:0:0:
403,356,148147,1,0,3:2:0:0:
421,343,148176,1,0,3:2:0:0:
437,327,148205,1,0,3:2:0:0:
448,308,148233,1,0,3:2:0:0:
456,287,148262,1,0,3:2:0:0:
459,264,148291,1,0,3:2:0:0:
458,242,148320,1,0,3:2:0:0:
272,280,148378,5,6,3:2:0:0:
249,284,148406,1,0,3:2:0:0:
227,284,148435,1,0,3:2:0:0:
205,282,148464,1,0,3:2:0:0:
183,275,148493,1,0,3:2:0:0:
163,266,148522,1,0,3:2:0:0:
144,254,148551,1,0,3:2:0:0:
127,238,148579,1,0,3:2:0:0:
113,221,148608,1,0,3:2:0:0:
102,202,148637,1,0,3:2:0:0:
94,181,148666,1,0,3:2:0:0:
280,184,148724,5,4,3:2:0:0:
256,192,148839,12,0,153224,0:0:0:0:
