osu file format v14

[General]
AudioFilename: audio.mp3
AudioLeadIn: 0
PreviewTime: 48121
Countdown: 0
SampleSet: Soft
StackLeniency: 0.7
Mode: 2
LetterboxInBreaks: 0
WidescreenStoryboard: 1

[Editor]
Bookmarks: 69813,82274
DistanceSpacing: 1
BeatDivisor: 4
GridSize: 4
TimelineZoom: 3.999998

[Metadata]
Title:Cross The Finish Line [feat. Nanahira]
TitleUnicode:Cross The Finish Line [feat. ななひら]
Artist:Kobaryo
ArtistUnicode:Kobaryo
Creator:Kukkai
Version:Deluge
Source:
Tags:secre chickenbible jbhyperion jbh gabba gabber hardcore j-core speedcore 古葉玲 Psycho Filth Records Candy speed pops japanese electronic instrumental FA Featured Artist mappers' guild mpg mg
BeatmapID:4198494
BeatmapSetID:2012659

[Difficulty]
HPDrainRate:4
CircleSize:4.2
OverallDifficulty:9.6
ApproachRate:9.6
SliderMultiplier:1.7
SliderTickRate:1

[Events]
//Background and Video events
0,0,"65092327_p0.jpg",0,0
//Break Periods
2,82462,88215
//Storyboard Layer 0 (Background)
//Storyboard Layer 1 (Fail)
//Storyboard Layer 2 (Pass)
//Storyboard Layer 3 (Foreground)
//Storyboard Layer 4 (Overlay)
//Storyboard Sound Samples

[TimingPoints]
109,230.769230769231,4,2,1,70,1,0
4724,-100,4,2,1,80,0,0
12109,-100,4,2,1,60,0,0
15801,-111.111111111111,4,2,2,60,0,0
23185,-100,4,2,1,65,0,0
30570,-100,4,2,1,70,0,0
37955,-100,4,2,2,60,0,0
41647,-100,4,2,1,70,0,0
48109,-100,4,2,1,60,0,0
49032,-100,4,2,1,80,0,1
71185,-100,4,2,1,60,0,0
73955,-100,4,2,1,60,0,0
82262,-100,4,2,1,50,0,0
89647,-111.111111111111,4,2,2,50,0,0
108109,-111.111111111111,4,2,2,50,0,0
114570,-100,4,2,1,70,0,0
115493,-100,4,2,1,80,0,1
130262,-100,4,2,1,80,0,1
137647,-100,4,2,1,80,0,0
148724,-100,4,2,1,80,0,0
149647,-100,4,2,1,70,0,0
150570,-100,4,2,1,60,0,0
151493,-100,4,2,1,50,0,0
152416,-100,4,2,1,40,0,0
153224,-100,4,2,1,30,0,0

[Colours]
Combo1 : 0,0,249
Combo2 : 9,255,255
Combo3 : 255,186,153

[HitObjects]
220,188,109,5,8,0:3:0:0:
388,188,339,1,8,0:3:0:0:
220,188,570,1,8,0:3:0:0:
48,188,801,1,8,0:3:0:0:
336,340,1032,5,6,3:2:0:0:
356,337,1060,1,0,3:2:0:0:
374,326,1089,1,0,3:2:0:0:
386,308,1118,1,0,3:2:0:0:
389,288,1147,1,0,3:2:0:0:
382,268,1176,1,0,3:2:0:0:
368,252,1205,1,0,3:2:0:0:
348,245,1233,1,0,3:2:0:0:
328,248,1262,2,0,L|144:248,1,170,2|2,3:2|0:2,0:0:0:0:
260,244,1609,2,0,P|312:208|244:148,1,170,2|0,0:2|0:0,0:0:0:0:
59,84,1955,5,6,3:2:0:0:
80,84,1983,1,0,3:2:0:0:
101,84,2012,1,0,3:2:0:0:
122,84,2041,1,0,3:2:0:0:
144,84,2070,1,0,3:2:0:0:
165,84,2099,1,0,3:2:0:0:
186,84,2128,1,0,3:2:0:0:
207,84,2156,1,0,3:2:0:0:
229,53,2185,2,0,L|41:51,1,170,2|2,3:2|0:2,0:0:0:0:
164,52,2532,2,0,L|360:52,1,170,2|0,0:2|0:0,0:0:0:0:
152,360,2878,5,6,3:2:0:0:
131,355,2906,1,0,3:2:0:0:
114,343,2935,1,0,3:2:0:0:
102,325,2964,1,0,3:2:0:0:
99,304,2993,1,0,3:2:0:0:
103,283,3022,1,0,3:2:0:0:
115,266,3051,1,0,3:2:0:0:
133,254,3079,1,0,3:2:0:0:
154,251,3108,1,2,3:2:0:0:
240,244,3224,1,2,0:2:0:0:
48,176,3339,5,6,3:2:0:0:
48,154,3368,1,0,3:2:0:0:
48,133,3396,1,0,3:2:0:0:
192,132,3455,5,6,3:2:0:0:
213,132,3483,1,0,3:2:0:0:
234,132,3512,1,0,3:2:0:0:
255,132,3541,1,0,3:2:0:0:
277,132,3570,1,0,3:2:0:0:
298,132,3599,1,0,3:2:0:0:
319,132,3628,1,0,3:2:0:0:
176,236,3685,5,2,3:2:0:0:
155,229,3713,1,0,3:2:0:0:
141,214,3742,1,0,3:2:0:0:
136,194,3771,1,0,3:2:0:0:
141,174,3800,1,0,3:2:0:0:
156,159,3829,1,0,3:2:0:0:
176,153,3858,1,0,3:2:0:0:
320,152,3916,5,2,3:2:0:0:
341,152,3944,1,0,3:2:0:0:
362,152,3973,1,0,3:2:0:0:
212,104,4032,5,2,3:2:0:0:
191,107,4060,1,0,3:2:0:0:
169,106,4089,1,0,3:2:0:0:
149,100,4118,1,0,3:2:0:0:
131,90,4147,1,0,3:2:0:0:
116,75,4176,1,0,3:2:0:0:
104,57,4205,1,0,3:2:0:0:
264,352,4262,5,2,3:2:0:0:
284,347,4291,1,0,3:2:0:0:
300,333,4319,1,0,3:2:0:0:
307,314,4348,1,0,3:2:0:0:
304,293,4377,1,0,3:2:0:0:
291,276,4406,1,0,3:2:0:0:
272,268,4435,1,0,3:2:0:0:
228,268,4493,2,0,L|80:268,1,127.5,2|0,3:2|0:0,0:0:0:0:
264,200,4724,6,0,L|368:200,1,85,6|0,3:2|0:0,0:0:0:0:
160,164,4955,2,0,L|160:48,1,85,2|0,3:2|0:0,0:0:0:0:
352,88,5185,1,2,3:2:0:0:
267,88,5300,1,2,0:2:0:0:
182,88,5415,1,2,3:2:0:0:
372,232,5532,6,0,L|476:232,1,85,2|0,0:2|3:2,0:0:0:0:
264,236,5762,1,2,0:2:0:0:
457,232,5878,2,0,L|456:128,1,85,2|2,3:2|0:2,0:0:0:0:
260,136,6109,2,0,L|144:136,1,85,2|2,3:2|0:2,0:0:0:0:
360,60,6339,1,2,3:2:0:0:
175,136,6455,1,2,3:2:0:0:
392,60,6570,6,0,L|392:144,1,85,2|0,3:2|0:0,0:0:0:0:
196,204,6801,2,0,L|96:204,1,85,2|0,3:2|0:0,0:0:0:0:
320,136,7032,2,0,L|216:136,2,85,2|2|2,3:2|0:2|3:2,0:0:0:0:
112,352,7378,6,0,L|112:248,1,85,2|0,0:2|3:2,0:0:0:0:
296,264,7609,1,2,0:2:0:0:
120,200,7724,2,0,L|12:200,1,85,2|2,3:2|0:2,0:0:0:0:
236,132,7955,2,0,L|344:132,1,85,2|2,3:2|3:2,0:0:0:0:
280,132,8128,1,0,3:2:0:0:
144,84,8185,2,2,L|40:84,1,85,2|2,3:2|3:2,0:0:0:0:
256,356,8416,6,0,L|256:248,1,85,6|0,3:2|0:0,0:0:0:0:
52,260,8647,2,0,L|160:260,1,85,2|0,3:2|0:0,0:0:0:0:
320,192,8878,1,2,3:2:0:0:
235,192,8993,1,2,0:2:0:0:
150,192,9108,1,2,3:2:0:0:
336,156,9224,6,0,L|436:156,1,85,2|0,0:2|3:2,0:0:0:0:
224,96,9455,1,2,0:2:0:0:
420,88,9570,2,0,L|332:88,1,85,2|2,3:2|0:2,0:0:0:0:
140,356,9801,2,0,L|260:356,1,85,2|2,3:2|0:2,0:0:0:0:
40,276,10032,1,2,3:2:0:0:
225,356,10147,1,2,3:2:0:0:
36,212,10262,6,0,L|132:212,2,85,2|2|2,3:2|0:2|3:2,0:0:0:0:
232,156,10609,2,0,L|232:52,1,85,2|0,0:2|0:0,0:0:0:0:
44,72,10839,1,2,0:2:0:0:
232,156,10955,2,0,L|128:156,1,85,2|2,3:2|0:2,0:0:0:0:
344,344,11185,6,0,L|344:240,1,85,2|0,3:2|0:0,0:0:0:0:
260,268,11416,2,0,L|168:268,1,85,0|0,3:2|0:0,0:0:0:0:
380,196,11647,2,0,L|380:92,1,85,2|0,3:2|0:0,0:0:0:0:
296,116,11878,2,0,L|296:16,1,85,0|0,0:0|0:0,0:0:0:0:
492,28,12109,5,4,3:2:0:0:
316,360,12339,2,0,P|276:328|324:236,1,170,2|2,0:2|3:2,0:0:0:0:
492,224,12801,2,0,L|380:224,1,85,0|0,0:0|3:2,0:0:0:0:
212,192,13032,5,2,3:2:0:0:
380,188,13262,2,0,P|408:120|340:52,1,170,2|0,0:2|3:2,0:0:0:0:
180,56,13724,2,0,L|288:56,1,85,0|0,0:0|3:2,0:0:0:0:
80,344,13955,5,0,3:2:0:0:
248,348,14185,2,0,L|248:156,1,170,2|0,0:2|3:2,0:0:0:0:
76,180,14647,2,0,L|180:180,1,85,2|0,0:2|3:2,0:0:0:0:
360,176,14878,6,0,L|360:80,1,85,0|0,3:2|3:2,0:0:0:0:
240,88,15109,2,0,L|240:24,1,42.5,0|0,3:2|3:2,0:0:0:0:
284,44,15224,2,0,L|348:44,1,42.5,0|0,3:2|3:2,0:0:0:0:
200,348,15339,6,0,P|136:332|216:220,1,255,2|0,0:2|0:0,0:0:0:0:
392,212,15801,6,0,P|436:176|372:108,1,152.999995330811,4|0,1:2|0:0,0:0:0:0:
240,108,16262,2,0,L|412:108,1,152.999995330811,8|0,0:2|0:0,0:0:0:0:
312,216,16609,6,0,P|232:192|328:132,1,229.499992996216,0|0,0:0|1:2,0:0:0:0:
452,148,17185,2,0,L|452:320,1,152.999995330811,8|0,0:2|0:0,0:0:0:0:
236,248,17647,6,0,L|60:248,2,152.999995330811,0|0|8,1:2|0:0|0:2,0:0:0:0:
416,256,18339,1,0,0:0:0:0:
336,256,18455,6,0,L|91:256,1,229.499992996216,0|0,0:0|1:2,0:0:0:0:
256,248,19032,2,0,L|424:248,1,152.999995330811,8|0,0:2|0:0,0:0:0:0:
172,248,19493,6,0,P|124:208|184:144,1,152.999995330811,0|0,1:2|1:2,0:0:0:0:
320,144,19955,2,0,L|140:144,1,152.999995330811,8|0,0:2|0:0,0:0:0:0:
92,140,20301,6,0,L|344:140,1,229.499992996216,0|0,0:0|1:2,0:0:0:0:
168,152,20878,2,0,L|168:312,1,152.999995330811,8|0,0:2|0:0,0:0:0:0:
420,188,21339,6,0,L|268:188,2,152.999995330811,0|0|8,1:2|0:0|0:2,0:0:0:0:
268,192,22032,1,0,0:0:0:0:
192,192,22147,6,0,P|120:136|224:60,1,229.499992996216,0|0,0:0|1:2,0:0:0:0:
348,48,22724,2,0,L|512:48,1,152.999995330811,8|0,0:2|0:0,0:0:0:0:
152,360,23185,5,4,3:2:0:0:
131,363,23214,1,0,3:2:0:0:
110,361,23242,1,0,3:2:0:0:
90,354,23271,1,0,3:2:0:0:
72,341,23300,1,0,3:2:0:0:
59,325,23329,1,0,3:2:0:0:
50,306,23358,1,0,3:2:0:0:
47,285,23386,1,0,3:2:0:0:
49,264,23415,1,0,3:2:0:0:
56,244,23444,1,0,3:2:0:0:
69,227,23473,1,0,3:2:0:0:
85,213,23502,1,0,3:2:0:0:
104,205,23531,1,0,3:2:0:0:
125,201,23559,1,0,0:0:0:0:
146,203,23588,1,0,3:2:0:0:
192,204,23647,6,0,L|204:112,1,85,0|0,3:2|0:0,0:0:0:0:
116,116,23878,2,0,L|108:28,1,85,0|0,0:0|0:0,0:0:0:0:
344,368,24109,5,4,3:2:0:0:
362,377,24137,1,0,3:2:0:0:
383,381,24166,1,0,3:2:0:0:
404,380,24195,1,0,3:2:0:0:
424,373,24224,1,0,3:2:0:0:
442,361,24253,1,0,3:2:0:0:
456,345,24282,1,0,3:2:0:0:
465,326,24310,1,0,3:2:0:0:
469,305,24339,1,0,3:2:0:0:
467,284,24368,1,0,3:2:0:0:
460,264,24397,1,0,3:2:0:0:
447,247,24426,1,0,3:2:0:0:
431,233,24455,1,0,3:2:0:0:
412,224,24483,1,0,0:0:0:0:
391,221,24512,1,0,3:2:0:0:
348,224,24570,6,0,L|332:120,1,85,0|0,3:2|0:0,0:0:0:0:
420,132,24801,2,0,L|504:116,1,85,0|0,0:0|0:0,0:0:0:0:
232,356,25032,5,4,3:2:0:0:
211,355,25060,1,0,3:0:0:0:
194,343,25089,1,0,3:0:0:0:
187,323,25118,1,0,3:0:0:0:
193,303,25147,1,0,3:0:0:0:
210,290,25176,1,0,3:0:0:0:
230,289,25205,1,0,3:0:0:0:
252,292,25234,1,0,3:0:0:0:
272,288,25262,1,0,3:0:0:0:
292,287,25291,1,0,3:0:0:0:
309,275,25319,1,0,0:0:0:0:
316,255,25348,1,0,0:0:0:0:
310,235,25377,1,0,0:0:0:0:
293,222,25406,1,0,0:0:0:0:
273,221,25435,1,0,3:0:0:0:
232,220,25493,6,0,L|124:220,1,85,0|0,3:0|0:0,0:0:0:0:
60,216,25724,2,0,L|160:216,1,85,0|0,0:0|0:0,0:0:0:0:
360,252,25955,5,4,3:2:0:0:
380,251,25983,1,0,3:0:0:0:
397,239,26012,1,0,3:0:0:0:
404,219,26041,1,0,3:0:0:0:
398,199,26070,1,0,3:0:0:0:
381,186,26099,1,0,3:0:0:0:
361,185,26128,1,0,3:0:0:0:
340,188,26157,1,0,3:0:0:0:
320,184,26185,1,0,3:0:0:0:
299,183,26214,1,0,3:0:0:0:
282,171,26242,1,0,0:0:0:0:
275,151,26271,1,0,0:0:0:0:
281,131,26300,1,0,0:0:0:0:
298,118,26329,1,0,0:0:0:0:
318,117,26358,1,0,3:0:0:0:
360,116,26416,6,0,L|468:116,1,85,0|0,3:0|0:0,0:0:0:0:
448,60,26647,2,0,L|348:60,1,85,0|0,0:0|0:0,0:0:0:0:
136,368,26878,5,4,3:2:0:0:
114,369,26906,1,0,3:0:0:0:
94,365,26935,1,0,3:0:0:0:
74,356,26964,1,0,3:0:0:0:
58,342,26993,1,0,3:0:0:0:
45,325,27022,1,0,3:0:0:0:
38,305,27051,1,0,3:0:0:0:
35,284,27079,1,0,3:0:0:0:
37,263,27108,1,0,3:0:0:0:
45,244,27137,1,0,3:0:0:0:
57,226,27166,1,0,3:0:0:0:
74,213,27195,1,0,3:0:0:0:
93,203,27224,1,0,3:0:0:0:
113,199,27252,1,0,0:0:0:0:
134,200,27281,1,0,3:0:0:0:
176,200,27339,6,0,L|264:200,1,85,0|0,3:0|0:0,0:0:0:0:
176,200,27570,2,0,L|68:200,1,85,0|0,0:0|0:0,0:0:0:0:
344,168,27801,5,4,3:2:0:0:
340,147,27829,1,0,3:2:0:0:
332,127,27858,1,0,3:2:0:0:
320,110,27887,1,0,3:2:0:0:
304,95,27916,1,0,3:2:0:0:
286,84,27945,1,0,3:2:0:0:
266,77,27974,1,0,3:2:0:0:
245,74,28002,1,0,3:2:0:0:
224,76,28031,1,0,3:2:0:0:
204,82,28060,1,0,3:2:0:0:
185,92,28089,1,0,3:2:0:0:
169,106,28118,1,0,3:2:0:0:
156,123,28147,1,0,3:2:0:0:
147,143,28175,1,0,0:0:0:0:
143,163,28204,1,0,3:2:0:0:
188,164,28262,6,0,L|280:164,1,85,0|0,3:2|0:0,0:0:0:0:
360,164,28493,2,0,L|360:52,1,85,0|0,0:0|0:0,0:0:0:0:
144,360,28724,5,4,3:2:0:0:
122,362,28752,1,0,3:2:0:0:
101,359,28781,1,0,3:2:0:0:
82,351,28810,1,0,3:2:0:0:
65,338,28839,1,0,3:2:0:0:
53,321,28868,1,0,3:2:0:0:
45,301,28897,1,0,3:2:0:0:
43,280,28925,1,0,3:2:0:0:
46,259,28954,1,0,3:2:0:0:
55,240,28983,1,0,3:2:0:0:
68,223,29012,1,0,3:2:0:0:
86,211,29041,1,0,3:2:0:0:
106,204,29070,1,0,3:2:0:0:
127,202,29098,1,0,0:0:0:0:
148,206,29127,1,0,3:2:0:0:
284,212,29185,5,4,3:2:0:0:
304,218,29214,1,0,3:2:0:0:
325,220,29242,1,0,3:2:0:0:
346,219,29271,1,0,3:2:0:0:
366,214,29300,1,0,3:2:0:0:
386,205,29329,1,0,3:2:0:0:
403,192,29358,1,0,3:2:0:0:
417,177,29386,1,0,3:2:0:0:
429,159,29415,1,0,3:2:0:0:
436,139,29444,1,0,3:2:0:0:
440,118,29473,1,0,3:2:0:0:
440,97,29502,1,0,3:2:0:0:
436,76,29531,1,0,3:2:0:0:
428,56,29559,1,0,0:0:0:0:
417,38,29588,1,0,3:2:0:0:
272,360,29647,5,4,3:2:0:0:
251,364,29675,1,0,3:2:0:0:
230,367,29704,1,0,3:2:0:0:
208,367,29733,1,0,3:2:0:0:
187,364,29762,1,0,3:2:0:0:
167,359,29791,1,0,3:2:0:0:
147,352,29820,1,0,3:2:0:0:
128,342,29848,1,0,3:2:0:0:
110,331,29877,1,0,3:2:0:0:
94,317,29906,1,0,3:2:0:0:
79,301,29935,1,0,3:2:0:0:
67,284,29964,1,0,3:2:0:0:
56,266,29993,1,0,3:2:0:0:
48,247,30021,1,0,0:0:0:0:
42,226,30050,1,0,3:2:0:0:
216,224,30109,6,0,L|336:224,1,85,0|0,3:2|3:2,0:0:0:0:
260,224,30282,1,0,3:2:0:0:
104,232,30339,1,0,3:2:0:0:
85,221,30368,1,0,3:2:0:0:
73,204,30396,1,0,3:2:0:0:
70,183,30425,1,0,3:2:0:0:
78,163,30454,1,0,3:2:0:0:
93,149,30483,1,0,3:2:0:0:
113,143,30512,1,0,3:2:0:0:
248,136,30570,6,0,L|356:136,1,85,6|0,3:2|0:0,0:0:0:0:
148,72,30801,2,0,L|52:72,1,85,2|0,3:2|0:0,0:0:0:0:
252,248,31032,2,0,L|132:248,2,85,2|2|2,3:2|0:2|3:2,0:0:0:0:
52,200,31378,6,0,L|52:96,1,85,2|0,0:2|3:2,0:0:0:0:
240,108,31609,1,2,0:2:0:0:
52,200,31724,2,0,L|144:200,1,85,2|2,3:2|0:2,0:0:0:0:
336,200,31955,2,0,L|216:200,1,85,2|2,3:2|0:2,0:0:0:0:
440,128,32185,1,2,3:2:0:0:
251,200,32301,1,2,3:2:0:0:
440,128,32416,6,0,L|440:32,1,85,2|0,3:2|0:0,0:0:0:0:
248,128,32647,2,0,L|136:128,1,85,2|0,3:2|0:0,0:0:0:0:
376,60,32878,2,0,L|276:60,2,85,2|2|2,3:2|0:2|3:2,0:0:0:0:
164,344,33224,6,0,L|56:344,1,85,2|0,0:2|3:2,0:0:0:0:
272,272,33455,1,2,0:2:0:0:
84,276,33570,2,0,L|84:172,1,85,2|2,3:2|0:2,0:0:0:0:
272,208,33801,2,0,L|172:208,1,85,2|2,3:2|3:2,0:0:0:0:
144,208,33974,1,0,3:2:0:0:
292,160,34032,2,0,L|396:160,1,85,2|2,3:2|3:2,0:0:0:0:
172,72,34262,6,0,L|172:180,1,85,14|0,3:2|3:2,0:0:0:0:
356,168,34493,2,0,L|468:168,1,85,10|0,3:2|3:2,0:0:0:0:
255,208,34724,2,0,L|376:208,1,85,10|2,3:2|3:2,0:0:0:0:
144,212,34955,1,10,3:2:0:0:
340,208,35070,6,0,L|340:120,1,85,2|8,3:2|3:2,0:0:0:0:
144,132,35301,1,2,3:2:0:0:
336,72,35416,2,0,L|432:72,1,85,10|2,3:2|3:2,0:0:0:0:
160,64,35647,2,0,L|56:64,1,85,10|2,3:2|3:2,0:0:0:0:
264,156,35878,2,0,L|144:156,1,85,10|2,3:2|3:2,0:0:0:0:
368,148,36109,6,0,L|368:56,1,85,10|2,3:2|3:2,0:0:0:0:
180,72,36339,2,0,L|180:136,1,42.5,10|0,3:2|3:2,0:0:0:0:
224,116,36455,2,0,L|300:116,1,42.5,2|0,3:2|3:2,0:0:0:0:
136,224,36570,2,0,L|40:224,1,85,8|2,3:2|3:2,0:0:0:0:
236,184,36801,2,0,L|296:184,1,42.5,10|0,3:2|3:2,0:0:0:0:
236,184,36916,2,0,L|180:184,1,42.5,2|0,3:2|3:2,0:0:0:0:
348,128,37032,6,0,L|448:128,1,85,10|0,3:2|3:2,0:0:0:0:
392,128,37205,1,0,3:2:0:0:
248,80,37262,2,0,L|128:80,1,85,8|0,3:2|3:2,0:0:0:0:
204,80,37435,1,0,3:2:0:0:
360,340,37493,5,2,3:2:0:0:
380,334,37521,1,0,3:2:0:0:
395,319,37550,1,0,3:2:0:0:
399,299,37579,1,0,3:2:0:0:
393,279,37608,1,0,3:2:0:0:
378,265,37637,1,0,3:2:0:0:
358,260,37666,1,0,3:2:0:0:
208,268,37724,5,2,3:2:0:0:
186,268,37752,1,0,3:2:0:0:
165,264,37781,1,0,3:2:0:0:
146,257,37810,1,0,3:2:0:0:
128,245,37839,1,0,3:2:0:0:
113,230,37868,1,0,3:2:0:0:
102,212,37897,1,0,3:2:0:0:
260,200,37955,5,4,3:2:0:0:
80,316,38416,2,0,L|80:136,1,170,0|0,0:0|3:2,0:0:0:0:
424,144,38878,1,0,3:2:0:0:
140,240,39339,1,8,3:2:0:0:
368,328,39801,6,0,P|448:300|344:140,1,340,0|0,3:2|0:0,0:0:0:0:
188,148,40493,1,0,3:2:0:0:
400,212,40724,2,0,L|472:24,1,170,0|0,3:2|3:2,0:0:0:0:
108,356,41185,2,0,P|44:324|132:204,1,255,2|0,0:2|0:0,0:0:0:0:
316,208,41647,6,0,L|316:100,1,85,6|0,3:2|0:0,0:0:0:0:
120,248,41878,2,0,L|120:148,1,85,2|0,3:2|0:0,0:0:0:0:
292,172,42109,2,0,L|292:84,1,85,2|0,3:2|0:0,0:0:0:0:
472,184,42339,2,0,L|364:184,1,85,2|0,3:2|0:0,0:0:0:0:
300,188,42570,6,0,L|400:188,1,85,0|0,3:2|0:0,0:0:0:0:
196,296,42801,2,0,L|196:180,1,85,2|0,3:2|0:0,0:0:0:0:
280,216,43032,2,0,L|404:216,1,85,0|0,3:2|0:0,0:0:0:0:
168,172,43262,2,0,L|60:172,1,85,2|0,3:2|0:0,0:0:0:0:
284,176,43493,6,0,L|284:64,1,85,0|0,3:2|0:0,0:0:0:0:
200,92,43724,2,0,L|200:0,1,85,0|0,3:2|0:0,0:0:0:0:
384,16,43955,2,0,L|488:16,1,85,0|0,3:2|0:0,0:0:0:0:
276,172,44185,1,2,3:2:0:0:
469,16,44301,1,0,0:2:0:0:
276,172,44416,6,0,L|152:172,1,85,2|0,3:2|0:0,0:0:0:0:
276,172,44647,2,0,L|384:172,1,85,2|0,3:2|0:0,0:0:0:0:
160,180,44878,2,0,L|160:72,1,85,2|0,3:2|0:0,0:0:0:0:
344,92,45109,2,0,L|448:92,1,85,2|0,3:2|0:0,0:0:0:0:
168,344,45339,6,0,L|76:344,1,85,12|0,3:2|3:2,0:0:0:0:
268,264,45570,2,0,L|164:264,1,85,8|0,3:2|3:2,0:0:0:0:
372,196,45801,2,0,L|256:196,1,85,8|0,3:2|3:2,0:0:0:0:
472,144,46032,2,0,L|472:52,1,85,8|0,3:2|3:2,0:0:0:0:
280,64,46262,6,0,L|396:64,1,85,8|0,3:2|3:2,0:0:0:0:
184,192,46493,2,0,L|84:192,1,85,8|0,3:2|3:2,0:0:0:0:
280,132,46724,2,0,L|280:256,1,85,8|0,3:2|3:2,0:0:0:0:
99,192,46955,2,0,L|215:192,1,85,8|0,3:2|3:2,0:0:0:0:
448,344,47185,6,0,P|280:120|128:372,1,637.5,4|0,3:2|0:0,0:0:0:0:
156,340,48109,6,0,P|232:336|400:184,1,297.5,2|0,0:2|0:0,0:0:0:0:
352,200,48570,2,0,P|256:192|216:144,1,127.5,2|0,0:2|0:0,0:0:0:0:
396,144,48801,2,0,P|436:96|376:56,1,127.5,8|0,0:1|0:0,0:0:0:0:
232,296,49032,6,0,L|344:296,1,85,6|2,3:2|0:2,0:0:0:0:
140,256,49262,2,0,L|40:256,1,85,2|0,3:2|0:0,0:0:0:0:
232,196,49493,2,0,L|328:196,1,85,2|0,3:2|0:0,0:0:0:0:
128,128,49724,1,2,3:2:0:0:
317,196,49839,6,0,L|316:104,1,85,2|0,0:2|3:2,0:0:0:0:
128,76,50070,1,2,0:2:0:0:
316,72,50185,2,0,L|420:72,1,85,2|0,3:2|0:0,0:0:0:0:
216,304,50416,2,0,L|108:304,1,85,2|0,3:2|0:0,0:0:0:0:
216,312,50647,2,0,L|340:312,1,85,0|0,3:2|0:0,0:0:0:0:
104,256,50878,6,0,L|104:148,1,85,2|0,3:2|0:0,0:0:0:0:
300,168,51109,2,0,L|424:168,1,85,2|0,3:2|0:0,0:0:0:0:
200,112,51339,1,2,3:2:0:0:
385,168,51455,1,2,0:2:0:0:
200,112,51570,2,0,L|96:112,1,85,2|0,3:2|0:0,0:0:0:0:
324,280,51801,6,0,L|224:280,1,85,2|0,3:2|0:0,0:0:0:0:
48,280,52032,1,2,3:2:0:0:
239,280,52147,1,2,0:2:0:0:
48,280,52262,2,0,L|48:160,1,85,2|0,3:2|0:0,0:0:0:0:
240,188,52493,2,0,L|352:188,1,85,2|0,3:2|0:0,0:0:0:0:
128,160,52724,6,0,L|128:60,1,85,6|0,3:2|0:0,0:0:0:0:
212,80,52955,2,0,L|312:80,1,85,0|0,3:2|0:0,0:0:0:0:
96,264,53185,2,0,L|196:264,1,85,2|0,3:2|0:0,0:0:0:0:
376,264,53416,1,2,3:2:0:0:
181,264,53532,6,0,L|164:156,1,85,2|0,0:2|3:2,0:0:0:0:
252,180,53762,1,2,0:2:0:0:
76,188,53878,2,0,L|80:84,1,85,2|0,3:2|0:0,0:0:0:0:
268,100,54109,2,0,L|368:100,1,85,2|0,3:2|0:0,0:0:0:0:
268,100,54339,2,0,L|164:100,1,85,0|0,3:2|0:0,0:0:0:0:
392,260,54570,6,0,L|412:148,1,85,2|0,3:2|0:0,0:0:0:0:
212,176,54801,2,0,L|304:176,1,85,2|0,3:2|0:0,0:0:0:0:
112,184,55032,2,0,L|96:68,1,85,2|0,3:2|0:0,0:0:0:0:
280,104,55262,1,2,3:2:0:0:
100,99,55378,1,2,0:2:0:0:
296,308,55493,5,0,3:0:0:0:
317,306,55521,1,0,3:0:0:0:
337,300,55550,1,0,3:0:0:0:
355,289,55579,1,0,3:0:0:0:
370,274,55608,1,0,3:0:0:0:
381,256,55637,1,0,3:0:0:0:
387,236,55666,1,0,3:0:0:0:
224,236,55724,1,0,3:0:0:0:
202,235,55752,1,0,3:0:0:0:
182,230,55781,1,0,3:0:0:0:
163,221,55810,1,0,3:0:0:0:
147,207,55839,1,0,3:0:0:0:
135,189,55868,1,0,3:0:0:0:
127,170,55897,1,0,3:0:0:0:
288,212,55955,5,0,3:0:0:0:
309,210,55983,1,0,3:0:0:0:
329,203,56012,1,0,3:0:0:0:
347,192,56041,1,0,3:0:0:0:
362,177,56070,1,0,3:0:0:0:
373,159,56099,1,0,3:0:0:0:
379,138,56128,1,0,3:0:0:0:
380,117,56156,1,0,3:0:0:0:
377,96,56185,1,0,3:0:0:0:
368,77,56214,1,0,3:0:0:0:
355,60,56243,1,0,3:0:0:0:
339,47,56272,1,0,3:0:0:0:
320,37,56301,1,0,3:0:0:0:
299,33,56330,1,0,3:0:0:0:
278,33,56358,1,0,3:0:0:0:
144,320,56416,6,0,L|232:320,1,85,6|2,3:2|3:2,0:0:0:0:
48,316,56647,2,0,L|48:200,1,85,2|0,3:2|0:0,0:0:0:0:
240,232,56878,2,0,L|348:232,1,85,2|0,3:2|0:0,0:0:0:0:
148,176,57109,1,2,3:2:0:0:
344,176,57224,6,0,L|340:80,1,85,2|0,3:2|0:0,0:0:0:0:
160,96,57455,1,2,3:2:0:0:
344,176,57570,2,0,L|448:176,1,85,2|0,3:2|0:0,0:0:0:0:
224,292,57801,2,0,L|224:208,1,85,2|0,3:2|3:2,0:0:0:0:
396,124,58032,2,0,L|448:124,1,42.5,0|0,3:2|3:2,0:0:0:0:
480,124,58147,2,0,L|420:124,1,42.5,0|0,3:2|3:2,0:0:0:0:
268,128,58262,6,0,L|176:112,1,85,2|0,3:2|0:0,0:0:0:0:
364,88,58493,2,0,L|372:-4,1,85,2|0,3:2|0:0,0:0:0:0:
192,368,58724,2,0,L|180:248,1,85,2|0,3:2|0:0,0:0:0:0:
360,280,58955,2,0,L|260:280,1,85,2|0,3:2|3:2,0:0:0:0:
456,272,59185,6,0,L|464:180,1,85,2|0,3:2|0:0,0:0:0:0:
276,144,59416,1,2,3:2:0:0:
463,187,59532,1,2,3:2:0:0:
276,144,59647,2,0,L|160:144,1,85,2|0,3:2|0:0,0:0:0:0:
376,72,59878,1,2,3:2:0:0:
416,72,59935,1,0,3:2:0:0:
416,72,59993,1,0,3:2:0:0:
376,72,60051,1,0,3:2:0:0:
224,276,60109,6,0,L|224:172,1,85,6|0,3:2|0:0,0:0:0:0:
308,188,60339,2,0,L|308:80,1,85,0|0,3:2|0:0,0:0:0:0:
132,112,60570,2,0,L|32:112,1,85,2|0,3:2|0:0,0:0:0:0:
240,60,60801,1,2,3:2:0:0:
52,112,60916,6,0,L|156:112,1,85,2|0,3:2|0:0,0:0:0:0:
324,104,61147,1,2,3:2:0:0:
132,108,61262,2,0,L|136:200,1,85,2|0,3:2|0:0,0:0:0:0:
320,204,61493,2,0,L|228:204,1,85,2|0,3:2|3:2,0:0:0:0:
408,204,61724,2,0,L|524:204,1,85,0|0,3:2|0:0,0:0:0:0:
300,360,61955,6,0,L|280:252,1,85,2|0,3:2|3:2,0:0:0:0:
464,272,62185,2,0,L|356:272,1,85,2|0,3:2|0:0,0:0:0:0:
192,276,62416,2,0,L|192:172,1,85,2|0,3:2|0:0,0:0:0:0:
372,184,62647,1,2,3:2:0:0:
176,188,62762,6,0,P|128:152|192:80,1,170,2|0,3:2|3:2,0:0:0:0:
364,88,63109,2,0,L|452:88,1,85,0|0,3:2|0:0,0:0:0:0:
240,312,63339,2,0,L|372:312,1,127.5,2|0,0:2|0:0,0:0:0:0:
324,312,63570,2,0,L|192:312,1,127.5,2|0,0:2|0:0,0:0:0:0:
364,240,63801,6,0,L|476:240,1,85,6|2,3:2|3:2,0:0:0:0:
244,176,64032,2,0,L|144:176,1,85,2|2,3:2|3:2,0:0:0:0:
348,208,64262,2,0,L|448:208,1,85,2|2,3:2|3:2,0:0:0:0:
220,128,64493,2,0,L|112:128,1,85,2|2,3:2|3:2,0:0:0:0:
316,72,64724,5,2,3:2:0:0:
136,72,64839,2,0,L|76:72,2,42.5,2|0|2,3:2|3:2|3:2,0:0:0:0:
336,256,65070,2,0,L|152:256,1,170,2|0,3:2|3:2,0:0:0:0:
364,208,65416,2,0,L|364:96,1,85,2|0,3:2|0:0,0:0:0:0:
152,128,65647,6,0,L|60:128,1,85,2|2,3:2|3:2,0:0:0:0:
288,68,65878,2,0,L|400:68,1,85,2|2,3:2|3:2,0:0:0:0:
176,96,66109,2,0,L|68:96,1,85,2|0,3:2|0:0,0:0:0:0:
320,32,66339,2,0,L|432:32,1,85,2|2,3:2|3:2,0:0:0:0:
204,32,66570,5,2,3:2:0:0:
405,32,66685,2,0,L|464:32,2,42.5,2|0|2,3:2|3:2|3:2,0:0:0:0:
200,144,66916,2,0,L|396:144,1,170,2|0,3:2|3:2,0:0:0:0:
184,244,67262,2,0,L|60:244,1,85,2|0,3:2|0:0,0:0:0:0:
304,176,67493,6,0,L|396:176,1,85,14|2,3:2|3:2,0:0:0:0:
208,104,67724,1,10,3:2:0:0:
250,104,67781,1,0,3:2:0:0:
293,104,67839,1,2,3:2:0:0:
104,164,67955,2,0,L|16:164,1,85,10|0,3:2|0:0,0:0:0:0:
200,88,68185,1,10,3:2:0:0:
157,88,68242,1,0,0:0:0:0:
115,88,68300,1,2,3:2:0:0:
291,316,68416,6,0,L|184:316,1,85,10|2,3:2|3:2,0:0:0:0:
396,256,68647,1,10,3:2:0:0:
170,120,68762,1,2,3:2:0:0:
255,120,68877,1,8,0:2:0:0:
340,120,68992,1,0,3:2:0:0:
152,64,69109,1,10,3:2:0:0:
340,120,69224,1,0,3:2:0:0:
144,244,69339,6,0,L|40:244,1,85,8|0,3:2|3:2,0:0:0:0:
100,244,69512,1,0,3:2:0:0:
272,240,69570,2,0,L|376:240,1,85,8|0,3:2|3:2,0:0:0:0:
316,240,69743,1,0,3:2:0:0:
168,204,69801,6,0,L|64:204,1,85,8|0,3:2|3:2,0:0:0:0:
124,204,69974,1,0,3:2:0:0:
296,208,70032,2,0,L|388:208,1,85,8|0,3:2|3:2,0:0:0:0:
176,152,70262,6,0,L|112:152,1,42.5,8|0,3:2|3:2,0:0:0:0:
176,152,70378,2,0,L|236:152,1,42.5,0|0,3:2|3:2,0:0:0:0:
68,352,70493,1,8,3:2:0:0:
49,342,70521,1,0,3:2:0:0:
36,326,70550,1,0,3:2:0:0:
31,305,70579,1,0,3:2:0:0:
37,285,70608,1,0,3:2:0:0:
50,269,70637,1,0,3:2:0:0:
70,261,70666,1,0,3:2:0:0:
236,264,70724,6,0,L|296:264,1,42.5,8|0,3:2|3:2,0:0:0:0:
416,200,70839,1,0,3:2:0:0:
394,200,70867,1,0,0:0:0:0:
373,200,70896,1,0,0:0:0:0:
232,200,70955,2,0,L|172:200,1,42.5,8|0,3:2|3:2,0:0:0:0:
60,200,71070,1,0,3:2:0:0:
81,200,71098,1,0,0:0:0:0:
102,200,71127,1,0,3:2:0:0:
256,196,71185,6,0,P|308:156|236:84,1,170,4|0,3:2|0:0,0:0:0:0:
88,80,71647,2,0,L|88:284,1,170,0|0,0:0|0:0,0:0:0:0:
416,248,72109,6,0,L|204:100,2,255,8|0|0,3:2|3:2|3:2,0:0:0:0:
76,336,73032,6,0,P|388:236|236:48,1,680,4|8,3:2|0:3,0:0:0:0:
72,48,74185,1,8,0:3:0:0:
244,48,74416,1,8,0:3:0:0:
72,48,74647,1,8,0:3:0:0:
396,344,74878,5,6,3:2:0:0:
415,336,74906,1,0,3:2:0:0:
430,322,74935,1,0,3:2:0:0:
438,302,74964,1,0,3:2:0:0:
436,281,74993,1,0,3:2:0:0:
425,263,75022,1,0,3:2:0:0:
407,251,75051,1,0,3:2:0:0:
387,248,75079,1,0,3:2:0:0:
364,252,75109,2,0,L|176:252,1,170,2|2,3:2|0:2,0:0:0:0:
296,188,75455,2,0,L|500:188,1,170,2|0,0:2|0:0,0:0:0:0:
216,184,75801,5,6,3:2:0:0:
194,183,75829,1,0,3:2:0:0:
176,174,75858,1,0,3:2:0:0:
163,158,75887,1,0,3:2:0:0:
159,137,75916,1,0,3:2:0:0:
164,117,75945,1,0,3:2:0:0:
177,101,75974,1,0,3:2:0:0:
197,92,76002,1,0,3:2:0:0:
220,88,76032,2,0,L|408:88,1,170,2|2,3:2|0:2,0:0:0:0:
288,88,76378,2,0,L|488:88,1,170,2|0,0:2|0:0,0:0:0:0:
224,328,76724,5,6,3:2:0:0:
202,328,76752,1,0,3:2:0:0:
181,328,76781,1,0,3:2:0:0:
160,328,76810,1,0,3:2:0:0:
139,328,76839,1,0,3:2:0:0:
117,328,76868,1,0,3:2:0:0:
96,328,76897,1,0,3:2:0:0:
75,328,76925,1,0,3:2:0:0:
54,328,76954,1,2,3:2:0:0:
140,328,77070,1,2,0:2:0:0:
348,256,77185,5,6,3:2:0:0:
369,256,77214,1,0,3:2:0:0:
390,256,77242,1,0,3:2:0:0:
248,224,77301,5,6,3:2:0:0:
227,218,77329,1,0,3:2:0:0:
213,202,77358,1,0,3:2:0:0:
208,182,77387,1,0,3:2:0:0:
213,162,77416,1,0,3:2:0:0:
228,147,77445,1,0,3:2:0:0:
249,142,77474,1,0,3:2:0:0:
400,140,77532,6,0,L|428:140,6,21.25,2|0|0|0|0|0|0,3:2|3:2|3:2|3:2|3:2|3:2|3:2,0:0:0:0:
268,144,77762,1,2,3:2:0:0:
246,144,77790,1,0,3:2:0:0:
225,144,77819,1,0,3:2:0:0:
88,148,77878,5,2,3:2:0:0:
67,150,77906,1,0,3:2:0:0:
49,139,77935,1,0,3:2:0:0:
40,121,77964,1,0,3:2:0:0:
44,100,77993,1,0,3:2:0:0:
59,86,78022,1,0,3:2:0:0:
80,83,78051,1,0,3:2:0:0:
224,352,78109,5,2,3:2:0:0:
202,352,78137,1,0,3:2:0:0:
181,352,78166,1,0,3:2:0:0:
160,352,78195,1,0,3:2:0:0:
139,352,78224,1,0,3:2:0:0:
117,352,78253,1,0,3:2:0:0:
96,352,78282,1,0,3:2:0:0:
136,352,78339,2,0,L|272:352,1,127.5,2|0,3:2|0:0,0:0:0:0:
112,292,78570,5,4,3:2:0:0:
91,288,78598,1,0,3:2:0:0:
73,276,78627,1,0,3:2:0:0:
62,259,78656,1,0,3:2:0:0:
58,238,78685,1,0,3:2:0:0:
63,218,78714,1,0,3:2:0:0:
76,201,78743,1,0,3:2:0:0:
94,191,78771,1,0,3:2:0:0:
115,189,78800,1,2,3:2:0:0:
196,192,78916,1,0,0:0:0:0:
396,124,79032,5,6,3:2:0:0:
374,124,79060,1,0,3:2:0:0:
353,124,79089,1,0,3:2:0:0:
332,124,79118,1,0,3:2:0:0:
311,124,79147,1,2,3:2:0:0:
289,124,79176,1,0,3:2:0:0:
268,124,79205,1,0,3:2:0:0:
247,124,79233,1,0,3:2:0:0:
226,124,79262,1,0,3:2:0:0:
140,132,79378,1,0,0:0:0:0:
380,328,79493,5,4,3:2:0:0:
400,324,79521,1,0,3:2:0:0:
418,312,79550,1,0,3:2:0:0:
429,295,79579,1,0,3:2:0:0:
433,274,79608,1,0,3:2:0:0:
428,254,79637,1,0,3:2:0:0:
415,237,79666,1,0,3:2:0:0:
397,227,79694,1,0,3:2:0:0:
376,225,79723,1,2,3:2:0:0:
296,228,79839,1,0,0:0:0:0:
96,160,79955,5,6,3:2:0:0:
117,160,79983,1,0,3:2:0:0:
138,160,80012,1,0,3:2:0:0:
159,160,80041,1,0,3:2:0:0:
181,160,80070,1,2,3:2:0:0:
202,160,80099,1,0,3:2:0:0:
223,160,80128,1,0,3:2:0:0:
244,160,80156,1,0,3:2:0:0:
266,160,80185,1,0,3:2:0:0:
352,168,80301,1,0,0:0:0:0:
152,356,80416,5,6,3:2:0:0:
131,359,80444,1,0,3:2:0:0:
112,351,80473,1,0,3:2:0:0:
101,333,80502,1,0,3:2:0:0:
102,312,80531,1,0,3:2:0:0:
114,296,80560,1,0,3:2:0:0:
134,289,80589,1,0,3:2:0:0:
284,228,80647,6,0,L|312:228,2,21.25,2|0|0,3:2|3:2|3:2,0:0:0:0:
260,228,80734,1,0,3:2:0:0:
240,228,80762,2,0,L|208:228,2,21.25,0|0|0,3:2|3:2|3:2,0:0:0:0:
392,112,80878,6,0,L|420:112,2,21.25,6|0|0,3:2|3:2|3:2,0:0:0:0:
232,172,80993,5,6,3:2:0:0:
210,172,81021,1,0,3:2:0:0:
189,169,81050,1,0,3:2:0:0:
169,162,81079,1,0,3:2:0:0:
150,153,81108,1,0,3:2:0:0:
133,140,81137,1,0,3:2:0:0:
119,124,81166,1,0,3:2:0:0:
260,336,81224,5,2,3:2:0:0:
281,336,81252,1,0,3:2:0:0:
301,331,81281,1,0,3:2:0:0:
321,323,81310,1,0,3:2:0:0:
338,310,81339,1,0,3:2:0:0:
351,294,81368,1,0,3:2:0:0:
361,275,81397,1,0,3:2:0:0:
208,272,81455,6,0,L|184:272,2,21.25,2|0|0,3:2|3:2|3:2,0:0:0:0:
368,216,81570,5,2,3:2:0:0:
386,206,81598,1,0,3:2:0:0:
398,188,81627,1,0,3:2:0:0:
400,167,81656,1,0,3:2:0:0:
392,148,81685,1,0,3:2:0:0:
376,135,81714,1,0,3:2:0:0:
355,130,81743,1,0,3:2:0:0:
184,156,81801,5,2,3:2:0:0:
162,156,81829,1,0,3:2:0:0:
143,148,81858,1,0,3:2:0:0:
129,132,81887,1,0,3:2:0:0:
124,112,81916,1,0,3:2:0:0:
127,91,81945,1,0,3:2:0:0:
140,74,81974,1,0,3:2:0:0:
158,64,82002,1,0,0:0:0:0:
184,64,82032,2,0,L|328:64,1,127.5,0|0,0:0|0:0,0:0:0:0:
140,312,82262,5,4,3:2:0:0:
256,192,88724,12,0,89416,0:0:0:0:
124,340,89647,6,0,P|84:288|144:224,1,152.999995330811,4|0,1:2|0:0,0:0:0:0:
284,224,90109,1,2,0:2:0:0:
208,220,90224,1,0,0:0:0:0:
132,220,90339,1,2,0:2:0:0:
352,332,90570,6,0,P|396:284|332:228,1,152.999995330811,10|0,0:2|0:0,0:0:0:0:
272,224,90916,1,0,0:0:0:0:
196,224,91032,2,0,L|108:224,2,76.4999976654053,2|0|0,0:2|0:0|0:0,0:0:0:0:
388,96,91493,6,0,L|220:96,1,152.999995330811,2|0,1:2|0:0,0:0:0:0:
388,96,91955,2,0,L|388:192,1,76.4999976654053,2|0,0:2|0:0,0:0:0:0:
236,168,92301,2,0,L|144:168,2,76.4999976654053,0|8|0,0:0|0:2|0:0,0:0:0:0:
312,164,92647,6,0,L|312:80,1,76.4999976654053,0|0,0:0|0:0,0:0:0:0:
236,92,92878,2,0,L|236:4,1,76.4999976654053,0|0,0:0|0:0,0:0:0:0:
312,12,93109,1,0,0:0:0:0:
104,368,93339,6,0,L|104:188,1,152.999995330811,0|0,1:2|0:0,0:0:0:0:
256,212,93801,2,0,L|356:212,2,76.4999976654053,2|0|2,0:2|0:0|0:2,0:0:0:0:
64,168,94262,6,0,L|236:168,1,152.999995330811,10|0,0:2|0:0,0:0:0:0:
296,168,94609,1,0,0:0:0:0:
217,168,94724,2,0,L|128:168,2,76.4999976654053,2|0|2,0:2|0:0|0:2,0:0:0:0:
420,348,95185,6,0,P|452:300|384:224,1,152.999995330811,2|0,1:2|0:0,0:0:0:0:
252,220,95647,2,0,L|156:220,1,76.4999976654053,2|0,0:2|0:0,0:0:0:0:
328,220,95993,2,0,L|328:120,1,76.4999976654053,0|8,0:0|0:2,0:0:0:0:
252,140,96224,6,0,L|156:140,2,76.4999976654053,0|0|0,0:0|0:0|0:0,0:0:0:0:
328,143,96570,1,0,0:0:0:0:
404,140,96685,2,0,L|404:52,1,76.4999976654053,0|0,0:0|0:0,0:0:0:0:
56,264,97032,5,0,1:2:0:0:
208,264,97262,1,0,0:0:0:0:
56,264,97493,2,0,L|56:176,1,76.4999976654053,2|0,0:2|0:0,0:0:0:0:
208,176,97839,2,0,L|316:176,1,76.4999976654053,0|10,0:0|0:2,0:0:0:0:
132,180,98185,5,0,0:0:0:0:
60,160,98300,1,0,0:0:0:0:
31,92,98415,1,2,0:2:0:0:
67,27,98531,1,0,0:0:0:0:
139,14,98646,1,0,0:0:0:0:
352,288,98878,6,0,L|172:288,1,152.999995330811,2|0,1:2|0:0,0:0:0:0:
352,288,99339,2,0,L|440:288,1,76.4999976654053,2|0,0:2|0:0,0:0:0:0:
276,288,99685,6,0,L|276:204,1,76.4999976654053,0|8,0:0|0:2,0:0:0:0:
352,208,99916,2,0,L|352:120,1,76.4999976654053,0|0,0:0|0:0,0:0:0:0:
276,128,100147,1,0,0:0:0:0:
200,124,100262,2,0,L|96:124,2,76.4999976654053,0|0|0,0:0|0:0|0:0,0:0:0:0:
408,364,100724,6,0,P|444:328|384:248,1,152.999995330811,0|0,1:2|0:0,0:0:0:0:
248,244,101185,2,0,L|152:244,1,76.4999976654053,2|0,0:2|0:0,0:0:0:0:
324,244,101532,6,0,L|324:160,1,76.4999976654053,0|10,0:0|0:2,0:0:0:0:
172,160,101878,2,0,L|264:160,1,76.4999976654053,0|0,0:0|0:0,0:0:0:0:
324,160,102109,1,2,0:2:0:0:
248,160,102224,1,0,0:0:0:0:
172,160,102339,1,0,0:0:0:0:
376,316,102570,6,0,P|412:280|344:208,1,152.999995330811,2|0,1:2|0:0,0:0:0:0:
212,200,103032,2,0,L|212:112,1,76.4999976654053,0|0,0:0|0:0,0:0:0:0:
364,116,103378,6,0,L|364:24,1,76.4999976654053,0|8,0:0|0:2,0:0:0:0:
288,44,103609,1,0,0:0:0:0:
212,38,103724,2,0,L|212:136,1,76.4999976654053,0|0,0:0|0:0,0:0:0:0:
288,116,103955,1,0,0:0:0:0:
212,114,104070,1,0,0:0:0:0:
136,116,104185,1,0,0:0:0:0:
476,224,104416,5,4,1:2:0:0:
256,192,104532,12,0,107185,0:0:0:0:
284,312,108109,6,0,L|284:224,1,76.4999976654053,6|2,3:2|0:2,0:0:0:0:
208,232,108339,2,0,L|384:232,1,152.999995330811,2|2,0:2|0:2,0:0:0:0:
152,196,108801,2,0,L|152:116,1,76.4999976654053,2|2,0:2|0:2,0:0:0:0:
356,164,109147,5,2,0:2:0:0:
432,164,109262,2,0,L|260:164,1,152.999995330811,2|2,0:2|0:2,0:0:0:0:
432,164,109724,1,0,0:0:0:0:
208,364,109955,6,0,P|168:328|220:256,1,152.999995330811,2|2,0:2|0:2,0:0:0:0:
416,256,110416,2,0,L|416:164,1,76.4999976654053,2|2,0:2|0:2,0:0:0:0:
340,176,110647,2,0,L|440:176,1,76.4999976654053,2|0,0:2|0:0,0:0:0:0:
280,208,110878,6,0,L|96:208,1,152.999995330811,2|2,0:2|0:2,0:0:0:0:
216,208,111224,1,2,0:2:0:0:
127,208,111339,2,0,P|81:264|132:332,1,152.999995330811,2|2,0:2|0:2,0:0:0:0:
344,372,111801,6,0,P|444:288|328:208,1,305.999990661621,2|2,0:2|0:2,0:0:0:0:
152,200,112493,1,2,0:2:0:0:
76,200,112609,6,0,L|328:200,1,229.499992996216,2|2,0:2|0:2,0:0:0:0:
152,192,113185,1,2,0:2:0:0:
76,192,113301,1,0,0:0:0:0:
76,192,113416,1,0,0:0:0:0:
152,192,113532,1,0,0:0:0:0:
292,192,113647,6,0,L|292:92,1,76.4999976654053,2|0,0:2|0:0,0:0:0:0:
216,108,113878,2,0,L|216:16,1,76.4999976654053,2|0,0:2|0:0,0:0:0:0:
352,28,114109,6,0,L|448:28,3,76.4999976654053,2|0|2|2,0:2|0:0|0:2|0:2,0:0:0:0:
240,352,114570,5,4,3:2:0:0:
218,354,114598,1,0,3:2:0:0:
197,353,114627,1,0,3:2:0:0:
176,348,114656,1,0,3:2:0:0:
157,340,114685,1,0,3:2:0:0:
138,330,114714,1,0,3:2:0:0:
122,316,114743,1,0,3:2:0:0:
108,300,114771,1,0,3:2:0:0:
96,282,114800,1,0,3:2:0:0:
96,220,114916,1,0,0:0:0:0:
312,216,115032,5,4,3:2:0:0:
333,218,115060,1,0,3:2:0:0:
353,214,115089,1,0,3:2:0:0:
373,206,115118,1,0,3:2:0:0:
389,192,115147,1,0,3:2:0:0:
401,174,115176,1,0,3:2:0:0:
408,154,115205,1,0,3:2:0:0:
409,133,115233,1,0,3:2:0:0:
404,112,115262,1,0,3:2:0:0:
394,94,115291,1,0,3:2:0:0:
380,78,115320,1,0,3:2:0:0:
362,67,115349,1,0,3:2:0:0:
341,62,115378,1,0,3:2:0:0:
320,62,115407,1,0,3:2:0:0:
300,67,115435,1,0,3:2:0:0:
144,220,115493,6,0,L|248:220,1,85,6|2,3:2|3:2,0:0:0:0:
44,216,115724,2,0,L|44:104,1,85,2|0,3:2|0:0,0:0:0:0:
236,328,115955,2,0,L|336:316,1,85,2|0,3:2|0:0,0:0:0:0:
136,280,116185,1,2,3:2:0:0:
320,288,116301,6,0,L|312:184,1,85,2|0,3:2|0:0,0:0:0:0:
128,208,116532,1,2,3:2:0:0:
316,136,116647,2,0,L|428:136,1,85,2|0,3:2|0:0,0:0:0:0:
196,132,116878,2,0,L|104:132,1,85,2|0,3:2|3:2,0:0:0:0:
296,88,117109,2,0,L|296:28,1,42.5,0|0,3:2|3:2,0:0:0:0:
252,44,117224,2,0,L|180:44,1,42.5,0|0,3:2|3:2,0:0:0:0:
380,160,117339,6,0,L|480:160,1,85,2|0,3:2|0:0,0:0:0:0:
272,328,117570,2,0,L|176:328,1,85,2|0,3:2|0:0,0:0:0:0:
376,280,117801,2,0,L|384:184,1,85,2|0,3:2|0:0,0:0:0:0:
196,204,118032,2,0,L|304:204,1,85,2|0,3:2|3:2,0:0:0:0:
104,208,118262,6,0,L|12:208,1,85,2|0,3:2|0:0,0:0:0:0:
200,132,118493,1,2,3:2:0:0:
19,208,118609,1,2,3:2:0:0:
200,132,118724,2,0,L|304:132,1,85,2|0,3:2|0:0,0:0:0:0:
104,76,118955,1,2,3:2:0:0:
64,76,119012,1,0,3:2:0:0:
20,76,119070,1,0,3:2:0:0:
64,76,119128,1,0,3:2:0:0:
208,284,119185,6,0,L|328:284,1,85,14|0,3:2|0:0,0:0:0:0:
108,248,119416,2,0,L|108:132,1,85,8|0,3:2|0:0,0:0:0:0:
284,168,119647,2,0,L|400:168,1,85,10|0,3:2|0:0,0:0:0:0:
184,128,119878,1,10,3:2:0:0:
369,168,119993,6,0,L|244:168,1,85,2|8,3:2|0:2,0:0:0:0:
96,172,120224,1,2,3:2:0:0:
284,168,120339,2,0,L|384:168,1,85,10|0,3:2|0:0,0:0:0:0:
176,104,120570,2,0,L|276:104,1,85,10|0,3:2|3:2,0:0:0:0:
64,108,120801,2,0,L|64:228,1,85,8|0,3:2|0:0,0:0:0:0:
288,304,121032,6,0,L|184:304,1,85,10|0,3:2|3:2,0:0:0:0:
412,252,121262,2,0,L|436:164,1,85,10|0,3:2|0:0,0:0:0:0:
252,176,121493,2,0,L|248:76,1,85,10|0,3:2|0:0,0:0:0:0:
436,80,121724,1,10,3:2:0:0:
212,328,121839,6,0,L|408:328,1,170,2|0,3:2|3:2,0:0:0:0:
184,260,122185,2,0,L|88:260,1,85,8|0,3:2|0:0,0:0:0:0:
296,184,122416,2,0,L|400:184,1,85,2|0,0:2|3:2,0:0:0:0:
340,184,122589,1,0,3:2:0:0:
188,188,122647,2,0,L|88:188,1,85,2|0,3:2|0:0,0:0:0:0:
352,116,122878,6,0,L|256:116,1,85,6|2,3:2|3:2,0:0:0:0:
60,72,123109,2,0,L|156:72,1,85,2|2,3:2|3:2,0:0:0:0:
380,68,123339,2,0,L|280:68,1,85,2|2,3:2|3:2,0:0:0:0:
88,28,123570,2,0,L|176:28,1,85,2|2,3:2|3:2,0:0:0:0:
416,68,123801,5,2,3:2:0:0:
232,256,123916,2,0,L|168:256,2,42.5,2|0|2,3:2|3:2|3:2,0:0:0:0:
420,264,124147,2,0,P|472:240|400:180,1,170,2|0,3:2|3:2,0:0:0:0:
232,176,124493,2,0,L|132:176,1,85,2|0,3:2|0:0,0:0:0:0:
360,104,124724,6,0,L|456:104,1,85,2|2,3:2|3:2,0:0:0:0:
224,104,124955,2,0,L|128:104,1,85,2|2,3:2|3:2,0:0:0:0:
364,40,125185,2,0,L|260:40,1,85,2|2,3:2|3:2,0:0:0:0:
60,40,125416,2,0,L|176:40,1,85,2|2,3:2|3:2,0:0:0:0:
344,208,125647,5,2,3:2:0:0:
140,192,125762,2,0,L|80:192,2,42.5,2|0|2,3:2|3:2|3:2,0:0:0:0:
340,132,125993,2,0,L|136:132,1,170,2|0,3:2|3:2,0:0:0:0:
360,68,126339,2,0,L|456:68,1,85,2|0,3:2|0:0,0:0:0:0:
212,284,126570,6,0,L|120:284,1,85,14|2,3:2|3:2,0:0:0:0:
304,212,126801,2,0,L|200:212,1,85,10|2,3:2|3:2,0:0:0:0:
416,148,127032,2,0,L|508:148,1,85,10|0,3:2|0:0,0:0:0:0:
316,84,127262,2,0,L|436:84,1,85,10|2,3:2|3:2,0:0:0:0:
196,84,127493,5,10,3:2:0:0:
401,84,127609,2,0,L|468:84,2,42.5,2|0|10,3:2|3:2|3:2,0:0:0:0:
192,268,127839,2,0,L|4:268,1,170,2|0,3:2|3:2,0:0:0:0:
240,184,128185,2,0,L|132:184,1,85,10|0,3:2|3:2,0:0:0:0:
376,108,128416,6,0,L|476:108,1,85,8|0,3:2|3:2,0:0:0:0:
264,52,128647,2,0,L|364:52,1,85,8|0,3:2|3:2,0:0:0:0:
144,220,128878,2,0,L|44:220,1,85,8|0,3:2|3:2,0:0:0:0:
252,152,129109,2,0,L|148:152,1,85,8|0,3:2|3:2,0:0:0:0:
360,96,129339,5,8,3:2:0:0:
404,96,129397,1,0,3:2:0:0:
404,96,129455,1,0,3:2:0:0:
360,96,129512,1,0,3:2:0:0:
200,360,129570,5,2,3:2:0:0:
178,360,129598,1,0,3:2:0:0:
157,356,129627,1,0,3:2:0:0:
138,349,129656,1,0,3:2:0:0:
120,337,129685,1,0,3:2:0:0:
105,322,129714,1,0,3:2:0:0:
93,304,129743,1,0,3:2:0:0:
256,296,129801,5,2,3:2:0:0:
277,295,129829,1,0,3:2:0:0:
297,290,129858,1,0,3:2:0:0:
317,281,129887,1,0,3:2:0:0:
334,268,129916,1,0,3:2:0:0:
348,252,129945,1,0,3:2:0:0:
359,234,129974,1,0,3:2:0:0:
192,240,130032,5,2,3:2:0:0:
171,234,130060,1,0,3:2:0:0:
156,220,130089,1,0,3:2:0:0:
151,199,130118,1,0,3:2:0:0:
157,179,130147,1,0,3:2:0:0:
173,165,130176,1,0,3:2:0:0:
193,161,130205,1,0,3:2:0:0:
360,164,130262,6,0,L|456:164,1,85,6|2,3:2|3:2,0:0:0:0:
256,96,130493,2,0,L|352:96,1,85,2|2,3:2|3:2,0:0:0:0:
300,96,130666,1,0,3:2:0:0:
148,104,130724,6,0,L|56:104,1,85,2|0,3:2|0:0,0:0:0:0:
252,44,130955,2,0,L|148:44,1,85,2|0,3:2|0:0,0:0:0:0:
208,44,131128,1,0,3:2:0:0:
336,316,131185,6,0,L|436:316,1,85,2|2,3:2|3:2,0:0:0:0:
228,264,131416,1,2,3:2:0:0:
424,256,131532,5,2,3:2:0:0:
446,254,131560,1,0,3:2:0:0:
464,245,131589,1,0,3:2:0:0:
477,228,131618,1,0,3:2:0:0:
482,208,131647,1,0,3:2:0:0:
478,187,131676,1,0,3:2:0:0:
466,170,131705,1,0,3:2:0:0:
447,159,131733,1,0,3:2:0:0:
426,158,131762,1,0,3:2:0:0:
232,160,131878,2,0,L|136:160,1,85,2|0,3:2|3:2,0:0:0:0:
168,160,132022,1,0,3:2:0:0:
188,160,132051,1,0,3:2:0:0:
320,364,132109,6,0,L|428:364,1,85,2|0,3:2|0:0,0:0:0:0:
224,300,132339,2,0,L|324:300,1,85,2|2,3:2|3:2,0:0:0:0:
352,300,132512,1,0,3:2:0:0:
196,236,132570,6,0,L|88:236,1,85,2|0,3:2|0:0,0:0:0:0:
292,172,132800,2,0,L|192:172,1,85,2|2,3:2|3:2,0:0:0:0:
164,172,132973,1,0,3:2:0:0:
336,128,133032,6,0,L|396:128,1,42.5,2|0,3:2|0:0,0:0:0:0:
236,88,133147,1,2,3:2:0:0:
215,88,133175,1,0,3:2:0:0:
194,88,133204,1,0,3:2:0:0:
356,256,133262,2,0,L|456:256,1,85,2|2,3:2|3:2,0:0:0:0:
168,192,133493,6,0,L|136:192,2,21.25,0|0|0,3:2|3:2|3:2,0:0:0:0:
300,192,133609,2,0,L|348:192,1,42.5,0|0,3:2|3:2,0:0:0:0:
468,152,133724,2,0,L|496:152,2,21.25,2|0|0,3:2|3:2|3:2,0:0:0:0:
336,144,133839,2,0,L|288:144,1,42.5,0|0,3:2|3:2,0:0:0:0:
156,368,133955,6,0,L|80:368,1,42.5,6|0,3:2|3:2,0:0:0:0:
156,368,134070,2,0,L|216:368,1,42.5,2|0,3:2|3:2,0:0:0:0:
352,324,134185,2,0,L|352:268,1,42.5,2|0,3:2|0:0,0:0:0:0:
308,284,134301,2,0,L|244:284,1,42.5,2|0,3:2|3:2,0:0:0:0:
408,224,134416,6,0,L|460:224,1,42.5,2|0,3:2|3:2,0:0:0:0:
492,224,134532,2,0,L|424:224,1,42.5,2|0,3:2|3:2,0:0:0:0:
292,224,134647,2,0,L|292:164,1,42.5,2|0,3:2|3:2,0:0:0:0:
336,180,134762,2,0,L|400:180,1,42.5,2|0,3:2|3:2,0:0:0:0:
232,132,134878,6,0,L|184:132,1,42.5,2|0,3:2|0:0,0:0:0:0:
56,76,134993,2,0,L|120:76,1,42.5,2|0,3:2|3:2,0:0:0:0:
240,76,135109,2,0,L|304:76,1,42.5,2|0,3:2|3:2,0:0:0:0:
428,288,135224,5,2,3:2:0:0:
449,283,135252,1,0,3:2:0:0:
464,269,135281,1,0,3:2:0:0:
470,248,135310,1,0,3:2:0:0:
464,228,135339,1,0,0:2:0:0:
449,214,135368,1,0,3:2:0:0:
429,209,135397,1,0,3:2:0:0:
280,208,135455,6,0,L|212:208,1,42.5,0|0,3:2|3:2,0:0:0:0:
376,152,135570,2,0,L|440:152,1,42.5,2|0,3:2|0:0,0:0:0:0:
256,152,135685,2,0,L|184:152,1,42.5,2|0,3:2|3:2,0:0:0:0:
364,104,135801,6,0,L|432:104,1,42.5,2|0,3:2|3:2,0:0:0:0:
448,104,135916,2,0,L|400:104,1,42.5,0|0,3:2|3:2,0:0:0:0:
232,68,136032,2,0,L|180:68,1,42.5,0|0,3:2|3:2,0:0:0:0:
148,68,136147,2,0,L|224:68,1,42.5,0|0,3:2|3:2,0:0:0:0:
322,104,136262,6,0,L|390:104,1,42.5,0|0,3:2|3:2,0:0:0:0:
406,104,136377,2,0,L|358:104,1,42.5,0|0,3:2|3:2,0:0:0:0:
191,68,136493,2,0,L|112:68,1,42.5,2|0,3:2|3:2,0:0:0:0:
300,216,136608,2,0,L|376:216,1,42.5,0|0,3:2|3:2,0:0:0:0:
176,360,136724,5,2,3:2:0:0:
155,360,136752,1,0,3:2:0:0:
135,355,136781,1,0,3:2:0:0:
116,345,136810,1,0,3:2:0:0:
101,330,136839,1,0,3:2:0:0:
89,312,136868,1,0,3:2:0:0:
82,292,136897,1,0,3:2:0:0:
81,271,136925,1,0,3:2:0:0:
85,250,136954,1,0,3:2:0:0:
94,231,136983,1,0,3:2:0:0:
107,215,137012,1,0,3:2:0:0:
124,202,137041,1,0,3:2:0:0:
144,194,137070,1,0,3:2:0:0:
165,192,137099,1,0,3:2:0:0:
186,194,137127,1,0,0:0:0:0:
368,268,137185,5,2,3:2:0:0:
389,265,137214,1,0,3:2:0:0:
408,255,137242,1,0,3:2:0:0:
423,239,137271,1,0,3:2:0:0:
431,220,137300,1,0,3:2:0:0:
433,199,137329,1,0,3:2:0:0:
427,179,137358,1,0,3:2:0:0:
415,161,137386,1,0,3:2:0:0:
398,149,137415,1,0,3:2:0:0:
378,143,137444,1,0,3:2:0:0:
357,144,137473,1,0,3:2:0:0:
192,144,137532,5,2,3:2:0:0:
171,144,137560,1,0,3:2:0:0:
150,144,137589,1,0,3:2:0:0:
280,344,137647,6,0,P|332:300|256:244,1,170,4|0,3:2|0:0,0:0:0:0:
107,244,138109,2,0,P|71:212|131:124,1,170,0|0,0:0|0:0,0:0:0:0:
463,248,138570,6,0,L|259:80,2,255,8|0|0,3:2|3:2|3:2,0:0:0:0:
79,340,139493,6,0,P|391:240|239:52,1,680,4|8,3:2|0:3,0:0:0:0:
75,60,140647,1,8,0:3:0:0:
247,60,140878,1,8,0:3:0:0:
75,60,141109,1,8,0:3:0:0:
407,364,141339,5,6,3:2:0:0:
428,361,141368,1,0,3:2:0:0:
447,351,141396,1,0,3:2:0:0:
459,333,141425,1,0,3:2:0:0:
462,313,141454,1,0,3:2:0:0:
457,292,141483,1,0,3:2:0:0:
444,276,141512,1,0,3:2:0:0:
425,266,141540,1,0,3:2:0:0:
399,264,141570,6,0,L|203:264,1,170,2|2,3:2|0:2,0:0:0:0:
331,268,141916,2,0,P|383:224|319:164,1,170,2|0,0:2|0:0,0:0:0:0:
119,108,142262,5,6,3:2:0:0:
141,108,142291,1,0,3:2:0:0:
162,108,142319,1,0,3:2:0:0:
183,108,142348,1,0,3:2:0:0:
204,108,142377,1,0,3:2:0:0:
226,108,142406,1,0,3:2:0:0:
247,108,142435,1,0,3:2:0:0:
268,108,142463,1,0,3:2:0:0:
291,60,142493,6,0,L|99:60,1,170,2|2,3:2|0:2,0:0:0:0:
223,60,142839,2,0,L|411:60,1,170,2|0,0:2|0:0,0:0:0:0:
199,292,143185,5,6,3:2:0:0:
178,292,143214,1,0,3:2:0:0:
157,292,143242,1,0,3:2:0:0:
136,292,143271,1,0,3:2:0:0:
114,292,143300,1,0,3:2:0:0:
93,292,143329,1,0,3:2:0:0:
72,292,143358,1,0,3:2:0:0:
51,292,143386,1,0,3:2:0:0:
29,292,143415,1,2,3:2:0:0:
115,292,143532,1,2,0:2:0:0:
307,232,143647,6,0,L|339:232,2,21.25,6|0|0,3:2|3:2|3:2,0:0:0:0:
151,204,143762,5,6,3:2:0:0:
131,198,143790,1,0,3:2:0:0:
117,182,143819,1,0,3:2:0:0:
113,162,143848,1,0,3:2:0:0:
119,142,143877,1,0,3:2:0:0:
135,128,143906,1,0,3:2:0:0:
156,125,143935,1,0,3:2:0:0:
303,132,143993,5,2,3:2:0:0:
325,132,144021,1,0,3:2:0:0:
346,132,144050,1,0,3:2:0:0:
367,132,144079,1,0,3:2:0:0:
388,132,144108,1,0,3:2:0:0:
367,132,144137,1,0,3:2:0:0:
347,132,144166,1,0,3:2:0:0:
219,80,144224,6,0,L|183:80,2,21.25,2|0|0,3:2|3:2|3:2,0:0:0:0:
375,368,144339,5,2,3:2:0:0:
396,366,144368,1,0,3:2:0:0:
413,353,144396,1,0,3:2:0:0:
418,332,144425,1,0,3:2:0:0:
412,313,144454,1,0,3:2:0:0:
395,300,144483,1,0,3:2:0:0:
375,299,144512,1,0,3:2:0:0:
215,208,144570,5,2,3:2:0:0:
237,208,144598,1,0,3:2:0:0:
258,208,144627,1,0,3:2:0:0:
279,208,144656,1,0,3:2:0:0:
300,208,144685,1,0,3:2:0:0:
322,208,144714,1,0,3:2:0:0:
343,208,144743,1,0,3:2:0:0:
291,208,144801,2,0,L|151:208,1,127.5,2|0,3:2|0:0,0:0:0:0:
327,148,145032,5,4,3:2:0:0:
348,151,145060,1,0,3:2:0:0:
370,152,145089,1,0,3:2:0:0:
391,149,145118,1,0,3:2:0:0:
411,142,145147,1,0,3:2:0:0:
430,133,145176,1,0,3:2:0:0:
447,121,145205,1,0,3:2:0:0:
462,106,145233,1,0,3:2:0:0:
475,88,145262,1,2,3:2:0:0:
387,84,145378,1,0,0:0:0:0:
187,364,145493,5,6,3:2:0:0:
167,361,145521,1,0,3:2:0:0:
148,351,145550,1,0,3:2:0:0:
137,333,145579,1,0,3:2:0:0:
133,312,145608,1,2,3:2:0:0:
138,292,145637,1,0,3:2:0:0:
152,276,145666,1,0,3:2:0:0:
171,267,145694,1,0,3:2:0:0:
192,267,145723,1,0,3:2:0:0:
275,272,145839,1,0,0:0:0:0:
459,196,145955,5,4,3:2:0:0:
438,196,145983,1,0,3:2:0:0:
417,196,146012,1,0,3:2:0:0:
396,196,146041,1,0,3:2:0:0:
374,196,146070,1,0,3:2:0:0:
353,196,146099,1,0,3:2:0:0:
332,196,146128,1,0,3:2:0:0:
311,196,146156,1,0,3:2:0:0:
289,196,146185,1,2,3:2:0:0:
203,196,146301,1,0,0:0:0:0:
403,156,146416,5,6,3:2:0:0:
425,154,146444,1,0,3:2:0:0:
443,144,146473,1,0,3:2:0:0:
456,127,146502,1,0,3:2:0:0:
460,106,146531,1,2,3:2:0:0:
456,86,146560,1,0,3:2:0:0:
444,69,146589,1,0,3:2:0:0:
425,58,146617,1,0,3:2:0:0:
404,56,146646,1,0,3:2:0:0:
319,56,146762,1,0,0:0:0:0:
123,356,146878,5,6,3:2:0:0:
145,356,146906,1,0,3:2:0:0:
166,356,146935,1,0,3:2:0:0:
187,356,146964,1,0,3:2:0:0:
208,356,146993,1,0,3:2:0:0:
230,356,147022,1,0,3:2:0:0:
251,356,147051,1,0,3:2:0:0:
107,300,147109,5,2,3:2:0:0:
89,290,147137,1,0,3:2:0:0:
76,273,147166,1,0,3:2:0:0:
74,252,147195,1,0,3:2:0:0:
81,233,147224,1,0,3:2:0:0:
97,219,147253,1,0,3:2:0:0:
118,215,147282,1,0,3:2:0:0:
259,220,147339,5,6,3:2:0:0:
281,220,147368,1,0,3:2:0:0:
302,220,147396,1,0,3:2:0:0:
171,148,147455,5,6,3:2:0:0:
150,148,147483,1,0,3:2:0:0:
129,148,147512,1,0,3:2:0:0:
108,148,147541,1,0,3:2:0:0:
86,148,147570,1,0,3:2:0:0:
107,148,147599,1,0,3:2:0:0:
127,148,147628,1,0,3:2:0:0:
299,156,147685,6,0,L|323:156,6,21.25,2|0|0|0|0|0|0,3:2|3:2|3:2|3:2|3:2|3:2|3:2,0:0:0:0:
171,88,147916,5,2,3:2:0:0:
150,88,147944,1,0,3:2:0:0:
129,88,147973,1,0,3:2:0:0:
287,364,148032,5,6,3:2:0:0:
309,366,148060,1,0,3:2:0:0:
330,366,148089,1,0,3:2:0:0:
351,363,148118,1,0,3:2:0:0:
371,356,148147,1,0,3:2:0:0:
390,347,148176,1,0,3:2:0:0:
408,335,148205,1,0,3:2:0:0:
423,321,148233,1,0,3:2:0:0:
436,304,148262,1,0,3:2:0:0:
447,286,148291,1,0,3:2:0:0:
455,266,148320,1,0,3:2:0:0:
259,260,148378,5,6,3:2:0:0:
239,256,148406,1,0,3:2:0:0:
220,247,148435,1,0,3:2:0:0:
205,232,148464,1,0,3:2:0:0:
196,213,148493,1,0,3:2:0:0:
194,192,148522,1,0,3:2:0:0:
198,171,148551,1,0,3:2:0:0:
209,153,148579,1,0,3:2:0:0:
225,139,148608,1,0,3:2:0:0:
245,132,148637,1,0,3:2:0:0:
266,131,148666,1,0,3:2:0:0:
443,136,148724,5,4,3:2:0:0:
256,192,148839,12,0,153224,0:0:0:0:
