osu file format v14

[General]
AudioFilename: audio.mp3
AudioLeadIn: 0
PreviewTime: 48121
Countdown: 0
SampleSet: Soft
StackLeniency: 0.7
Mode: 2
LetterboxInBreaks: 0
WidescreenStoryboard: 1

[Editor]
Bookmarks: 82274
DistanceSpacing: 1
BeatDivisor: 2
GridSize: 4
TimelineZoom: 1.999999

[Metadata]
Title:Cross The Finish Line [feat. Nanahira]
TitleUnicode:Cross The Finish Line [feat. ななひら]
Artist:Kobaryo
ArtistUnicode:Kobaryo
Creator:Kukkai
Version:Cup
Source:
Tags:secre chickenbible jbhyperion jbh gabba gabber hardcore j-core speedcore 古葉玲 Psycho Filth Records Candy speed pops japanese electronic instrumental FA Featured Artist mappers' guild mpg mg
BeatmapID:4190037
BeatmapSetID:2012659

[Difficulty]
HPDrainRate:2
CircleSize:2
OverallDifficulty:6.5
ApproachRate:6.5
SliderMultiplier:0.799999999999999
SliderTickRate:0.5

[Events]
//Background and Video events
0,0,"65092327_p0.jpg",0,0
//Break Periods
2,12309,14826
2,82462,87686
//Storyboard Layer 0 (Background)
//Storyboard Layer 1 (Fail)
//Storyboard Layer 2 (Pass)
//Storyboard Layer 3 (Foreground)
//Storyboard Layer 4 (Overlay)
//Storyboard Sound Samples

[TimingPoints]
109,230.769230769231,4,2,1,70,1,0
4724,-100,4,2,1,80,0,0
12109,-100,4,2,1,60,0,0
15801,-100,4,2,2,60,0,0
23185,-100,4,2,1,65,0,0
30570,-100,4,2,1,70,0,0
37955,-100,4,2,2,60,0,0
41647,-100,4,2,1,70,0,0
48109,-100,4,2,1,60,0,0
49032,-100,4,2,1,80,0,1
71185,-100,4,2,1,60,0,0
73955,-100,4,2,1,60,0,0
82262,-100,4,2,1,50,0,0
89647,-100,4,2,2,50,0,0
108109,-100,4,2,2,50,0,0
114570,-100,4,2,1,70,0,0
115493,-100,4,2,1,80,0,1
137647,-100,4,2,1,80,0,0
148724,-100,4,2,1,80,0,0
149647,-100,4,2,1,70,0,0
150570,-100,4,2,1,60,0,0
151493,-100,4,2,1,50,0,0
152416,-100,4,2,1,40,0,0
153224,-100,4,2,1,30,0,0

[Colours]
Combo1 : 0,0,249
Combo2 : 9,255,255
Combo3 : 255,186,153

[HitObjects]
88,348,109,6,0,L|88:256,3,79.9999999999999,8|8|8|8,0:3|0:3|0:3|0:3,0:0:0:0:
208,264,1032,6,0,L|384:264,1,160,6|2,3:2|0:2,0:0:0:0:
208,272,1955,6,0,P|176:236|224:140,1,160,6|2,3:2|0:2,0:0:0:0:
372,160,2878,6,0,L|200:160,1,160,6|6,3:2|3:2,0:0:0:0:
172,160,3455,1,6,3:2:0:0:
92,160,3685,6,0,L|92:296,1,120,2|2,3:2|3:2,0:0:0:0:
172,284,4262,1,2,3:2:0:0:
360,284,4724,6,0,P|400:220|340:164,1,160,6|2,3:2|3:2,0:0:0:0:
272,172,5416,1,2,3:2:0:0:
192,172,5647,2,0,L|364:172,1,160,0|2,3:2|3:2,0:0:0:0:
172,316,6570,6,0,P|132:284|188:204,1,160,2|2,3:2|3:2,0:0:0:0:
256,204,7262,1,2,3:2:0:0:
336,200,7493,2,0,P|376:168|320:88,1,160,0|2,3:2|3:2,0:0:0:0:
144,284,8416,6,0,L|308:284,1,160,6|2,3:2|3:2,0:0:0:0:
384,288,9109,1,2,3:2:0:0:
464,288,9339,2,0,P|488:248|440:144,1,160,0|2,3:2|3:2,0:0:0:0:
292,172,10262,6,0,L|116:172,1,160,2|0,3:2|3:2,0:0:0:0:
212,172,10955,1,2,3:2:0:0:
292,172,11185,2,0,P|336:128|276:60,1,160,2|2,3:2|3:2,0:0:0:0:
88,68,12109,5,4,3:2:0:0:
140,332,15801,6,0,L|140:160,1,160,4|8,1:2|0:2,0:0:0:0:
300,184,16724,2,0,L|384:184,2,79.9999999999999,0|0|8,0:0|1:2|0:2,0:0:0:0:
140,200,17647,5,0,1:2:0:0:
300,200,18109,1,8,0:2:0:0:
460,204,18570,2,0,L|460:120,1,79.9999999999999,0|0,0:0|1:2,0:0:0:0:
380,124,19032,1,8,0:2:0:0:
220,120,19493,6,0,L|56:120,2,160,0|8|0,1:2|0:2|0:0,0:0:0:0:
300,112,20647,1,0,1:2:0:0:
300,192,20878,1,8,0:2:0:0:
140,200,21339,6,0,P|104:152|156:72,1,160,0|8,1:2|0:2,0:0:0:0:
308,84,22262,1,0,0:0:0:0:
228,84,22492,1,0,1:2:0:0:
148,84,22723,1,8,0:2:0:0:
344,356,23185,6,0,L|384:188,1,160,4|0,3:2|3:2,0:0:0:0:
204,212,24109,2,0,L|204:40,1,160,4|0,3:2|3:2,0:0:0:0:
28,64,25032,6,0,L|28:236,1,160,4|0,3:2|3:0,0:0:0:0:
208,232,25955,2,0,L|372:232,1,160,4|0,3:2|3:0,0:0:0:0:
192,336,26878,6,0,L|188:172,1,160,4|0,3:2|3:0,0:0:0:0:
360,188,27801,2,0,L|368:24,1,160,4|0,3:2|3:2,0:0:0:0:
196,64,28724,6,0,L|24:64,2,160,4|4|4,3:2|3:2|3:2,0:0:0:0:
276,68,29878,1,0,3:2:0:0:
356,68,30109,1,0,3:2:0:0:
164,348,30570,6,0,P|128:284|200:232,1,160,6|2,3:2|3:2,0:0:0:0:
260,228,31262,1,2,3:2:0:0:
340,228,31493,2,0,L|152:228,1,160,0|2,3:2|3:2,0:0:0:0:
340,240,32416,6,0,P|376:196|316:112,1,160,2|2,3:2|3:2,0:0:0:0:
252,112,33109,1,2,3:2:0:0:
172,116,33339,2,0,L|-4:116,1,160,0|2,3:2|3:2,0:0:0:0:
228,352,34262,6,0,P|276:320|204:256,1,160,14|10,3:2|3:2,0:0:0:0:
148,256,34955,1,10,3:2:0:0:
68,260,35185,2,0,L|68:164,1,79.9999999999999,8|10,3:2|3:2,0:0:0:0:
148,180,35647,1,10,3:2:0:0:
316,80,36109,6,0,L|144:80,1,160,10|8,3:2|3:2,0:0:0:0:
236,76,36801,1,10,3:2:0:0:
316,72,37032,2,0,L|408:72,2,79.9999999999999,10|8|2,3:2|3:2|3:2,0:0:0:0:
124,356,37955,6,0,P|72:328|148:200,1,240,4|0,3:2|3:2,0:0:0:0:
212,200,38878,1,0,3:2:0:0:
408,200,39339,1,8,3:2:0:0:
248,200,39801,6,0,L|248:8,1,160,0|0,3:2|0:0,0:0:0:0:
328,40,40493,1,0,3:2:0:0:
408,40,40724,1,0,3:2:0:0:
200,280,41185,1,2,0:2:0:0:
392,292,41647,6,0,L|480:292,2,79.9999999999999,6|2|2,3:2|3:2|3:2,0:0:0:0:
312,292,42339,1,2,3:2:0:0:
152,292,42801,2,0,P|132:232|176:132,1,160,2|2,3:2|3:2,0:0:0:0:
244,140,43493,6,0,L|420:140,1,160,0|0,3:2|3:2,0:0:0:0:
324,140,44185,1,2,3:2:0:0:
244,140,44416,6,2,L|152:140,2,79.9999999999999,2|2|2,3:2|3:2|3:2,3:2:0:0:
456,240,45339,6,0,L|456:160,1,79.9999999999999,12|8,3:2|3:2,0:0:0:0:
376,156,45801,1,8,3:2:0:0:
296,156,46032,1,8,3:2:0:0:
216,156,46262,1,8,3:2:0:0:
296,156,46492,1,8,3:2:0:0:
376,156,46723,1,8,3:2:0:0:
180,360,47185,6,0,P|96:336|200:192,1,320,4|2,3:2|0:2,0:0:0:0:
336,180,48570,1,2,0:2:0:0:
148,108,49032,5,6,3:2:0:0:
68,108,49262,1,2,3:2:0:0:
148,108,49493,2,0,L|288:108,2,120,2|2|2,3:2|0:2|3:2,0:0:0:0:
68,108,50416,1,2,3:2:0:0:
268,308,50878,6,0,L|268:216,1,79.9999999999999,2|2,3:2|3:2,0:0:0:0:
188,228,51339,2,0,L|120:228,2,40,2|2|2,3:2|0:2|3:2,0:0:0:0:
268,140,51801,2,0,L|432:140,1,160,2|2,3:2|3:2,0:0:0:0:
224,348,52724,6,0,P|184:312|244:228,1,160,6|2,3:2|3:2,0:0:0:0:
344,224,53532,2,0,L|204:224,1,120,2|2,0:2|3:2,0:0:0:0:
144,224,54109,1,2,3:2:0:0:
336,136,54570,6,0,L|432:136,2,79.9999999999999,2|2|2,3:2|3:2|3:2,0:0:0:0:
256,132,55262,1,2,3:2:0:0:
216,132,55378,1,2,0:2:0:0:
176,128,55493,1,0,3:0:0:0:
176,128,55724,1,0,3:0:0:0:
176,128,55955,1,0,3:0:0:0:
360,120,56416,6,0,L|408:120,2,40,6|2|2,3:2|3:2|3:2,0:0:0:0:
280,120,56878,1,2,3:2:0:0:
160,120,57224,2,0,P|136:68|176:4,1,120,2|2,3:2|3:2,0:0:0:0:
240,12,57801,1,2,3:2:0:0:
416,264,58262,6,0,L|416:164,1,79.9999999999999,2|2,3:2|3:2,0:0:0:0:
336,184,58724,2,0,L|240:184,1,79.9999999999999,2|2,3:2|3:2,0:0:0:0:
176,184,59185,2,0,L|344:184,1,160,2|2,3:2|3:2,0:0:0:0:
144,328,60109,6,0,P|104:280|164:208,1,160,6|2,3:2|3:2,0:0:0:0:
272,204,60916,2,0,L|120:204,1,120,2|2,3:2|3:2,0:0:0:0:
72,208,61493,1,2,3:2:0:0:
264,136,61955,6,0,L|264:52,1,79.9999999999999,2|2,3:2|3:2,0:0:0:0:
184,52,62416,1,2,3:2:0:0:
104,56,62647,1,0,0:0:0:0:
64,56,62762,2,0,B|62:217|62:217|112:216|112:216,1,200
284,356,63801,6,0,L|284:260,1,79.9999999999999,6|2,3:2|3:2,0:0:0:0:
204,272,64262,2,0,L|204:160,1,79.9999999999999,2|2,3:2|3:2,0:0:0:0:
284,188,64724,2,0,L|428:188,2,120,2|2|2,3:2|3:2|3:2,0:0:0:0:
180,188,65647,6,0,L|180:96,1,79.9999999999999,2|2,3:2|3:2,0:0:0:0:
260,104,66109,2,0,L|260:4,1,79.9999999999999,2|2,3:2|3:2,0:0:0:0:
180,24,66570,2,0,L|32:24,2,120,2|2|2,3:2|3:2|3:2,0:0:0:0:
284,232,67493,5,14,3:2:0:0:
364,232,67724,1,10,3:2:0:0:
364,152,67955,1,10,3:2:0:0:
284,148,68185,1,10,3:2:0:0:
204,148,68416,6,0,P|180:88|220:32,1,120,10|2,3:2|3:2,0:0:0:0:
324,44,69109,1,10,3:2:0:0:
220,268,69339,6,0,L|116:268,2,79.9999999999999,8|8|8,3:2|3:2|3:2,0:0:0:0:
300,268,70032,1,8,3:2:0:0:
380,268,70262,6,0,L|380:168,1,79.9999999999999,8|8,3:2|3:2,0:0:0:0:
300,180,70724,1,8,3:2:0:0:
96,368,71185,6,0,P|60:332|124:240,1,160,4|0,3:2|0:0,0:0:0:0:
260,260,72109,6,0,L|408:260,2,120,8|0|0,3:2|3:2|3:2,0:0:0:0:
180,260,73032,1,4,3:2:0:0:
368,264,73955,6,0,L|368:168,3,79.9999999999999,8|8|8|8,0:3|0:3|0:3|0:3,0:0:0:0:
272,176,74878,6,0,L|100:176,1,160,6|2,3:2|0:2,0:0:0:0:
272,184,75801,2,0,P|312:128|252:64,1,160,6|2,3:2|0:2,0:0:0:0:
104,56,76724,6,0,P|64:88|116:180,1,160,6|6,3:2|3:2,0:0:0:0:
140,176,77301,1,6,3:2:0:0:
220,176,77532,6,0,L|68:176,1,120,2|2,3:2|3:2,0:0:0:0:
20,180,78109,1,2,3:2:0:0:
212,340,78570,6,0,L|212:168,1,160,4|6,3:2|3:2,0:0:0:0:
388,188,79493,2,0,L|376:24,1,160,4|6,3:2|3:2,0:0:0:0:
184,192,80416,6,0,L|96:192,2,79.9999999999999,6|2|6,3:2|3:2|3:2,0:0:0:0:
224,192,80993,1,6,3:2:0:0:
304,196,81224,6,0,L|436:196,1,120,2|2,3:2|3:2,0:0:0:0:
344,196,81801,1,2,3:2:0:0:
140,196,82262,5,4,3:2:0:0:
256,192,88724,12,0,89301,0:0:0:0:
269,352,89647,6,0,P|305:316|245:232,1,160,4|2,1:2|0:2,0:0:0:0:
180,234,90339,1,2,0:2:0:0:
100,244,90570,2,0,L|100:80,1,160,10|2,0:2|0:2,0:0:0:0:
260,236,91493,6,0,P|300:192|232:128,1,160,2|2,1:2|0:2,0:0:0:0:
164,120,92185,2,0,B|484:120|484:120|484:224,1,399.999999999999,2|0,0:2|1:2,0:0:0:0:
324,200,93801,5,2,0:2:0:0:
244,200,94032,1,2,0:2:0:0:
164,204,94262,2,0,P|116:164|188:100,1,160,10|2,0:2|0:2,0:0:0:0:
244,96,94955,1,2,0:2:0:0:
324,96,95185,6,0,L|152:96,1,160,2|2,1:2|0:2,0:0:0:0:
84,96,95878,2,0,P|64:152|296:328,1,399.999999999999,2|0,0:2|1:2,0:0:0:0:
440,328,97493,5,2,0:2:0:0:
280,324,97955,2,0,L|100:324,1,160,10|2,0:2|0:2,0:0:0:0:
280,324,98878,6,0,P|324:292|260:216,1,160,2|2,1:2|0:2,0:0:0:0:
200,212,99570,2,0,B|484:212|484:212|516:156|456:84,1,399.999999999999,2|0,0:2|1:2,0:0:0:0:
312,80,101185,5,2,0:2:0:0:
232,80,101416,1,2,0:2:0:0:
152,80,101647,2,0,P|120:124|160:236,1,160,10|2,0:2|0:2,0:0:0:0:
300,216,102570,6,0,L|124:216,1,160,2|0,1:2|0:0,0:0:0:0:
40,212,103262,2,0,L|296:212,1,240,2|0,0:2|0:0,0:0:0:0:
88,144,104416,5,4,1:2:0:0:
256,192,104762,12,0,107185,0:0:0:0:
184,208,108109,5,6,3:2:0:0:
184,128,108339,1,2,0:2:0:0:
264,128,108570,2,0,L|392:128,1,120,2|2,0:2|0:2,0:0:0:0:
264,132,109262,1,2,0:2:0:0:
184,132,109492,1,2,0:2:0:0:
344,132,109955,5,2,0:2:0:0:
344,212,110185,1,2,0:2:0:0:
264,212,110416,1,2,0:2:0:0:
184,212,110646,1,2,0:2:0:0:
264,212,110878,6,0,L|432:212,1,160,2|2,0:2|0:2,0:0:0:0:
224,356,111801,6,0,P|176:324|248:260,1,160,2|2,0:2|0:2,0:0:0:0:
300,240,112493,1,2,0:2:0:0:
340,240,112609,1,2,0:2:0:0:
460,240,112955,2,0,L|460:128,1,79.9999999999999,2|2,0:2|0:2,0:0:0:0:
300,176,113647,6,0,L|200:176,2,79.9999999999999,2|2|2,0:2|0:2|0:2,0:0:0:0:
484,180,114570,6,0,L|484:8,1,160,4|4,3:2|3:2,0:0:0:0:
288,216,115493,5,6,3:2:0:0:
248,216,115609,1,2,3:2:0:0:
208,216,115724,1,2,3:2:0:0:
128,216,115955,1,2,3:2:0:0:
248,216,116301,6,0,L|380:216,1,120,2|2,3:2|3:2,0:0:0:0:
288,216,116878,1,2,3:2:0:0:
92,224,117339,6,0,L|92:120,1,79.9999999999999,2|2,3:2|3:2,0:0:0:0:
172,144,117801,2,0,L|272:144,1,79.9999999999999,2|2,3:2|3:2,0:0:0:0:
172,144,118262,2,2,L|4:144,1,160,2|2,3:2|3:2,3:2:0:0:
216,284,119185,6,0,L|312:284,1,79.9999999999999,14|8,3:2|3:2,0:0:0:0:
216,284,119647,2,0,L|84:284,2,120,10|2|10,3:2|3:2|3:2,0:0:0:0:
296,284,120570,1,10,3:2:0:0:
488,284,121032,6,0,L|488:172,1,79.9999999999999,10|10,3:2|3:2,0:0:0:0:
408,200,121493,1,10,3:2:0:0:
328,200,121724,1,10,3:2:0:0:
288,200,121839,2,0,B|128:199|128:199|128:132,1,200
304,156,122878,6,0,L|304:60,1,79.9999999999999,6|2,3:2|3:2,0:0:0:0:
224,72,123339,2,0,L|128:72,1,79.9999999999999,2|2,3:2|3:2,0:0:0:0:
224,72,123801,2,0,L|352:72,2,120,2|2|2,3:2|3:2|3:2,0:0:0:0:
124,280,124724,6,0,L|124:180,1,79.9999999999999,2|2,3:2|3:2,0:0:0:0:
204,196,125185,2,0,L|300:196,1,79.9999999999999,2|2,3:2|3:2,0:0:0:0:
204,196,125647,2,0,L|56:196,2,120,2|2|2,3:2|3:2|3:2,0:0:0:0:
300,304,126570,5,14,3:2:0:0:
380,304,126801,1,10,3:2:0:0:
380,224,127032,1,10,3:2:0:0:
300,224,127262,1,10,3:2:0:0:
220,224,127493,6,0,P|204:148|236:92,1,120,10|2,3:2|3:2,0:0:0:0:
340,116,128185,1,10,3:2:0:0:
244,296,128416,6,0,L|152:296,2,79.9999999999999,8|8|8,3:2|3:2|3:2,0:0:0:0:
324,296,129109,1,8,3:2:0:0:
404,296,129339,6,0,L|404:204,1,79.9999999999999,8|2,3:2|3:2,0:0:0:0:
404,296,129801,1,2,3:2:0:0:
256,192,130262,6,0,L|164:192,1,79.9999999999999,6|2,3:2|3:2,0:0:0:0:
96,188,130724,2,0,L|192:188,1,79.9999999999999,2|2,3:2|3:2,0:0:0:0:
256,192,131185,5,2,3:2:0:0:
296,192,131300,1,2,3:2:0:0:
256,112,131415,1,2,3:2:0:0:
216,108,131532,2,0,L|72:108,1,120,2|0,3:2|0:0,0:0:0:0:
192,256,132109,6,0,L|280:256,1,79.9999999999999,2|2,3:2|3:2,0:0:0:0:
352,256,132570,2,0,L|352:168,1,79.9999999999999,2|2,3:2|3:2,0:0:0:0:
272,180,133032,5,2,3:2:0:0:
232,180,133147,1,2,3:2:0:0:
272,100,133262,1,2,3:2:0:0:
312,100,133378,2,0,L|464:100,1,120,2|0,3:2|0:0,0:0:0:0:
336,336,133955,6,0,L|336:252,1,79.9999999999999,6|2,3:2|3:2,0:0:0:0:
416,268,134416,2,0,L|416:172,1,79.9999999999999,2|2,3:2|3:2,0:0:0:0:
336,192,134878,5,2,3:2:0:0:
296,192,134993,1,2,3:2:0:0:
256,192,135108,1,2,3:2:0:0:
216,192,135224,2,0,L|364:192,1,120,2|0,3:2|0:0,0:0:0:0:
240,124,135801,6,0,L|136:124,2,79.9999999999999,2|0|0,3:2|3:2|3:2,0:0:0:0:
320,128,136493,1,2,3:2:0:0:
400,128,136724,5,2,3:2:0:0:
400,168,136839,1,0,3:2:0:0:
400,208,136954,1,0,3:2:0:0:
320,212,137185,1,2,3:2:0:0:
280,212,137301,1,0,3:2:0:0:
240,212,137416,1,0,3:2:0:0:
136,212,137647,6,0,P|100:180|176:100,1,160,4|0,3:2|0:0,0:0:0:0:
304,92,138570,2,0,L|444:92,2,120,8|0|0,3:2|3:2|3:2,0:0:0:0:
224,96,139493,1,4,3:2:0:0:
72,344,140416,6,0,L|72:256,3,79.9999999999999,8|8|8|8,0:3|0:3|0:3|0:3,0:0:0:0:
172,264,141339,6,0,L|352:264,1,160,6|2,3:2|0:2,0:0:0:0:
172,268,142262,6,0,P|136:208|196:144,1,160,6|2,3:2|0:2,0:0:0:0:
348,144,143185,6,0,P|392:108|336:28,1,160,6|6,3:2|3:2,0:0:0:0:
312,32,143762,1,6,3:2:0:0:
232,32,143993,6,0,L|76:32,1,120,2|2,3:2|3:2,0:0:0:0:
192,36,144570,1,2,3:2:0:0:
388,368,145032,6,0,P|428:320|372:244,1,160,4|6,3:2|3:2,0:0:0:0:
224,248,145955,6,0,L|400:248,1,160,4|6,3:2|3:2,0:0:0:0:
224,240,146878,6,0,L|136:240,2,79.9999999999999,6|2|6,3:2|3:2|3:2,0:0:0:0:
264,240,147455,1,6,3:2:0:0:
344,240,147685,6,0,P|356:192|328:112,1,120,2|6,3:2|3:2,0:0:0:0:
204,128,148378,1,6,3:2:0:0:
336,132,148724,5,4,3:2:0:0:
256,192,149070,12,0,153224,0:0:0:0:
