osu file format v14

[General]
AudioFilename: audio.mp3
AudioLeadIn: 0
PreviewTime: 178377
Countdown: 0
SampleSet: Normal
StackLeniency: 0.7
Mode: 1
LetterboxInBreaks: 0
WidescreenStoryboard: 1

[Editor]
DistanceSpacing: 0.8
BeatDivisor: 4
GridSize: 32
TimelineZoom: 2.000001

[Metadata]
Title:Cartoon Candy
TitleUnicode:Cartoon Candy
Artist:Kobaryo
ArtistUnicode:Kobaryo
Creator:Hivie
Version:Oni
Source:
Tags:radar fa featured artist osu! electronic instrumental speedcore candy speed pops psycho filth records mappers' guild mpg mg pfsa002 chiptune 8-bit 8bit Gabba Gabber
BeatmapID:3067853
BeatmapSetID:1496486

[Difficulty]
HPDrainRate:5.5
CircleSize:2
OverallDifficulty:5.5
ApproachRate:9
SliderMultiplier:0.9
SliderTickRate:1

[Events]
//Background and Video events
0,0,"bg.jpg",0,0
//Break Periods
2,39741,45163
2,165932,171554
//Storyboard Layer 0 (Background)
//Storyboard Layer 1 (Fail)
//Storyboard Layer 2 (Pass)
//Storyboard Layer 3 (Foreground)
//Storyboard Layer 4 (Overlay)
//Storyboard Sound Samples

[TimingPoints]
430,222.222222222222,4,1,0,100,1,0
14624,-100,4,1,0,100,0,0
39652,-100,4,1,0,70,0,0
46541,-100,4,1,0,100,0,0
82207,-100,4,1,0,100,0,1
95096,-100,4,1,0,100,0,0
107096,226.415094339622,4,1,0,100,1,0
107096,-100,4,1,0,100,0,0
107548,235.294117647059,4,1,0,100,1,8
107548,-94.4465432565168,4,1,0,100,0,0
107783,260.869565217392,4,1,0,100,1,8
108043,272.727272727273,4,1,0,100,1,0
108043,-81.4814814814815,4,1,0,100,0,0
108588,285.714285714286,4,1,0,100,1,8
108873,292.682926829269,4,1,0,100,1,8
109165,307.692307692309,4,1,0,100,1,0
109165,-72.2230247002744,4,1,0,100,0,0
109472,348.837209302328,4,1,0,100,1,8
109820,384.615384615387,4,1,0,100,1,8
110204,425.531914893621,4,1,0,100,1,8
110629,480.000000000005,4,1,0,100,1,0
110629,-46.2962962962963,4,1,0,100,0,0
111109,446.096654275098,4,1,0,100,1,8
111781,300,4,1,0,100,1,0
111781,-74.0740740740741,4,1,0,100,0,0
132178,222.222222222222,4,1,0,100,1,0
132289,-100,4,1,0,70,0,0
140155,222.222222222222,4,1,0,100,1,0
140155,-100,4,1,0,100,0,0
165904,-100,4,1,0,70,0,0
172127,-100,4,1,0,100,0,0
179266,-100,4,1,0,100,0,1
193043,-100,4,1,0,100,0,0
193488,-100,4,1,0,100,0,1
206377,-100,4,1,0,100,0,1
206821,-100,4,1,0,100,0,0
207710,-100,4,1,0,100,0,1
208154,-100,4,1,0,100,0,0

[HitObjects]
256,96,14652,5,4,0:0:0:0:
256,96,15541,1,4,0:0:0:0:
256,96,16429,1,4,0:0:0:0:
256,96,16874,1,4,0:0:0:0:
256,96,17318,1,4,0:0:0:0:
256,96,17541,1,4,0:0:0:0:
256,192,17763,1,8,0:0:0:0:
256,192,17874,1,0,0:0:0:0:
256,192,17985,1,8,0:0:0:0:
256,192,18207,1,0,0:0:0:0:
256,192,18429,1,8,0:0:0:0:
256,192,18652,1,0,0:0:0:0:
256,192,18763,1,0,0:0:0:0:
256,192,18874,1,8,0:0:0:0:
256,192,18985,1,8,0:0:0:0:
256,192,19096,1,0,0:0:0:0:
256,192,19318,1,8,0:0:0:0:
256,192,19541,1,8,0:0:0:0:
256,192,19652,1,8,0:0:0:0:
256,192,19763,1,0,0:0:0:0:
256,192,19985,1,8,0:0:0:0:
256,192,20207,1,0,0:0:0:0:
256,192,20429,1,8,0:0:0:0:
256,192,20541,1,8,0:0:0:0:
256,192,20652,1,8,0:0:0:0:
256,192,20874,1,0,0:0:0:0:
256,192,20985,1,8,0:0:0:0:
256,192,21096,1,0,0:0:0:0:
256,192,21207,1,0,0:0:0:0:
256,192,21318,1,8,0:0:0:0:
256,192,21541,1,0,0:0:0:0:
256,192,21652,1,8,0:0:0:0:
256,192,21763,1,0,0:0:0:0:
256,192,22207,1,0,0:0:0:0:
256,192,22429,1,8,0:0:0:0:
256,192,22652,1,0,0:0:0:0:
256,192,22763,1,8,0:0:0:0:
256,192,22874,1,0,0:0:0:0:
256,192,23096,1,8,0:0:0:0:
256,192,23318,1,8,0:0:0:0:
256,96,23541,1,4,0:0:0:0:
256,96,23985,1,4,0:0:0:0:
256,96,24429,1,4,0:0:0:0:
256,96,24652,1,4,0:0:0:0:
256,192,24874,1,8,0:0:0:0:
256,192,24985,1,0,0:0:0:0:
256,192,25096,1,8,0:0:0:0:
256,192,25318,1,0,0:0:0:0:
256,192,25540,1,8,0:0:0:0:
256,192,25763,1,0,0:0:0:0:
256,192,25874,1,0,0:0:0:0:
256,192,25985,1,8,0:0:0:0:
256,192,26096,1,8,0:0:0:0:
256,192,26207,1,0,0:0:0:0:
256,192,26429,1,8,0:0:0:0:
256,192,26652,1,0,0:0:0:0:
256,192,26763,1,8,0:0:0:0:
256,192,26874,1,8,0:0:0:0:
256,192,27096,1,0,0:0:0:0:
256,192,27318,1,0,0:0:0:0:
256,192,27540,1,8,0:0:0:0:
256,192,27652,1,0,0:0:0:0:
256,192,27763,1,8,0:0:0:0:
256,192,27874,1,0,0:0:0:0:
256,192,27985,1,8,0:0:0:0:
256,192,28207,1,0,0:0:0:0:
256,192,28318,1,0,0:0:0:0:
256,192,28429,1,8,0:0:0:0:
256,192,28652,1,8,0:0:0:0:
256,192,28874,1,0,0:0:0:0:
256,192,29318,1,8,0:0:0:0:
256,192,29763,1,0,0:0:0:0:
256,192,29985,1,0,0:0:0:0:
256,192,30207,1,8,0:0:0:0:
256,192,30652,1,4,0:0:0:0:
256,192,31096,1,4,0:0:0:0:
256,192,31541,1,4,0:0:0:0:
256,192,31763,1,4,0:0:0:0:
256,192,31985,1,4,0:0:0:0:
256,192,32429,1,0,0:0:0:0:
256,192,32652,1,8,0:0:0:0:
256,192,32763,1,8,0:0:0:0:
256,192,32874,1,0,0:0:0:0:
256,192,33096,1,8,0:0:0:0:
256,192,33207,1,8,0:0:0:0:
256,192,33318,1,0,0:0:0:0:
256,192,33541,1,8,0:0:0:0:
256,192,33763,1,0,0:0:0:0:
256,192,33874,1,0,0:0:0:0:
256,192,33985,1,8,0:0:0:0:
256,192,34207,1,0,0:0:0:0:
256,192,34429,1,8,0:0:0:0:
256,192,34541,1,8,0:0:0:0:
256,192,34652,1,0,0:0:0:0:
256,192,34874,1,8,0:0:0:0:
256,192,35096,1,0,0:0:0:0:
256,192,35207,1,0,0:0:0:0:
256,96,35318,1,12,0:0:0:0:
256,96,35541,1,12,0:0:0:0:
256,192,35985,1,0,0:0:0:0:
256,192,36207,1,0,0:0:0:0:
256,192,36318,1,8,0:0:0:0:
256,192,36429,1,0,0:0:0:0:
256,192,36652,1,8,0:0:0:0:
256,192,36763,1,8,0:0:0:0:
256,192,36874,1,0,0:0:0:0:
256,192,37096,1,8,0:0:0:0:
256,192,37318,1,8,0:0:0:0:
256,192,37429,1,8,0:0:0:0:
256,192,37541,1,8,0:0:0:0:
256,192,37763,1,0,0:0:0:0:
256,192,38207,1,8,0:0:0:0:
256,192,38541,2,0,L|256:256,7,45
256,96,39541,1,4,0:0:0:0:
256,192,45763,12,0,46429,0:0:0:0:
256,192,46652,5,4,0:0:0:0:
256,192,47096,1,8,0:0:0:0:
256,192,47318,1,0,0:0:0:0:
256,192,47541,1,8,0:0:0:0:
256,192,47652,1,0,0:0:0:0:
256,192,47874,1,0,0:0:0:0:
256,192,47985,1,8,0:0:0:0:
256,192,48207,1,0,0:0:0:0:
256,192,48429,1,8,0:0:0:0:
256,192,48874,1,8,0:0:0:0:
256,192,49096,1,0,0:0:0:0:
256,192,49318,1,8,0:0:0:0:
256,192,49541,1,0,0:0:0:0:
256,192,49652,1,0,0:0:0:0:
256,192,49763,1,8,0:0:0:0:
256,192,49985,1,0,0:0:0:0:
256,192,50207,1,8,0:0:0:0:
256,192,50652,1,8,0:0:0:0:
256,192,50874,1,0,0:0:0:0:
256,192,51096,1,8,0:0:0:0:
256,192,51207,1,0,0:0:0:0:
256,192,51429,1,0,0:0:0:0:
256,192,51541,1,8,0:0:0:0:
256,192,51763,1,0,0:0:0:0:
256,192,51985,1,8,0:0:0:0:
256,192,52429,1,8,0:0:0:0:
256,192,52652,1,0,0:0:0:0:
256,192,52874,1,8,0:0:0:0:
256,192,53096,1,0,0:0:0:0:
256,192,53207,1,0,0:0:0:0:
256,192,53318,1,8,0:0:0:0:
256,96,53763,1,4,0:0:0:0:
256,192,53985,1,8,0:0:0:0:
256,192,54096,1,0,0:0:0:0:
256,192,54318,1,0,0:0:0:0:
256,192,54541,1,0,0:0:0:0:
256,192,54652,1,8,0:0:0:0:
256,192,54874,1,8,0:0:0:0:
256,192,54985,1,0,0:0:0:0:
256,192,55207,1,0,0:0:0:0:
256,192,55541,1,8,0:0:0:0:
256,192,55763,1,8,0:0:0:0:
256,192,55874,1,0,0:0:0:0:
256,192,56096,1,0,0:0:0:0:
256,192,56318,1,8,0:0:0:0:
256,192,56429,1,8,0:0:0:0:
256,192,56652,1,8,0:0:0:0:
256,192,56763,1,0,0:0:0:0:
256,192,56985,1,0,0:0:0:0:
256,192,57318,1,8,0:0:0:0:
256,192,57541,1,8,0:0:0:0:
256,192,57652,1,0,0:0:0:0:
256,192,57874,1,0,0:0:0:0:
256,192,58096,1,0,0:0:0:0:
256,192,58207,1,8,0:0:0:0:
256,192,58429,1,8,0:0:0:0:
256,192,58541,1,0,0:0:0:0:
256,192,58763,1,8,0:0:0:0:
256,192,59096,1,8,0:0:0:0:
256,192,59318,1,8,0:0:0:0:
256,192,59429,1,0,0:0:0:0:
256,192,59652,1,0,0:0:0:0:
256,192,59874,1,8,0:0:0:0:
256,192,59985,1,8,0:0:0:0:
256,192,60207,1,8,0:0:0:0:
256,192,60429,1,0,0:0:0:0:
256,192,60874,1,8,0:0:0:0:
256,192,61096,1,8,0:0:0:0:
256,192,61207,1,0,0:0:0:0:
256,192,61429,1,0,0:0:0:0:
256,192,61652,1,0,0:0:0:0:
256,192,61763,1,8,0:0:0:0:
256,192,61985,1,8,0:0:0:0:
256,192,62096,1,0,0:0:0:0:
256,192,62318,1,0,0:0:0:0:
256,192,62652,1,8,0:0:0:0:
256,192,62874,1,8,0:0:0:0:
256,192,62985,1,0,0:0:0:0:
256,192,63207,1,0,0:0:0:0:
256,192,63429,1,8,0:0:0:0:
256,192,63541,1,8,0:0:0:0:
256,192,63763,1,8,0:0:0:0:
256,192,63874,1,0,0:0:0:0:
256,192,64096,1,8,0:0:0:0:
256,192,64429,1,8,0:0:0:0:
256,192,64652,1,8,0:0:0:0:
256,192,64763,1,0,0:0:0:0:
256,192,64985,1,0,0:0:0:0:
256,192,65207,1,0,0:0:0:0:
256,192,65318,1,8,0:0:0:0:
256,192,65541,1,8,0:0:0:0:
256,192,65652,1,0,0:0:0:0:
256,192,65874,1,8,0:0:0:0:
256,192,66207,1,8,0:0:0:0:
256,192,66429,1,8,0:0:0:0:
256,192,66541,1,0,0:0:0:0:
256,192,66763,1,0,0:0:0:0:
256,192,66985,1,0,0:0:0:0:
256,192,67096,1,8,0:0:0:0:
256,192,67318,1,0,0:0:0:0:
256,192,67541,1,8,0:0:0:0:
256,96,67985,1,12,0:0:0:0:
256,192,68429,1,0,0:0:0:0:
256,192,68763,1,0,0:0:0:0:
256,192,68985,1,0,0:0:0:0:
256,192,69096,1,8,0:0:0:0:
256,192,69318,1,0,0:0:0:0:
256,192,69541,1,0,0:0:0:0:
256,192,69652,1,8,0:0:0:0:
256,192,69985,1,8,0:0:0:0:
256,192,70207,1,0,0:0:0:0:
256,192,70541,1,8,0:0:0:0:
256,192,70763,1,8,0:0:0:0:
256,192,70874,1,0,0:0:0:0:
256,192,71096,1,8,0:0:0:0:
256,192,71541,1,8,0:0:0:0:
256,192,71985,1,0,0:0:0:0:
256,192,72318,1,0,0:0:0:0:
256,192,72541,1,0,0:0:0:0:
256,192,72652,1,8,0:0:0:0:
256,192,72874,1,0,0:0:0:0:
256,192,73096,1,0,0:0:0:0:
256,192,73207,1,8,0:0:0:0:
256,192,73541,1,8,0:0:0:0:
256,192,73763,1,0,0:0:0:0:
256,192,74096,1,0,0:0:0:0:
256,192,74318,1,8,0:0:0:0:
256,192,74429,1,8,0:0:0:0:
256,192,74652,1,8,0:0:0:0:
256,192,74874,1,0,0:0:0:0:
256,96,75096,1,12,0:0:0:0:
256,192,75541,1,0,0:0:0:0:
256,192,75652,1,8,0:0:0:0:
256,192,75875,1,0,0:0:0:0:
256,192,76096,1,0,0:0:0:0:
256,192,76207,1,8,0:0:0:0:
256,192,76429,1,0,0:0:0:0:
256,192,76653,1,0,0:0:0:0:
256,192,76764,1,8,0:0:0:0:
256,192,77097,1,8,0:0:0:0:
256,192,77319,1,0,0:0:0:0:
256,192,77653,1,8,0:0:0:0:
256,192,77875,1,8,0:0:0:0:
256,192,77986,1,0,0:0:0:0:
256,192,78208,1,8,0:0:0:0:
256,192,78429,1,8,0:0:0:0:
256,192,78652,1,0,0:0:0:0:
256,192,78874,1,0,0:0:0:0:
256,192,79096,1,8,0:0:0:0:
256,192,79207,1,8,0:0:0:0:
256,192,79318,1,0,0:0:0:0:
256,192,79429,1,0,0:0:0:0:
256,192,79652,1,8,0:0:0:0:
256,192,79763,1,8,0:0:0:0:
256,192,79985,1,0,0:0:0:0:
256,192,80207,1,8,0:0:0:0:
256,192,80318,1,8,0:0:0:0:
256,192,80541,1,8,0:0:0:0:
256,192,80652,1,8,0:0:0:0:
256,192,80763,1,0,0:0:0:0:
256,192,80874,1,0,0:0:0:0:
256,192,80985,1,8,0:0:0:0:
256,192,81207,1,8,0:0:0:0:
256,96,81985,1,12,0:0:0:0:
256,96,82207,1,4,0:0:0:0:
256,192,82652,1,8,0:0:0:0:
256,192,82763,1,0,0:0:0:0:
256,192,82985,1,8,0:0:0:0:
256,192,83207,1,0,0:0:0:0:
256,192,83318,1,0,0:0:0:0:
256,192,83541,1,8,0:0:0:0:
256,192,83763,1,0,0:0:0:0:
256,192,83874,1,8,0:0:0:0:
256,192,84096,1,0,0:0:0:0:
256,192,84207,1,8,0:0:0:0:
256,192,84318,1,0,0:0:0:0:
256,192,84429,1,8,0:0:0:0:
256,192,84541,1,0,0:0:0:0:
256,192,84763,1,8,0:0:0:0:
256,192,84985,1,8,0:0:0:0:
256,192,85096,1,0,0:0:0:0:
256,192,85318,1,8,0:0:0:0:
256,192,85429,1,8,0:0:0:0:
256,192,85541,1,0,0:0:0:0:
256,192,85652,1,0,0:0:0:0:
256,192,85763,1,8,0:0:0:0:
256,192,86207,1,8,0:0:0:0:
256,192,86318,1,0,0:0:0:0:
256,192,86540,1,8,0:0:0:0:
256,192,86762,1,0,0:0:0:0:
256,192,86873,1,0,0:0:0:0:
256,192,87096,1,8,0:0:0:0:
256,192,87318,1,0,0:0:0:0:
256,192,87429,1,8,0:0:0:0:
256,192,87652,1,8,0:0:0:0:
256,192,87762,1,8,0:0:0:0:
256,192,87873,1,0,0:0:0:0:
256,192,87984,1,0,0:0:0:0:
256,192,88096,1,8,0:0:0:0:
256,192,88318,1,0,0:0:0:0:
256,192,88540,1,0,0:0:0:0:
256,192,88651,1,8,0:0:0:0:
256,192,88873,1,8,0:0:0:0:
256,192,89096,1,0,0:0:0:0:
256,192,89318,1,8,0:0:0:0:
256,192,89763,1,0,0:0:0:0:
256,192,89874,1,0,0:0:0:0:
256,192,90096,1,8,0:0:0:0:
256,192,90318,1,0,0:0:0:0:
256,192,90429,1,8,0:0:0:0:
256,192,90541,1,0,0:0:0:0:
256,192,90652,1,8,0:0:0:0:
256,192,90874,1,0,0:0:0:0:
256,192,90985,1,8,0:0:0:0:
256,192,91207,1,0,0:0:0:0:
256,192,91318,1,0,0:0:0:0:
256,192,91429,1,8,0:0:0:0:
256,192,91540,1,8,0:0:0:0:
256,192,91652,1,0,0:0:0:0:
256,192,91874,1,8,0:0:0:0:
256,192,92096,1,8,0:0:0:0:
256,192,92207,1,0,0:0:0:0:
256,192,92429,1,8,0:0:0:0:
256,192,92540,1,8,0:0:0:0:
256,192,92652,1,0,0:0:0:0:
256,192,92763,1,0,0:0:0:0:
256,192,92874,1,8,0:0:0:0:
256,192,93318,1,8,0:0:0:0:
256,192,93429,1,8,0:0:0:0:
256,192,93652,1,0,0:0:0:0:
256,192,93763,1,0,0:0:0:0:
256,192,93874,1,8,0:0:0:0:
256,192,93985,1,8,0:0:0:0:
256,192,94207,1,0,0:0:0:0:
256,192,94318,1,0,0:0:0:0:
256,192,94429,1,8,0:0:0:0:
256,192,94541,1,8,0:0:0:0:
256,192,94652,1,0,0:0:0:0:
256,192,94874,12,0,95429,0:0:0:0:
256,192,96429,5,4,0:0:0:0:
256,192,96652,12,0,99763,0:0:0:0:
256,192,99985,5,4,0:0:0:0:
256,192,100207,12,0,103318,0:0:0:0:
256,192,103541,5,4,0:0:0:0:
256,192,103763,12,0,106874,0:0:0:0:
256,192,107096,5,4,0:0:0:0:
256,192,107322,12,0,111555,0:0:0:0:
256,192,111781,5,0,0:0:0:0:
256,192,112381,1,0,0:0:0:0:
256,192,112681,1,8,0:0:0:0:
256,192,112981,1,4,0:0:0:0:
256,192,113281,1,8,0:0:0:0:
256,192,113431,1,0,0:0:0:0:
256,192,113581,1,8,0:0:0:0:
256,192,113881,1,0,0:0:0:0:
256,192,114181,1,8,0:0:0:0:
256,192,114481,1,0,0:0:0:0:
256,192,114781,1,8,0:0:0:0:
256,192,115081,1,8,0:0:0:0:
256,192,115231,1,8,0:0:0:0:
256,192,115381,1,0,0:0:0:0:
256,192,115681,1,0,0:0:0:0:
256,192,115981,1,8,0:0:0:0:
256,192,116281,1,0,0:0:0:0:
256,192,116581,1,8,0:0:0:0:
256,192,116881,1,0,0:0:0:0:
256,192,117181,1,8,0:0:0:0:
256,192,117481,1,8,0:0:0:0:
256,192,117781,1,8,0:0:0:0:
256,192,117931,1,0,0:0:0:0:
256,192,118006,1,0,0:0:0:0:
256,192,118081,1,8,0:0:0:0:
256,192,118231,1,0,0:0:0:0:
256,192,118381,1,8,0:0:0:0:
256,192,118681,1,8,0:0:0:0:
256,192,118831,1,0,0:0:0:0:
256,192,118906,1,0,0:0:0:0:
256,192,118981,1,8,0:0:0:0:
256,192,119131,1,0,0:0:0:0:
256,192,119281,1,8,0:0:0:0:
256,192,119356,1,8,0:0:0:0:
256,192,119431,1,0,0:0:0:0:
256,192,119581,1,8,0:0:0:0:
256,192,119731,1,0,0:0:0:0:
256,192,119881,1,0,0:0:0:0:
256,192,120181,1,8,0:0:0:0:
256,192,120331,1,0,0:0:0:0:
256,192,120406,1,0,0:0:0:0:
256,192,120481,1,8,0:0:0:0:
256,192,120631,1,0,0:0:0:0:
256,192,120781,1,8,0:0:0:0:
256,192,121081,1,8,0:0:0:0:
256,192,121231,1,0,0:0:0:0:
256,192,121306,1,0,0:0:0:0:
256,192,121381,1,8,0:0:0:0:
256,192,121531,1,0,0:0:0:0:
256,192,121681,1,8,0:0:0:0:
256,192,121756,1,8,0:0:0:0:
256,192,121831,1,0,0:0:0:0:
256,192,121906,1,0,0:0:0:0:
256,192,121981,1,8,0:0:0:0:
256,192,122131,1,0,0:0:0:0:
256,192,122281,1,8,0:0:0:0:
256,192,122581,1,4,0:0:0:0:
256,192,122881,1,8,0:0:0:0:
256,192,123031,1,0,0:0:0:0:
256,192,123181,1,8,0:0:0:0:
256,192,123481,1,0,0:0:0:0:
256,192,123781,1,8,0:0:0:0:
256,192,124081,1,0,0:0:0:0:
256,192,124231,1,0,0:0:0:0:
256,192,124381,1,8,0:0:0:0:
256,192,124681,1,8,0:0:0:0:
256,192,124981,1,0,0:0:0:0:
256,192,125281,1,8,0:0:0:0:
256,192,125431,1,0,0:0:0:0:
256,192,125581,1,8,0:0:0:0:
256,192,125881,1,0,0:0:0:0:
256,192,126031,1,0,0:0:0:0:
256,192,126181,1,8,0:0:0:0:
256,192,126481,1,0,0:0:0:0:
256,192,126781,1,8,0:0:0:0:
256,192,127081,1,8,0:0:0:0:
256,192,127381,1,8,0:0:0:0:
256,192,127531,1,0,0:0:0:0:
256,192,127606,1,0,0:0:0:0:
256,192,127681,1,8,0:0:0:0:
256,192,127831,1,0,0:0:0:0:
256,192,127981,1,8,0:0:0:0:
256,192,128281,1,8,0:0:0:0:
256,192,128431,1,0,0:0:0:0:
256,192,128506,1,0,0:0:0:0:
256,192,128581,1,8,0:0:0:0:
256,192,128731,1,8,0:0:0:0:
256,192,128881,1,0,0:0:0:0:
256,192,128956,1,0,0:0:0:0:
256,192,129031,1,0,0:0:0:0:
256,192,129106,1,0,0:0:0:0:
256,192,129181,1,8,0:0:0:0:
256,192,129331,1,0,0:0:0:0:
256,192,129481,1,0,0:0:0:0:
256,192,129781,1,8,0:0:0:0:
256,192,129931,1,0,0:0:0:0:
256,192,130006,1,0,0:0:0:0:
256,192,130081,1,8,0:0:0:0:
256,192,130231,1,8,0:0:0:0:
256,192,130381,1,0,0:0:0:0:
256,192,130681,1,8,0:0:0:0:
256,192,130831,1,0,0:0:0:0:
256,192,130906,1,0,0:0:0:0:
256,192,130981,1,8,0:0:0:0:
256,192,131131,1,0,0:0:0:0:
256,192,131281,1,8,0:0:0:0:
256,192,131356,1,8,0:0:0:0:
256,192,131431,1,0,0:0:0:0:
256,192,131506,1,0,0:0:0:0:
256,192,131581,1,8,0:0:0:0:
256,192,131731,1,0,0:0:0:0:
256,192,131881,1,8,0:0:0:0:
256,192,132178,1,4,0:0:0:0:
256,192,132400,12,0,139955,0:0:0:0:
256,96,140155,5,4,0:0:0:0:
256,96,141044,1,4,0:0:0:0:
256,96,141932,1,4,0:0:0:0:
256,96,142377,1,4,0:0:0:0:
256,96,142821,1,4,0:0:0:0:
256,96,143044,1,4,0:0:0:0:
256,192,143266,1,8,0:0:0:0:
256,192,143377,1,0,0:0:0:0:
256,192,143488,1,8,0:0:0:0:
256,192,143710,1,0,0:0:0:0:
256,192,143932,1,8,0:0:0:0:
256,192,144155,1,0,0:0:0:0:
256,192,144266,1,0,0:0:0:0:
256,192,144377,1,8,0:0:0:0:
256,192,144488,1,8,0:0:0:0:
256,192,144599,1,0,0:0:0:0:
256,192,144821,1,8,0:0:0:0:
256,192,145044,1,8,0:0:0:0:
256,192,145155,1,8,0:0:0:0:
256,192,145266,1,0,0:0:0:0:
256,192,145488,1,8,0:0:0:0:
256,192,145710,1,0,0:0:0:0:
256,192,145932,1,8,0:0:0:0:
256,192,146044,1,8,0:0:0:0:
256,192,146155,1,8,0:0:0:0:
256,192,146377,1,0,0:0:0:0:
256,192,146488,1,8,0:0:0:0:
256,192,146599,1,0,0:0:0:0:
256,192,146710,1,0,0:0:0:0:
256,192,146821,1,8,0:0:0:0:
256,192,147044,1,0,0:0:0:0:
256,192,147155,1,8,0:0:0:0:
256,192,147266,1,0,0:0:0:0:
256,192,147710,1,0,0:0:0:0:
256,192,147932,1,8,0:0:0:0:
256,192,148155,1,0,0:0:0:0:
256,192,148266,1,8,0:0:0:0:
256,192,148377,1,0,0:0:0:0:
256,192,148599,1,8,0:0:0:0:
256,192,148821,1,8,0:0:0:0:
256,96,149044,1,4,0:0:0:0:
256,96,149488,1,4,0:0:0:0:
256,96,149932,1,4,0:0:0:0:
256,96,150155,1,4,0:0:0:0:
256,192,150377,1,8,0:0:0:0:
256,192,150488,1,0,0:0:0:0:
256,192,150599,1,8,0:0:0:0:
256,192,150821,1,0,0:0:0:0:
256,192,151043,1,8,0:0:0:0:
256,192,151266,1,0,0:0:0:0:
256,192,151377,1,0,0:0:0:0:
256,192,151488,1,8,0:0:0:0:
256,192,151599,1,8,0:0:0:0:
256,192,151710,1,0,0:0:0:0:
256,192,151932,1,8,0:0:0:0:
256,192,152155,1,0,0:0:0:0:
256,192,152266,1,8,0:0:0:0:
256,192,152377,1,8,0:0:0:0:
256,192,152599,1,0,0:0:0:0:
256,192,152821,1,0,0:0:0:0:
256,192,153043,1,8,0:0:0:0:
256,192,153155,1,0,0:0:0:0:
256,192,153266,1,8,0:0:0:0:
256,192,153377,1,0,0:0:0:0:
256,192,153488,1,8,0:0:0:0:
256,192,153710,1,0,0:0:0:0:
256,192,153821,1,0,0:0:0:0:
256,192,153932,1,8,0:0:0:0:
256,192,154155,1,8,0:0:0:0:
256,192,154377,1,0,0:0:0:0:
256,192,154821,1,8,0:0:0:0:
256,192,155266,1,0,0:0:0:0:
256,192,155488,1,0,0:0:0:0:
256,192,155710,1,8,0:0:0:0:
256,192,156155,1,4,0:0:0:0:
256,192,156599,1,4,0:0:0:0:
256,192,157044,1,4,0:0:0:0:
256,192,157266,1,4,0:0:0:0:
256,192,157488,1,4,0:0:0:0:
256,192,157932,1,0,0:0:0:0:
256,192,158155,1,8,0:0:0:0:
256,192,158266,1,8,0:0:0:0:
256,192,158377,1,0,0:0:0:0:
256,192,158599,1,8,0:0:0:0:
256,192,158710,1,8,0:0:0:0:
256,192,158821,1,0,0:0:0:0:
256,192,159044,1,8,0:0:0:0:
256,192,159266,1,0,0:0:0:0:
256,192,159377,1,0,0:0:0:0:
256,192,159488,1,8,0:0:0:0:
256,192,159710,1,0,0:0:0:0:
256,192,159932,1,8,0:0:0:0:
256,192,160044,1,8,0:0:0:0:
256,192,160155,1,0,0:0:0:0:
256,192,160377,1,8,0:0:0:0:
256,192,160599,1,0,0:0:0:0:
256,192,160710,1,0,0:0:0:0:
256,96,160821,1,12,0:0:0:0:
256,96,161044,1,12,0:0:0:0:
256,192,161488,1,0,0:0:0:0:
256,192,161710,1,0,0:0:0:0:
256,192,161821,1,8,0:0:0:0:
256,192,161932,1,0,0:0:0:0:
256,192,162155,1,8,0:0:0:0:
256,192,162266,1,8,0:0:0:0:
256,192,162377,1,0,0:0:0:0:
256,192,162599,1,8,0:0:0:0:
256,192,162821,1,8,0:0:0:0:
256,192,162932,1,8,0:0:0:0:
256,192,163044,1,8,0:0:0:0:
256,192,163266,1,0,0:0:0:0:
256,192,163710,1,8,0:0:0:0:
256,192,164043,2,0,L|256:256,7,45
256,96,165044,1,4,0:0:0:0:
256,192,172154,5,8,0:0:0:0:
256,192,172599,1,0,0:0:0:0:
256,192,172932,1,0,0:0:0:0:
256,192,173155,1,0,0:0:0:0:
256,192,173266,1,8,0:0:0:0:
256,192,173488,1,0,0:0:0:0:
256,192,173711,1,0,0:0:0:0:
256,192,173822,1,8,0:0:0:0:
256,192,174155,1,8,0:0:0:0:
256,192,174377,1,0,0:0:0:0:
256,192,174711,1,8,0:0:0:0:
256,192,174933,1,8,0:0:0:0:
256,192,175044,1,0,0:0:0:0:
256,192,175266,1,8,0:0:0:0:
256,192,175487,1,8,0:0:0:0:
256,192,175710,1,0,0:0:0:0:
256,192,175932,1,0,0:0:0:0:
256,192,176154,1,8,0:0:0:0:
256,192,176265,1,8,0:0:0:0:
256,192,176376,1,0,0:0:0:0:
256,192,176487,1,0,0:0:0:0:
256,192,176710,1,8,0:0:0:0:
256,192,176821,1,8,0:0:0:0:
256,192,177043,1,0,0:0:0:0:
256,192,177265,1,8,0:0:0:0:
256,192,177376,1,8,0:0:0:0:
256,192,177599,1,8,0:0:0:0:
256,192,177710,1,8,0:0:0:0:
256,192,177821,5,0,0:0:0:0:
256,192,177932,1,0,0:0:0:0:
256,192,178043,1,8,0:0:0:0:
256,192,178265,1,8,0:0:0:0:
256,96,179043,1,12,0:0:0:0:
256,96,179266,1,4,0:0:0:0:
256,192,179711,1,8,0:0:0:0:
256,192,179822,1,0,0:0:0:0:
256,192,180044,1,8,0:0:0:0:
256,192,180266,1,0,0:0:0:0:
256,192,180377,1,0,0:0:0:0:
256,192,180600,1,8,0:0:0:0:
256,192,180822,1,0,0:0:0:0:
256,192,180933,1,8,0:0:0:0:
256,192,181155,1,0,0:0:0:0:
256,192,181266,1,8,0:0:0:0:
256,192,181377,1,0,0:0:0:0:
256,192,181488,1,8,0:0:0:0:
256,192,181600,1,0,0:0:0:0:
256,192,181822,1,8,0:0:0:0:
256,192,182044,1,8,0:0:0:0:
256,192,182155,1,0,0:0:0:0:
256,192,182377,1,8,0:0:0:0:
256,192,182488,1,8,0:0:0:0:
256,192,182600,1,0,0:0:0:0:
256,192,182711,1,0,0:0:0:0:
256,192,182822,1,8,0:0:0:0:
256,192,183266,1,8,0:0:0:0:
256,192,183377,1,0,0:0:0:0:
256,192,183599,1,8,0:0:0:0:
256,192,183821,1,0,0:0:0:0:
256,192,183932,1,0,0:0:0:0:
256,192,184155,1,8,0:0:0:0:
256,192,184377,1,0,0:0:0:0:
256,192,184488,1,8,0:0:0:0:
256,192,184711,1,8,0:0:0:0:
256,192,184821,1,8,0:0:0:0:
256,192,184932,1,0,0:0:0:0:
256,192,185043,1,0,0:0:0:0:
256,192,185155,1,8,0:0:0:0:
256,192,185377,1,0,0:0:0:0:
256,192,185599,1,0,0:0:0:0:
256,192,185710,1,8,0:0:0:0:
256,192,185932,1,8,0:0:0:0:
256,192,186155,1,0,0:0:0:0:
256,96,186377,1,8,0:0:0:0:
256,192,186822,1,8,0:0:0:0:
256,192,186933,1,0,0:0:0:0:
256,192,187155,1,8,0:0:0:0:
256,192,187377,1,0,0:0:0:0:
256,192,187488,1,0,0:0:0:0:
256,192,187711,1,8,0:0:0:0:
256,192,187933,1,0,0:0:0:0:
256,192,188044,1,8,0:0:0:0:
256,192,188266,1,0,0:0:0:0:
256,192,188377,1,0,0:0:0:0:
256,192,188488,1,8,0:0:0:0:
256,192,188599,1,0,0:0:0:0:
256,192,188711,1,8,0:0:0:0:
256,192,188933,1,8,0:0:0:0:
256,192,189155,1,8,0:0:0:0:
256,192,189266,1,0,0:0:0:0:
256,192,189488,1,8,0:0:0:0:
256,192,189599,1,8,0:0:0:0:
256,192,189711,1,0,0:0:0:0:
256,192,189822,1,0,0:0:0:0:
256,192,189933,1,8,0:0:0:0:
256,192,190377,1,8,0:0:0:0:
256,192,190488,1,0,0:0:0:0:
256,192,190710,1,8,0:0:0:0:
256,192,190932,1,0,0:0:0:0:
256,192,191043,1,0,0:0:0:0:
256,192,191266,1,8,0:0:0:0:
256,192,191488,1,0,0:0:0:0:
256,192,191599,1,8,0:0:0:0:
256,192,191822,1,8,0:0:0:0:
256,192,191932,1,8,0:0:0:0:
256,192,192043,1,0,0:0:0:0:
256,192,192154,1,0,0:0:0:0:
256,192,192266,1,8,0:0:0:0:
256,192,192488,1,0,0:0:0:0:
256,192,192710,1,0,0:0:0:0:
256,192,192821,1,8,0:0:0:0:
256,192,192932,5,8,0:0:0:0:
256,96,193488,1,4,0:0:0:0:
256,192,193933,1,8,0:0:0:0:
256,192,194044,1,0,0:0:0:0:
256,192,194266,1,8,0:0:0:0:
256,192,194488,1,0,0:0:0:0:
256,192,194599,1,8,0:0:0:0:
256,192,194710,1,0,0:0:0:0:
256,192,194822,1,8,0:0:0:0:
256,192,195044,1,0,0:0:0:0:
256,192,195155,1,8,0:0:0:0:
256,192,195377,1,0,0:0:0:0:
256,192,195488,1,8,0:0:0:0:
256,192,195599,1,0,0:0:0:0:
256,192,195710,1,8,0:0:0:0:
256,192,195822,1,0,0:0:0:0:
256,192,196044,1,8,0:0:0:0:
256,192,196266,1,8,0:0:0:0:
256,192,196377,1,0,0:0:0:0:
256,192,196488,1,0,0:0:0:0:
256,192,196599,1,8,0:0:0:0:
256,192,196710,1,8,0:0:0:0:
256,192,196822,1,0,0:0:0:0:
256,192,196933,1,0,0:0:0:0:
256,192,197044,1,8,0:0:0:0:
256,192,197488,1,8,0:0:0:0:
256,192,197599,1,0,0:0:0:0:
256,192,197821,1,8,0:0:0:0:
256,192,198043,1,0,0:0:0:0:
256,192,198154,1,0,0:0:0:0:
256,192,198377,1,8,0:0:0:0:
256,192,198599,1,0,0:0:0:0:
256,192,198710,1,8,0:0:0:0:
256,192,198933,1,0,0:0:0:0:
256,192,199043,1,8,0:0:0:0:
256,192,199154,1,0,0:0:0:0:
256,192,199265,1,0,0:0:0:0:
256,192,199377,1,8,0:0:0:0:
256,192,199599,1,0,0:0:0:0:
256,192,199821,1,0,0:0:0:0:
256,192,199932,1,8,0:0:0:0:
256,192,200154,1,8,0:0:0:0:
256,192,200377,1,0,0:0:0:0:
256,192,200599,1,8,0:0:0:0:
256,192,201044,1,0,0:0:0:0:
256,192,201155,1,0,0:0:0:0:
256,192,201377,1,8,0:0:0:0:
256,192,201599,1,0,0:0:0:0:
256,192,201710,1,8,0:0:0:0:
256,192,201821,1,8,0:0:0:0:
256,192,201933,1,0,0:0:0:0:
256,192,202155,1,0,0:0:0:0:
256,192,202266,1,8,0:0:0:0:
256,192,202488,1,0,0:0:0:0:
256,192,202599,1,0,0:0:0:0:
256,192,202710,1,8,0:0:0:0:
256,192,202821,1,8,0:0:0:0:
256,192,202933,1,0,0:0:0:0:
256,192,203155,1,8,0:0:0:0:
256,192,203377,1,8,0:0:0:0:
256,192,203488,1,0,0:0:0:0:
256,192,203599,1,0,0:0:0:0:
256,192,203710,1,8,0:0:0:0:
256,192,203821,1,8,0:0:0:0:
256,192,203933,1,0,0:0:0:0:
256,192,204044,1,0,0:0:0:0:
256,192,204155,1,8,0:0:0:0:
256,192,204599,1,8,0:0:0:0:
256,192,204710,1,8,0:0:0:0:
256,192,204933,1,0,0:0:0:0:
256,192,205043,1,0,0:0:0:0:
256,192,205155,1,8,0:0:0:0:
256,192,205266,1,8,0:0:0:0:
256,192,205488,1,0,0:0:0:0:
256,192,205599,1,0,0:0:0:0:
256,192,205710,1,8,0:0:0:0:
256,192,205822,1,8,0:0:0:0:
256,192,205933,1,0,0:0:0:0:
256,192,206155,12,0,206821,0:0:0:0:
256,96,207710,5,4,0:0:0:0:
