osu file format v14

[General]
AudioFilename: audio.mp3
AudioLeadIn: 0
PreviewTime: 178377
Countdown: 0
SampleSet: Normal
StackLeniency: 0.7
Mode: 1
LetterboxInBreaks: 0
WidescreenStoryboard: 1

[Editor]
DistanceSpacing: 0.8
BeatDivisor: 4
GridSize: 32
TimelineZoom: 1.300001

[Metadata]
Title:Cartoon Candy
TitleUnicode:Cartoon Candy
Artist:Kobaryo
ArtistUnicode:Kobaryo
Creator:Hivie
Version:Muzukashii
Source:
Tags:radar fa featured artist osu! electronic instrumental speedcore candy speed pops psycho filth records mappers' guild mpg mg pfsa002 chiptune 8-bit 8bit Gabba Gabber
BeatmapID:3067852
BeatmapSetID:1496486

[Difficulty]
HPDrainRate:6
CircleSize:2
OverallDifficulty:5
ApproachRate:9
SliderMultiplier:0.9
SliderTickRate:1

[Events]
//Background and Video events
0,0,"bg.jpg",0,0
//Break Periods
2,39741,45163
2,165932,171554
//Storyboard Layer 0 (Background)
//Storyboard Layer 1 (Fail)
//Storyboard Layer 2 (Pass)
//Storyboard Layer 3 (Foreground)
//Storyboard Layer 4 (Overlay)
//Storyboard Sound Samples

[TimingPoints]
430,222.222222222222,4,1,0,100,1,0
14624,-100,4,1,0,100,0,0
39652,-100,4,1,0,70,0,0
46541,-100,4,1,0,100,0,0
82207,-100,4,1,0,100,0,1
95096,-100,4,1,0,100,0,0
107096,226.415094339622,4,1,0,100,1,0
107096,-100,4,1,0,100,0,0
107548,235.294117647059,4,1,0,100,1,8
107548,-94.4465432565168,4,1,0,100,0,0
107783,260.869565217392,4,1,0,100,1,8
108043,272.727272727273,4,1,0,100,1,0
108043,-81.4814814814815,4,1,0,100,0,0
108588,285.714285714286,4,1,0,100,1,8
108873,292.682926829269,4,1,0,100,1,8
109165,307.692307692309,4,1,0,100,1,0
109165,-72.2230247002744,4,1,0,100,0,0
109472,348.837209302328,4,1,0,100,1,8
109820,384.615384615387,4,1,0,100,1,8
110204,425.531914893621,4,1,0,100,1,8
110629,480.000000000005,4,1,0,100,1,0
110629,-46.2962962962963,4,1,0,100,0,0
111109,446.096654275098,4,1,0,100,1,8
111781,300,4,1,0,100,1,0
111781,-74.0740740740741,4,1,0,100,0,0
132178,222.222222222222,4,1,0,100,1,0
140155,222.222222222222,4,1,0,100,1,0
140155,-100,4,1,0,100,0,0
165904,-100,4,1,0,70,0,0
172127,-100,4,1,0,100,0,0
179266,-100,4,1,0,100,0,1
193043,-100,4,1,0,100,0,0
193488,-100,4,1,0,100,0,1
206377,-100,4,1,0,100,0,1
206821,-100,4,1,0,100,0,0
207710,-100,4,1,0,100,0,1
208154,-100,4,1,0,100,0,0

[HitObjects]
256,96,14652,5,4,0:0:0:0:
256,96,15541,1,4,0:0:0:0:
256,96,16429,1,4,0:0:0:0:
256,96,16874,1,4,0:0:0:0:
256,96,17318,1,4,0:0:0:0:
256,96,17541,1,4,0:0:0:0:
256,192,17763,1,8,0:0:0:0:
256,192,17985,1,8,0:0:0:0:
256,192,18207,1,0,0:0:0:0:
256,192,18652,1,0,0:0:0:0:
256,192,18874,1,8,0:0:0:0:
256,192,19096,1,0,0:0:0:0:
256,192,19318,1,8,0:0:0:0:
256,192,19429,1,8,0:0:0:0:
256,192,19541,1,8,0:0:0:0:
256,192,19763,1,0,0:0:0:0:
256,192,19985,1,8,0:0:0:0:
256,192,20429,1,8,0:0:0:0:
256,192,20652,1,8,0:0:0:0:
256,192,20874,1,0,0:0:0:0:
256,192,20985,1,0,0:0:0:0:
256,192,21096,1,0,0:0:0:0:
256,192,21318,1,8,0:0:0:0:
256,192,21541,1,8,0:0:0:0:
256,192,21763,1,0,0:0:0:0:
256,192,22652,1,0,0:0:0:0:
256,192,23096,1,8,0:0:0:0:
256,96,23541,1,4,0:0:0:0:
256,96,23985,1,4,0:0:0:0:
256,96,24429,1,4,0:0:0:0:
256,96,24652,1,4,0:0:0:0:
256,192,24874,1,8,0:0:0:0:
256,192,25096,1,8,0:0:0:0:
256,192,25318,1,0,0:0:0:0:
256,192,25763,1,0,0:0:0:0:
256,192,25985,1,8,0:0:0:0:
256,192,26207,1,0,0:0:0:0:
256,192,26429,1,8,0:0:0:0:
256,192,26541,1,8,0:0:0:0:
256,192,26652,1,8,0:0:0:0:
256,192,26874,1,8,0:0:0:0:
256,192,27096,1,0,0:0:0:0:
256,192,27318,1,0,0:0:0:0:
256,192,27541,1,8,0:0:0:0:
256,192,27652,1,8,0:0:0:0:
256,192,27763,1,8,0:0:0:0:
256,192,27985,1,0,0:0:0:0:
256,192,28207,1,0,0:0:0:0:
256,192,28318,1,0,0:0:0:0:
256,192,28429,1,0,0:0:0:0:
256,192,28652,1,8,0:0:0:0:
256,192,28874,1,0,0:0:0:0:
256,192,29763,1,0,0:0:0:0:
256,192,30207,1,8,0:0:0:0:
256,192,30652,1,4,0:0:0:0:
256,192,31096,1,4,0:0:0:0:
256,192,31541,1,4,0:0:0:0:
256,96,31763,1,4,0:0:0:0:
256,192,31985,1,4,0:0:0:0:
256,192,32429,1,8,0:0:0:0:
256,192,32874,1,0,0:0:0:0:
256,192,33096,1,8,0:0:0:0:
256,192,33318,1,0,0:0:0:0:
256,192,33541,1,0,0:0:0:0:
256,192,33763,1,8,0:0:0:0:
256,192,33985,1,8,0:0:0:0:
256,192,34207,1,0,0:0:0:0:
256,192,34652,1,0,0:0:0:0:
256,192,34874,1,8,0:0:0:0:
256,192,35096,1,0,0:0:0:0:
256,192,35207,1,0,0:0:0:0:
256,192,35318,1,0,0:0:0:0:
256,96,35541,1,12,0:0:0:0:
256,192,35985,1,0,0:0:0:0:
256,192,36429,1,0,0:0:0:0:
256,192,36652,1,8,0:0:0:0:
256,192,36874,1,0,0:0:0:0:
256,192,37096,1,8,0:0:0:0:
256,192,37318,1,8,0:0:0:0:
256,192,37429,1,8,0:0:0:0:
256,192,37541,1,8,0:0:0:0:
256,192,37763,1,0,0:0:0:0:
256,192,38541,2,0,L|256:256,7,45
256,96,39541,1,4,0:0:0:0:
256,192,45763,12,0,46429,0:0:0:0:
256,192,46652,5,4,0:0:0:0:
256,192,47318,1,0,0:0:0:0:
256,192,47763,1,8,0:0:0:0:
256,192,47985,1,8,0:0:0:0:
256,192,48429,1,0,0:0:0:0:
256,192,48874,1,8,0:0:0:0:
256,192,49096,1,0,0:0:0:0:
256,192,49541,1,0,0:0:0:0:
256,192,49763,1,8,0:0:0:0:
256,192,49985,1,0,0:0:0:0:
256,192,50207,1,8,0:0:0:0:
256,192,50652,1,8,0:0:0:0:
256,192,50874,1,0,0:0:0:0:
256,192,51318,1,0,0:0:0:0:
256,192,51541,1,8,0:0:0:0:
256,192,51763,1,8,0:0:0:0:
256,192,51985,1,0,0:0:0:0:
256,192,52429,1,8,0:0:0:0:
256,192,52874,1,0,0:0:0:0:
256,192,53096,1,0,0:0:0:0:
256,192,53318,1,8,0:0:0:0:
256,96,53763,1,4,0:0:0:0:
256,192,54429,1,0,0:0:0:0:
256,192,54652,1,8,0:0:0:0:
256,192,54985,1,8,0:0:0:0:
256,192,55207,1,0,0:0:0:0:
256,192,55318,1,0,0:0:0:0:
256,192,55541,1,8,0:0:0:0:
256,192,55874,1,0,0:0:0:0:
256,192,56096,1,8,0:0:0:0:
256,192,56207,1,8,0:0:0:0:
256,192,56429,1,0,0:0:0:0:
256,192,56763,1,0,0:0:0:0:
256,192,56985,1,8,0:0:0:0:
256,192,57318,1,8,0:0:0:0:
256,192,57652,1,0,0:0:0:0:
256,192,57874,1,8,0:0:0:0:
256,192,57985,1,0,0:0:0:0:
256,192,58207,1,8,0:0:0:0:
256,192,58541,1,8,0:0:0:0:
256,192,58763,1,0,0:0:0:0:
256,192,58874,1,8,0:0:0:0:
256,192,59096,1,0,0:0:0:0:
256,192,59429,1,8,0:0:0:0:
256,192,59652,1,0,0:0:0:0:
256,192,59763,1,0,0:0:0:0:
256,192,59985,1,8,0:0:0:0:
256,192,60207,1,8,0:0:0:0:
256,192,60429,1,0,0:0:0:0:
256,192,60541,1,0,0:0:0:0:
256,192,60652,1,0,0:0:0:0:
256,192,60874,1,8,0:0:0:0:
256,192,61541,1,0,0:0:0:0:
256,192,61763,1,8,0:0:0:0:
256,192,62096,1,8,0:0:0:0:
256,192,62318,1,0,0:0:0:0:
256,192,62429,1,0,0:0:0:0:
256,192,62652,1,8,0:0:0:0:
256,192,62985,1,0,0:0:0:0:
256,192,63207,1,8,0:0:0:0:
256,192,63318,1,8,0:0:0:0:
256,192,63541,1,0,0:0:0:0:
256,192,63874,1,0,0:0:0:0:
256,192,64096,1,8,0:0:0:0:
256,192,64429,1,8,0:0:0:0:
256,192,64763,1,0,0:0:0:0:
256,192,64985,1,8,0:0:0:0:
256,192,65096,1,0,0:0:0:0:
256,192,65318,1,8,0:0:0:0:
256,192,65652,1,8,0:0:0:0:
256,192,65874,1,0,0:0:0:0:
256,192,65985,1,8,0:0:0:0:
256,192,66207,1,0,0:0:0:0:
256,192,66541,1,0,0:0:0:0:
256,192,66763,1,8,0:0:0:0:
256,192,66874,1,8,0:0:0:0:
256,192,67096,1,0,0:0:0:0:
256,192,67318,1,0,0:0:0:0:
256,192,67541,1,8,0:0:0:0:
256,192,67985,5,12,0:0:0:0:
256,192,68429,1,0,0:0:0:0:
256,192,69096,1,8,0:0:0:0:
256,192,69318,1,0,0:0:0:0:
256,192,69763,1,8,0:0:0:0:
256,192,70207,1,0,0:0:0:0:
256,192,70652,1,8,0:0:0:0:
256,192,70874,1,0,0:0:0:0:
256,192,71096,1,8,0:0:0:0:
256,192,71541,1,8,0:0:0:0:
256,192,71985,1,0,0:0:0:0:
256,192,72652,1,8,0:0:0:0:
256,192,72874,1,0,0:0:0:0:
256,192,73318,1,8,0:0:0:0:
256,192,73763,1,0,0:0:0:0:
256,192,74207,1,8,0:0:0:0:
256,192,74429,1,0,0:0:0:0:
256,192,74652,1,8,0:0:0:0:
256,96,75096,1,12,0:0:0:0:
256,192,75541,1,0,0:0:0:0:
256,192,75985,1,0,0:0:0:0:
256,192,76429,1,0,0:0:0:0:
256,192,76652,1,0,0:0:0:0:
256,192,76874,1,8,0:0:0:0:
256,192,77318,1,0,0:0:0:0:
256,192,77763,1,8,0:0:0:0:
256,192,78207,1,8,0:0:0:0:
256,192,78429,1,8,0:0:0:0:
256,192,78652,1,0,0:0:0:0:
256,192,79096,1,8,0:0:0:0:
256,192,79318,1,0,0:0:0:0:
256,192,79541,1,8,0:0:0:0:
256,192,79763,1,8,0:0:0:0:
256,192,79985,1,0,0:0:0:0:
256,192,80207,1,0,0:0:0:0:
256,192,80429,1,8,0:0:0:0:
256,192,80652,1,0,0:0:0:0:
256,192,80763,1,0,0:0:0:0:
256,192,80874,1,0,0:0:0:0:
256,192,81096,1,8,0:0:0:0:
256,96,81985,1,12,0:0:0:0:
256,96,82207,1,4,0:0:0:0:
256,192,82652,1,8,0:0:0:0:
256,192,83318,1,0,0:0:0:0:
256,192,83541,1,8,0:0:0:0:
256,192,83763,1,0,0:0:0:0:
256,192,83874,1,0,0:0:0:0:
256,192,83985,1,8,0:0:0:0:
256,192,84207,1,0,0:0:0:0:
256,192,84429,1,8,0:0:0:0:
256,192,84874,1,0,0:0:0:0:
256,192,85096,1,8,0:0:0:0:
256,192,85207,1,8,0:0:0:0:
256,192,85318,1,8,0:0:0:0:
256,192,85541,1,0,0:0:0:0:
256,192,85763,1,8,0:0:0:0:
256,192,86207,1,0,0:0:0:0:
256,192,86652,1,0,0:0:0:0:
256,192,86874,1,8,0:0:0:0:
256,192,87096,1,0,0:0:0:0:
256,192,87318,1,8,0:0:0:0:
256,192,87429,1,8,0:0:0:0:
256,192,87541,1,0,0:0:0:0:
256,192,87763,1,8,0:0:0:0:
256,192,87985,1,0,0:0:0:0:
256,192,88429,1,0,0:0:0:0:
256,192,88652,1,8,0:0:0:0:
256,192,88874,1,8,0:0:0:0:
256,192,89318,1,0,0:0:0:0:
256,192,89763,1,8,0:0:0:0:
256,192,90429,1,0,0:0:0:0:
256,192,90652,1,8,0:0:0:0:
256,192,90874,1,0,0:0:0:0:
256,192,90985,1,0,0:0:0:0:
256,192,91096,1,8,0:0:0:0:
256,192,91318,1,0,0:0:0:0:
256,192,91541,1,8,0:0:0:0:
256,192,91763,1,0,0:0:0:0:
256,192,91985,1,8,0:0:0:0:
256,192,92207,1,8,0:0:0:0:
256,192,92429,1,0,0:0:0:0:
256,192,92541,1,0,0:0:0:0:
256,192,92652,1,0,0:0:0:0:
256,192,92763,1,0,0:0:0:0:
256,192,92874,1,8,0:0:0:0:
256,192,93318,1,0,0:0:0:0:
256,192,93541,1,8,0:0:0:0:
256,192,93652,1,8,0:0:0:0:
256,192,93763,1,8,0:0:0:0:
256,192,93985,1,0,0:0:0:0:
256,192,94096,1,0,0:0:0:0:
256,192,94207,1,0,0:0:0:0:
256,192,94429,5,8,0:0:0:0:
256,192,94541,1,8,0:0:0:0:
256,192,94652,1,0,0:0:0:0:
256,192,94874,12,0,95429,0:0:0:0:
256,192,96429,5,4,0:0:0:0:
256,192,96652,12,0,99763,0:0:0:0:
256,192,99985,5,4,0:0:0:0:
256,192,100207,12,0,103318,0:0:0:0:
256,192,103541,5,4,0:0:0:0:
256,192,103763,12,0,106874,0:0:0:0:
256,192,107096,5,4,0:0:0:0:
256,192,107322,12,0,111555,0:0:0:0:
256,192,111781,5,0,0:0:0:0:
256,192,112381,1,0,0:0:0:0:
256,192,112681,1,8,0:0:0:0:
256,192,112981,1,4,0:0:0:0:
256,192,113581,1,8,0:0:0:0:
256,192,114181,1,0,0:0:0:0:
256,192,114481,1,0,0:0:0:0:
256,192,114781,1,8,0:0:0:0:
256,192,115081,1,8,0:0:0:0:
256,192,115231,1,8,0:0:0:0:
256,192,115381,1,0,0:0:0:0:
256,192,115681,1,0,0:0:0:0:
256,192,115981,1,8,0:0:0:0:
256,192,116581,1,8,0:0:0:0:
256,192,116881,1,0,0:0:0:0:
256,192,117181,1,8,0:0:0:0:
256,192,117781,1,8,0:0:0:0:
256,192,117931,1,0,0:0:0:0:
256,192,118081,1,8,0:0:0:0:
256,192,118231,1,8,0:0:0:0:
256,192,118381,1,0,0:0:0:0:
256,192,118681,1,8,0:0:0:0:
256,192,118981,1,0,0:0:0:0:
256,192,119131,1,0,0:0:0:0:
256,192,119281,1,8,0:0:0:0:
256,192,119431,1,8,0:0:0:0:
256,192,119581,1,0,0:0:0:0:
256,192,119731,1,8,0:0:0:0:
256,192,119881,1,0,0:0:0:0:
256,192,120181,1,8,0:0:0:0:
256,192,120331,1,0,0:0:0:0:
256,192,120481,1,8,0:0:0:0:
256,192,120631,1,8,0:0:0:0:
256,192,120781,1,0,0:0:0:0:
256,192,121081,1,8,0:0:0:0:
256,192,121381,1,0,0:0:0:0:
256,192,121531,1,8,0:0:0:0:
256,192,121681,1,0,0:0:0:0:
256,192,121756,1,0,0:0:0:0:
256,192,121831,1,0,0:0:0:0:
256,192,121981,1,8,0:0:0:0:
256,192,122131,1,0,0:0:0:0:
256,192,122281,1,8,0:0:0:0:
256,192,122581,1,4,0:0:0:0:
256,192,123181,1,8,0:0:0:0:
256,192,123481,1,0,0:0:0:0:
256,192,123781,1,8,0:0:0:0:
256,192,124081,1,0,0:0:0:0:
256,192,124231,1,0,0:0:0:0:
256,192,124381,1,8,0:0:0:0:
256,192,124681,1,8,0:0:0:0:
256,192,124981,1,0,0:0:0:0:
256,192,125581,1,8,0:0:0:0:
256,192,125881,1,0,0:0:0:0:
256,192,126181,1,8,0:0:0:0:
256,192,126481,1,0,0:0:0:0:
256,192,126781,1,8,0:0:0:0:
256,192,127381,1,8,0:0:0:0:
256,192,127531,1,0,0:0:0:0:
256,192,127681,1,8,0:0:0:0:
256,192,127831,1,0,0:0:0:0:
256,192,127981,1,8,0:0:0:0:
256,192,128281,1,0,0:0:0:0:
256,192,128581,1,8,0:0:0:0:
256,192,128731,1,8,0:0:0:0:
256,192,128881,1,0,0:0:0:0:
256,192,128956,1,0,0:0:0:0:
256,192,129031,1,0,0:0:0:0:
256,192,129181,1,8,0:0:0:0:
256,192,129331,1,0,0:0:0:0:
256,192,129481,1,0,0:0:0:0:
256,192,129781,1,8,0:0:0:0:
256,192,129931,1,0,0:0:0:0:
256,192,130081,1,8,0:0:0:0:
256,192,130231,1,8,0:0:0:0:
256,192,130381,1,0,0:0:0:0:
256,192,130681,1,8,0:0:0:0:
256,192,130981,1,8,0:0:0:0:
256,192,131131,1,0,0:0:0:0:
256,192,131281,1,8,0:0:0:0:
256,192,131356,1,8,0:0:0:0:
256,192,131431,1,8,0:0:0:0:
256,192,131581,1,0,0:0:0:0:
256,192,131731,1,0,0:0:0:0:
256,192,131881,1,8,0:0:0:0:
256,192,132178,1,4,0:0:0:0:
256,192,132400,12,0,139955,0:0:0:0:
256,96,140155,5,4,0:0:0:0:
256,96,141043,1,4,0:0:0:0:
256,96,141932,1,4,0:0:0:0:
256,96,142377,1,4,0:0:0:0:
256,96,142821,1,4,0:0:0:0:
256,96,143043,1,4,0:0:0:0:
256,192,143266,1,8,0:0:0:0:
256,192,143488,1,8,0:0:0:0:
256,192,143710,1,0,0:0:0:0:
256,192,144155,1,0,0:0:0:0:
256,192,144377,1,8,0:0:0:0:
256,192,144599,1,0,0:0:0:0:
256,192,144821,1,8,0:0:0:0:
256,192,144932,1,8,0:0:0:0:
256,192,145043,1,8,0:0:0:0:
256,192,145266,1,0,0:0:0:0:
256,192,145488,1,8,0:0:0:0:
256,192,145932,1,8,0:0:0:0:
256,192,146155,1,8,0:0:0:0:
256,192,146377,1,0,0:0:0:0:
256,192,146488,1,0,0:0:0:0:
256,192,146599,1,0,0:0:0:0:
256,192,146821,1,8,0:0:0:0:
256,192,147043,1,8,0:0:0:0:
256,192,147266,1,0,0:0:0:0:
256,192,148155,1,0,0:0:0:0:
256,192,148599,1,8,0:0:0:0:
256,96,149043,1,4,0:0:0:0:
256,96,149488,1,4,0:0:0:0:
256,96,149932,1,4,0:0:0:0:
256,96,150155,1,4,0:0:0:0:
256,192,150377,1,8,0:0:0:0:
256,192,150599,1,8,0:0:0:0:
256,192,150821,1,0,0:0:0:0:
256,192,151266,1,0,0:0:0:0:
256,192,151488,1,8,0:0:0:0:
256,192,151710,1,0,0:0:0:0:
256,192,151932,1,8,0:0:0:0:
256,192,152043,1,8,0:0:0:0:
256,192,152155,1,8,0:0:0:0:
256,192,152377,1,8,0:0:0:0:
256,192,152599,1,0,0:0:0:0:
256,192,152821,1,0,0:0:0:0:
256,192,153043,1,8,0:0:0:0:
256,192,153155,1,8,0:0:0:0:
256,192,153266,1,8,0:0:0:0:
256,192,153488,1,0,0:0:0:0:
256,192,153710,1,0,0:0:0:0:
256,192,153821,1,0,0:0:0:0:
256,192,153932,1,0,0:0:0:0:
256,192,154155,1,8,0:0:0:0:
256,192,154377,1,0,0:0:0:0:
256,192,155266,1,0,0:0:0:0:
256,192,155710,1,8,0:0:0:0:
256,192,156154,1,4,0:0:0:0:
256,192,156599,1,4,0:0:0:0:
256,192,157043,1,4,0:0:0:0:
256,96,157266,1,4,0:0:0:0:
256,192,157488,1,4,0:0:0:0:
256,192,157932,1,8,0:0:0:0:
256,192,158377,1,0,0:0:0:0:
256,192,158599,1,8,0:0:0:0:
256,192,158821,1,0,0:0:0:0:
256,192,159043,1,0,0:0:0:0:
256,192,159266,1,8,0:0:0:0:
256,192,159488,1,8,0:0:0:0:
256,192,159710,1,0,0:0:0:0:
256,192,160154,1,0,0:0:0:0:
256,192,160377,1,8,0:0:0:0:
256,192,160599,1,0,0:0:0:0:
256,192,160710,1,0,0:0:0:0:
256,192,160821,1,0,0:0:0:0:
256,96,161043,1,12,0:0:0:0:
256,192,161488,1,0,0:0:0:0:
256,192,161932,1,0,0:0:0:0:
256,192,162154,1,8,0:0:0:0:
256,192,162377,1,0,0:0:0:0:
256,192,162599,1,8,0:0:0:0:
256,192,162821,1,8,0:0:0:0:
256,192,162932,1,8,0:0:0:0:
256,192,163043,1,8,0:0:0:0:
256,192,163266,1,0,0:0:0:0:
256,192,164043,2,0,L|256:256,7,45
256,96,165043,1,4,0:0:0:0:
256,192,172154,5,8,0:0:0:0:
256,192,172599,1,0,0:0:0:0:
256,192,173043,1,8,0:0:0:0:
256,192,173488,1,0,0:0:0:0:
256,192,173710,1,0,0:0:0:0:
256,192,173932,1,8,0:0:0:0:
256,192,174377,1,0,0:0:0:0:
256,192,174821,1,8,0:0:0:0:
256,192,175266,1,8,0:0:0:0:
256,192,175488,1,8,0:0:0:0:
256,192,175710,1,0,0:0:0:0:
256,192,176154,1,8,0:0:0:0:
256,192,176377,1,0,0:0:0:0:
256,192,176599,1,8,0:0:0:0:
256,192,176821,1,8,0:0:0:0:
256,192,177043,1,0,0:0:0:0:
256,192,177266,1,0,0:0:0:0:
256,192,177488,1,8,0:0:0:0:
256,192,177710,1,0,0:0:0:0:
256,192,177821,1,0,0:0:0:0:
256,192,177932,1,0,0:0:0:0:
256,192,178154,1,8,0:0:0:0:
256,96,179043,1,12,0:0:0:0:
256,96,179266,1,4,0:0:0:0:
256,192,179710,1,8,0:0:0:0:
256,192,180377,1,0,0:0:0:0:
256,192,180599,1,8,0:0:0:0:
256,192,180821,1,0,0:0:0:0:
256,192,180932,1,0,0:0:0:0:
256,192,181043,1,8,0:0:0:0:
256,192,181266,1,0,0:0:0:0:
256,192,181488,1,8,0:0:0:0:
256,192,181932,1,0,0:0:0:0:
256,192,182154,1,8,0:0:0:0:
256,192,182266,1,8,0:0:0:0:
256,192,182377,1,8,0:0:0:0:
256,192,182599,1,0,0:0:0:0:
256,192,182821,1,8,0:0:0:0:
256,192,183266,1,0,0:0:0:0:
256,192,183710,1,0,0:0:0:0:
256,192,183932,1,8,0:0:0:0:
256,192,184154,1,0,0:0:0:0:
256,192,184377,1,8,0:0:0:0:
256,192,184488,1,8,0:0:0:0:
256,192,184599,1,0,0:0:0:0:
256,192,184821,1,8,0:0:0:0:
256,192,185043,1,0,0:0:0:0:
256,192,185488,1,0,0:0:0:0:
256,192,185710,1,8,0:0:0:0:
256,192,185932,1,8,0:0:0:0:
256,192,186377,1,0,0:0:0:0:
256,192,186821,1,8,0:0:0:0:
256,192,187488,1,0,0:0:0:0:
256,192,187710,1,8,0:0:0:0:
256,192,187932,1,0,0:0:0:0:
256,192,188043,1,0,0:0:0:0:
256,192,188154,1,8,0:0:0:0:
256,192,188377,1,8,0:0:0:0:
256,192,188599,1,0,0:0:0:0:
256,192,189043,1,8,0:0:0:0:
256,192,189266,1,0,0:0:0:0:
256,192,189377,1,0,0:0:0:0:
256,192,189488,1,0,0:0:0:0:
256,192,189710,1,0,0:0:0:0:
256,192,189932,1,8,0:0:0:0:
256,192,190377,1,0,0:0:0:0:
256,192,190821,1,0,0:0:0:0:
256,192,191043,1,8,0:0:0:0:
256,192,191266,1,0,0:0:0:0:
256,192,191488,1,8,0:0:0:0:
256,192,191599,1,8,0:0:0:0:
256,192,191710,1,0,0:0:0:0:
256,192,191932,1,8,0:0:0:0:
256,192,192154,1,0,0:0:0:0:
256,192,192599,1,0,0:0:0:0:
256,192,192821,1,8,0:0:0:0:
256,96,193488,1,4,0:0:0:0:
256,192,193932,1,8,0:0:0:0:
256,192,194599,1,0,0:0:0:0:
256,192,194821,1,8,0:0:0:0:
256,192,195043,1,0,0:0:0:0:
256,192,195154,1,0,0:0:0:0:
256,192,195266,1,8,0:0:0:0:
256,192,195488,1,0,0:0:0:0:
256,192,195710,1,8,0:0:0:0:
256,192,195932,1,0,0:0:0:0:
256,192,196154,1,8,0:0:0:0:
256,192,196266,1,8,0:0:0:0:
256,192,196377,1,8,0:0:0:0:
256,192,196599,1,0,0:0:0:0:
256,192,196710,1,0,0:0:0:0:
256,192,196821,1,0,0:0:0:0:
256,192,196932,1,0,0:0:0:0:
256,192,197043,1,8,0:0:0:0:
256,192,197488,1,0,0:0:0:0:
256,192,197932,1,0,0:0:0:0:
256,192,198154,1,8,0:0:0:0:
256,192,198377,1,0,0:0:0:0:
256,192,198599,1,8,0:0:0:0:
256,192,198710,1,8,0:0:0:0:
256,192,198821,1,0,0:0:0:0:
256,192,199043,1,8,0:0:0:0:
256,192,199266,1,0,0:0:0:0:
256,192,199488,1,0,0:0:0:0:
256,192,199710,1,8,0:0:0:0:
256,192,199932,1,8,0:0:0:0:
256,192,200043,1,8,0:0:0:0:
256,192,200154,1,8,0:0:0:0:
256,192,200599,1,0,0:0:0:0:
256,192,201043,1,8,0:0:0:0:
256,192,201710,1,0,0:0:0:0:
256,192,201932,1,8,0:0:0:0:
256,192,202154,1,0,0:0:0:0:
256,192,202266,1,0,0:0:0:0:
256,192,202377,1,8,0:0:0:0:
256,192,202599,1,0,0:0:0:0:
256,192,202821,1,8,0:0:0:0:
256,192,203043,1,8,0:0:0:0:
256,192,203154,1,8,0:0:0:0:
256,192,203266,1,0,0:0:0:0:
256,192,203488,1,8,0:0:0:0:
256,192,203710,1,0,0:0:0:0:
256,192,203821,1,0,0:0:0:0:
256,192,203932,1,0,0:0:0:0:
256,192,204043,1,0,0:0:0:0:
256,192,204154,1,8,0:0:0:0:
256,192,204599,1,0,0:0:0:0:
256,192,204821,1,8,0:0:0:0:
256,192,204932,1,8,0:0:0:0:
256,192,205043,1,8,0:0:0:0:
256,192,205266,1,0,0:0:0:0:
256,192,205377,1,0,0:0:0:0:
256,192,205488,1,0,0:0:0:0:
256,192,205710,5,8,0:0:0:0:
256,192,205821,1,8,0:0:0:0:
256,192,205932,1,0,0:0:0:0:
256,192,206154,12,0,206821,0:0:0:0:
256,96,207710,5,4,0:0:0:0:
