osu file format v14

[General]
AudioFilename: audio.mp3
AudioLeadIn: 0
PreviewTime: 178377
Countdown: 0
SampleSet: Normal
StackLeniency: 0.7
Mode: 1
LetterboxInBreaks: 0
WidescreenStoryboard: 1

[Editor]
DistanceSpacing: 1.1
BeatDivisor: 4
GridSize: 32
TimelineZoom: 3.199999

[Metadata]
Title:Cartoon Candy
TitleUnicode:Cartoon Candy
Artist:Kobaryo
ArtistUnicode:Kobaryo
Creator:Hivie
Version:Lite Inner Oni
Source:
Tags:radar fa featured artist osu! electronic instrumental speedcore candy speed pops psycho filth records mappers' guild mpg mg pfsa002 chiptune 8-bit 8bit Gabba Gabber
BeatmapID:3133733
BeatmapSetID:1496486

[Difficulty]
HPDrainRate:6
CircleSize:2
OverallDifficulty:6
ApproachRate:9
SliderMultiplier:1.2
SliderTickRate:1

[Events]
//Background and Video events
0,0,"bg.jpg",0,0
//Break Periods
2,39741,45163
2,165932,171554
//Storyboard Layer 0 (Background)
//Storyboard Layer 1 (Fail)
//Storyboard Layer 2 (Pass)
//Storyboard Layer 3 (Foreground)
//Storyboard Layer 4 (Overlay)
//Storyboard Sound Samples

[TimingPoints]
430,222.222222222222,4,1,0,100,1,0
14624,-125,4,1,0,100,0,0
17318,-121.621654492339,4,1,0,100,0,0
17541,-115.384571005934,4,1,0,100,0,0
17763,-109.756110945867,4,1,0,100,0,0
17874,-107.142895408177,4,1,0,100,0,0
17957,-104.166666666667,4,1,0,100,0,0
18013,-103.053474447891,4,1,0,100,0,0
18068,-102.272704028931,4,1,0,100,0,0
18207,-100,4,1,0,100,0,0
21874,-142.857142857143,4,1,0,100,0,0
23513,-125,4,1,0,100,0,0
24411,-121.621654492339,4,1,0,100,0,0
24634,-115.384571005934,4,1,0,100,0,0
24856,-109.756110945867,4,1,0,100,0,0
24967,-107.142895408177,4,1,0,100,0,0
25068,-104.166666666667,4,1,0,100,0,0
25124,-103.053474447891,4,1,0,100,0,0
25179,-102.272704028931,4,1,0,100,0,0
25300,-100,4,1,0,100,0,0
28985,-142.857142857143,4,1,0,100,0,0
30624,-125,4,1,0,100,0,0
32402,-100,4,1,0,100,0,0
37874,-111.111111111111,4,1,0,100,0,0
39485,-90.9090909090909,4,1,0,100,0,0
39652,-142.857142857143,4,1,0,70,0,0
46624,-142.857142857143,4,1,0,100,0,0
50207,-142.857142857143,4,1,0,100,0,0
50318,-140.703574152191,4,1,0,100,0,0
50429,-138.613779041319,4,1,0,100,0,0
50541,-136.585339202861,4,1,0,100,0,0
50652,-134.615410502964,4,1,0,100,0,0
50763,-132.701497270994,4,1,0,100,0,0
50874,-130.841072582777,4,1,0,100,0,0
50985,-129.032258064516,4,1,0,100,0,0
51096,-127.272773553736,4,1,0,100,0,0
51207,-125.560470550419,4,1,0,100,0,0
51318,-123.893783381631,4,1,0,100,0,0
51429,-122.270763715417,4,1,0,100,0,0
51541,-120.68971759813,4,1,0,100,0,0
51652,-119.148895608887,4,1,0,100,0,0
51763,-117.647058823529,4,1,0,100,0,0
51874,-116.18261118095,4,1,0,100,0,0
51985,-114.754041924242,4,1,0,100,0,0
52096,-113.360305528695,4,1,0,100,0,0
52207,-112.000017920003,4,1,0,100,0,0
52318,-110.671989251536,4,1,0,100,0,0
52429,-109.374965820323,4,1,0,100,0,0
52541,-108.108108108108,4,1,0,100,0,0
52652,-106.870261639775,4,1,0,100,0,0
52763,-105.660329512304,4,1,0,100,0,0
52874,-104.477596346627,4,1,0,100,0,0
52985,-103.321048460671,4,1,0,100,0,0
53096,-102.189825776566,4,1,0,100,0,0
53207,-101.083003297328,4,1,0,100,0,0
53318,-100,4,1,0,100,0,0
53652,-111.111111111111,4,1,0,100,0,0
53874,-125,4,1,0,100,0,0
67957,-142.857142857143,4,1,0,100,0,0
78429,-142.857142857143,4,1,0,100,0,0
78541,-140.544187092422,4,1,0,100,0,0
78652,-138.304934720071,4,1,0,100,0,0
78763,-136.135918100632,4,1,0,100,0,0
78874,-134.033883765816,4,1,0,100,0,0
78985,-131.995776135164,4,1,0,100,0,0
79096,-130.018722696068,4,1,0,100,0,0
79207,-128.100020496003,4,1,0,100,0,0
79318,-126.237123813371,4,1,0,100,0,0
79429,-124.427632888712,4,1,0,100,0,0
79541,-122.669283611384,4,1,0,100,0,0
79652,-120.959938068512,4,1,0,100,0,0
79763,-119.297575873258,4,1,0,100,0,0
79874,-117.680286198456,4,1,0,100,0,0
79985,-116.106260449563,4,1,0,100,0,0
80096,-114.573785517874,4,1,0,100,0,0
80207,-113.081237561064,4,1,0,100,0,0
80318,-111.627076263619,4,1,0,100,0,0
80402,-108.731699095896,4,1,0,100,0,0
80458,-108.144584984341,4,1,0,100,0,0
80514,-107.563777252628,4,1,0,100,0,0
80569,-106.98917483529,4,1,0,100,0,0
80625,-106.420678814942,4,1,0,100,0,0
80681,-105.858192365507,4,1,0,100,0,0
80736,-105.301620697244,4,1,0,100,0,0
80792,-104.750871003492,4,1,0,100,0,0
80847,-104.205852409083,4,1,0,100,0,0
80903,-103.666475920351,4,1,0,100,0,0
80958,-103.132548013358,4,1,0,100,0,0
81014,-102.604197127288,4,1,0,100,0,0
81069,-102.081232161305,4,1,0,100,0,0
81125,-101.56357117829,4,1,0,100,0,0
81180,-101.051133894773,4,1,0,100,0,0
81236,-100.543841639428,4,1,0,100,0,0
81318,-100.048023051065,4,1,0,100,0,0
81929,-83.3666800053355,4,1,0,100,0,0
82207,-100.048023051065,4,1,0,100,0,1
94679,-50,4,1,0,100,0,1
95096,-142.955169258921,4,1,0,100,0,0
96402,-100,4,1,0,100,0,0
96652,-142.857142857143,4,1,0,100,0,0
99957,-100,4,1,0,100,0,0
100207,-142.857142857143,4,1,0,100,0,0
103513,-100,4,1,0,100,0,0
103763,-142.857142857143,4,1,0,100,0,0
107096,226.415094339622,4,1,0,100,1,0
107096,-100,4,1,0,100,0,0
107346,-142.857142857143,4,1,0,100,0,0
107548,235.294117647059,4,1,0,100,1,8
107783,260.869565217392,4,1,0,100,1,8
108043,272.727272727273,4,1,0,100,1,0
108588,285.714285714286,4,1,0,100,1,8
108873,292.682926829269,4,1,0,100,1,8
109165,307.692307692309,4,1,0,100,1,0
109472,348.837209302328,4,1,0,100,1,8
109820,384.615384615387,4,1,0,100,1,8
110204,425.531914893621,4,1,0,100,1,8
110629,480.000000000005,4,1,0,100,1,0
111109,446.096654275098,4,1,0,100,1,8
111781,300,4,1,0,100,1,0
117743,-76.9230769230769,4,1,0,100,0,0
122543,-100,4,1,0,100,0,0
127343,-76.9230769230769,4,1,0,100,0,0
132178,222.222222222222,4,1,0,100,1,0
132233,-100,4,1,0,70,0,0
132622,-125,4,1,0,70,0,0
140155,222.222222222222,4,1,0,100,1,0
140155,-125,4,1,0,100,0,0
142803,-121.621654492339,4,1,0,100,0,0
143026,-115.384571005934,4,1,0,100,0,0
143248,-109.756110945867,4,1,0,100,0,0
143359,-107.142895408177,4,1,0,100,0,0
143460,-104.166666666667,4,1,0,100,0,0
143516,-103.053474447891,4,1,0,100,0,0
143571,-102.272704028931,4,1,0,100,0,0
143692,-100,4,1,0,100,0,0
147372,-142.857142857143,4,1,0,100,0,0
149011,-125,4,1,0,100,0,0
149914,-121.621654492339,4,1,0,100,0,0
150137,-115.384571005934,4,1,0,100,0,0
150359,-109.756110945867,4,1,0,100,0,0
150470,-107.142895408177,4,1,0,100,0,0
150571,-104.166666666667,4,1,0,100,0,0
150627,-103.053474447891,4,1,0,100,0,0
150682,-102.272704028931,4,1,0,100,0,0
150803,-100,4,1,0,100,0,0
154483,-142.857142857143,4,1,0,100,0,0
156122,-125,4,1,0,100,0,0
157900,-100,4,1,0,100,0,0
163377,-142.857142857143,4,1,0,100,0,0
164988,-117.647058823529,4,1,0,100,0,0
165904,-166.666666666667,4,1,0,70,0,0
172127,-142.857142857143,4,1,0,100,0,0
175043,-142.857142857143,4,1,0,100,0,0
175154,-140.847847704039,4,1,0,100,0,0
175265,-138.894290333513,4,1,0,100,0,0
175487,-135.145179709303,4,1,0,100,0,0
175599,-133.345601128637,4,1,0,100,0,0
175710,-131.593318744021,4,1,0,100,0,0
175821,-129.886492194471,4,1,0,100,0,0
175932,-128.223375377778,4,1,0,100,0,0
176043,-126.602310492166,4,1,0,100,0,0
176154,-125.021722524289,4,1,0,100,0,0
176265,-123.480114145018,4,1,0,100,0,0
176376,-121.975912196859,4,1,0,100,0,0
176487,-120.508061989347,4,1,0,100,0,0
176599,-119.075119730033,4,1,0,100,0,0
176710,-117.675854797409,4,1,0,100,0,0
176821,-116.309093742803,4,1,0,100,0,0
176932,-114.973717008292,4,1,0,100,0,0
177043,-113.668655868144,4,1,0,100,0,0
177154,-112.392889576234,4,1,0,100,0,0
177265,-111.145319170456,4,1,0,100,0,0
177376,-109.925261814492,4,1,0,100,0,0
177487,-108.731699095896,4,1,0,100,0,0
177543,-108.144584984341,4,1,0,100,0,0
177599,-107.563777252628,4,1,0,100,0,0
177654,-106.98917483529,4,1,0,100,0,0
177710,-106.420678814942,4,1,0,100,0,0
177766,-105.858192365507,4,1,0,100,0,0
177821,-105.301620697244,4,1,0,100,0,0
177877,-104.750871003492,4,1,0,100,0,0
177932,-104.205852409083,4,1,0,100,0,0
177988,-103.666475920351,4,1,0,100,0,0
178043,-103.132548013358,4,1,0,100,0,0
178099,-102.604197127288,4,1,0,100,0,0
178154,-102.081232161305,4,1,0,100,0,0
178210,-101.56357117829,4,1,0,100,0,0
178265,-101.051133894773,4,1,0,100,0,0
178321,-100.543841639428,4,1,0,100,0,0
178377,-100.041617312802,4,1,0,100,0,0
179016,-83.36223224051,4,1,0,100,0,0
179266,-100.041617312802,4,1,0,100,0,1
193043,-100.041617312802,4,1,0,100,0,0
193488,-100.041617312802,4,1,0,100,0,1
205960,-50,4,1,0,100,0,1
206377,-142.955169258921,4,1,0,100,0,1
206821,-142.955169258921,4,1,0,100,0,0
207710,-100.041617312802,4,1,0,100,0,1
208154,-142.942091299972,4,1,0,100,0,0

[HitObjects]
256,96,14652,5,4,0:0:0:0:
256,96,15541,1,4,0:0:0:0:
256,96,16429,1,4,0:0:0:0:
256,96,16874,1,4,0:0:0:0:
256,96,17318,1,4,0:0:0:0:
256,96,17541,1,4,0:0:0:0:
256,192,17763,1,8,0:0:0:0:
256,192,17874,1,0,0:0:0:0:
256,192,17985,1,8,0:0:0:0:
256,192,18041,1,8,0:0:0:0:
256,192,18096,1,8,0:0:0:0:
256,192,18207,1,0,0:0:0:0:
256,192,18429,1,8,0:0:0:0:
256,192,18541,1,0,0:0:0:0:
256,192,18652,1,8,0:0:0:0:
256,192,18763,1,0,0:0:0:0:
256,192,18818,1,0,0:0:0:0:
256,192,18874,1,0,0:0:0:0:
256,192,18985,1,8,0:0:0:0:
256,192,19096,1,0,0:0:0:0:
256,192,19207,1,0,0:0:0:0:
256,192,19318,1,8,0:0:0:0:
256,192,19429,1,0,0:0:0:0:
256,192,19541,1,8,0:0:0:0:
256,192,19596,1,8,0:0:0:0:
256,192,19652,1,8,0:0:0:0:
256,192,19763,1,0,0:0:0:0:
256,192,19985,1,8,0:0:0:0:
256,192,20096,1,0,0:0:0:0:
256,192,20152,1,0,0:0:0:0:
256,192,20207,1,8,0:0:0:0:
256,192,20318,1,8,0:0:0:0:
256,192,20429,1,0,0:0:0:0:
256,192,20485,1,0,0:0:0:0:
256,192,20541,1,0,0:0:0:0:
256,192,20652,1,8,0:0:0:0:
256,192,20763,1,8,0:0:0:0:
256,192,20874,1,0,0:0:0:0:
256,192,20985,1,8,0:0:0:0:
256,192,21096,1,0,0:0:0:0:
256,192,21152,1,0,0:0:0:0:
256,192,21207,1,0,0:0:0:0:
256,192,21318,1,8,0:0:0:0:
256,192,21429,1,0,0:0:0:0:
256,192,21541,1,8,0:0:0:0:
256,192,21652,1,8,0:0:0:0:
256,192,21763,1,0,0:0:0:0:
256,192,21985,1,8,0:0:0:0:
256,192,22207,1,0,0:0:0:0:
256,192,22429,1,8,0:0:0:0:
256,192,22541,1,8,0:0:0:0:
256,192,22652,1,0,0:0:0:0:
256,192,22763,1,8,0:0:0:0:
256,192,22874,1,0,0:0:0:0:
256,192,23096,1,8,0:0:0:0:
256,192,23318,1,8,0:0:0:0:
256,96,23541,1,4,0:0:0:0:
256,96,23985,1,4,0:0:0:0:
256,96,24429,1,4,0:0:0:0:
256,96,24652,1,4,0:0:0:0:
256,192,24874,1,8,0:0:0:0:
256,192,24985,1,0,0:0:0:0:
256,192,25096,1,8,0:0:0:0:
256,192,25152,1,8,0:0:0:0:
256,192,25207,1,8,0:0:0:0:
256,192,25318,1,0,0:0:0:0:
256,192,25541,1,8,0:0:0:0:
256,192,25652,1,0,0:0:0:0:
256,192,25763,1,8,0:0:0:0:
256,192,25874,1,0,0:0:0:0:
256,192,25929,1,0,0:0:0:0:
256,192,25985,1,0,0:0:0:0:
256,192,26096,1,8,0:0:0:0:
256,192,26207,1,0,0:0:0:0:
256,192,26318,1,0,0:0:0:0:
256,192,26429,1,8,0:0:0:0:
256,192,26485,1,8,0:0:0:0:
256,192,26541,1,0,0:0:0:0:
256,192,26652,1,8,0:0:0:0:
256,192,26763,1,0,0:0:0:0:
256,192,26874,1,8,0:0:0:0:
256,192,27096,1,8,0:0:0:0:
256,192,27207,1,0,0:0:0:0:
256,192,27263,1,0,0:0:0:0:
256,192,27318,1,8,0:0:0:0:
256,192,27429,1,8,0:0:0:0:
256,192,27541,1,0,0:0:0:0:
256,192,27652,1,8,0:0:0:0:
256,192,27707,1,8,0:0:0:0:
256,192,27763,1,8,0:0:0:0:
256,192,27874,1,0,0:0:0:0:
256,192,27985,1,8,0:0:0:0:
256,192,28096,1,0,0:0:0:0:
256,192,28152,1,0,0:0:0:0:
256,192,28207,1,0,0:0:0:0:
256,192,28318,1,8,0:0:0:0:
256,192,28429,1,8,0:0:0:0:
256,192,28541,1,0,0:0:0:0:
256,192,28652,1,8,0:0:0:0:
256,192,28763,1,8,0:0:0:0:
256,192,28874,1,0,0:0:0:0:
256,192,29096,1,0,0:0:0:0:
256,192,29318,1,8,0:0:0:0:
256,192,29541,1,8,0:0:0:0:
256,192,29763,1,0,0:0:0:0:
256,192,29985,1,0,0:0:0:0:
256,192,30207,1,8,0:0:0:0:
256,192,30429,1,0,0:0:0:0:
256,192,30652,1,4,0:0:0:0:
256,192,30874,1,8,0:0:0:0:
256,192,30985,1,8,0:0:0:0:
256,192,31096,1,4,0:0:0:0:
256,192,31318,1,8,0:0:0:0:
256,192,31541,1,4,0:0:0:0:
256,192,31763,1,4,0:0:0:0:
256,192,31985,1,4,0:0:0:0:
256,192,32429,1,8,0:0:0:0:
256,192,32652,1,8,0:0:0:0:
256,192,32763,1,8,0:0:0:0:
256,192,32874,1,0,0:0:0:0:
256,192,32929,1,0,0:0:0:0:
256,192,32985,1,0,0:0:0:0:
256,192,33096,1,8,0:0:0:0:
256,192,33207,1,8,0:0:0:0:
256,192,33318,1,0,0:0:0:0:
256,192,33541,1,8,0:0:0:0:
256,192,33652,1,0,0:0:0:0:
256,192,33763,1,8,0:0:0:0:
256,192,33818,1,8,0:0:0:0:
256,192,33874,1,0,0:0:0:0:
256,192,33985,1,8,0:0:0:0:
256,192,34096,1,8,0:0:0:0:
256,192,34207,1,0,0:0:0:0:
256,192,34429,1,8,0:0:0:0:
256,192,34541,1,8,0:0:0:0:
256,192,34652,1,0,0:0:0:0:
256,192,34707,1,0,0:0:0:0:
256,192,34763,1,0,0:0:0:0:
256,192,34874,1,8,0:0:0:0:
256,192,34985,1,8,0:0:0:0:
256,192,35096,1,0,0:0:0:0:
256,192,35152,1,0,0:0:0:0:
256,192,35207,1,0,0:0:0:0:
256,96,35318,1,12,0:0:0:0:
256,96,35541,1,12,0:0:0:0:
256,192,35985,1,8,0:0:0:0:
256,192,36207,1,8,0:0:0:0:
256,192,36318,1,8,0:0:0:0:
256,192,36429,1,0,0:0:0:0:
256,192,36485,1,0,0:0:0:0:
256,192,36541,1,0,0:0:0:0:
256,192,36652,1,8,0:0:0:0:
256,192,36763,1,8,0:0:0:0:
256,192,36874,1,0,0:0:0:0:
256,192,37096,1,8,0:0:0:0:
256,192,37207,1,0,0:0:0:0:
256,192,37263,1,0,0:0:0:0:
256,192,37318,1,8,0:0:0:0:
256,192,37429,1,0,0:0:0:0:
256,192,37541,1,8,0:0:0:0:
256,192,37596,1,8,0:0:0:0:
256,192,37652,1,8,0:0:0:0:
256,192,37763,1,0,0:0:0:0:
256,192,37985,1,0,0:0:0:0:
256,192,38207,1,8,0:0:0:0:
256,192,38318,1,0,0:0:0:0:
256,192,38429,1,8,0:0:0:0:
256,192,38541,2,0,L|257:256,7,53.9999983520508
256,96,39541,1,4,0:0:0:0:
256,192,45763,12,0,46429,0:0:0:0:
256,192,46652,5,4,0:0:0:0:
256,192,46985,1,0,0:0:0:0:
256,192,47096,1,8,0:0:0:0:
256,192,47318,1,0,0:0:0:0:
256,192,47541,1,8,0:0:0:0:
256,192,47652,1,0,0:0:0:0:
256,192,47874,1,0,0:0:0:0:
256,192,47985,1,8,0:0:0:0:
256,192,48207,1,0,0:0:0:0:
256,192,48429,1,8,0:0:0:0:
256,192,48763,1,0,0:0:0:0:
256,192,48874,1,8,0:0:0:0:
256,192,49096,1,0,0:0:0:0:
256,192,49318,1,8,0:0:0:0:
256,192,49541,1,0,0:0:0:0:
256,192,49652,1,0,0:0:0:0:
256,192,49763,1,8,0:0:0:0:
256,192,49985,1,0,0:0:0:0:
256,192,50207,1,8,0:0:0:0:
256,192,50541,1,0,0:0:0:0:
256,192,50652,1,8,0:0:0:0:
256,192,50874,1,0,0:0:0:0:
256,192,51096,1,8,0:0:0:0:
256,192,51207,1,0,0:0:0:0:
256,192,51429,1,0,0:0:0:0:
256,192,51541,1,8,0:0:0:0:
256,192,51763,1,0,0:0:0:0:
256,192,51985,1,8,0:0:0:0:
256,192,52318,1,0,0:0:0:0:
256,192,52429,1,8,0:0:0:0:
256,192,52652,1,0,0:0:0:0:
256,192,52874,1,8,0:0:0:0:
256,192,52985,1,0,0:0:0:0:
256,192,53096,1,0,0:0:0:0:
256,192,53207,1,0,0:0:0:0:
256,192,53318,1,8,0:0:0:0:
256,96,53763,1,4,0:0:0:0:
256,192,53985,1,8,0:0:0:0:
256,192,54096,1,0,0:0:0:0:
256,192,54318,1,0,0:0:0:0:
256,192,54541,1,0,0:0:0:0:
256,192,54652,1,8,0:0:0:0:
256,192,54874,1,8,0:0:0:0:
256,192,54985,1,0,0:0:0:0:
256,192,55207,1,0,0:0:0:0:
256,192,55318,1,0,0:0:0:0:
256,192,55429,1,0,0:0:0:0:
256,192,55541,1,8,0:0:0:0:
256,192,55763,1,8,0:0:0:0:
256,192,55874,1,0,0:0:0:0:
256,192,56096,1,0,0:0:0:0:
256,192,56318,1,8,0:0:0:0:
256,192,56429,1,8,0:0:0:0:
256,192,56652,1,8,0:0:0:0:
256,192,56763,1,0,0:0:0:0:
256,192,56985,1,8,0:0:0:0:
256,192,57096,1,0,0:0:0:0:
256,192,57207,1,0,0:0:0:0:
256,192,57318,1,8,0:0:0:0:
256,192,57541,1,8,0:0:0:0:
256,192,57652,1,0,0:0:0:0:
256,192,57874,1,0,0:0:0:0:
256,192,58096,1,0,0:0:0:0:
256,192,58207,1,8,0:0:0:0:
256,192,58429,1,8,0:0:0:0:
256,192,58541,1,0,0:0:0:0:
256,192,58763,1,0,0:0:0:0:
256,192,58874,1,8,0:0:0:0:
256,192,58985,1,0,0:0:0:0:
256,192,59096,1,8,0:0:0:0:
256,192,59318,1,8,0:0:0:0:
256,192,59429,1,0,0:0:0:0:
256,192,59652,1,0,0:0:0:0:
256,192,59874,1,8,0:0:0:0:
256,192,59985,1,8,0:0:0:0:
256,192,60207,1,8,0:0:0:0:
256,192,60318,1,0,0:0:0:0:
256,192,60429,1,0,0:0:0:0:
256,192,60541,1,8,0:0:0:0:
256,192,60652,1,8,0:0:0:0:
256,192,60763,1,0,0:0:0:0:
256,192,60874,1,8,0:0:0:0:
256,192,61096,1,8,0:0:0:0:
256,192,61207,1,0,0:0:0:0:
256,192,61429,1,0,0:0:0:0:
256,192,61652,1,0,0:0:0:0:
256,192,61763,1,8,0:0:0:0:
256,192,61985,1,8,0:0:0:0:
256,192,62096,1,0,0:0:0:0:
256,192,62318,1,0,0:0:0:0:
256,192,62429,1,0,0:0:0:0:
256,192,62541,1,0,0:0:0:0:
256,192,62652,1,8,0:0:0:0:
256,192,62874,1,8,0:0:0:0:
256,192,62985,1,0,0:0:0:0:
256,192,63207,1,0,0:0:0:0:
256,192,63429,1,8,0:0:0:0:
256,192,63541,1,8,0:0:0:0:
256,192,63763,1,8,0:0:0:0:
256,192,63874,1,0,0:0:0:0:
256,192,64096,1,8,0:0:0:0:
256,192,64207,1,0,0:0:0:0:
256,192,64318,1,0,0:0:0:0:
256,192,64429,1,8,0:0:0:0:
256,192,64652,1,8,0:0:0:0:
256,192,64763,1,0,0:0:0:0:
256,192,64985,1,0,0:0:0:0:
256,192,65207,1,0,0:0:0:0:
256,192,65318,1,8,0:0:0:0:
256,192,65541,1,8,0:0:0:0:
256,192,65652,1,0,0:0:0:0:
256,192,65874,1,0,0:0:0:0:
256,192,65985,1,8,0:0:0:0:
256,192,66096,1,0,0:0:0:0:
256,192,66207,1,8,0:0:0:0:
256,192,66429,1,8,0:0:0:0:
256,192,66541,1,0,0:0:0:0:
256,192,66763,1,0,0:0:0:0:
256,192,66985,1,0,0:0:0:0:
256,192,67096,1,8,0:0:0:0:
256,192,67318,1,8,0:0:0:0:
256,192,67429,1,0,0:0:0:0:
256,192,67541,1,8,0:0:0:0:
256,96,67985,1,12,0:0:0:0:
256,192,68207,1,8,0:0:0:0:
256,192,68429,1,0,0:0:0:0:
256,192,68541,1,8,0:0:0:0:
256,192,68763,1,0,0:0:0:0:
256,192,68985,1,0,0:0:0:0:
256,192,69096,1,8,0:0:0:0:
256,192,69318,1,0,0:0:0:0:
256,192,69541,1,0,0:0:0:0:
256,192,69652,1,8,0:0:0:0:
256,192,69874,1,8,0:0:0:0:
256,192,69985,1,8,0:0:0:0:
256,192,70207,1,0,0:0:0:0:
256,192,70318,1,8,0:0:0:0:
256,192,70541,1,8,0:0:0:0:
256,192,70763,1,8,0:0:0:0:
256,192,70874,1,0,0:0:0:0:
256,192,71096,1,8,0:0:0:0:
256,192,71318,1,0,0:0:0:0:
256,192,71541,1,8,0:0:0:0:
256,192,71763,1,8,0:0:0:0:
256,192,71985,1,0,0:0:0:0:
256,192,72096,1,8,0:0:0:0:
256,192,72318,1,0,0:0:0:0:
256,192,72541,1,0,0:0:0:0:
256,192,72652,1,8,0:0:0:0:
256,192,72874,1,0,0:0:0:0:
256,192,73096,1,0,0:0:0:0:
256,192,73207,1,8,0:0:0:0:
256,192,73429,1,8,0:0:0:0:
256,192,73541,1,8,0:0:0:0:
256,192,73763,1,0,0:0:0:0:
256,192,73874,1,8,0:0:0:0:
256,192,74096,1,0,0:0:0:0:
256,192,74318,1,8,0:0:0:0:
256,192,74429,1,8,0:0:0:0:
256,192,74652,1,8,0:0:0:0:
256,192,74874,1,0,0:0:0:0:
256,192,74985,1,0,0:0:0:0:
256,96,75096,1,12,0:0:0:0:
256,192,75318,1,8,0:0:0:0:
256,192,75541,1,0,0:0:0:0:
256,192,75652,1,8,0:0:0:0:
256,192,75874,1,0,0:0:0:0:
256,192,76096,1,0,0:0:0:0:
256,192,76207,1,8,0:0:0:0:
256,192,76318,1,8,0:0:0:0:
256,192,76429,1,0,0:0:0:0:
256,192,76652,1,0,0:0:0:0:
256,192,76763,1,8,0:0:0:0:
256,192,76985,1,8,0:0:0:0:
256,192,77096,1,8,0:0:0:0:
256,192,77318,1,0,0:0:0:0:
256,192,77429,1,8,0:0:0:0:
256,192,77652,1,8,0:0:0:0:
256,192,77874,1,8,0:0:0:0:
256,192,77985,1,0,0:0:0:0:
256,192,78096,1,0,0:0:0:0:
256,192,78207,1,8,0:0:0:0:
256,192,78429,1,0,0:0:0:0:
256,192,78652,1,8,0:0:0:0:
256,192,78763,1,0,0:0:0:0:
256,192,78874,1,8,0:0:0:0:
256,192,78985,1,0,0:0:0:0:
256,192,79096,1,8,0:0:0:0:
256,192,79207,1,8,0:0:0:0:
256,192,79318,1,0,0:0:0:0:
256,192,79429,1,8,0:0:0:0:
256,192,79541,1,0,0:0:0:0:
256,192,79652,1,8,0:0:0:0:
256,192,79763,1,8,0:0:0:0:
256,192,79874,1,0,0:0:0:0:
256,192,79985,1,8,0:0:0:0:
256,192,80096,1,0,0:0:0:0:
256,192,80207,1,8,0:0:0:0:
256,192,80318,1,8,0:0:0:0:
256,192,80429,1,0,0:0:0:0:
256,192,80541,1,8,0:0:0:0:
256,192,80652,1,8,0:0:0:0:
256,192,80763,1,0,0:0:0:0:
256,192,80874,1,0,0:0:0:0:
256,192,80985,1,8,0:0:0:0:
256,192,81096,1,0,0:0:0:0:
256,192,81207,1,8,0:0:0:0:
256,96,81985,1,12,0:0:0:0:
256,96,82207,1,4,0:0:0:0:
256,192,82429,1,8,0:0:0:0:
256,192,82652,1,8,0:0:0:0:
256,192,82763,1,8,0:0:0:0:
256,192,82874,1,0,0:0:0:0:
256,192,82985,1,8,0:0:0:0:
256,192,83096,1,0,0:0:0:0:
256,192,83207,1,8,0:0:0:0:
256,192,83263,1,8,0:0:0:0:
256,192,83318,1,0,0:0:0:0:
256,192,83429,1,0,0:0:0:0:
256,192,83541,1,8,0:0:0:0:
256,192,83652,1,0,0:0:0:0:
256,192,83763,1,8,0:0:0:0:
256,192,83818,1,8,0:0:0:0:
256,192,83874,1,8,0:0:0:0:
256,192,84096,1,0,0:0:0:0:
256,192,84207,1,8,0:0:0:0:
256,192,84318,1,0,0:0:0:0:
256,192,84429,1,8,0:0:0:0:
256,192,84485,1,8,0:0:0:0:
256,192,84541,1,8,0:0:0:0:
256,192,84652,1,0,0:0:0:0:
256,192,84763,1,8,0:0:0:0:
256,192,84874,1,0,0:0:0:0:
256,192,84929,1,0,0:0:0:0:
256,192,84985,1,0,0:0:0:0:
256,192,85096,1,8,0:0:0:0:
256,192,85207,1,0,0:0:0:0:
256,192,85318,1,8,0:0:0:0:
256,192,85374,1,8,0:0:0:0:
256,192,85429,1,8,0:0:0:0:
256,192,85541,1,0,0:0:0:0:
256,192,85652,1,0,0:0:0:0:
256,192,85763,1,8,0:0:0:0:
256,192,85985,1,8,0:0:0:0:
256,192,86207,1,0,0:0:0:0:
256,192,86318,1,8,0:0:0:0:
256,192,86429,1,0,0:0:0:0:
256,192,86541,1,8,0:0:0:0:
256,192,86652,1,0,0:0:0:0:
256,192,86763,1,8,0:0:0:0:
256,192,86818,1,8,0:0:0:0:
256,192,86874,1,8,0:0:0:0:
256,192,86985,1,0,0:0:0:0:
256,192,87096,1,8,0:0:0:0:
256,192,87207,1,0,0:0:0:0:
256,192,87318,1,0,0:0:0:0:
256,192,87374,1,0,0:0:0:0:
256,192,87429,1,8,0:0:0:0:
256,192,87652,1,8,0:0:0:0:
256,192,87763,1,8,0:0:0:0:
256,192,87874,1,0,0:0:0:0:
256,192,87985,1,8,0:0:0:0:
256,192,88096,1,0,0:0:0:0:
256,192,88207,1,0,0:0:0:0:
256,192,88318,1,8,0:0:0:0:
256,192,88429,1,0,0:0:0:0:
256,192,88485,1,0,0:0:0:0:
256,192,88541,1,8,0:0:0:0:
256,192,88652,1,8,0:0:0:0:
256,192,88763,1,0,0:0:0:0:
256,192,88874,1,8,0:0:0:0:
256,192,88929,1,8,0:0:0:0:
256,192,88985,1,8,0:0:0:0:
256,192,89096,1,0,0:0:0:0:
256,192,89318,1,8,0:0:0:0:
256,192,89541,1,8,0:0:0:0:
256,192,89763,1,8,0:0:0:0:
256,192,89874,1,8,0:0:0:0:
256,192,89985,1,0,0:0:0:0:
256,192,90096,1,8,0:0:0:0:
256,192,90207,1,0,0:0:0:0:
256,192,90318,1,8,0:0:0:0:
256,192,90374,1,8,0:0:0:0:
256,192,90429,1,0,0:0:0:0:
256,192,90541,1,8,0:0:0:0:
256,192,90652,1,0,0:0:0:0:
256,192,90763,1,0,0:0:0:0:
256,192,90874,1,8,0:0:0:0:
256,192,90929,1,8,0:0:0:0:
256,192,90985,1,8,0:0:0:0:
256,192,91207,1,0,0:0:0:0:
256,192,91318,1,8,0:0:0:0:
256,192,91429,1,0,0:0:0:0:
256,192,91541,1,8,0:0:0:0:
256,192,91596,1,8,0:0:0:0:
256,192,91652,1,8,0:0:0:0:
256,192,91763,1,0,0:0:0:0:
256,192,91874,1,8,0:0:0:0:
256,192,91985,1,0,0:0:0:0:
256,192,92096,1,8,0:0:0:0:
256,192,92152,1,8,0:0:0:0:
256,192,92207,1,8,0:0:0:0:
256,192,92318,1,0,0:0:0:0:
256,192,92429,1,8,0:0:0:0:
256,192,92541,1,0,0:0:0:0:
256,192,92596,1,0,0:0:0:0:
256,192,92652,1,8,0:0:0:0:
256,192,92707,1,8,0:0:0:0:
256,192,92763,1,0,0:0:0:0:
256,192,92874,1,8,0:0:0:0:
256,192,93096,1,8,0:0:0:0:
256,192,93207,1,0,0:0:0:0:
256,192,93318,1,8,0:0:0:0:
256,192,93429,1,0,0:0:0:0:
256,192,93541,1,8,0:0:0:0:
256,192,93596,1,8,0:0:0:0:
256,192,93652,1,8,0:0:0:0:
256,192,93763,1,0,0:0:0:0:
256,192,93874,1,8,0:0:0:0:
256,192,93929,1,8,0:0:0:0:
256,192,93985,1,0,0:0:0:0:
256,192,94096,1,8,0:0:0:0:
256,192,94207,1,0,0:0:0:0:
256,192,94318,1,8,0:0:0:0:
256,192,94374,1,8,0:0:0:0:
256,192,94429,1,0,0:0:0:0:
256,192,94485,1,0,0:0:0:0:
256,192,94541,1,8,0:0:0:0:
256,192,94652,1,0,0:0:0:0:
256,192,94707,12,0,95429,0:0:0:0:
256,192,95652,5,8,0:0:0:0:
256,192,95763,1,8,0:0:0:0:
256,192,95985,1,0,0:0:0:0:
256,192,96207,1,8,0:0:0:0:
256,192,96429,5,4,0:0:0:0:
256,192,96541,12,0,99874,0:0:0:0:
256,192,99985,5,4,0:0:0:0:
256,192,100096,12,0,103429,0:0:0:0:
256,192,103541,5,4,0:0:0:0:
256,192,103652,12,0,106985,0:0:0:0:
256,192,107096,5,4,0:0:0:0:
256,192,107209,12,0,111666,0:0:0:0:
256,192,111781,5,0,0:0:0:0:
256,192,112081,1,8,0:0:0:0:
256,192,112381,1,0,0:0:0:0:
256,192,112681,1,0,0:0:0:0:
256,192,112831,1,8,0:0:0:0:
256,192,112981,1,4,0:0:0:0:
256,192,113281,1,8,0:0:0:0:
256,192,113431,1,0,0:0:0:0:
256,192,113581,1,8,0:0:0:0:
256,192,113881,1,0,0:0:0:0:
256,192,114181,1,8,0:0:0:0:
256,192,114481,1,0,0:0:0:0:
256,192,114781,1,8,0:0:0:0:
256,192,114931,1,0,0:0:0:0:
256,192,115081,1,8,0:0:0:0:
256,192,115231,1,8,0:0:0:0:
256,192,115381,1,0,0:0:0:0:
256,192,115681,1,0,0:0:0:0:
256,192,115831,1,0,0:0:0:0:
256,192,115981,1,8,0:0:0:0:
256,192,116281,1,0,0:0:0:0:
256,192,116581,1,8,0:0:0:0:
256,192,116881,1,0,0:0:0:0:
256,192,117181,1,8,0:0:0:0:
256,192,117481,1,8,0:0:0:0:
256,192,117781,1,8,0:0:0:0:
256,192,117931,1,0,0:0:0:0:
256,192,118006,1,0,0:0:0:0:
256,192,118081,1,8,0:0:0:0:
256,192,118156,1,8,0:0:0:0:
256,192,118231,1,0,0:0:0:0:
256,192,118381,1,8,0:0:0:0:
256,192,118681,1,8,0:0:0:0:
256,192,118831,1,0,0:0:0:0:
256,192,118906,1,0,0:0:0:0:
256,192,118981,1,8,0:0:0:0:
256,192,119131,1,0,0:0:0:0:
256,192,119206,1,0,0:0:0:0:
256,192,119281,1,8,0:0:0:0:
256,192,119356,1,8,0:0:0:0:
256,192,119431,1,0,0:0:0:0:
256,192,119581,1,8,0:0:0:0:
256,192,119731,1,0,0:0:0:0:
256,192,119881,1,0,0:0:0:0:
256,192,120181,1,8,0:0:0:0:
256,192,120331,1,0,0:0:0:0:
256,192,120406,1,0,0:0:0:0:
256,192,120481,1,8,0:0:0:0:
256,192,120556,1,0,0:0:0:0:
256,192,120631,1,0,0:0:0:0:
256,192,120781,1,8,0:0:0:0:
256,192,121081,1,8,0:0:0:0:
256,192,121231,1,0,0:0:0:0:
256,192,121306,1,0,0:0:0:0:
256,192,121381,1,8,0:0:0:0:
256,192,121531,1,8,0:0:0:0:
256,192,121606,1,0,0:0:0:0:
256,192,121681,1,8,0:0:0:0:
256,192,121756,1,8,0:0:0:0:
256,192,121831,1,0,0:0:0:0:
256,192,121981,1,8,0:0:0:0:
256,192,122131,1,0,0:0:0:0:
256,192,122281,1,8,0:0:0:0:
256,192,122581,1,4,0:0:0:0:
256,192,122881,1,8,0:0:0:0:
256,192,123031,1,0,0:0:0:0:
256,192,123181,1,8,0:0:0:0:
256,192,123481,1,0,0:0:0:0:
256,192,123781,1,8,0:0:0:0:
256,192,124081,1,0,0:0:0:0:
256,192,124231,1,0,0:0:0:0:
256,192,124381,1,8,0:0:0:0:
256,192,124681,1,8,0:0:0:0:
256,192,124981,1,0,0:0:0:0:
256,192,125281,1,8,0:0:0:0:
256,192,125431,1,0,0:0:0:0:
256,192,125581,1,8,0:0:0:0:
256,192,125731,1,8,0:0:0:0:
256,192,125881,1,0,0:0:0:0:
256,192,126031,1,0,0:0:0:0:
256,192,126181,1,8,0:0:0:0:
256,192,126481,1,0,0:0:0:0:
256,192,126781,1,8,0:0:0:0:
256,192,127081,1,8,0:0:0:0:
256,192,127381,1,8,0:0:0:0:
256,192,127531,1,0,0:0:0:0:
256,192,127681,1,8,0:0:0:0:
256,192,127756,1,0,0:0:0:0:
256,192,127831,1,0,0:0:0:0:
256,192,127906,1,0,0:0:0:0:
256,192,127981,1,8,0:0:0:0:
256,192,128281,1,8,0:0:0:0:
256,192,128431,1,8,0:0:0:0:
256,192,128506,1,8,0:0:0:0:
256,192,128581,1,0,0:0:0:0:
256,192,128731,1,8,0:0:0:0:
256,192,128881,1,0,0:0:0:0:
256,192,128956,1,0,0:0:0:0:
256,192,129031,1,0,0:0:0:0:
256,192,129106,1,0,0:0:0:0:
256,192,129181,1,8,0:0:0:0:
256,192,129331,1,0,0:0:0:0:
256,192,129481,1,0,0:0:0:0:
256,192,129781,1,8,0:0:0:0:
256,192,129931,1,0,0:0:0:0:
256,192,130006,1,0,0:0:0:0:
256,192,130081,1,8,0:0:0:0:
256,192,130156,1,8,0:0:0:0:
256,192,130231,1,0,0:0:0:0:
256,192,130381,1,8,0:0:0:0:
256,192,130681,1,8,0:0:0:0:
256,192,130831,1,0,0:0:0:0:
256,192,130906,1,0,0:0:0:0:
256,192,130981,1,8,0:0:0:0:
256,192,131131,1,0,0:0:0:0:
256,192,131281,1,8,0:0:0:0:
256,192,131356,1,8,0:0:0:0:
256,192,131431,1,0,0:0:0:0:
256,192,131506,1,0,0:0:0:0:
256,192,131581,1,8,0:0:0:0:
256,192,131731,1,0,0:0:0:0:
256,192,131881,1,8,0:0:0:0:
256,192,132178,1,4,0:0:0:0:
256,192,132289,12,0,139955,0:0:0:0:
256,96,140155,5,4,0:0:0:0:
256,96,141043,1,4,0:0:0:0:
256,96,141932,1,4,0:0:0:0:
256,96,142377,1,4,0:0:0:0:
256,96,142821,1,4,0:0:0:0:
256,96,143043,1,4,0:0:0:0:
256,192,143266,1,8,0:0:0:0:
256,192,143377,1,0,0:0:0:0:
256,192,143488,1,8,0:0:0:0:
256,192,143544,1,8,0:0:0:0:
256,192,143599,1,8,0:0:0:0:
256,192,143710,1,0,0:0:0:0:
256,192,143932,1,8,0:0:0:0:
256,192,144044,1,0,0:0:0:0:
256,192,144155,1,8,0:0:0:0:
256,192,144266,1,0,0:0:0:0:
256,192,144321,1,0,0:0:0:0:
256,192,144377,1,0,0:0:0:0:
256,192,144488,1,8,0:0:0:0:
256,192,144599,1,0,0:0:0:0:
256,192,144710,1,0,0:0:0:0:
256,192,144821,1,8,0:0:0:0:
256,192,144932,1,0,0:0:0:0:
256,192,145044,1,8,0:0:0:0:
256,192,145099,1,8,0:0:0:0:
256,192,145155,1,8,0:0:0:0:
256,192,145266,1,0,0:0:0:0:
256,192,145488,1,8,0:0:0:0:
256,192,145599,1,0,0:0:0:0:
256,192,145655,1,0,0:0:0:0:
256,192,145710,1,8,0:0:0:0:
256,192,145821,1,8,0:0:0:0:
256,192,145932,1,0,0:0:0:0:
256,192,145988,1,0,0:0:0:0:
256,192,146044,1,0,0:0:0:0:
256,192,146155,1,8,0:0:0:0:
256,192,146266,1,8,0:0:0:0:
256,192,146377,1,0,0:0:0:0:
256,192,146488,1,8,0:0:0:0:
256,192,146599,1,0,0:0:0:0:
256,192,146655,1,0,0:0:0:0:
256,192,146710,1,0,0:0:0:0:
256,192,146821,1,8,0:0:0:0:
256,192,146932,1,0,0:0:0:0:
256,192,147044,1,8,0:0:0:0:
256,192,147155,1,8,0:0:0:0:
256,192,147266,1,0,0:0:0:0:
256,192,147488,1,8,0:0:0:0:
256,192,147710,1,0,0:0:0:0:
256,192,147932,1,8,0:0:0:0:
256,192,148044,1,8,0:0:0:0:
256,192,148155,1,0,0:0:0:0:
256,192,148266,1,8,0:0:0:0:
256,192,148377,1,0,0:0:0:0:
256,192,148599,1,8,0:0:0:0:
256,192,148821,1,8,0:0:0:0:
256,96,149044,1,4,0:0:0:0:
256,96,149488,1,4,0:0:0:0:
256,96,149932,1,4,0:0:0:0:
256,96,150155,1,4,0:0:0:0:
256,192,150377,1,8,0:0:0:0:
256,192,150488,1,0,0:0:0:0:
256,192,150599,1,8,0:0:0:0:
256,192,150655,1,8,0:0:0:0:
256,192,150710,1,8,0:0:0:0:
256,192,150821,1,0,0:0:0:0:
256,192,151044,1,8,0:0:0:0:
256,192,151155,1,0,0:0:0:0:
256,192,151266,1,8,0:0:0:0:
256,192,151377,1,0,0:0:0:0:
256,192,151432,1,0,0:0:0:0:
256,192,151488,1,0,0:0:0:0:
256,192,151599,1,8,0:0:0:0:
256,192,151710,1,0,0:0:0:0:
256,192,151821,1,0,0:0:0:0:
256,192,151932,1,8,0:0:0:0:
256,192,151988,1,8,0:0:0:0:
256,192,152044,1,0,0:0:0:0:
256,192,152155,1,8,0:0:0:0:
256,192,152266,1,0,0:0:0:0:
256,192,152377,1,8,0:0:0:0:
256,192,152599,1,8,0:0:0:0:
256,192,152710,1,0,0:0:0:0:
256,192,152766,1,0,0:0:0:0:
256,192,152821,1,8,0:0:0:0:
256,192,152932,1,8,0:0:0:0:
256,192,153044,1,0,0:0:0:0:
256,192,153155,1,8,0:0:0:0:
256,192,153210,1,8,0:0:0:0:
256,192,153266,1,8,0:0:0:0:
256,192,153377,1,0,0:0:0:0:
256,192,153488,1,8,0:0:0:0:
256,192,153599,1,0,0:0:0:0:
256,192,153655,1,0,0:0:0:0:
256,192,153710,1,0,0:0:0:0:
256,192,153821,1,8,0:0:0:0:
256,192,153932,1,8,0:0:0:0:
256,192,154044,1,0,0:0:0:0:
256,192,154155,1,8,0:0:0:0:
256,192,154266,1,8,0:0:0:0:
256,192,154377,1,0,0:0:0:0:
256,192,154599,1,0,0:0:0:0:
256,192,154821,1,8,0:0:0:0:
256,192,155044,1,8,0:0:0:0:
256,192,155266,1,0,0:0:0:0:
256,192,155488,1,0,0:0:0:0:
256,192,155710,1,8,0:0:0:0:
256,192,155932,1,0,0:0:0:0:
256,192,156155,1,4,0:0:0:0:
256,192,156377,1,8,0:0:0:0:
256,192,156488,1,8,0:0:0:0:
256,192,156599,1,4,0:0:0:0:
256,192,156821,1,8,0:0:0:0:
256,192,157044,1,4,0:0:0:0:
256,192,157266,1,4,0:0:0:0:
256,192,157488,1,4,0:0:0:0:
256,192,157932,1,8,0:0:0:0:
256,192,158155,1,8,0:0:0:0:
256,192,158266,1,8,0:0:0:0:
256,192,158377,1,0,0:0:0:0:
256,192,158432,1,0,0:0:0:0:
256,192,158488,1,0,0:0:0:0:
256,192,158599,1,8,0:0:0:0:
256,192,158710,1,8,0:0:0:0:
256,192,158821,1,0,0:0:0:0:
256,192,159044,1,8,0:0:0:0:
256,192,159155,1,0,0:0:0:0:
256,192,159266,1,8,0:0:0:0:
256,192,159321,1,8,0:0:0:0:
256,192,159377,1,0,0:0:0:0:
256,192,159488,1,8,0:0:0:0:
256,192,159599,1,8,0:0:0:0:
256,192,159710,1,0,0:0:0:0:
256,192,159932,1,8,0:0:0:0:
256,192,160044,1,8,0:0:0:0:
256,192,160155,1,0,0:0:0:0:
256,192,160210,1,0,0:0:0:0:
256,192,160266,1,0,0:0:0:0:
256,192,160377,1,8,0:0:0:0:
256,192,160488,1,8,0:0:0:0:
256,192,160599,1,0,0:0:0:0:
256,192,160655,1,0,0:0:0:0:
256,192,160710,1,0,0:0:0:0:
256,96,160821,1,12,0:0:0:0:
256,96,161044,1,12,0:0:0:0:
256,192,161488,1,8,0:0:0:0:
256,192,161710,1,8,0:0:0:0:
256,192,161821,1,8,0:0:0:0:
256,192,161932,1,0,0:0:0:0:
256,192,161988,1,0,0:0:0:0:
256,192,162044,1,0,0:0:0:0:
256,192,162155,1,8,0:0:0:0:
256,192,162266,1,8,0:0:0:0:
256,192,162377,1,0,0:0:0:0:
256,192,162599,1,8,0:0:0:0:
256,192,162710,1,0,0:0:0:0:
256,192,162766,1,0,0:0:0:0:
256,192,162821,1,8,0:0:0:0:
256,192,162932,5,0,0:0:0:0:
256,192,163044,1,8,0:0:0:0:
256,192,163099,1,8,0:0:0:0:
256,192,163155,1,8,0:0:0:0:
256,192,163210,1,8,0:0:0:0:
256,192,163266,1,0,0:0:0:0:
256,192,163488,1,0,0:0:0:0:
256,192,163710,1,8,0:0:0:0:
256,192,163821,1,0,0:0:0:0:
256,192,163932,1,8,0:0:0:0:
256,192,164043,2,0,L|256:240,7,41.9999987182618
256,96,165043,1,4,0:0:0:0:
256,96,172154,5,12,0:0:0:0:
256,192,172377,1,8,0:0:0:0:
256,192,172599,1,0,0:0:0:0:
256,192,172710,1,8,0:0:0:0:
256,192,172932,1,0,0:0:0:0:
256,96,173043,1,12,0:0:0:0:
256,192,173266,1,8,0:0:0:0:
256,192,173488,1,0,0:0:0:0:
256,192,173710,1,0,0:0:0:0:
256,192,173821,1,0,0:0:0:0:
256,96,173932,1,12,0:0:0:0:
256,192,174154,1,8,0:0:0:0:
256,192,174377,1,0,0:0:0:0:
256,192,174488,1,8,0:0:0:0:
256,192,174710,1,0,0:0:0:0:
256,96,174821,1,12,0:0:0:0:
256,192,175043,1,0,0:0:0:0:
256,192,175154,1,0,0:0:0:0:
256,96,175266,1,12,0:0:0:0:
256,192,175488,1,0,0:0:0:0:
256,192,175599,1,0,0:0:0:0:
256,192,175710,1,8,0:0:0:0:
256,192,175821,1,0,0:0:0:0:
256,192,175932,1,8,0:0:0:0:
256,192,176043,1,0,0:0:0:0:
256,192,176154,1,8,0:0:0:0:
256,192,176266,1,8,0:0:0:0:
256,192,176377,1,0,0:0:0:0:
256,192,176488,1,8,0:0:0:0:
256,192,176599,1,0,0:0:0:0:
256,192,176710,1,8,0:0:0:0:
256,192,176821,1,8,0:0:0:0:
256,192,176932,1,0,0:0:0:0:
256,192,177043,1,8,0:0:0:0:
256,192,177154,1,0,0:0:0:0:
256,192,177266,1,8,0:0:0:0:
256,192,177377,1,8,0:0:0:0:
256,192,177488,1,0,0:0:0:0:
256,192,177599,1,8,0:0:0:0:
256,192,177710,1,0,0:0:0:0:
256,192,177821,1,0,0:0:0:0:
256,192,177932,1,8,0:0:0:0:
256,192,178043,1,0,0:0:0:0:
256,192,178154,1,8,0:0:0:0:
256,192,178266,1,8,0:0:0:0:
256,96,179043,1,12,0:0:0:0:
256,96,179266,1,4,0:0:0:0:
256,192,179488,1,8,0:0:0:0:
256,192,179711,1,8,0:0:0:0:
256,192,179822,1,8,0:0:0:0:
256,192,179933,1,0,0:0:0:0:
256,192,180044,1,8,0:0:0:0:
256,192,180155,1,0,0:0:0:0:
256,192,180266,1,8,0:0:0:0:
256,192,180322,1,8,0:0:0:0:
256,192,180377,1,0,0:0:0:0:
256,192,180488,1,0,0:0:0:0:
256,192,180600,1,8,0:0:0:0:
256,192,180711,1,0,0:0:0:0:
256,192,180822,1,8,0:0:0:0:
256,192,180877,1,8,0:0:0:0:
256,192,180933,1,8,0:0:0:0:
256,192,181155,1,0,0:0:0:0:
256,192,181266,1,8,0:0:0:0:
256,192,181377,1,0,0:0:0:0:
256,192,181488,1,8,0:0:0:0:
256,192,181544,1,8,0:0:0:0:
256,192,181600,1,8,0:0:0:0:
256,192,181711,1,0,0:0:0:0:
256,192,181822,1,8,0:0:0:0:
256,192,181933,1,0,0:0:0:0:
256,192,181988,1,0,0:0:0:0:
256,192,182044,1,0,0:0:0:0:
256,192,182155,1,8,0:0:0:0:
256,192,182266,1,0,0:0:0:0:
256,192,182377,1,8,0:0:0:0:
256,192,182433,1,8,0:0:0:0:
256,192,182488,1,8,0:0:0:0:
256,192,182600,1,0,0:0:0:0:
256,192,182711,1,0,0:0:0:0:
256,192,182822,1,8,0:0:0:0:
256,192,183044,1,8,0:0:0:0:
256,192,183266,1,0,0:0:0:0:
256,192,183377,1,8,0:0:0:0:
256,192,183488,1,0,0:0:0:0:
256,192,183600,1,8,0:0:0:0:
256,192,183711,1,0,0:0:0:0:
256,192,183822,1,8,0:0:0:0:
256,192,183877,1,8,0:0:0:0:
256,192,183933,1,8,0:0:0:0:
256,192,184044,1,0,0:0:0:0:
256,192,184155,1,8,0:0:0:0:
256,192,184266,1,0,0:0:0:0:
256,192,184377,1,0,0:0:0:0:
256,192,184432,1,0,0:0:0:0:
256,192,184488,1,8,0:0:0:0:
256,192,184711,1,8,0:0:0:0:
256,192,184822,1,8,0:0:0:0:
256,192,184933,1,0,0:0:0:0:
256,192,185044,1,8,0:0:0:0:
256,192,185155,1,0,0:0:0:0:
256,192,185266,1,0,0:0:0:0:
256,192,185377,1,8,0:0:0:0:
256,192,185488,1,0,0:0:0:0:
256,192,185544,1,0,0:0:0:0:
256,192,185600,1,8,0:0:0:0:
256,192,185711,1,8,0:0:0:0:
256,192,185822,1,0,0:0:0:0:
256,192,185933,1,8,0:0:0:0:
256,192,185988,1,8,0:0:0:0:
256,192,186044,1,8,0:0:0:0:
256,192,186155,1,0,0:0:0:0:
256,96,186377,1,12,0:0:0:0:
256,192,186599,1,0,0:0:0:0:
256,192,186822,1,8,0:0:0:0:
256,192,186933,1,8,0:0:0:0:
256,192,187044,1,0,0:0:0:0:
256,192,187155,1,8,0:0:0:0:
256,192,187266,1,0,0:0:0:0:
256,192,187377,1,8,0:0:0:0:
256,192,187433,1,8,0:0:0:0:
256,192,187488,1,0,0:0:0:0:
256,192,187599,1,0,0:0:0:0:
256,192,187711,1,8,0:0:0:0:
256,192,187822,1,0,0:0:0:0:
256,192,187933,1,8,0:0:0:0:
256,192,187988,1,8,0:0:0:0:
256,192,188044,1,8,0:0:0:0:
256,192,188266,1,0,0:0:0:0:
256,192,188377,1,8,0:0:0:0:
256,192,188488,1,0,0:0:0:0:
256,192,188599,1,8,0:0:0:0:
256,192,188655,1,8,0:0:0:0:
256,192,188711,1,8,0:0:0:0:
256,192,188822,1,0,0:0:0:0:
256,192,188933,1,8,0:0:0:0:
256,192,189044,1,0,0:0:0:0:
256,192,189099,1,0,0:0:0:0:
256,192,189155,1,8,0:0:0:0:
256,192,189266,1,0,0:0:0:0:
256,192,189377,1,0,0:0:0:0:
256,192,189488,1,8,0:0:0:0:
256,192,189544,1,8,0:0:0:0:
256,192,189599,1,8,0:0:0:0:
256,192,189711,1,0,0:0:0:0:
256,192,189766,1,0,0:0:0:0:
256,192,189822,1,0,0:0:0:0:
256,192,189933,1,8,0:0:0:0:
256,192,190155,1,8,0:0:0:0:
256,192,190377,1,0,0:0:0:0:
256,192,190488,1,8,0:0:0:0:
256,192,190599,1,0,0:0:0:0:
256,192,190711,1,8,0:0:0:0:
256,192,190822,1,0,0:0:0:0:
256,192,190933,1,8,0:0:0:0:
256,192,190988,1,8,0:0:0:0:
256,192,191044,1,8,0:0:0:0:
256,192,191155,1,0,0:0:0:0:
256,192,191266,1,8,0:0:0:0:
256,192,191377,1,0,0:0:0:0:
256,192,191488,1,0,0:0:0:0:
256,192,191543,1,0,0:0:0:0:
256,192,191599,1,8,0:0:0:0:
256,192,191822,1,8,0:0:0:0:
256,192,191933,1,8,0:0:0:0:
256,192,192044,1,0,0:0:0:0:
256,192,192155,1,8,0:0:0:0:
256,192,192266,1,0,0:0:0:0:
256,192,192377,1,0,0:0:0:0:
256,192,192488,1,8,0:0:0:0:
256,192,192599,1,0,0:0:0:0:
256,192,192654,1,0,0:0:0:0:
256,192,192710,5,8,0:0:0:0:
256,192,192821,1,8,0:0:0:0:
256,192,192932,1,0,0:0:0:0:
256,96,193488,1,12,0:0:0:0:
256,192,193710,1,0,0:0:0:0:
256,192,193933,1,8,0:0:0:0:
256,192,194044,1,8,0:0:0:0:
256,192,194155,1,0,0:0:0:0:
256,192,194266,1,8,0:0:0:0:
256,192,194377,1,0,0:0:0:0:
256,192,194488,1,8,0:0:0:0:
256,192,194544,1,8,0:0:0:0:
256,192,194599,1,0,0:0:0:0:
256,192,194654,1,0,0:0:0:0:
256,192,194710,1,8,0:0:0:0:
256,192,194822,1,0,0:0:0:0:
256,192,194933,1,0,0:0:0:0:
256,192,195044,1,8,0:0:0:0:
256,192,195099,1,8,0:0:0:0:
256,192,195155,1,8,0:0:0:0:
256,192,195377,1,0,0:0:0:0:
256,192,195488,1,8,0:0:0:0:
256,192,195599,1,0,0:0:0:0:
256,192,195710,1,8,0:0:0:0:
256,192,195766,1,8,0:0:0:0:
256,192,195822,1,8,0:0:0:0:
256,192,195933,1,0,0:0:0:0:
256,192,196044,1,8,0:0:0:0:
256,192,196155,1,0,0:0:0:0:
256,192,196210,1,0,0:0:0:0:
256,192,196266,1,0,0:0:0:0:
256,192,196377,1,8,0:0:0:0:
256,192,196488,1,0,0:0:0:0:
256,192,196599,1,8,0:0:0:0:
256,192,196655,1,8,0:0:0:0:
256,192,196710,1,8,0:0:0:0:
256,192,196822,1,0,0:0:0:0:
256,192,196877,1,0,0:0:0:0:
256,192,196933,1,0,0:0:0:0:
256,192,197044,1,8,0:0:0:0:
256,192,197266,1,8,0:0:0:0:
256,192,197488,1,0,0:0:0:0:
256,192,197599,1,8,0:0:0:0:
256,192,197710,1,0,0:0:0:0:
256,192,197822,1,8,0:0:0:0:
256,192,197933,1,0,0:0:0:0:
256,192,198044,1,8,0:0:0:0:
256,192,198099,1,8,0:0:0:0:
256,192,198155,1,8,0:0:0:0:
256,192,198266,1,0,0:0:0:0:
256,192,198377,1,8,0:0:0:0:
256,192,198432,1,8,0:0:0:0:
256,192,198488,1,0,0:0:0:0:
256,192,198599,1,0,0:0:0:0:
256,192,198710,1,8,0:0:0:0:
256,192,198933,1,8,0:0:0:0:
256,192,199044,1,8,0:0:0:0:
256,192,199155,1,0,0:0:0:0:
256,192,199266,1,8,0:0:0:0:
256,192,199377,1,0,0:0:0:0:
256,192,199432,1,0,0:0:0:0:
256,192,199488,1,0,0:0:0:0:
256,192,199599,1,8,0:0:0:0:
256,192,199710,1,0,0:0:0:0:
256,192,199766,1,0,0:0:0:0:
256,192,199822,1,8,0:0:0:0:
256,192,199933,1,8,0:0:0:0:
256,192,200044,1,0,0:0:0:0:
256,192,200155,1,8,0:0:0:0:
256,192,200210,1,8,0:0:0:0:
256,192,200266,5,8,0:0:0:0:
256,192,200321,1,8,0:0:0:0:
256,192,200377,1,0,0:0:0:0:
256,192,200599,1,8,0:0:0:0:
256,192,200821,5,8,0:0:0:0:
256,192,200932,1,0,0:0:0:0:
256,192,201043,1,8,0:0:0:0:
256,192,201154,1,8,0:0:0:0:
256,192,201266,1,0,0:0:0:0:
256,192,201377,1,8,0:0:0:0:
256,192,201488,1,0,0:0:0:0:
256,192,201599,1,8,0:0:0:0:
256,192,201654,1,8,0:0:0:0:
256,192,201710,1,0,0:0:0:0:
256,192,201821,1,8,0:0:0:0:
256,192,201932,1,0,0:0:0:0:
256,192,202043,1,0,0:0:0:0:
256,192,202154,1,8,0:0:0:0:
256,192,202210,1,8,0:0:0:0:
256,192,202266,1,8,0:0:0:0:
256,192,202321,1,8,0:0:0:0:
256,192,202377,1,0,0:0:0:0:
256,192,202488,1,0,0:0:0:0:
256,192,202599,1,8,0:0:0:0:
256,192,202710,1,0,0:0:0:0:
256,192,202766,1,0,0:0:0:0:
256,192,202821,1,8,0:0:0:0:
256,192,202932,1,0,0:0:0:0:
256,192,203043,1,0,0:0:0:0:
256,192,203154,1,8,0:0:0:0:
256,192,203266,1,0,0:0:0:0:
256,192,203377,1,8,0:0:0:0:
256,192,203432,1,8,0:0:0:0:
256,192,203488,1,8,0:0:0:0:
256,192,203599,1,0,0:0:0:0:
256,192,203710,1,8,0:0:0:0:
256,192,203766,1,8,0:0:0:0:
256,192,203821,1,0,0:0:0:0:
256,192,203877,1,0,0:0:0:0:
256,192,203932,1,8,0:0:0:0:
256,192,204043,1,0,0:0:0:0:
256,192,204154,1,8,0:0:0:0:
256,192,204377,1,8,0:0:0:0:
256,192,204488,1,8,0:0:0:0:
256,192,204599,1,0,0:0:0:0:
256,192,204654,1,0,0:0:0:0:
256,192,204710,1,8,0:0:0:0:
256,192,204821,1,0,0:0:0:0:
256,192,204932,1,8,0:0:0:0:
256,192,205043,1,0,0:0:0:0:
256,192,205154,1,8,0:0:0:0:
256,192,205210,1,8,0:0:0:0:
256,192,205266,1,0,0:0:0:0:
256,192,205377,1,8,0:0:0:0:
256,192,205488,1,0,0:0:0:0:
256,192,205599,1,8,0:0:0:0:
256,192,205654,1,8,0:0:0:0:
256,192,205710,1,0,0:0:0:0:
256,192,205766,1,0,0:0:0:0:
256,192,205821,1,8,0:0:0:0:
256,192,205932,1,0,0:0:0:0:
256,192,205988,12,0,206821,0:0:0:0:
256,96,207710,5,4,0:0:0:0:
