osu file format v14

[General]
AudioFilename: audio.mp3
AudioLeadIn: 0
PreviewTime: 178377
Countdown: 0
SampleSet: Normal
StackLeniency: 0.7
Mode: 1
LetterboxInBreaks: 0
WidescreenStoryboard: 1

[Editor]
DistanceSpacing: 0.8
BeatDivisor: 4
GridSize: 32
TimelineZoom: 1.100001

[Metadata]
Title:Cartoon Candy
TitleUnicode:Cartoon Candy
Artist:Kobaryo
ArtistUnicode:Kobaryo
Creator:Hivie
Version:Kantan
Source:
Tags:radar fa featured artist osu! electronic instrumental speedcore candy speed pops psycho filth records mappers' guild mpg mg pfsa002 chiptune 8-bit 8bit Gabba Gabber
BeatmapID:3067851
BeatmapSetID:1496486

[Difficulty]
HPDrainRate:8
CircleSize:2
OverallDifficulty:3
ApproachRate:9
SliderMultiplier:0.8
SliderTickRate:1

[Events]
//Background and Video events
0,0,"bg.jpg",0,0
//Break Periods
2,39741,45163
2,165932,171554
//Storyboard Layer 0 (Background)
//Storyboard Layer 1 (Fail)
//Storyboard Layer 2 (Pass)
//Storyboard Layer 3 (Foreground)
//Storyboard Layer 4 (Overlay)
//Storyboard Sound Samples

[TimingPoints]
430,222.222222222222,4,1,0,100,1,0
14624,-100,4,1,0,100,0,0
39652,-100,4,1,0,70,0,0
46541,-100,4,1,0,100,0,0
82207,-100,4,1,0,100,0,1
95096,-100,4,1,0,100,0,0
107096,226.415094339622,4,1,0,100,1,0
107096,-98.1546917942678,4,1,0,100,0,0
107548,235.294117647059,4,1,0,100,1,8
107548,-94.4465432565168,4,1,0,100,0,0
107783,260.869565217392,4,1,0,100,1,8
108043,272.727272727273,4,1,0,100,1,0
108043,-81.4814814814815,4,1,0,100,0,0
108588,285.714285714286,4,1,0,100,1,8
108873,292.682926829269,4,1,0,100,1,8
109165,307.692307692309,4,1,0,100,1,0
109165,-72.2230247002744,4,1,0,100,0,0
109472,348.837209302328,4,1,0,100,1,8
109820,384.615384615387,4,1,0,100,1,8
110204,425.531914893621,4,1,0,100,1,8
110629,480.000000000005,4,1,0,100,1,0
110629,-46.2962962962963,4,1,0,100,0,0
111109,446.096654275098,4,1,0,100,1,8
111781,300,4,1,0,100,1,0
111781,-74.0740740740741,4,1,0,100,0,0
132178,222.222222222222,4,1,0,100,1,0
132289,-100,4,1,0,70,0,0
140155,222.222222222222,4,1,0,100,1,0
140155,-100,4,1,0,100,0,0
165904,-100,4,1,0,70,0,0
172127,-100,4,1,0,100,0,0
179266,-100,4,1,0,100,0,1
193043,-100,4,1,0,100,0,0
193488,-100,4,1,0,100,0,1
206821,-100,4,1,0,100,0,0
207710,-100,4,1,0,100,0,1
208154,-100,4,1,0,100,0,0

[HitObjects]
256,192,14652,5,0,0:0:0:0:
256,192,15541,1,0,0:0:0:0:
256,192,16429,1,0,0:0:0:0:
256,192,16874,1,0,0:0:0:0:
256,192,17318,1,0,0:0:0:0:
256,192,18207,1,8,0:0:0:0:
256,192,19096,1,0,0:0:0:0:
256,192,19985,1,8,0:0:0:0:
256,192,20429,1,8,0:0:0:0:
256,192,20874,1,0,0:0:0:0:
256,192,21763,1,0,0:0:0:0:
256,192,23096,1,8,0:0:0:0:
256,192,23541,1,0,0:0:0:0:
256,192,23985,1,0,0:0:0:0:
256,192,24429,1,0,0:0:0:0:
256,192,25318,1,8,0:0:0:0:
256,192,26207,1,0,0:0:0:0:
256,192,26652,1,8,0:0:0:0:
256,192,27096,1,0,0:0:0:0:
256,192,27541,1,8,0:0:0:0:
256,192,27985,1,8,0:0:0:0:
256,192,28874,1,0,0:0:0:0:
256,192,30207,1,8,0:0:0:0:
256,192,30652,1,0,0:0:0:0:
256,192,31096,1,0,0:0:0:0:
256,192,31541,1,0,0:0:0:0:
256,192,32429,1,8,0:0:0:0:
256,192,33318,1,0,0:0:0:0:
256,192,33763,1,8,0:0:0:0:
256,192,34207,1,0,0:0:0:0:
256,192,34652,1,0,0:0:0:0:
256,192,35096,1,8,0:0:0:0:
256,192,35985,1,0,0:0:0:0:
256,192,36429,1,8,0:0:0:0:
256,192,36874,1,0,0:0:0:0:
256,192,37318,1,8,0:0:0:0:
256,192,37763,1,0,0:0:0:0:
256,192,38652,2,0,L|256:243,6,40
256,96,39541,1,4,0:0:0:0:
256,192,45763,12,0,46429,0:0:0:0:
256,192,46652,5,4,0:0:0:0:
256,192,47985,1,8,0:0:0:0:
256,192,48429,1,0,0:0:0:0:
256,192,49318,1,0,0:0:0:0:
256,192,50207,1,8,0:0:0:0:
256,192,50652,1,8,0:0:0:0:
256,192,51541,1,8,0:0:0:0:
256,192,51985,1,0,0:0:0:0:
256,192,52429,1,0,0:0:0:0:
256,192,53318,1,8,0:0:0:0:
256,96,53763,1,4,0:0:0:0:
256,192,54652,1,0,0:0:0:0:
256,192,55541,1,8,0:0:0:0:
256,192,55985,1,8,0:0:0:0:
256,192,56429,1,0,0:0:0:0:
256,192,57318,1,8,0:0:0:0:
256,192,58207,1,8,0:0:0:0:
256,192,59096,1,0,0:0:0:0:
256,192,59541,1,0,0:0:0:0:
256,192,59985,1,8,0:0:0:0:
256,192,60429,1,0,0:0:0:0:
256,192,60874,1,8,0:0:0:0:
256,192,61763,1,0,0:0:0:0:
256,192,62652,1,8,0:0:0:0:
256,192,63096,1,0,0:0:0:0:
256,192,63541,1,8,0:0:0:0:
256,192,64429,1,8,0:0:0:0:
256,192,65318,1,0,0:0:0:0:
256,192,66207,1,8,0:0:0:0:
256,192,66652,1,8,0:0:0:0:
256,192,67096,1,0,0:0:0:0:
256,192,67985,5,8,0:0:0:0:
256,192,69318,1,0,0:0:0:0:
256,192,69763,1,8,0:0:0:0:
256,192,70652,1,8,0:0:0:0:
256,192,71541,1,8,0:0:0:0:
256,192,72429,1,0,0:0:0:0:
256,192,72874,1,0,0:0:0:0:
256,192,73318,1,8,0:0:0:0:
256,192,74207,1,8,0:0:0:0:
256,96,75096,1,4,0:0:0:0:
256,192,76429,1,0,0:0:0:0:
256,192,76874,1,8,0:0:0:0:
256,192,77763,1,8,0:0:0:0:
256,192,78207,1,8,0:0:0:0:
256,192,78652,1,0,0:0:0:0:
256,192,79541,1,8,0:0:0:0:
256,192,79985,1,0,0:0:0:0:
256,192,80429,1,8,0:0:0:0:
256,192,80874,1,0,0:0:0:0:
256,96,82207,1,4,0:0:0:0:
256,192,83096,1,0,0:0:0:0:
256,192,83541,1,8,0:0:0:0:
256,192,83985,1,8,0:0:0:0:
256,192,84429,1,0,0:0:0:0:
256,192,84874,1,8,0:0:0:0:
256,192,85763,1,8,0:0:0:0:
256,192,86652,1,0,0:0:0:0:
256,192,87096,1,8,0:0:0:0:
256,192,87541,1,8,0:0:0:0:
256,192,88429,1,0,0:0:0:0:
256,192,89318,1,8,0:0:0:0:
256,192,90207,1,0,0:0:0:0:
256,192,90652,1,8,0:0:0:0:
256,192,91096,1,0,0:0:0:0:
256,192,91541,1,0,0:0:0:0:
256,192,91985,1,8,0:0:0:0:
256,192,92874,1,0,0:0:0:0:
256,192,93318,1,0,0:0:0:0:
256,192,93763,1,8,0:0:0:0:
256,192,94207,1,8,0:0:0:0:
256,192,94652,1,0,0:0:0:0:
256,192,96429,5,4,0:0:0:0:
256,192,96874,12,0,99540,0:0:0:0:
256,192,99985,5,4,0:0:0:0:
256,192,100429,12,0,103096,0:0:0:0:
256,192,103541,5,4,0:0:0:0:
256,192,103985,12,0,106651,0:0:0:0:
256,192,107096,5,4,0:0:0:0:
256,192,107548,12,0,111109,0:0:0:0:
256,192,111781,5,0,0:0:0:0:
256,192,112381,1,8,0:0:0:0:
256,192,112981,1,4,0:0:0:0:
256,192,114181,1,0,0:0:0:0:
256,192,114781,1,8,0:0:0:0:
256,192,115381,1,0,0:0:0:0:
256,192,115981,1,8,0:0:0:0:
256,192,116581,1,8,0:0:0:0:
256,192,117781,1,0,0:0:0:0:
256,192,118381,1,8,0:0:0:0:
256,192,118981,1,0,0:0:0:0:
256,192,119281,1,0,0:0:0:0:
256,192,119581,1,8,0:0:0:0:
256,192,120181,1,0,0:0:0:0:
256,192,120781,1,8,0:0:0:0:
256,192,121081,1,8,0:0:0:0:
256,192,121381,1,0,0:0:0:0:
256,192,121681,1,0,0:0:0:0:
256,192,121981,1,8,0:0:0:0:
256,192,122581,1,4,0:0:0:0:
256,192,123781,1,0,0:0:0:0:
256,192,124381,1,8,0:0:0:0:
256,192,124981,1,0,0:0:0:0:
256,192,125581,1,8,0:0:0:0:
256,192,126181,1,0,0:0:0:0:
256,192,127381,1,0,0:0:0:0:
256,192,127981,1,8,0:0:0:0:
256,192,128581,1,0,0:0:0:0:
256,192,128881,1,0,0:0:0:0:
256,192,129181,1,8,0:0:0:0:
256,192,129781,1,0,0:0:0:0:
256,192,130381,1,8,0:0:0:0:
256,192,130681,1,8,0:0:0:0:
256,192,130981,1,0,0:0:0:0:
256,192,131281,1,0,0:0:0:0:
256,192,131581,5,8,0:0:0:0:
256,192,132178,1,4,0:0:0:0:
256,192,132622,12,0,139733,0:0:0:0:
256,192,140155,5,0,0:0:0:0:
256,192,141043,1,0,0:0:0:0:
256,192,141932,1,0,0:0:0:0:
256,192,142377,1,0,0:0:0:0:
256,192,142821,1,0,0:0:0:0:
256,192,143710,1,8,0:0:0:0:
256,192,144599,1,0,0:0:0:0:
256,192,145488,1,8,0:0:0:0:
256,192,145932,1,8,0:0:0:0:
256,192,146377,1,0,0:0:0:0:
256,192,147266,1,0,0:0:0:0:
256,192,148599,1,8,0:0:0:0:
256,192,149043,1,0,0:0:0:0:
256,192,149488,1,0,0:0:0:0:
256,192,149932,1,0,0:0:0:0:
256,192,150821,1,8,0:0:0:0:
256,192,151710,1,0,0:0:0:0:
256,192,152155,1,8,0:0:0:0:
256,192,152599,1,0,0:0:0:0:
256,192,153043,1,8,0:0:0:0:
256,192,153488,1,8,0:0:0:0:
256,192,154377,1,0,0:0:0:0:
256,192,155710,1,8,0:0:0:0:
256,192,156154,1,0,0:0:0:0:
256,192,156599,1,0,0:0:0:0:
256,192,157043,1,0,0:0:0:0:
256,192,157932,1,8,0:0:0:0:
256,192,158821,1,0,0:0:0:0:
256,192,159266,1,8,0:0:0:0:
256,192,159710,1,0,0:0:0:0:
256,192,160154,1,0,0:0:0:0:
256,192,160599,1,8,0:0:0:0:
256,192,161488,1,0,0:0:0:0:
256,192,161932,1,8,0:0:0:0:
256,192,162377,1,8,0:0:0:0:
256,192,162821,1,8,0:0:0:0:
256,192,163266,1,0,0:0:0:0:
256,192,164154,2,0,L|256:248,6,40
256,96,165043,1,4,0:0:0:0:
256,192,172154,5,8,0:0:0:0:
256,192,173043,1,0,0:0:0:0:
256,192,173932,1,8,0:0:0:0:
256,192,174821,1,8,0:0:0:0:
256,192,175266,1,8,0:0:0:0:
256,192,175710,1,0,0:0:0:0:
256,192,176599,1,8,0:0:0:0:
256,192,177043,1,0,0:0:0:0:
256,192,177488,1,8,0:0:0:0:
256,192,177932,1,0,0:0:0:0:
256,96,179266,5,4,0:0:0:0:
256,192,180154,1,0,0:0:0:0:
256,192,180599,1,8,0:0:0:0:
256,192,181043,1,8,0:0:0:0:
256,192,181488,1,0,0:0:0:0:
256,192,181932,1,8,0:0:0:0:
256,192,182821,1,8,0:0:0:0:
256,192,183710,1,0,0:0:0:0:
256,192,184154,1,8,0:0:0:0:
256,192,184599,1,8,0:0:0:0:
256,192,185488,1,0,0:0:0:0:
256,192,186377,1,8,0:0:0:0:
256,192,187266,1,8,0:0:0:0:
256,192,187710,1,0,0:0:0:0:
256,192,188154,1,8,0:0:0:0:
256,192,188599,1,0,0:0:0:0:
256,192,189043,1,8,0:0:0:0:
256,192,189932,1,8,0:0:0:0:
256,192,190821,1,0,0:0:0:0:
256,192,191266,1,0,0:0:0:0:
256,192,191710,1,8,0:0:0:0:
256,192,192599,1,0,0:0:0:0:
256,96,193488,1,12,0:0:0:0:
256,192,194377,1,8,0:0:0:0:
256,192,194821,1,0,0:0:0:0:
256,192,195266,1,8,0:0:0:0:
256,192,195710,1,8,0:0:0:0:
256,192,196154,1,0,0:0:0:0:
256,192,197043,1,8,0:0:0:0:
256,192,197932,1,0,0:0:0:0:
256,192,198821,1,8,0:0:0:0:
256,192,199266,1,0,0:0:0:0:
256,192,199710,1,8,0:0:0:0:
256,192,200599,5,0,0:0:0:0:
256,192,201488,1,8,0:0:0:0:
256,192,201932,1,8,0:0:0:0:
256,192,202377,1,0,0:0:0:0:
256,192,202821,1,0,0:0:0:0:
256,192,203266,1,8,0:0:0:0:
256,192,204154,1,0,0:0:0:0:
256,192,204599,1,0,0:0:0:0:
256,192,205043,1,8,0:0:0:0:
256,192,205488,1,8,0:0:0:0:
256,192,205932,1,0,0:0:0:0:
256,96,207710,5,4,0:0:0:0:
